<?xml version="1.0" standalone="no"?>
<!DOCTYPE svg PUBLIC "-//W3C//DTD SVG 1.1//EN" "http://www.w3.org/Graphics/SVG/1.1/DTD/svg11.dtd" >
<svg xmlns="http://www.w3.org/2000/svg" xmlns:xlink="http://www.w3.org/1999/xlink" version="1.1">
<metadata>
Created by FontForge 20161003 at Fri Jun 16 06:49:11 2017
 By www-data
Copyright (c) 2005 by Ryoichi Tsunekawa. All rights reserved.
</metadata>
<defs>
<font id="BEBAS" horiz-adv-x="1060" >
  <font-face 
    font-family="BEBAS"
    font-weight="400"
    font-stretch="normal"
    units-per-em="2048"
    panose-1="0 0 0 0 0 0 0 0 0 0"
    ascent="1638"
    descent="-410"
    x-height="1824"
    cap-height="1824"
    bbox="95 -305 1953 2401"
    underline-thickness="73"
    underline-position="-217"
    unicode-range="U+000D-00A3"
  />
<missing-glyph horiz-adv-x="1024" 
d="M128 0v1823h768v-1823h-768zM256 128h512v1567h-512v-1567z" />
    <glyph glyph-name=".notdef" horiz-adv-x="1024" 
d="M128 0v1823h768v-1823h-768zM256 128h512v1567h-512v-1567z" />
    <glyph glyph-name=".null" horiz-adv-x="0" 
 />
    <glyph glyph-name="nonmarkingreturn" unicode="&#xd;" horiz-adv-x="189" 
 />
    <glyph glyph-name="NULL" horiz-adv-x="0" 
 />
    <glyph glyph-name="NULL" horiz-adv-x="0" 
 />
    <glyph glyph-name="space" unicode=" " horiz-adv-x="189" 
 />
    <glyph glyph-name="exclam" unicode="!" horiz-adv-x="464" 
d="M95 804v1020h274v-1020l-20 -352h-234zM95 0v275h274v-275h-274z" />
    <glyph glyph-name="quotedbl" unicode="&#x22;" horiz-adv-x="769" 
d="M137 1408l-42 416h254l-42 -416h-170zM463 1408l-43 416h255l-42 -416h-170z" />
    <glyph glyph-name="numbersign" unicode="#" horiz-adv-x="1679" 
d="M1255 1055l-58 -347h284l-42 -276h-287l-71 -432h-275l71 432h-237l-71 -432h-275l71 432h-270l42 276h273l58 347h-270l42 276h273l82 493h275l-82 -493h237l82 493h275l-82 -493h284l-42 -276h-287zM979 1055h-236l-56 -347h235z" />
    <glyph glyph-name="dollar" unicode="$" horiz-adv-x="1100" 
d="M1004 467q5 -236 -133 -367q-83 -77 -205 -99v-128h-233v134q-164 42 -253 195q-75 131 -85 306l263 19q17 -162 83 -230q49 -54 113 -51q90 3 144 89q28 42 28 120q0 112 -102 226q-83 77 -246 231q-126 121 -183 221q-71 125 -71 272q0 141 67 258q81 144 242 183v118
h233v-118q111 -25 183 -93q128 -120 143 -313l-265 -48q-11 111 -64 176q-35 44 -107 44q-76 0 -115 -67q-32 -54 -32 -134q0 -125 107 -256q40 -47 121 -115q96 -79 128 -112q102 -105 156 -201q80 -142 83 -260z" />
    <glyph glyph-name="percent" unicode="%" horiz-adv-x="1455" 
d="M551 1097q0 -93 -67.5 -159.5t-160.5 -66.5q-95 0 -161.5 66.5t-66.5 159.5v521q0 95 66.5 162t161.5 67q94 0 161 -68t67 -161v-521zM236 1100q0 -35 24 -59t59 -24q34 0 58 24t24 59v521q0 35 -24 59t-58 24q-35 0 -59 -24t-24 -59v-521zM1133 952q95 0 161 -67.5
t66 -161.5v-520q0 -95 -67 -160.5t-160 -65.5q-94 0 -161 66.5t-67 159.5v520q0 95 67 162t161 67zM1212 726q0 35 -24 59t-59 24t-59 -24t-24 -59v-520q0 -35 24 -59t59 -24t59 24t24 59v520zM343 0h-161l931 1824h160z" />
    <glyph glyph-name="ampersand" unicode="&#x26;" horiz-adv-x="1268" 
d="M1167 822q-66 -283 -178 -477q106 -95 185 -95v-250q-160 0 -330 145q-163 -168 -349 -168q-216 0 -329 173q-71 109 -71 249q0 136 68 285q12 23 77 129q36 57 73 108l-57 127q-41 87 -55 124q-29 72 -41 130q-13 63 -13 128q0 118 54 217q55 104 160 156q83 44 183 44
q112 0 205 -54.5t143 -150.5q39 -77 39 -167q0 -164 -115 -307l-60 -76q-81 -103 -149 -193q91 -184 206 -345q68 150 105 321zM400 1431q0 -83 84 -278q18 22 35 43l37 47l58 74q64 82 64 157q0 52 -15 80q-36 88 -119 88q-71 0 -112 -74q-32 -60 -32 -137zM495 223
q82 0 176 102q-112 140 -226 341q-26 -41 -52 -87q-44 -97 -44 -180q0 -74 34 -121q39 -55 112 -55z" />
    <glyph glyph-name="quotesingle" unicode="'" horiz-adv-x="444" 
d="M95 1823h254l-42 -416h-170z" />
    <glyph glyph-name="parenleft" unicode="(" horiz-adv-x="735" 
d="M636 1935q-79 -163 -140 -333q-96 -269 -127 -492q-11 -87 -11 -169q0 -266 141 -685q62 -183 141 -358l-177 -90q-104 169 -185 359q-183 427 -183 774q0 275 114 584q30 77 69 161q83 180 185 330z" />
    <glyph glyph-name="parenright" unicode=")" horiz-adv-x="733" 
d="M272 2015q100 -150 183 -330q184 -399 184 -745q0 -348 -184 -774q-81 -191 -183 -358l-177 90q80 178 141 357q96 280 129 515q12 88 12 170q0 272 -140 660q-61 170 -138 333z" />
    <glyph glyph-name="asterisk" unicode="*" horiz-adv-x="911" 
d="M816 1477l-223 -39l152 -158l-189 -139l-105 199l-106 -199l-192 139l161 160l-219 37l75 219l199 -97l-32 225h232l-32 -228l208 100z" />
    <glyph glyph-name="plus" unicode="+" horiz-adv-x="1126" 
d="M665 993h366v-203h-366v-367h-204v367h-366v203h366v367h204v-367z" />
    <glyph glyph-name="comma" unicode="," horiz-adv-x="465" 
d="M95 0v273h276v-273l-100 -209h-117l66 209h-125z" />
    <glyph glyph-name="hyphen" unicode="-" horiz-adv-x="1004" 
d="M95 1049h814v-277h-814v277z" />
    <glyph glyph-name="hyphen" unicode="&#x2010;" horiz-adv-x="1004" 
d="M95 1049h814v-277h-814v277z" />
    <glyph glyph-name="period" unicode="." horiz-adv-x="464" 
d="M95 273h274v-274h-274v274z" />
    <glyph glyph-name="slash" unicode="/" horiz-adv-x="1174" 
d="M855 1909h224l-760 -1994h-224z" />
    <glyph glyph-name="zero" unicode="0" 
d="M966 412q0 -182 -128 -308.5t-307 -126.5q-182 0 -309 127.5t-127 307.5v999q0 182 128 309t308 127q182 0 308.5 -128t126.5 -308v-999zM681 1417q0 65 -46.5 111.5t-112.5 46.5q-65 0 -111 -46.5t-46 -111.5v-1001q0 -65 46 -111.5t111 -46.5q66 0 112.5 46.5
t46.5 111.5v1001z" />
    <glyph glyph-name="one" unicode="1" horiz-adv-x="698" 
d="M327 0v1404h-232v192q98 11 187.5 74.5t129.5 153.5h192v-1824h-277z" />
    <glyph glyph-name="two" unicode="2" horiz-adv-x="1085" 
d="M99 1331q0 259 140 396q120 120 317 120q180 0 307.5 -135t127.5 -316q0 -208 -83 -381q-45 -96 -211 -330q-45 -64 -134 -199l-50 -75q-48 -73 -72 -115q-12 -21 -12 -25l540 -1v-270h-874v252q0 9 61 100q27 43 62 94l71 104q63 86 197 275q126 177 189 321
q51 118 51 242q0 83 -47 141q-51 61 -131 61q-115 0 -163 -133q-16 -43 -16 -104v-70h-270v48z" />
    <glyph glyph-name="three" unicode="3" horiz-adv-x="1081" 
d="M522 258q189 0 189 176v109q0 281 -294 281v236q159 0 235 89q69 80 69 224v44q0 179 -157 179q-87 0 -128 -67q-30 -51 -30 -133v-48h-269v43q0 194 99 317q112 139 315 139q194 0 310 -131q105 -117 105 -293v-80q0 -170 -102 -293q-44 -53 -102 -89q122 -68 189 -208
q35 -71 35 -173v-146q0 -202 -138 -332q-132 -125 -319 -125q-181 0 -307.5 128t-126.5 307v45l261 20l6 -64q6 -68 49 -111.5t111 -43.5z" />
    <glyph glyph-name="four" unicode="4" horiz-adv-x="1126" 
d="M95 671l485 1153h275v-1153h176v-277h-176v-394h-275v394h-485v277zM580 671v567l-227 -567h227z" />
    <glyph glyph-name="five" unicode="5" horiz-adv-x="1040" 
d="M399 1548v-396q40 58 114 90q40 16 92 16q180 0 266 -127q74 -109 74 -308v-390q0 -202 -128 -331q-122 -125 -308 -125q-180 0 -300 131q-114 125 -114 305v44l263 20l6 -63q10 -109 88 -145q24 -12 50 -12q169 0 169 176v444q0 80 -59 132q-27 25 -77 25
q-72 0 -107 -57q-29 -49 -29 -104v-50h-277v1001h805v-276h-528z" />
    <glyph glyph-name="six" unicode="6" horiz-adv-x="1018" 
d="M637 1372v45q0 67 -35.5 112.5t-101.5 45.5q-65 0 -100.5 -45.5t-35.5 -112.5v-368q94 84 208 84q181 0 272 -126q80 -111 80 -307v-313h-2q-9 -174 -126 -292t-287 -118q-182 0 -300 130q-114 125 -114 305v999q0 134 64.5 241.5t183.5 159.5q76 35 166 35
q180 0 300 -131q115 -125 115 -305v-39h-287zM365 416q0 -67 34 -110q36 -48 101 -48q66 0 102 48q35 43 35 110v338q0 78 -58 131q-28 24 -77 24q-71 0 -108 -56q-29 -47 -29 -104v-333z" />
    <glyph glyph-name="seven" unicode="7" horiz-adv-x="1015" 
d="M921 1824v-276l-386 -1548h-269l386 1548h-557v276h826z" />
    <glyph glyph-name="eight" unicode="8" horiz-adv-x="1082" 
d="M988 412q0 -182 -128 -308.5t-309 -126.5h-22q-181 0 -307.5 128t-126.5 307v170q0 167 112 292q48 54 112 89q-111 57 -172 189q-31 68 -31 172v99q0 177 105 293q116 131 308 131h22q194 0 310 -131q105 -117 105 -293v-99q0 -171 -102 -283q-45 -49 -100 -78
q122 -68 189 -208q35 -71 35 -173v-170zM713 545q0 163 -74 219q-35 26 -98 26q-109 0 -148 -93q-24 -57 -24 -152v-91q0 -90 56 -145q46 -47 116 -50q112 6 156 111q16 35 16 84v91zM721 1348q-2 188 -117 236q-27 12 -63 12q-71 0 -116 -40q-37 -32 -52 -82t-12 -126
q4 -119 38 -171q43 -70 142 -70t144 74q38 63 36 167z" />
    <glyph glyph-name="nine" unicode="9" horiz-adv-x="1018" 
d="M509 1847q180 0 300 -131q115 -125 115 -305v-999q0 -182 -118.5 -308.5t-296.5 -126.5q-182 0 -300 130q-114 125 -114 305v39h285v-45q0 -67 35.5 -112t100.5 -45q66 0 101.5 45t35.5 112v365q-96 -86 -208 -86q-180 0 -270 127q-80 111 -80 308v317h1q6 127 72 228
t180 150q74 32 161 32zM653 1408q0 67 -35.5 113t-101.5 46q-65 0 -100.5 -46t-35.5 -113v-341q0 -80 58 -133q26 -25 77 -25q105 0 131 111q7 33 7 51v337z" />
    <glyph glyph-name="colon" unicode=":" horiz-adv-x="465" 
d="M95 273h276v-273h-276v273zM95 1047h276v-275h-276v275z" />
    <glyph glyph-name="semicolon" unicode=";" horiz-adv-x="464" 
d="M95 273h274v-274l-98 -210h-117l64 210h-123v274zM95 1047h274v-275h-274v275z" />
    <glyph glyph-name="less" unicode="&#x3c;" horiz-adv-x="1101" 
d="M1007 1388v-232l-627 -259l627 -263v-230l-912 395v199z" />
    <glyph glyph-name="equal" unicode="=" horiz-adv-x="1126" 
d="M95 988v204h936v-204h-936zM95 590v203h936v-203h-936z" />
    <glyph glyph-name="greater" unicode="&#x3e;" horiz-adv-x="1101" 
d="M95 1388l912 -395v-199l-912 -390v230l626 261l-626 261v232z" />
    <glyph glyph-name="question" unicode="?" horiz-adv-x="1057" 
d="M538 1847q221 0 335 -158q90 -125 90 -294q0 -282 -255 -537q-88 -89 -94 -206q-3 -40 -3 -88v-96h-276v96q0 258 126 383q137 135 188 278q29 83 29 174q0 95 -42 149q-47 62 -136 51q-83 -11 -119 -115q-16 -44 -22 -102l-264 46q14 171 113 287q67 78 186 113
q63 19 144 19zM335 276h276v-276h-276v276z" />
    <glyph glyph-name="at" unicode="@" horiz-adv-x="2048" 
d="M1654 279h299l-27 -35q-153 -192 -386 -301q-227 -104 -477 -104q-413 0 -690.5 277.5t-277.5 734.5q0 454 258.5 765t719.5 311q278 0 451 -106q409 -250 409 -768q0 -292 -163 -532q-185 -271 -465 -271q-149 0 -195 121q-69 -63 -121 -89q-64 -32 -150 -32
q-205 0 -315 166q-96 143 -96 359q0 272 128 504q152 276 404 276q159 0 262 -135l14 97h275l-158 -1002q0 -25 22 -25q84 0 171 92q66 70 111 166q59 128 59 305q0 292 -173.5 473.5t-464.5 181.5q-335 0 -551 -229.5t-216 -615.5q0 -354 197 -575q205 -231 554 -231
q320 0 586 216zM1094 756q49 187 49 354q0 86 -30 144q-38 74 -117 74q-148 0 -225 -250q-55 -178 -55 -370q0 -90 32 -157q42 -87 122 -87q96 0 155 103q34 58 69 189z" />
    <glyph glyph-name="A" unicode="A" horiz-adv-x="1183" 
d="M448 419l-67 -419h-286l309 1824h379l305 -1824h-288l-65 419h-287zM592 1406l-102 -719h204z" />
    <glyph glyph-name="B" unicode="B" horiz-adv-x="1116" 
d="M95 0v1824h411q163 0 294 -86q112 -73 160 -225q26 -82 26 -194q0 -183 -97 -294q-41 -46 -96 -71q91 -35 155 -138q43 -70 63 -180q10 -57 10 -127q0 -173 -65 -294q-51 -94 -144 -151q-105 -64 -208 -64h-509zM391 272h115q140 0 194 144q19 49 19 113q0 153 -59 223
q-52 64 -154 64h-115v-544zM391 1079h115q128 0 172 125q16 47 16 115q0 114 -55 172q-51 54 -133 54h-115v-466z" />
    <glyph glyph-name="C" unicode="C" 
d="M531 -23q-182 0 -309 127t-127 308v999q0 181 128 308.5t308 127.5q182 0 308.5 -128t126.5 -308v-208h-285v213q0 66 -46.5 112.5t-112.5 46.5q-65 0 -111 -46.5t-46 -112.5v-1001q0 -66 46 -112t111 -46q66 0 112.5 46t46.5 112v251h285v-254q0 -182 -128 -308.5
t-307 -126.5z" />
    <glyph glyph-name="D" unicode="D" horiz-adv-x="1053" 
d="M959 436q0 -180 -127 -308t-305 -128h-432v1824h432q180 0 306 -128t126 -307v-953zM369 272h166q66 0 111 47.5t45 111.5v954q0 65 -46 111.5t-110 46.5h-166v-1271z" />
    <glyph glyph-name="E" unicode="E" horiz-adv-x="972" 
d="M95 0v1824h782v-275h-508v-499h371v-276h-371v-499h508v-275h-782z" />
    <glyph glyph-name="F" unicode="F" horiz-adv-x="972" 
d="M369 0h-274v1824h782v-275h-508v-499h371v-276h-371v-774z" />
    <glyph glyph-name="G" unicode="G" 
d="M531 -23q-182 0 -309 128t-127 307v999q0 181 128 308.5t308 127.5q182 0 308.5 -128t126.5 -308v-208h-285v213q0 66 -46.5 112.5t-112.5 46.5q-65 0 -111 -46.5t-46 -112.5v-1001q0 -66 46 -112t111 -46q66 0 112.5 46t46.5 112v359h-153v275h438v-637
q0 -182 -128 -308.5t-307 -126.5z" />
    <glyph glyph-name="H" unicode="H" horiz-adv-x="1071" 
d="M371 772v-772h-276v1824h276v-775h329v775h276v-1824h-276v772h-329z" />
    <glyph glyph-name="I" unicode="I" horiz-adv-x="464" 
d="M369 0h-274v1824h274v-1824z" />
    <glyph glyph-name="J" unicode="J" horiz-adv-x="794" 
d="M700 410q0 -182 -127.5 -307.5t-307.5 -125.5q-105 0 -170 23l39 256q46 -10 80 -10q20 -2 58 1q67 5 113 48.5t46 108.5v1420h269v-1414z" />
    <glyph glyph-name="K" unicode="K" horiz-adv-x="1158" 
d="M371 576v-576h-276v1824h276v-650l334 650h294l-376 -746l440 -1078h-323l-288 739z" />
    <glyph glyph-name="L" unicode="L" horiz-adv-x="938" 
d="M844 0h-749v1824h274v-1551h475v-273z" />
    <glyph glyph-name="M" unicode="M" horiz-adv-x="1465" 
d="M369 0h-274v1824h394l256 -1308l246 1308h379v-1824h-275v1146l-238 -1146h-221l-267 1143v-1143z" />
    <glyph glyph-name="N" unicode="N" horiz-adv-x="1137" 
d="M404 1824l364 -1225v1225h275v-1824h-295l-379 1168v-1168h-274v1824h309z" />
    <glyph glyph-name="O" unicode="O" 
d="M529 1846q182 0 309.5 -128t127.5 -309v-995q0 -182 -128 -309.5t-309 -127.5t-307.5 128t-126.5 309v995q0 182 128 309.5t306 127.5zM679 1415q0 66 -45.5 111.5t-111.5 45.5q-65 0 -111.5 -45.5t-46.5 -111.5v-999q0 -65 46.5 -111t111.5 -46q66 0 111.5 46t45.5 111
v999z" />
    <glyph glyph-name="P" unicode="P" horiz-adv-x="1053" 
d="M528 1824q201 0 320 -127q111 -121 111 -308v-265q0 -180 -126 -308t-305 -128h-159v-688h-274v1824h433zM692 1384q0 72 -42.5 115.5t-114.5 43.5h-166v-583h166q66 0 111.5 46.5t45.5 111.5v266z" />
    <glyph glyph-name="Q" unicode="Q" horiz-adv-x="1107" 
d="M966 414q0 -118 -58 -219q36 -42 104 -42v-256q-206 0 -282 130q-91 -50 -199 -50q-182 0 -309 128t-127 309v995q0 182 128 309.5t308 127.5q182 0 308.5 -129t126.5 -308v-995zM681 1415q0 66 -46.5 111.5t-112.5 45.5q-65 0 -111 -45.5t-46 -111.5v-999q0 -65 46 -111
t111 -46q66 0 112.5 46t46.5 111v999z" />
    <glyph glyph-name="R" unicode="R" horiz-adv-x="1111" 
d="M528 1824q230 0 337 -127q95 -111 95 -308v-265q0 -194 -147 -327l204 -797h-297l-168 689q-12 -1 -25 -1h-158v-688h-274v1824h433zM692 1384q0 159 -157 159h-166v-583h166q66 0 111.5 46.5t45.5 111.5v266z" />
    <glyph glyph-name="S" unicode="S" horiz-adv-x="1098" 
d="M1004 453q3 -191 -99 -326q-67 -92 -189 -129q-66 -21 -153 -21q-162 0 -268 80q-88 66 -140 178.5t-60 259.5l261 18q18 -159 85 -230q49 -54 113 -51q90 3 144 88q28 43 28 121q0 115 -103 227q-82 77 -245 231q-137 132 -193 237q-61 118 -61 256q0 249 167 377
q103 77 256 77q147 0 252 -66q81 -51 131 -142.5t61 -210.5l-264 -48q-11 112 -64 174q-38 46 -109 46q-75 0 -115 -67q-32 -54 -32 -134q0 -125 108 -255q41 -49 122 -116q96 -80 127 -112q101 -102 157 -201q26 -46 42 -86q39 -97 41 -175z" />
    <glyph glyph-name="T" unicode="T" horiz-adv-x="1047" 
d="M387 1549h-292v275h858v-275h-291v-1549h-275v1549z" />
    <glyph glyph-name="U" unicode="U" 
d="M529 -23q-181 0 -307.5 126.5t-126.5 306.5v1414h269v-1411q0 -65 46.5 -111t111.5 -46q66 0 111.5 46t45.5 111v1411h287v-1414q0 -183 -128 -308t-309 -125z" />
    <glyph glyph-name="V" unicode="V" horiz-adv-x="1225" 
d="M420 0l-325 1824h288l228 -1420l231 1420h288l-331 -1824h-379z" />
    <glyph glyph-name="W" unicode="W" horiz-adv-x="1607" 
d="M1225 1824h288l-285 -1824h-264l-155 995l-146 -995h-263l-305 1824h288l144 -977l132 977h288l144 -977z" />
    <glyph glyph-name="X" unicode="X" horiz-adv-x="1203" 
d="M1108 0h-295l-211 581l-212 -581h-295l357 918l-357 906h304l203 -562l202 562h304l-357 -906z" />
    <glyph glyph-name="Y" unicode="Y" horiz-adv-x="1201" 
d="M463 764l-368 1060h302l204 -655l202 655h304l-370 -1060v-764h-274v764z" />
    <glyph glyph-name="Z" unicode="Z" horiz-adv-x="992" 
d="M897 1824v-275l-506 -1276h506v-273h-802v273l507 1276h-507v275h802z" />
    <glyph glyph-name="bracketleft" unicode="[" horiz-adv-x="652" 
d="M95 1881h462v-276h-186v-1389h186v-273h-462v1938z" />
    <glyph glyph-name="backslash" unicode="\" horiz-adv-x="1174" 
d="M95 1907h222l762 -1992h-224z" />
    <glyph glyph-name="bracketright" unicode="]" horiz-adv-x="650" 
d="M95 1881h461v-1938h-461v274h186v1388h-186v276z" />
    <glyph glyph-name="asciicircum" unicode="^" horiz-adv-x="777" 
d="M455 1823l227 -511h-189l-103 249l-103 -249h-192l226 511h134z" />
    <glyph glyph-name="underscore" unicode="_" horiz-adv-x="1596" 
d="M95 -305v202h1406v-202h-1406z" />
    <glyph glyph-name="grave" unicode="`" horiz-adv-x="592" 
d="M95 2060h254l148 -418h-170z" />
    <glyph glyph-name="a" unicode="a" horiz-adv-x="1183" 
d="M448 419l-67 -419h-286l309 1824h379l305 -1824h-288l-65 419h-287zM592 1406l-102 -719h204z" />
    <glyph glyph-name="b" unicode="b" horiz-adv-x="1116" 
d="M95 0v1824h411q163 0 294 -86q112 -73 160 -225q26 -82 26 -194q0 -183 -97 -294q-41 -46 -96 -71q91 -35 155 -138q43 -70 63 -180q10 -57 10 -127q0 -173 -65 -294q-51 -94 -144 -151q-105 -64 -208 -64h-509zM391 272h115q140 0 194 144q19 49 19 113q0 153 -59 223
q-52 64 -154 64h-115v-544zM391 1079h115q128 0 172 125q16 47 16 115q0 114 -55 172q-51 54 -133 54h-115v-466z" />
    <glyph glyph-name="c" unicode="c" 
d="M531 -23q-182 0 -309 127t-127 308v999q0 181 128 308.5t308 127.5q182 0 308.5 -128t126.5 -308v-208h-285v213q0 66 -46.5 112.5t-112.5 46.5q-65 0 -111 -46.5t-46 -112.5v-1001q0 -66 46 -112t111 -46q66 0 112.5 46t46.5 112v251h285v-254q0 -182 -128 -308.5
t-307 -126.5z" />
    <glyph glyph-name="d" unicode="d" horiz-adv-x="1053" 
d="M959 436q0 -180 -127 -308t-305 -128h-432v1824h432q180 0 306 -128t126 -307v-953zM369 272h166q66 0 111 47.5t45 111.5v954q0 65 -46 111.5t-110 46.5h-166v-1271z" />
    <glyph glyph-name="e" unicode="e" horiz-adv-x="972" 
d="M95 0v1824h782v-275h-508v-499h371v-276h-371v-499h508v-275h-782z" />
    <glyph glyph-name="f" unicode="f" horiz-adv-x="972" 
d="M369 0h-274v1824h782v-275h-508v-499h371v-276h-371v-774z" />
    <glyph glyph-name="g" unicode="g" 
d="M531 -23q-182 0 -309 128t-127 307v999q0 181 128 308.5t308 127.5q182 0 308.5 -128t126.5 -308v-208h-285v213q0 66 -46.5 112.5t-112.5 46.5q-65 0 -111 -46.5t-46 -112.5v-1001q0 -66 46 -112t111 -46q66 0 112.5 46t46.5 112v359h-153v275h438v-637
q0 -182 -128 -308.5t-307 -126.5z" />
    <glyph glyph-name="h" unicode="h" horiz-adv-x="1071" 
d="M371 772v-772h-276v1824h276v-775h329v775h276v-1824h-276v772h-329z" />
    <glyph glyph-name="i" unicode="i" horiz-adv-x="464" 
d="M369 0h-274v1824h274v-1824z" />
    <glyph glyph-name="j" unicode="j" horiz-adv-x="794" 
d="M700 410q0 -182 -127.5 -307.5t-307.5 -125.5q-105 0 -170 23l39 256q46 -10 80 -10q20 -2 58 1q67 5 113 48.5t46 108.5v1420h269v-1414z" />
    <glyph glyph-name="k" unicode="k" horiz-adv-x="1158" 
d="M371 576v-576h-276v1824h276v-650l334 650h294l-376 -746l440 -1078h-323l-288 739z" />
    <glyph glyph-name="l" unicode="l" horiz-adv-x="938" 
d="M844 0h-749v1824h274v-1551h475v-273z" />
    <glyph glyph-name="m" unicode="m" horiz-adv-x="1465" 
d="M369 0h-274v1824h394l256 -1308l246 1308h379v-1824h-275v1146l-238 -1146h-221l-267 1143v-1143z" />
    <glyph glyph-name="n" unicode="n" horiz-adv-x="1137" 
d="M404 1824l364 -1225v1225h275v-1824h-295l-379 1168v-1168h-274v1824h309z" />
    <glyph glyph-name="o" unicode="o" 
d="M529 1846q182 0 309.5 -128t127.5 -309v-995q0 -182 -128 -309.5t-309 -127.5t-307.5 128t-126.5 309v995q0 182 128 309.5t306 127.5zM679 1415q0 66 -45.5 111.5t-111.5 45.5q-65 0 -111.5 -45.5t-46.5 -111.5v-999q0 -65 46.5 -111t111.5 -46q66 0 111.5 46t45.5 111
v999z" />
    <glyph glyph-name="p" unicode="p" horiz-adv-x="1053" 
d="M528 1824q201 0 320 -127q111 -121 111 -308v-265q0 -180 -126 -308t-305 -128h-159v-688h-274v1824h433zM692 1384q0 72 -42.5 115.5t-114.5 43.5h-166v-583h166q66 0 111.5 46.5t45.5 111.5v266z" />
    <glyph glyph-name="q" unicode="q" horiz-adv-x="1107" 
d="M966 414q0 -118 -58 -219q36 -42 104 -42v-256q-206 0 -282 130q-91 -50 -199 -50q-182 0 -309 128t-127 309v995q0 182 128 309.5t308 127.5q182 0 308.5 -129t126.5 -308v-995zM681 1415q0 66 -46.5 111.5t-112.5 45.5q-65 0 -111 -45.5t-46 -111.5v-999q0 -65 46 -111
t111 -46q66 0 112.5 46t46.5 111v999z" />
    <glyph glyph-name="r" unicode="r" horiz-adv-x="1111" 
d="M528 1824q230 0 337 -127q95 -111 95 -308v-265q0 -194 -147 -327l204 -797h-297l-168 689q-12 -1 -25 -1h-158v-688h-274v1824h433zM692 1384q0 159 -157 159h-166v-583h166q66 0 111.5 46.5t45.5 111.5v266z" />
    <glyph glyph-name="s" unicode="s" horiz-adv-x="1098" 
d="M1004 453q3 -191 -99 -326q-67 -92 -189 -129q-66 -21 -153 -21q-162 0 -268 80q-88 66 -140 178.5t-60 259.5l261 18q18 -159 85 -230q49 -54 113 -51q90 3 144 88q28 43 28 121q0 115 -103 227q-82 77 -245 231q-137 132 -193 237q-61 118 -61 256q0 249 167 377
q103 77 256 77q147 0 252 -66q81 -51 131 -142.5t61 -210.5l-264 -48q-11 112 -64 174q-38 46 -109 46q-75 0 -115 -67q-32 -54 -32 -134q0 -125 108 -255q41 -49 122 -116q96 -80 127 -112q101 -102 157 -201q26 -46 42 -86q39 -97 41 -175z" />
    <glyph glyph-name="t" unicode="t" horiz-adv-x="1047" 
d="M387 1549h-292v275h858v-275h-291v-1549h-275v1549z" />
    <glyph glyph-name="u" unicode="u" 
d="M529 -23q-181 0 -307.5 126.5t-126.5 306.5v1414h269v-1411q0 -65 46.5 -111t111.5 -46q66 0 111.5 46t45.5 111v1411h287v-1414q0 -183 -128 -308t-309 -125z" />
    <glyph glyph-name="v" unicode="v" horiz-adv-x="1225" 
d="M420 0l-325 1824h288l228 -1420l231 1420h288l-331 -1824h-379z" />
    <glyph glyph-name="w" unicode="w" horiz-adv-x="1607" 
d="M1225 1824h288l-285 -1824h-264l-155 995l-146 -995h-263l-305 1824h288l144 -977l132 977h288l144 -977z" />
    <glyph glyph-name="x" unicode="x" horiz-adv-x="1203" 
d="M1108 0h-295l-211 581l-212 -581h-295l357 918l-357 906h304l203 -562l202 562h304l-357 -906z" />
    <glyph glyph-name="y" unicode="y" horiz-adv-x="1201" 
d="M463 764l-368 1060h302l204 -655l202 655h304l-370 -1060v-764h-274v764z" />
    <glyph glyph-name="z" unicode="z" horiz-adv-x="992" 
d="M897 1824v-275l-506 -1276h506v-273h-802v273l507 1276h-507v275h802z" />
    <glyph glyph-name="braceleft" unicode="{" horiz-adv-x="780" 
d="M239 1543q0 202 106 282q100 77 340 77v-190q-126 0 -171.5 -35t-45.5 -143v-390q0 -69 -36 -135q-39 -71 -100 -96q56 -22 97 -92q39 -64 39 -139v-391q0 -110 45.5 -143t171.5 -33v-191q-240 0 -340 77q-106 80 -106 282v281q0 151 -14 188q-30 83 -130 90v141
q100 9 130 92q14 34 14 186v282z" />
    <glyph glyph-name="bar" unicode="|" horiz-adv-x="451" 
d="M95 2401h261v-2551h-261v2551z" />
    <glyph glyph-name="braceright" unicode="}" horiz-adv-x="780" 
d="M541 1261q0 -152 14 -186q30 -83 130 -92v-141q-100 -7 -130 -90q-14 -37 -14 -188v-281q0 -202 -106 -282q-100 -77 -340 -77v191q126 0 171.5 33t45.5 143v391q0 75 39 139q41 70 97 92q-61 25 -100 96q-36 66 -36 135v390q0 108 -45.5 143t-171.5 35v190
q240 0 340 -77q106 -80 106 -282v-282z" />
    <glyph glyph-name="asciitilde" unicode="~" horiz-adv-x="1079" 
d="M656 931q33 -15 61 -15q52 2 115 86l153 -113q-124 -166 -275 -160q-85 1 -221 77q-98 54 -133 54q-48 0 -109 -80l-152 113q119 162 267 156q69 -2 153 -42q71 -38 141 -76z" />
    <glyph glyph-name="uni007F" horiz-adv-x="745" 
 />
    <glyph glyph-name="sterling" unicode="&#xa3;" horiz-adv-x="1059" 
d="M131 874h174q-56 101 -121.5 233.5t-62.5 310.5q0 192 105.5 310.5t316.5 118.5q210 0 315.5 -118.5t105.5 -310.5v-131h-270v81q-2 128 -39.5 168t-110.5 40q-71 0 -112 -42.5t-41 -136.5q0 -113 74.5 -253t100.5 -270h330v-250h-311q0 -115 -30 -187.5t-116 -167.5h506
v-269h-850v259q110 17 175.5 86.5t80.5 278.5h-220v250z" />
    <glyph glyph-name="ch128" horiz-adv-x="745" 
 />
    </font>
</defs>
</svg>
