<?xml version="1.0" standalone="no"?>
<!DOCTYPE svg PUBLIC "-//W3C//DTD SVG 1.1//EN" "http://www.w3.org/Graphics/SVG/1.1/DTD/svg11.dtd" >
<svg xmlns="http://www.w3.org/2000/svg" xmlns:xlink="http://www.w3.org/1999/xlink" version="1.1">
<metadata>
Created by FontForge 20170731 at Mon May  3 18:54:23 1999
 By Aleksey,,,
v1.0 Created by ShyWedge, 1999.  (http://welcome.to/ShyFonts)
</metadata>
<defs>
<font id="SFSportsNightNSUpright" horiz-adv-x="600" >
  <font-face 
    font-family="SF Sports Night NS Upright"
    font-weight="400"
    font-stretch="normal"
    units-per-em="900"
    panose-1="0 0 4 0 0 0 0 0 0 0"
    ascent="720"
    descent="-180"
    x-height="600"
    cap-height="600"
    bbox="0 -100 880 700"
    underline-thickness="20"
    underline-position="-163"
    unicode-range="U+0020-201E"
  />
<missing-glyph horiz-adv-x="450" 
d="M56 0v700h338v-700h-338zM113 56h225v588h-225v-588z" />
    <glyph glyph-name=".notdef" horiz-adv-x="450" 
d="M56 0v700h338v-700h-338zM113 56h225v588h-225v-588z" />
    <glyph glyph-name=".null" horiz-adv-x="0" 
 />
    <glyph glyph-name="nonmarkingreturn" horiz-adv-x="350" 
 />
    <glyph glyph-name="space" unicode=" " horiz-adv-x="350" 
 />
    <glyph glyph-name="exclam" unicode="!" horiz-adv-x="200" 
d="M175 200h-150v400h150v-400zM175 0h-150v150h150v-150z" />
    <glyph glyph-name="quotedbl" unicode="&#x22;" horiz-adv-x="375" 
d="M350 450l-75 -100v100h-75v150h150v-150zM175 450l-75 -100v100h-75v150h150v-150z" />
    <glyph glyph-name="quotesingle" unicode="'" horiz-adv-x="200" 
d="M175 450l-75 -100v100h-75v150h150v-150z" />
    <glyph glyph-name="parenleft" unicode="(" horiz-adv-x="320" 
d="M295 -50h-150q-67 86 -93.5 164t-26.5 185v1q0 108 27 186.5t93 163.5h150q-71 -83 -100.5 -162.5t-29.5 -188.5q0 -108 29.5 -187t100.5 -162z" />
    <glyph glyph-name="parenright" unicode=")" horiz-adv-x="320" 
d="M295 300q0 -108 -27 -186.5t-93 -163.5h-150q71 83 100.5 162t29.5 188q0 108 -29 187.5t-101 162.5h150q67 -86 93.5 -164.5t26.5 -185.5z" />
    <glyph glyph-name="comma" unicode="," horiz-adv-x="200" 
d="M175 0l-75 -100v100h-75v150h150v-150z" />
    <glyph glyph-name="period" unicode="." horiz-adv-x="200" 
d="M175 0h-150v150h150v-150z" />
    <glyph glyph-name="slash" unicode="/" horiz-adv-x="269" 
d="M269 632l-122 -690l-147 26l121 690z" />
    <glyph glyph-name="zero" unicode="0" 
d="M575 140q0 -58 -41 -99t-99 -41h-270q-58 0 -99 41t-41 99v320q0 58 41 99t99 41h270q58 0 99 -41t41 -99v-320zM395 180v240h-190v-240h190z" />
    <glyph glyph-name="one" unicode="1" horiz-adv-x="230" 
d="M205 0h-180v600h180v-600z" />
    <glyph glyph-name="two" unicode="2" 
d="M575 0h-550v230q0 58 41 99t99 41h230v50h-370v180h410q58 0 99 -41t41 -99v-90q0 -58 -41 -99t-99 -41h-230v-50h370v-180z" />
    <glyph glyph-name="three" unicode="3" 
d="M575 140q0 -58 -41 -99t-99 -41h-410v180h370v50h-170v140h170v50h-370v180h410q58 0 99 -41t41 -99v-90q0 -31 -39 -70q39 -39 39 -70v-90z" />
    <glyph glyph-name="four" unicode="4" 
d="M575 0h-180v230h-370v370h180v-230h190v230h180v-600z" />
    <glyph glyph-name="five" unicode="5" 
d="M575 140q0 -58 -41 -99t-99 -41h-410v180h370v50h-230q-58 0 -99 41t-41 99v230h550v-180h-370v-50h230q58 0 99 -41t41 -99v-90z" />
    <glyph glyph-name="six" unicode="6" 
d="M575 140q0 -58 -41 -99t-99 -41h-270q-58 0 -99 41t-41 99v320q0 58 41 99t99 41h410v-180h-370v-50h230q58 0 99 -41t41 -99v-90zM395 180v50h-190v-50h190z" />
    <glyph glyph-name="seven" unicode="7" 
d="M575 600l-330 -600h-220l230 420h-230v180h550z" />
    <glyph glyph-name="eight" unicode="8" 
d="M575 140q0 -58 -41 -99t-99 -41h-270q-58 0 -99 41t-41 99v90q0 31 39 70q-39 39 -39 70v90q0 58 41 99t99 41h270q58 0 99 -41t41 -99v-90q0 -31 -39 -70q39 -39 39 -70v-90zM395 370v50h-190v-50h190zM395 180v50h-190v-50h190z" />
    <glyph glyph-name="nine" unicode="9" 
d="M575 140q0 -58 -41 -99t-99 -41h-410v180h370v50h-230q-58 0 -99 41t-41 99v90q0 58 41 99t99 41h270q58 0 99 -41t41 -99v-320zM395 370v50h-190v-50h190z" />
    <glyph glyph-name="colon" unicode=":" horiz-adv-x="200" 
d="M175 270h-150v150h150v-150zM175 0h-150v150h150v-150z" />
    <glyph glyph-name="semicolon" unicode=";" horiz-adv-x="200" 
d="M175 270h-150v150h150v-150zM175 0l-75 -100v100h-75v150h150v-150z" />
    <glyph glyph-name="question" unicode="?" horiz-adv-x="500" 
d="M475 370q0 -50 -35 -85t-85 -35h-180v-50h-150v80q0 50 35 85t85 35h180v50h-300v150h330q50 0 85 -35.5t35 -84.5v-110zM175 0h-150v150h150v-150z" />
    <glyph glyph-name="A" unicode="A" horiz-adv-x="570" 
d="M570 0h-180l-20 80h-170l-20 -80h-180l150 600h270zM333 230l-48 190l-47 -190h95z" />
    <glyph glyph-name="B" unicode="B" horiz-adv-x="620" 
d="M595 140q0 -58 -41 -99t-99 -41h-430v600h430q58 0 99 -41t41 -99v-90q0 -31 -39 -70q39 -39 39 -70v-90zM415 370v50h-210v-50h210zM415 180v50h-210v-50h210z" />
    <glyph glyph-name="C" unicode="C" 
d="M575 0h-410q-58 0 -99 41t-41 99v320q0 58 41 99t99 41h410v-180h-370v-240h370v-180z" />
    <glyph glyph-name="D" unicode="D" 
d="M575 140q0 -58 -41 -99t-99 -41h-410v600h410q58 0 99 -41t41 -99v-320zM395 180v240h-190v-240h190z" />
    <glyph glyph-name="E" unicode="E" horiz-adv-x="550" 
d="M525 0h-500v600h500v-180h-320v-50h320v-140h-320v-50h320v-180z" />
    <glyph glyph-name="F" unicode="F" horiz-adv-x="550" 
d="M525 230h-320v-230h-180v600h500v-180h-320v-50h320v-140z" />
    <glyph glyph-name="G" unicode="G" 
d="M575 140q0 -58 -41 -99t-99 -41h-270q-58 0 -99 41t-41 99v320q0 58 41 99t99 41h410v-180h-370v-240h190v50h-80v140h260v-230z" />
    <glyph glyph-name="H" unicode="H" 
d="M575 0h-180v230h-190v-230h-180v600h180v-230h190v230h180v-600z" />
    <glyph glyph-name="I" unicode="I" horiz-adv-x="230" 
d="M205 0h-180v600h180v-600z" />
    <glyph glyph-name="J" unicode="J" 
d="M575 140q0 -58 -41 -99t-99 -41h-270q-58 0 -99 41t-41 99v90h180v-50h190v420h180v-460z" />
    <glyph glyph-name="K" unicode="K" horiz-adv-x="575" 
d="M575 0h-210l-160 246v-246h-180v600h180v-246l160 246h210l-195 -300z" />
    <glyph glyph-name="L" unicode="L" horiz-adv-x="550" 
d="M525 0h-500v600h180v-420h320v-180z" />
    <glyph glyph-name="M" unicode="M" horiz-adv-x="700" 
d="M675 0h-180v251l-145 -251l-145 251v-251h-180v600h180l145 -251l145 251h180v-600z" />
    <glyph glyph-name="N" unicode="N" 
d="M575 0h-180v420h-190v-420h-180v600h410q58 0 99 -41t41 -99v-460z" />
    <glyph glyph-name="O" unicode="O" 
d="M575 140q0 -58 -41 -99t-99 -41h-270q-58 0 -99 41t-41 99v320q0 58 41 99t99 41h270q58 0 99 -41t41 -99v-320zM395 180v240h-190v-240h190z" />
    <glyph glyph-name="P" unicode="P" 
d="M575 370q0 -58 -41 -99t-99 -41h-230v-230h-180v600h410q58 0 99 -41t41 -99v-90zM395 370v50h-190v-50h190z" />
    <glyph glyph-name="Q" unicode="Q" horiz-adv-x="650" 
d="M625 0h-460q-58 0 -99 41t-41 99v320q0 58 41 99t99 41h270q58 0 99 -41t41 -99v-280h50v-180zM395 180v240h-190v-240h190z" />
    <glyph glyph-name="R" unicode="R" 
d="M575 0h-180v230h-190v-230h-180v600h410q58 0 99 -41t41 -99v-90q0 -31 -39 -70q39 -39 39 -70v-230zM395 370v50h-190v-50h190z" />
    <glyph glyph-name="S" unicode="S" 
d="M575 140q0 -58 -41 -99t-99 -41h-410v180h370v50h-230q-58 0 -99 41t-41 99v90q0 58 41 99t99 41h410v-180h-370v-50h230q58 0 99 -41t41 -99v-90z" />
    <glyph glyph-name="T" unicode="T" 
d="M575 420h-185v-420h-180v420h-185v180h550v-180z" />
    <glyph glyph-name="U" unicode="U" 
d="M575 140q0 -58 -41 -99t-99 -41h-270q-58 0 -99 41t-41 99v460h180v-420h190v420h180v-460z" />
    <glyph glyph-name="V" unicode="V" horiz-adv-x="570" 
d="M570 600l-150 -600h-270l-150 600h180l105 -420l105 420h180z" />
    <glyph glyph-name="W" unicode="W" horiz-adv-x="880" 
d="M880 600l-150 -600h-230l-60 240l-60 -240h-230l-150 600h180l85 -340l85 340h180l85 -340l85 340h180z" />
    <glyph glyph-name="X" unicode="X" 
d="M600 0h-210l-90 138l-90 -138h-210l195 300l-195 300h210l90 -138l90 138h210l-195 -300z" />
    <glyph glyph-name="Y" unicode="Y" 
d="M600 600l-210 -320v-280h-180v280l-210 320h210l90 -138l90 138h210z" />
    <glyph glyph-name="Z" unicode="Z" 
d="M575 0h-550l230 420h-230v180h550l-230 -420h230v-180z" />
    <glyph glyph-name="bracketleft" unicode="[" horiz-adv-x="300" 
d="M275 -50h-250v700h250v-150h-100v-400h100v-150z" />
    <glyph glyph-name="backslash" unicode="\" horiz-adv-x="269" 
d="M269 -32l-147 -26l-122 690l148 26z" />
    <glyph glyph-name="bracketright" unicode="]" horiz-adv-x="300" 
d="M275 -50h-250v150h100v400h-100v150h250v-700z" />
    <glyph glyph-name="a" unicode="a" horiz-adv-x="570" 
d="M570 0h-180l-20 80h-170l-20 -80h-180l150 600h270zM333 230l-48 190l-47 -190h95z" />
    <glyph glyph-name="b" unicode="b" horiz-adv-x="620" 
d="M595 140q0 -58 -41 -99t-99 -41h-430v600h430q58 0 99 -41t41 -99v-90q0 -31 -39 -70q39 -39 39 -70v-90zM415 370v50h-210v-50h210zM415 180v50h-210v-50h210z" />
    <glyph glyph-name="c" unicode="c" 
d="M575 0h-410q-58 0 -99 41t-41 99v320q0 58 41 99t99 41h410v-180h-370v-240h370v-180z" />
    <glyph glyph-name="d" unicode="d" 
d="M575 140q0 -58 -41 -99t-99 -41h-410v600h410q58 0 99 -41t41 -99v-320zM395 180v240h-190v-240h190z" />
    <glyph glyph-name="e" unicode="e" horiz-adv-x="550" 
d="M525 0h-500v600h500v-180h-320v-50h320v-140h-320v-50h320v-180z" />
    <glyph glyph-name="f" unicode="f" horiz-adv-x="550" 
d="M525 230h-320v-230h-180v600h500v-180h-320v-50h320v-140z" />
    <glyph glyph-name="g" unicode="g" 
d="M575 140q0 -58 -41 -99t-99 -41h-270q-58 0 -99 41t-41 99v320q0 58 41 99t99 41h410v-180h-370v-240h190v50h-80v140h260v-230z" />
    <glyph glyph-name="h" unicode="h" 
d="M575 0h-180v230h-190v-230h-180v600h180v-230h190v230h180v-600z" />
    <glyph glyph-name="i" unicode="i" horiz-adv-x="230" 
d="M205 0h-180v600h180v-600z" />
    <glyph glyph-name="j" unicode="j" 
d="M575 140q0 -58 -41 -99t-99 -41h-270q-58 0 -99 41t-41 99v90h180v-50h190v420h180v-460z" />
    <glyph glyph-name="k" unicode="k" horiz-adv-x="575" 
d="M575 0h-210l-160 246v-246h-180v600h180v-246l160 246h210l-195 -300z" />
    <glyph glyph-name="l" unicode="l" horiz-adv-x="550" 
d="M525 0h-500v600h180v-420h320v-180z" />
    <glyph glyph-name="m" unicode="m" horiz-adv-x="700" 
d="M675 0h-180v251l-145 -251l-145 251v-251h-180v600h180l145 -251l145 251h180v-600z" />
    <glyph glyph-name="n" unicode="n" 
d="M575 0h-180v420h-190v-420h-180v600h410q58 0 99 -41t41 -99v-460z" />
    <glyph glyph-name="o" unicode="o" 
d="M575 140q0 -58 -41 -99t-99 -41h-270q-58 0 -99 41t-41 99v320q0 58 41 99t99 41h270q58 0 99 -41t41 -99v-320zM395 180v240h-190v-240h190z" />
    <glyph glyph-name="p" unicode="p" 
d="M575 370q0 -58 -41 -99t-99 -41h-230v-230h-180v600h410q58 0 99 -41t41 -99v-90zM395 370v50h-190v-50h190z" />
    <glyph glyph-name="q" unicode="q" horiz-adv-x="650" 
d="M625 0h-460q-58 0 -99 41t-41 99v320q0 58 41 99t99 41h270q58 0 99 -41t41 -99v-280h50v-180zM395 180v240h-190v-240h190z" />
    <glyph glyph-name="r" unicode="r" 
d="M575 0h-180v230h-190v-230h-180v600h410q58 0 99 -41t41 -99v-90q0 -31 -39 -70q39 -39 39 -70v-230zM395 370v50h-190v-50h190z" />
    <glyph glyph-name="s" unicode="s" 
d="M575 140q0 -58 -41 -99t-99 -41h-410v180h370v50h-230q-58 0 -99 41t-41 99v90q0 58 41 99t99 41h410v-180h-370v-50h230q58 0 99 -41t41 -99v-90z" />
    <glyph glyph-name="t" unicode="t" 
d="M575 420h-185v-420h-180v420h-185v180h550v-180z" />
    <glyph glyph-name="u" unicode="u" 
d="M575 140q0 -58 -41 -99t-99 -41h-270q-58 0 -99 41t-41 99v460h180v-420h190v420h180v-460z" />
    <glyph glyph-name="v" unicode="v" horiz-adv-x="570" 
d="M570 600l-150 -600h-270l-150 600h180l105 -420l105 420h180z" />
    <glyph glyph-name="w" unicode="w" horiz-adv-x="880" 
d="M880 600l-150 -600h-230l-60 240l-60 -240h-230l-150 600h180l85 -340l85 340h180l85 -340l85 340h180z" />
    <glyph glyph-name="x" unicode="x" 
d="M600 0h-210l-90 138l-90 -138h-210l195 300l-195 300h210l90 -138l90 138h210l-195 -300z" />
    <glyph glyph-name="y" unicode="y" horiz-adv-x="625" 
d="M600 600l-210 -320v-280h-180v280l-210 320h210l90 -138l90 138h210z" />
    <glyph glyph-name="z" unicode="z" 
d="M575 0h-550l230 420h-230v180h550l-230 -420h230v-180z" />
    <glyph glyph-name="braceleft" unicode="{" horiz-adv-x="350" 
d="M325 -50h-130q-50 0 -85 35t-35 85v170q0 21 -14.5 35.5t-35.5 14.5v50q21 0 35.5 17.5t14.5 42.5v130q0 50 35 85t85 35h130v-150h-100v-150q0 -21 -14.5 -35.5t-35.5 -14.5q21 0 35.5 -14.5t14.5 -35.5v-150h100v-150z" />
    <glyph glyph-name="bar" unicode="|" horiz-adv-x="200" 
d="M175 -50h-150v700h150v-700z" />
    <glyph glyph-name="braceright" unicode="}" horiz-adv-x="350" 
d="M325 290q-21 0 -35.5 -14.5t-14.5 -35.5v-170q0 -50 -35 -85t-85 -35h-130v150h100v150q0 21 14.5 35.5t35.5 14.5q-21 0 -35.5 14.5t-14.5 35.5v150h-100v150h130q50 0 85 -35t35 -85v-130q0 -23 14 -41.5t36 -18.5v-50z" />
    <glyph glyph-name="exclamdown" unicode="&#xa1;" horiz-adv-x="200" 
d="M175 450h-150v150h150v-150zM175 0h-150v400h150v-400z" />
    <glyph glyph-name="questiondown" unicode="&#xbf;" horiz-adv-x="500" 
d="M475 450h-150v150h150v-150zM475 0h-330q-50 0 -85 35.5t-35 84.5v110q0 50 35 85t85 35h180v50h150v-80q0 -50 -35 -85t-85 -35h-180v-50h300v-150z" />
    <glyph glyph-name="quoteleft" unicode="&#x2018;" horiz-adv-x="200" 
d="M175 350h-150v150l75 100v-100h75v-150z" />
    <glyph glyph-name="quoteright" unicode="&#x2019;" horiz-adv-x="200" 
d="M175 450l-75 -100v100h-75v150h150v-150z" />
    <glyph glyph-name="quotesinglbase" unicode="&#x201a;" horiz-adv-x="200" 
d="M175 0l-75 -100v100h-75v150h150v-150z" />
    <glyph glyph-name="quotereversed" unicode="&#x201b;" horiz-adv-x="200" 
d="M175 450h-75v-100l-75 100v150h150v-150z" />
    <glyph glyph-name="quotedblleft" unicode="&#x201c;" horiz-adv-x="375" 
d="M350 350h-150v150l75 100v-100h75v-150zM175 350h-150v150l75 100v-100h75v-150z" />
    <glyph glyph-name="quotedblright" unicode="&#x201d;" horiz-adv-x="375" 
d="M350 450l-75 -100v100h-75v150h150v-150zM175 450l-75 -100v100h-75v150h150v-150z" />
    <glyph glyph-name="quotedblbase" unicode="&#x201e;" horiz-adv-x="375" 
d="M350 0l-75 -100v100h-75v150h150v-150zM175 0l-75 -100v100h-75v150h150v-150z" />
  </font>
</defs>
</svg>
