<?xml version="1.0" standalone="no"?>
<!DOCTYPE svg PUBLIC "-//W3C//DTD SVG 1.1//EN" "http://www.w3.org/Graphics/SVG/1.1/DTD/svg11.dtd" >
<svg xmlns="http://www.w3.org/2000/svg" xmlns:xlink="http://www.w3.org/1999/xlink" version="1.1">
<metadata>
Created by FontForge 20170910 at Sat Aug 23 11:50:00 2014
 By Jimmy Wärting
Evogria (c) Situjuh Font. 2014. All Rights Reserved
</metadata>
<defs>
<font id="Evogria" horiz-adv-x="1026" >
  <font-face 
    font-family="Evogria"
    font-weight="400"
    font-stretch="normal"
    units-per-em="2048"
    panose-1="2 0 8 0 0 0 0 0 0 0"
    ascent="1638"
    descent="-410"
    x-height="1607"
    cap-height="1692"
    bbox="-1067 -818 3509 2283"
    underline-thickness="150"
    underline-position="-292"
    unicode-range="U+001D-FB06"
  />
<missing-glyph horiz-adv-x="2011" 
d="M1145 1706q-148 -38 -242 -142q-32 -34 -83 -115q-62 -90 -88 -123q-78 -98 -128 -138q-79 -64 -169 -64q-72 0 -122 36q-56 41 -68 114q-1 18 -1 36q0 63 30 118q43 76 121 90q20 4 37 4q26 0 48 -8q41 -17 42 -68q-12 13 -27 13q-12 0 -24 -9q-13 -12 -13 -26
q0 -35 37 -35h1q36 0 56 40q10 22 10 45q0 21 -10 41q-14 43 -55 64q-44 23 -104 23q-16 0 -33 -2q-130 -10 -210 -107v213h995zM150 1085q77 -79 206 -79q19 0 38 3q106 8 248 151q39 40 111 117q63 71 88 94q65 60 131 60q37 0 75 -19q106 -48 216 -48q74 0 148 22
q147 43 273 161q-16 -196 -145 -364q-25 -30 -272 -286h-65q-49 0 -81 39l-106 -106h190q-230 -256 -270 -455q-12 -55 -12 -104q0 -79 30 -141q45 -96 162 -134h-235v838l43 22v41h-773v188zM433 830q92 0 131 -38t39 -130v-666h-453v834h283zM672 834h43v-838h-43v838z
M1451 -4q247 56 410 201v-201h-410zM1861 214q-158 -87 -296 -104q-27 -3 -55 -3q-96 0 -153 46q-54 47 -54 126q0 30 9 67q30 142 188 344q73 93 105 140h185v-57h71v-559zM1651 897q120 197 120 428q0 49 -6 103q-19 159 -21 159q6 60 117 94v-784h-210zM881 1247
q-87 0 -148 -51q-52 -47 -61 -114q-4 -16 -4 -33q0 -44 25 -75q31 -41 89 -41q9 0 19 2q71 6 93 71q5 19 5 32q0 44 -42 74q-36 26 -36 58q0 5 1 11q8 39 59 50v16z" />
    <glyph glyph-name=".notdef" horiz-adv-x="2011" 
d="M1145 1706q-148 -38 -242 -142q-32 -34 -83 -115q-62 -90 -88 -123q-78 -98 -128 -138q-79 -64 -169 -64q-72 0 -122 36q-56 41 -68 114q-1 18 -1 36q0 63 30 118q43 76 121 90q20 4 37 4q26 0 48 -8q41 -17 42 -68q-12 13 -27 13q-12 0 -24 -9q-13 -12 -13 -26
q0 -35 37 -35h1q36 0 56 40q10 22 10 45q0 21 -10 41q-14 43 -55 64q-44 23 -104 23q-16 0 -33 -2q-130 -10 -210 -107v213h995zM150 1085q77 -79 206 -79q19 0 38 3q106 8 248 151q39 40 111 117q63 71 88 94q65 60 131 60q37 0 75 -19q106 -48 216 -48q74 0 148 22
q147 43 273 161q-16 -196 -145 -364q-25 -30 -272 -286h-65q-49 0 -81 39l-106 -106h190q-230 -256 -270 -455q-12 -55 -12 -104q0 -79 30 -141q45 -96 162 -134h-235v838l43 22v41h-773v188zM433 830q92 0 131 -38t39 -130v-666h-453v834h283zM672 834h43v-838h-43v838z
M1451 -4q247 56 410 201v-201h-410zM1861 214q-158 -87 -296 -104q-27 -3 -55 -3q-96 0 -153 46q-54 47 -54 126q0 30 9 67q30 142 188 344q73 93 105 140h185v-57h71v-559zM1651 897q120 197 120 428q0 49 -6 103q-19 159 -21 159q6 60 117 94v-784h-210zM881 1247
q-87 0 -148 -51q-52 -47 -61 -114q-4 -16 -4 -33q0 -44 25 -75q31 -41 89 -41q9 0 19 2q71 6 93 71q5 19 5 32q0 44 -42 74q-36 26 -36 58q0 5 1 11q8 39 59 50v16z" />
    <glyph glyph-name=".null" horiz-adv-x="0" 
 />
    <glyph glyph-name=".null" horiz-adv-x="0" 
 />
    <glyph glyph-name="nonmarkingreturn" horiz-adv-x="508" 
 />
    <glyph glyph-name="space" unicode=" " horiz-adv-x="508" 
 />
    <glyph glyph-name="space" unicode="&#xa0;" horiz-adv-x="508" 
 />
    <glyph glyph-name="exclam" unicode="!" horiz-adv-x="885" 
d="M227 528v1164h336v-1164h-336zM572 314v-313h-354v313h354z" />
    <glyph glyph-name="quotedbl" unicode="&#x22;" horiz-adv-x="1071" 
d="M203 1141l-74 665h336l-77 -665h-185zM628 1141l-74 665h336l-77 -665h-185z" />
    <glyph glyph-name="numbersign" unicode="#" horiz-adv-x="1403" 
d="M1112 1027l-45 -263h217v-283h-267l-83 -480h-302l83 480h-233l-83 -481h-303l84 481h-125v283h174l45 263h-219v282h268l67 383h302l-66 -383h233l66 384h303l-67 -384h123v-282h-172zM764 764l46 263h-233l-46 -263h233z" />
    <glyph glyph-name="dollar" unicode="$" horiz-adv-x="1255" 
d="M422 1675v156h335v-156h79q101 0 174 -67q74 -68 74 -164v-341h-336v259h-318v-267q0 -110 159 -110q208 0 347 -110q148 -118 148 -313v-348q0 -96 -74 -165q-73 -66 -174 -66h-80v-155h-334v155h-80q-101 0 -174 66q-74 69 -74 165v340h336v-258h318v266
q0 110 -159 110q-208 0 -347 111q-148 118 -148 312v349q0 96 74 164q73 67 174 67h80z" />
    <glyph glyph-name="percent" unicode="%" horiz-adv-x="2077" 
d="M438 1558v-560h175v560h-175zM673 1722q72 0 123 -35q52 -36 52 -86v-646q0 -50 -52 -86q-51 -35 -123 -35h-296q-71 0 -122 35q-52 36 -52 86v646q0 50 52 86q51 35 122 35h296zM616 0l624 1692h262l-625 -1692h-261zM1489 694v-560h175v560h-175zM1725 858
q71 0 122 -35q52 -36 52 -86v-646q0 -50 -52 -86q-51 -35 -122 -35h-297q-71 0 -122 35q-52 36 -52 86v646q0 50 52 86q51 35 122 35h297z" />
    <glyph glyph-name="ampersand" unicode="&#x26;" horiz-adv-x="1350" 
d="M1252 541h-56q-68 0 -95 -22q-29 -24 -29 -87v-201q0 -96 -74 -164q-73 -67 -174 -67h-494q-101 0 -174 67q-74 68 -74 164v400q0 165 107 275q-65 86 -65 208v347q0 96 74 164q73 67 174 67h452q101 0 174 -67q74 -68 74 -164v-298q0 -194 -148 -312
q-139 -111 -347 -111q-159 0 -159 -109v-318h318v119q0 421 460 423h56v-314zM472 1046q50 8 105 8q159 0 159 109v216h-276v-278q3 -30 12 -55z" />
    <glyph glyph-name="quotesingle" unicode="'" horiz-adv-x="654" 
d="M203 1141l-74 665h336l-77 -665h-185z" />
    <glyph glyph-name="parenleft" unicode="(" horiz-adv-x="938" 
d="M248 1518q0 179 137 288q128 103 321 103h56v-216h-56q-147 -16 -147 -118v-1522q0 -102 147 -118h56v-216h-56q-193 0 -321 103q-137 109 -137 288v1408z" />
    <glyph glyph-name="parenright" unicode=")" horiz-adv-x="942" 
d="M605 110q0 -179 -137 -288q-128 -103 -321 -103h-56v216h56q147 16 147 118v1522q0 102 -147 118h-56v216h56q193 0 321 -103q137 -109 137 -288v-1408z" />
    <glyph glyph-name="asterisk" unicode="*" horiz-adv-x="1226" 
d="M683 796h-186q-34 311 -58 335.5t-335 58.5v185q311 36 335 61t58 336h186q36 -311 61 -336t336 -61v-185q-311 -34 -336 -58.5t-61 -335.5z" />
    <glyph glyph-name="plus" unicode="+" horiz-adv-x="1194" 
d="M702 1066h327v-283h-327v-327h-282v327h-327v283h327v326h282v-326z" />
    <glyph glyph-name="comma" unicode="," horiz-adv-x="672" 
d="M484 315v-313l-250 -354v354h-104v313h354z" />
    <glyph glyph-name="hyphen" unicode="-" horiz-adv-x="1040" 
d="M863 662h-753v283h753v-283z" />
    <glyph glyph-name="hyphen" unicode="&#xad;" horiz-adv-x="1040" 
d="M863 662h-753v283h753v-283z" />
    <glyph glyph-name="period" unicode="." horiz-adv-x="669" 
d="M484 314v-313h-354v313h354z" />
    <glyph glyph-name="slash" unicode="/" horiz-adv-x="945" 
d="M149 0l293 1692h303l-294 -1692h-302z" />
    <glyph glyph-name="zero" unicode="0" horiz-adv-x="1302" 
d="M539 1379v-1066h249v1066h-249zM875 1692q102 0 175 -67q74 -68 74 -164v-1230q0 -96 -74 -164q-73 -67 -175 -67h-424q-101 0 -174 67q-74 68 -74 164v1230q0 96 74 164q73 67 174 67h424z" />
    <glyph glyph-name="one" unicode="1" horiz-adv-x="1302" 
d="M844 313h293v-313h-921v313h293v1066h-293v313h380q102 0 174 -67q74 -68 74 -164v-1148z" />
    <glyph glyph-name="two" unicode="2" horiz-adv-x="1302" 
d="M527 313h585v-313h-921v580q0 195 129 310q126 113 332 113q67 0 94 22q30 24 30 87v267h-249v-258h-336v340q0 96 74 164q73 67 174 67h424q102 0 175 -67q74 -68 74 -164v-349q0 -195 -128 -310q-126 -113 -332 -113q-68 0 -95 -22q-30 -24 -30 -87v-267z" />
    <glyph glyph-name="three" unicode="3" horiz-adv-x="1302" 
d="M759 1379h-249v-258h-336v340q0 96 74 164q73 67 174 67h424q102 0 175 -67q74 -68 74 -164v-349q0 -165 -97 -266q97 -101 97 -266v-349q0 -96 -74 -164q-73 -67 -175 -67h-424q-101 0 -174 67q-74 68 -74 164v341h336v-259h249v267q0 63 -30 87q-27 22 -94 22h-165v314
h165q67 0 94 22q30 24 30 87v267z" />
    <glyph glyph-name="four" unicode="4" horiz-adv-x="1302" 
d="M719 696v996h336v-996h133v-313h-133v-383h-336v383h-366q-101 0 -174 66q-74 68 -74 164l154 1079h310l-126 -996h276z" />
    <glyph glyph-name="five" unicode="5" horiz-adv-x="1302" 
d="M546 1379v-314q166 86 291 86q83 0 148 -38q146 -86 146 -325v-557q0 -96 -74 -164q-73 -67 -175 -67h-424q-101 0 -174 67q-74 68 -74 164v296h336v-214h249v475q0 63 -22 86q-21 22 -87 22q-68 0 -102 -21q-38 -26 -38 -87v-66h-336v970h921v-313h-585z" />
    <glyph glyph-name="six" unicode="6" horiz-adv-x="1302" 
d="M539 313h249v305q0 62 -30 87q-27 22 -94 22q-68 0 -95 -22q-30 -25 -30 -87v-305zM539 940q129 70 240 70q97 0 179 -53q166 -106 166 -339v-387q0 -96 -74 -164q-73 -67 -175 -67h-424q-101 0 -174 67q-74 68 -74 164v1230q0 96 74 164q73 67 174 67h424q102 0 175 -67
q74 -68 74 -164v-340h-336v258h-249v-439z" />
    <glyph glyph-name="seven" unicode="7" horiz-adv-x="1302" 
d="M502 1379v-258h-336v340q0 96 74 164q73 67 174 67h424q102 0 175 -67q74 -68 74 -164q0 -230 -64 -424q-44 -133 -175 -391q-158 -309 -158 -576v-70h-336v70q0 209 60 395q44 134 162 366q160 313 173 548h-247z" />
    <glyph glyph-name="eight" unicode="8" horiz-adv-x="1302" 
d="M776 1379h-249v-267q0 -63 29 -87q28 -22 96 -22q67 0 94 22q30 24 30 87v267zM527 313h249v267q0 63 -30 87q-27 22 -94 22q-68 0 -96 -22q-29 -24 -29 -87v-267zM191 1112v349q0 96 74 164q73 67 174 67h424q102 0 175 -67q74 -68 74 -164v-349q0 -165 -97 -266
q97 -101 97 -266v-349q0 -96 -74 -164q-73 -67 -175 -67h-424q-101 0 -174 67q-74 68 -74 164v349q0 165 96 266q-96 101 -96 266z" />
    <glyph glyph-name="nine" unicode="9" horiz-adv-x="1302" 
d="M775 1379h-249v-305q0 -62 29 -87q27 -22 95 -22q67 0 95 22q30 25 30 87v305zM775 752q-129 -70 -240 -70q-97 0 -179 53q-166 107 -166 339v387q0 96 74 164q73 67 174 67h424q102 0 175 -67q74 -68 74 -164v-1230q0 -96 -74 -164q-73 -67 -175 -67h-424
q-101 0 -174 67q-74 68 -74 164v341h336v-259h249v439z" />
    <glyph glyph-name="colon" unicode=":" horiz-adv-x="525" 
d="M415 314v-313h-354v313h354zM415 1296v-313h-354v313h354z" />
    <glyph glyph-name="semicolon" unicode=";" horiz-adv-x="525" 
d="M415 315v-313l-250 -354v354h-104v313h354zM415 1297v-313h-354v313h354z" />
    <glyph glyph-name="semicolon" unicode="&#x37e;" horiz-adv-x="525" 
d="M415 315v-313l-250 -354v354h-104v313h354zM415 1297v-313h-354v313h354z" />
    <glyph glyph-name="less" unicode="&#x3c;" horiz-adv-x="1144" 
d="M389 895l651 -192v-283l-936 331v288l936 331v-283z" />
    <glyph glyph-name="equal" unicode="=" horiz-adv-x="1152" 
d="M1044 481h-936v283h936v-283zM1044 1027h-936v282h936v-282z" />
    <glyph glyph-name="greater" unicode="&#x3e;" horiz-adv-x="1144" 
d="M104 1087v283l936 -331v-288l-936 -331v283l651 192z" />
    <glyph glyph-name="question" unicode="?" horiz-adv-x="1045" 
d="M304 527q47 121 140 304q160 313 173 548h-247v-258h-336v340q0 96 74 165q73 66 174 66h424q102 0 175 -66q74 -69 74 -165q0 -230 -64 -424q-44 -133 -175 -391q-30 -60 -56 -119h-356zM659 314v-313h-354v313h354z" />
    <glyph glyph-name="at" unicode="@" horiz-adv-x="1984" 
d="M1068 531v355h-126q-127 0 -127 -87v-410h710v958h-1145v-1402h709v-256h-780q-83 0 -142 55q-60 55 -60 134v1536q0 78 60 134q59 54 142 54h1287q83 0 143 -54q60 -56 60 -134v-1084q0 -79 -60 -134t-143 -55h-850q-81 0 -139 53q-58 54 -58 130v475q0 154 117 248
q111 87 276 87h392v-603h-266z" />
    <glyph glyph-name="A" unicode="A" horiz-adv-x="1145" 
d="M457 656h164l-82 721zM396 343l-68 -343h-340l328 1692h447l327 -1692h-341l-66 343h-287z" />
    <glyph glyph-name="B" unicode="B" horiz-adv-x="1219" 
d="M420 313h159q159 0 159 110v157q0 46 -36 78q-36 31 -84 31h-198v-376zM420 1379v-376h155q49 0 85 31q37 33 37 78v267h-277zM84 1692h699q102 0 176 -67q74 -68 74 -164v-349q0 -153 -110 -250q151 -100 151 -282v-157q0 -194 -148 -312q-139 -111 -347 -111h-495v1692
z" />
    <glyph glyph-name="C" unicode="C" horiz-adv-x="1171" 
d="M722 1379h-318v-1066h318v259h336v-341q0 -96 -74 -164q-73 -67 -174 -67h-494q-101 0 -174 67q-74 68 -74 164v1230q0 96 74 164q73 67 174 67h494q101 0 174 -67q74 -68 74 -164v-340h-336v258z" />
    <glyph glyph-name="D" unicode="D" horiz-adv-x="1240" 
d="M420 1379v-1066h159q159 0 159 110v956h-318zM84 1692h742q101 0 174 -67q74 -68 74 -164v-1038q0 -194 -148 -312q-139 -111 -347 -111h-495v1692z" />
    <glyph glyph-name="E" unicode="E" horiz-adv-x="1068" 
d="M420 313h560v-313h-896v1692h896v-313h-560v-376h466v-314h-466v-376z" />
    <glyph glyph-name="F" unicode="F" horiz-adv-x="1030" 
d="M84 1692h896v-313h-560v-376h466v-314h-466v-689h-336v1692z" />
    <glyph glyph-name="G" unicode="G" horiz-adv-x="1200" 
d="M722 603h-159v313h495v-685q0 -96 -74 -164q-73 -67 -174 -67h-494q-101 0 -174 67q-74 68 -74 164v1230q0 96 74 164q73 67 174 67h494q101 0 174 -67q74 -68 74 -164v-340h-336v258h-318v-1066h318v290z" />
    <glyph glyph-name="H" unicode="H" horiz-adv-x="1258" 
d="M420 689v-689h-336v1692h336v-689h318v689h336v-1692h-336v689h-318z" />
    <glyph glyph-name="I" unicode="I" horiz-adv-x="604" 
d="M84 0v1692h336v-1692h-336z" />
    <glyph glyph-name="J" unicode="J" horiz-adv-x="821" 
d="M156 313q160 0 160 110v1269h336v-1269q0 -194 -148 -312q-140 -111 -348 -111h-179v313h179z" />
    <glyph glyph-name="K" unicode="K" horiz-adv-x="1158" 
d="M420 689v-689h-336v1692h336v-689h129l208 689h341l-254 -846l254 -846h-341l-208 689h-129z" />
    <glyph glyph-name="L" unicode="L" horiz-adv-x="941" 
d="M84 0v1692h336v-1379h466v-313h-802z" />
    <glyph glyph-name="M" unicode="M" horiz-adv-x="1818" 
d="M1634 1692v-1692h-336v1115l-234 -1115h-408l-236 1115v-1115h-336v1692h466l310 -1375l308 1375h466z" />
    <glyph glyph-name="N" unicode="N" horiz-adv-x="1345" 
d="M420 1090v-1090h-336v1692h466l275 -1095v1095h336v-1692h-465z" />
    <glyph glyph-name="O" unicode="O" horiz-adv-x="1235" 
d="M404 1379v-1066h318v1066h-318zM810 1692q101 0 174 -67q74 -68 74 -164v-1230q0 -96 -74 -164q-73 -67 -174 -67h-494q-101 0 -174 67q-74 68 -74 164v1230q0 96 74 164q73 67 174 67h494z" />
    <glyph glyph-name="P" unicode="P" horiz-adv-x="1175" 
d="M420 1379v-463h159q159 0 159 109v354h-318zM84 1692h742q101 0 174 -67q74 -68 74 -164v-436q0 -193 -148 -311q-139 -111 -347 -111h-159v-603h-336v1692z" />
    <glyph glyph-name="Q" unicode="Q" horiz-adv-x="1231" 
d="M721 1381h-318v-1066h228q62 0 79 24q11 18 11 86v956zM1057 -48v-101h-336v101q0 27 -13 50h-393q-101 0 -174 67q-74 68 -74 165v1229q0 96 74 165q73 66 174 66h494q101 0 174 -66q74 -69 74 -165v-1038q0 -143 -84 -248q84 -94 84 -225z" />
    <glyph glyph-name="R" unicode="R" horiz-adv-x="1231" 
d="M618 916q48 0 84 32q36 31 36 77v354h-318v-463h198zM420 603v-603h-336v1692h742q101 0 174 -67q74 -68 74 -164v-436q0 -166 -129 -265q129 -99 129 -267v-493h-336v493q0 46 -36 79q-36 31 -84 31h-198z" />
    <glyph glyph-name="S" unicode="S" horiz-adv-x="1181" 
d="M710 1379h-318v-267q0 -109 159 -109q208 0 347 -111q148 -118 148 -312v-349q0 -96 -74 -164q-73 -67 -174 -67h-494q-101 0 -174 67q-74 68 -74 164v341h336v-259h318v267q0 109 -159 109q-208 0 -347 111q-148 118 -148 312v349q0 96 74 164q73 67 174 67h494
q101 0 174 -67q74 -68 74 -164v-340h-336v258z" />
    <glyph glyph-name="T" unicode="T" horiz-adv-x="994" 
d="M306 1379h-328v313h990v-313h-327v-1379h-335v1379z" />
    <glyph glyph-name="U" unicode="U" horiz-adv-x="1242" 
d="M408 313h318v1379h336v-1461q0 -96 -74 -164q-73 -67 -174 -67h-494q-101 0 -174 67q-74 68 -74 164v1461h336v-1379z" />
    <glyph glyph-name="V" unicode="V" horiz-adv-x="1134" 
d="M748 1692h341l-327 -1692h-447l-328 1692h340q92 -466 211 -1370q120 905 210 1370z" />
    <glyph glyph-name="W" unicode="W" horiz-adv-x="1927" 
d="M720 1692h427l205 -1376q101 913 180 1376h340l-289 -1692h-449l-200 1218l-200 -1218h-449l-290 1692h340q79 -463 180 -1376z" />
    <glyph glyph-name="X" unicode="X" horiz-adv-x="1097" 
d="M329 0h-341l255 846l-255 846h341q70 -232 178 -689q108 457 178 689h342l-255 -846l255 -846h-342q-71 233 -178 689q-108 -456 -178 -689z" />
    <glyph glyph-name="Y" unicode="Y" horiz-adv-x="1011" 
d="M649 579v-579h-336v578l-353 1114h343q74 -247 177 -810q105 563 178 810h343z" />
    <glyph glyph-name="Z" unicode="Z" horiz-adv-x="906" 
d="M409 1379h-390v313h827l-415 -1379h390v-313h-826z" />
    <glyph glyph-name="bracketleft" unicode="[" horiz-adv-x="814" 
d="M150 1909h514v-216h-203v-1758h203v-216h-514v2190z" />
    <glyph glyph-name="backslash" unicode="\" horiz-adv-x="896" 
d="M444 0l-294 1692h303l293 -1692h-302z" />
    <glyph glyph-name="bracketright" unicode="]" horiz-adv-x="814" 
d="M664 -281h-514v216h203v1758h-203v216h514v-2190z" />
    <glyph glyph-name="asciicircum" unicode="^" horiz-adv-x="1250" 
d="M625 1442l-192 -569h-283l331 818h288l331 -818h-283z" />
    <glyph glyph-name="underscore" unicode="_" horiz-adv-x="1437" 
d="M1287 -256h-1137v213h1137v-213z" />
    <glyph glyph-name="grave" unicode="`" horiz-adv-x="731" 
d="M360 1673l-210 310h319l112 -310h-221z" />
    <glyph glyph-name="a" unicode="a" horiz-adv-x="1132" 
d="M485 623h155l-78 685zM427 326l-65 -326h-323l312 1607h424l311 -1607h-324l-63 326h-272z" />
    <glyph glyph-name="b" unicode="b" horiz-adv-x="1215" 
d="M458 297h151q151 0 151 105v149q0 44 -34 74t-80 30h-188v-358zM458 1310v-357h147q47 0 81 29q35 32 35 74v254h-263zM139 1607h664q97 0 167 -63q71 -65 71 -156v-332q0 -145 -105 -237q144 -95 144 -268v-149q0 -184 -141 -297q-132 -105 -330 -105h-470v1607z" />
    <glyph glyph-name="c" unicode="c" horiz-adv-x="1179" 
d="M745 1310h-302v-1013h302v246h320v-324q0 -91 -71 -155q-69 -64 -165 -64h-469q-96 0 -166 64t-70 155v1169q0 91 70 156q70 63 166 63h469q96 0 165 -63q71 -65 71 -156v-323h-320v245z" />
    <glyph glyph-name="d" unicode="d" horiz-adv-x="1238" 
d="M458 1310v-1013h151q151 0 151 105v908h-302zM139 1607h705q96 0 165 -63q71 -65 71 -156v-986q0 -184 -141 -297q-132 -105 -330 -105h-470v1607z" />
    <glyph glyph-name="e" unicode="e" horiz-adv-x="1084" 
d="M458 297h532v-297h-851v1607h851v-297h-532v-357h443v-298h-443v-358z" />
    <glyph glyph-name="f" unicode="f" horiz-adv-x="1033" 
d="M140 1607h851v-297h-532v-357h443v-298h-443v-655h-319v1607z" />
    <glyph glyph-name="g" unicode="g" horiz-adv-x="1209" 
d="M745 573h-151v297h471v-651q0 -91 -71 -155q-69 -64 -165 -64h-469q-96 0 -166 64t-70 155v1169q0 91 70 156q70 63 166 63h469q96 0 165 -63q71 -65 71 -156v-323h-320v245h-302v-1013h302v276z" />
    <glyph glyph-name="h" unicode="h" horiz-adv-x="1258" 
d="M459 655v-655h-319v1607h319v-654h302v654h320v-1607h-320v655h-302z" />
    <glyph glyph-name="i" unicode="i" horiz-adv-x="636" 
d="M140 0v1607h319v-1607h-319z" />
    <glyph glyph-name="j" unicode="j" horiz-adv-x="829" 
d="M194 297q152 0 152 105v1205h319v-1205q0 -184 -140 -297q-133 -105 -331 -105h-170v297h170z" />
    <glyph glyph-name="k" unicode="k" horiz-adv-x="1181" 
d="M459 655v-655h-319v1607h319v-654h123l197 654h324l-241 -803l241 -804h-324l-197 655h-123z" />
    <glyph glyph-name="l" unicode="l" horiz-adv-x="946" 
d="M139 0v1607h319v-1310h443v-297h-762z" />
    <glyph glyph-name="m" unicode="m" horiz-adv-x="1789" 
d="M1613 1607v-1607h-320v1059l-222 -1059h-388l-224 1059v-1059h-319v1607h443l294 -1306l293 1306h443z" />
    <glyph glyph-name="n" unicode="n" horiz-adv-x="1340" 
d="M459 1035v-1035h-319v1607h443l261 -1040v1040h319v-1607h-442z" />
    <glyph glyph-name="o" unicode="o" horiz-adv-x="1233" 
d="M443 1310v-1013h302v1013h-302zM829 1607q96 0 165 -63q71 -65 71 -156v-1169q0 -91 -71 -155q-69 -64 -165 -64h-469q-96 0 -166 64t-70 155v1169q0 91 70 156q70 63 166 63h469z" />
    <glyph glyph-name="p" unicode="p" horiz-adv-x="1162" 
d="M459 1310v-440h151q151 0 151 104v336h-302zM140 1607h705q96 0 165 -63q71 -65 71 -156v-414q0 -184 -141 -296q-132 -105 -330 -105h-151v-573h-319v1607z" />
    <glyph glyph-name="q" unicode="q" horiz-adv-x="1232" 
d="M747 1312h-302v-1013h217q59 0 75 23q10 17 10 81v909zM1067 -46v-96h-320v96q0 26 -12 47h-373q-96 0 -166 64q-70 65 -70 157v1167q0 92 70 157q70 63 166 63h469q96 0 165 -63q71 -65 71 -157v-986q0 -136 -80 -235q80 -90 80 -214z" />
    <glyph glyph-name="r" unicode="r" horiz-adv-x="1245" 
d="M647 870q46 0 80 31q34 29 34 73v336h-302v-440h188zM459 573v-573h-319v1607h705q96 0 165 -63q71 -65 71 -156v-414q0 -158 -123 -252q123 -94 123 -254v-468h-320v468q0 44 -34 75q-34 30 -80 30h-188z" />
    <glyph glyph-name="s" unicode="s" horiz-adv-x="1194" 
d="M737 1310h-302v-254q0 -103 151 -103q198 0 330 -106q141 -112 141 -296v-332q0 -91 -71 -155q-69 -64 -165 -64h-469q-96 0 -166 64t-70 155v324h319v-246h302v254q0 104 -151 104q-197 0 -329 105q-141 112 -141 296v332q0 91 70 156q70 63 166 63h469q96 0 165 -63
q71 -65 71 -156v-323h-320v245z" />
    <glyph glyph-name="t" unicode="t" horiz-adv-x="976" 
d="M334 1310h-312v297h941v-297h-311v-1310h-318v1310z" />
    <glyph glyph-name="u" unicode="u" horiz-adv-x="1246" 
d="M451 297h302v1310h320v-1388q0 -91 -71 -155q-69 -64 -165 -64h-469q-96 0 -166 64t-70 155v1388h319v-1310z" />
    <glyph glyph-name="v" unicode="v" horiz-adv-x="1125" 
d="M760 1607h324l-311 -1607h-424l-312 1607h323q87 -442 200 -1301q114 860 200 1301z" />
    <glyph glyph-name="w" unicode="w" horiz-adv-x="1882" 
d="M733 1607h405l195 -1307q96 868 171 1307h323l-274 -1607h-427l-190 1157l-190 -1157h-426l-276 1607h323q75 -439 171 -1307z" />
    <glyph glyph-name="x" unicode="x" horiz-adv-x="1129" 
d="M378 0h-324l242 804l-242 803h324q66 -220 169 -654q103 434 169 654h325l-242 -803l242 -804h-325q-67 221 -169 655q-103 -434 -169 -655z" />
    <glyph glyph-name="y" unicode="y" horiz-adv-x="1013" 
d="M663 550v-550h-320v549l-335 1058h326q70 -234 168 -769q100 535 169 769h326z" />
    <glyph glyph-name="z" unicode="z" horiz-adv-x="944" 
d="M442 1310h-370v297h785l-394 -1310h371v-297h-785z" />
    <glyph glyph-name="braceleft" unicode="{" horiz-adv-x="1017" 
d="M533 845q131 -108 131 -283v-509q0 -102 147 -118h56v-216h-56q-193 0 -321 103q-137 109 -137 288v509q0 102 -147 118h-56v216h56q147 16 147 118v447q0 179 137 288q128 103 321 103h56v-216h-56q-147 -16 -147 -118v-447q0 -175 -131 -283z" />
    <glyph glyph-name="bar" unicode="|" horiz-adv-x="597" 
d="M150 -413v2334h297v-2334h-297z" />
    <glyph glyph-name="braceright" unicode="}" horiz-adv-x="1017" 
d="M353 1128v447q0 102 -147 118h-56v216h56q193 0 321 -103q137 -109 137 -288v-447q0 -102 147 -118h56v-216h-56q-147 -16 -147 -118v-509q0 -179 -137 -288q-128 -103 -321 -103h-56v216h56q147 16 147 118v509q0 175 131 283q-131 108 -131 283z" />
    <glyph glyph-name="asciitilde" unicode="~" horiz-adv-x="1310" 
d="M485 861q-21 11 -42 11q-55 0 -106 -77l-22 -43l-165 85l22 43q76 148 205 205q64 29 129 29q72 0 145 -37l174 -90q21 -11 42 -11q55 0 106 78l22 42l165 -85l-22 -42q-76 -148 -205 -206q-64 -29 -128 -29q-73 0 -146 38z" />
    <glyph glyph-name="exclamdown" unicode="&#xa1;" horiz-adv-x="885" 
d="M563 1080v-1164h-336v1164h336zM218 1294v313h354v-313h-354z" />
    <glyph glyph-name="cent" unicode="&#xa2;" horiz-adv-x="1179" 
d="M626 1607l24 149h233l-24 -151q77 -8 135 -61q71 -65 71 -156v-323h-320v245h-302v-1013h302v246h320v-324q0 -91 -71 -155q-69 -64 -165 -64h-155l-22 -137h-232l22 137h-82q-96 0 -166 64t-70 155v1169q0 91 70 156q70 63 166 63h266z" />
    <glyph glyph-name="sterling" unicode="&#xa3;" horiz-adv-x="1359" 
d="M649 672v-152q0 -118 -55 -207h615v-313h-1053v313q159 0 159 110v249h-165v283h163v314q0 194 148 312q139 111 347 111h356v-313h-356q-159 0 -159 -110v-314h437v-283h-437z" />
    <glyph glyph-name="yen" unicode="&#xa5;" horiz-adv-x="1341" 
d="M839 142v-142h-336v142h-306v283h306v150h-306v282h218l-265 835h343q74 -247 177 -810q105 563 178 810h343l-264 -835h206v-282h-294v-150h294v-283h-294z" />
    <glyph glyph-name="brokenbar" unicode="&#xa6;" horiz-adv-x="597" 
d="M150 -413v1105h297v-1105h-297zM150 859v1062h297v-1062h-297z" />
    <glyph glyph-name="section" unicode="&#xa7;" horiz-adv-x="1241" 
d="M1027 359q64 -91 64 -215v-237q0 -91 -70 -156q-70 -63 -166 -63h-469q-96 0 -165 63q-71 65 -71 156v228h320v-150h302v159q0 103 -151 103q-198 0 -330 106q-141 112 -141 296v233q0 86 64 149q-64 91 -64 215v237q0 91 70 156q70 63 166 63h469q96 0 165 -63
q71 -65 71 -156v-228h-320v150h-302v-159q0 -103 151 -103q198 0 330 -106q141 -112 141 -296v-233q0 -86 -64 -149zM771 528v213q0 104 -151 104q-80 0 -150 17v-213q0 -104 151 -104q80 0 150 -17z" />
    <glyph glyph-name="dieresis" unicode="&#xa8;" horiz-adv-x="1049" 
d="M431 1949v-248h-281v248h281zM899 1949v-248h-281v248h281z" />
    <glyph glyph-name="copyright" unicode="&#xa9;" horiz-adv-x="1949" 
d="M462 1475v-1260h934v1260h-934zM1454 1691q68 0 117 -46q49 -47 49 -113v-1373q0 -66 -49 -114q-49 -45 -117 -45h-1049q-68 0 -117 45q-49 48 -49 114v1373q0 66 49 113q49 46 117 46h1049zM1029 1156h-192v-644h192v156h203v-206q0 -58 -45 -98q-44 -41 -105 -41h-298
q-61 0 -106 41q-44 40 -44 98v743q0 58 44 99q45 40 106 40h298q61 0 105 -40q45 -41 45 -99v-205h-203v156z" />
    <glyph glyph-name="guillemotleft" unicode="&#xab;" horiz-adv-x="1216" 
d="M150 946l487 331v-235l-262 -240l262 -240v-235l-487 331v288zM579 946l487 331v-235l-262 -240l262 -240v-235l-487 331v288z" />
    <glyph glyph-name="registered" unicode="&#xae;" horiz-adv-x="1681" 
d="M373 1475v-1260h934v1260h-934zM1365 1691q68 0 117 -46q49 -47 49 -113v-1373q0 -66 -49 -114q-49 -45 -117 -45h-1049q-68 0 -117 45q-49 48 -49 114v1373q0 66 49 113q49 46 117 46h1049zM859 874q29 0 51 20q22 19 22 47v214h-193v-281h120zM739 685v-366h-203v1025
h449q61 0 105 -40q46 -41 46 -99v-264q0 -101 -79 -161q79 -60 79 -162v-299h-204v299q0 28 -22 48q-22 19 -51 19h-120z" />
    <glyph glyph-name="macron" unicode="&#xaf;" horiz-adv-x="1244" 
d="M1094 1945v-215h-944v215h944z" />
    <glyph glyph-name="degree" unicode="&#xb0;" horiz-adv-x="1048" 
d="M788.5 1590.5q109.5 -109.5 109.5 -264.5t-109.5 -264.5t-264.5 -109.5t-264.5 109.5t-109.5 264.5t109.5 264.5t264.5 109.5t264.5 -109.5zM524 1468q-59 0 -100.5 -41.5t-41.5 -100.5t41.5 -100.5t100.5 -41.5t100.5 41.5t41.5 100.5t-41.5 100.5t-100.5 41.5z" />
    <glyph glyph-name="plusminus" unicode="&#xb1;" horiz-adv-x="1194" 
d="M1029 0h-936v283h936v-283zM702 1066h327v-283h-327v-327h-282v327h-327v283h327v326h282v-326z" />
    <glyph glyph-name="acute" unicode="&#xb4;" horiz-adv-x="731" 
d="M150 1673l112 310h319l-210 -310h-221z" />
    <glyph glyph-name="paragraph" unicode="&#xb6;" horiz-adv-x="1452" 
d="M1007 0v1692h295v-1692h-295zM837 1692v-1692h-295v944h-18q-155 0 -264.5 109.5t-109.5 264.5t109.5 264.5t264.5 109.5h313z" />
    <glyph glyph-name="periodcentered" unicode="&#xb7;" horiz-adv-x="508" 
d="M428.388 872.075v-266.043h-300.892v266.043h300.892z" />
    <glyph glyph-name="periodcentered" unicode="&#x2219;" horiz-adv-x="508" 
d="M428.388 872.075v-266.043h-300.892v266.043h300.892z" />
    <glyph glyph-name="cedilla" unicode="&#xb8;" horiz-adv-x="741" 
d="M333 -277q42 0 72.5 25.5t30.5 61.5q0 37 -30 63q-21 16 -94 44l69 109q76 -11 135 -60q75 -65 75 -156q0 -90 -75.5 -154.5t-182.5 -64.5q-108 0 -183 65l67 106q79 -39 116 -39z" />
    <glyph glyph-name="guillemotright" unicode="&#xbb;" horiz-adv-x="1216" 
d="M637 658l-487 -331v235l262 240l-262 240v235l487 -331v-288zM1066 658l-487 -331v235l262 240l-262 240v235l487 -331v-288z" />
    <glyph glyph-name="questiondown" unicode="&#xbf;" horiz-adv-x="1045" 
d="M685 1081q-47 -121 -140 -304q-160 -313 -173 -548h247v258h336v-340q0 -96 -74 -165q-73 -66 -174 -66h-424q-102 0 -175 66q-74 69 -74 165q0 230 64 424q44 133 175 391q30 60 56 119h356zM330 1294v313h354v-313h-354z" />
    <glyph glyph-name="Agrave" unicode="&#xc0;" horiz-adv-x="1145" 
d="M457 656h164l-82 721zM396 343l-68 -343h-340l328 1692h447l327 -1692h-341l-66 343h-287zM462 1758l-210 310h319l112 -310h-221z" />
    <glyph glyph-name="Aacute" unicode="&#xc1;" horiz-adv-x="1145" 
d="M457 656h164l-82 721zM396 343l-68 -343h-340l328 1692h447l327 -1692h-341l-66 343h-287zM395 1758l112 310h319l-210 -310h-221z" />
    <glyph glyph-name="Acircumflex" unicode="&#xc2;" horiz-adv-x="1145" 
d="M457 656h164l-82 721zM396 343l-68 -343h-340l328 1692h447l327 -1692h-341l-66 343h-287zM634 1780l-94 145l-93 -145h-212l108 295h395l106 -295h-210z" />
    <glyph glyph-name="Atilde" unicode="&#xc3;" horiz-adv-x="1145" 
d="M457 656h164l-82 721zM396 343l-68 -343h-340l328 1692h447l327 -1692h-341l-66 343h-287zM418 1849q-15 10 -30 10q-39 0 -75 -70l-16 -39l-117 77l16 39q54 134 145 186q46 26 92 26q51 0 103 -33l124 -82q15 -10 30 -10q39 0 75 71l16 38l117 -77l-16 -38
q-54 -134 -145 -187q-46 -26 -91 -26q-52 0 -104 35z" />
    <glyph glyph-name="Adieresis" unicode="&#xc4;" horiz-adv-x="1145" 
d="M457 656h164l-82 721zM396 343l-68 -343h-340l328 1692h447l327 -1692h-341l-66 343h-287zM446 2034v-248h-281v248h281zM914 2034v-248h-281v248h281z" />
    <glyph glyph-name="Aring" unicode="&#xc5;" horiz-adv-x="1145" 
d="M457 656h164l-82 721zM539 2007q-38 0 -64.5 -26.5t-26.5 -64.5q0 -37 26.5 -63.5t64.5 -26.5t64.5 26.5t26.5 63.5q0 38 -26.5 64.5t-64.5 26.5zM571 1692h192l327 -1692h-341l-66 343h-287l-68 -343h-340l328 1692h191q-73 10 -128 65q-66 66 -66 159q0 94 66 160.5
t160 66.5t160 -66.5t66 -160.5q0 -93 -66 -159q-55 -55 -128 -65z" />
    <glyph glyph-name="AE" unicode="&#xc6;" horiz-adv-x="1626" 
d="M457 656h196v758zM642 343h-246l-68 -343h-340l407 1692h1143v-313h-560v-376h466v-314h-466l1 -376h559v-313h-896v343z" />
    <glyph glyph-name="Ccedilla" unicode="&#xc7;" horiz-adv-x="1171" 
d="M557 0h-241q-101 0 -174 67q-74 68 -74 164v1230q0 96 74 164q73 67 174 67h494q101 0 174 -67q74 -68 74 -164v-340h-336v258h-318v-1066h318v259h336v-341q0 -96 -74 -164q-73 -67 -174 -67h-153q27 -14 51 -34q76 -65 76 -156q0 -90 -75.5 -154.5t-183.5 -64.5
q-107 0 -182 65l66 106q80 -39 116 -39q43 0 73 25.5t30 61.5q0 37 -30 63q-20 16 -93 44z" />
    <glyph glyph-name="Egrave" unicode="&#xc8;" horiz-adv-x="1068" 
d="M420 313h560v-313h-896v1692h896v-313h-560v-376h466v-314h-466v-376zM455 1758l-210 310h319l112 -310h-221z" />
    <glyph glyph-name="Eacute" unicode="&#xc9;" horiz-adv-x="1068" 
d="M420 313h560v-313h-896v1692h896v-313h-560v-376h466v-314h-466v-376zM388 1758l112 310h319l-210 -310h-221z" />
    <glyph glyph-name="Ecircumflex" unicode="&#xca;" horiz-adv-x="1068" 
d="M420 313h560v-313h-896v1692h896v-313h-560v-376h466v-314h-466v-376zM627 1780l-94 145l-93 -145h-212l108 295h395l106 -295h-210z" />
    <glyph glyph-name="Edieresis" unicode="&#xcb;" horiz-adv-x="1068" 
d="M420 313h560v-313h-896v1692h896v-313h-560v-376h466v-314h-466v-376zM439 2034v-248h-281v248h281zM907 2034v-248h-281v248h281z" />
    <glyph glyph-name="Igrave" unicode="&#xcc;" horiz-adv-x="604" 
d="M84 0v1692h336v-1692h-336zM175 1758l-210 310h319l112 -310h-221z" />
    <glyph glyph-name="Iacute" unicode="&#xcd;" horiz-adv-x="604" 
d="M84 0v1692h336v-1692h-336zM108 1758l112 310h319l-210 -310h-221z" />
    <glyph glyph-name="Icircumflex" unicode="&#xce;" horiz-adv-x="604" 
d="M84 0v1692h336v-1692h-336zM347 1780l-94 145l-93 -145h-212l108 295h395l106 -295h-210z" />
    <glyph glyph-name="Idieresis" unicode="&#xcf;" horiz-adv-x="604" 
d="M84 0v1692h336v-1692h-336zM159 2034v-248h-281v248h281zM627 2034v-248h-281v248h281z" />
    <glyph glyph-name="Eth" unicode="&#xd0;" horiz-adv-x="1232" 
d="M84 953v739h742q101 0 174 -67q74 -68 74 -164v-1038q0 -194 -148 -312q-139 -111 -347 -111h-495v740h-90v213h90zM420 953h176v-213h-176v-427h159q159 0 159 110v956h-318v-426z" />
    <glyph glyph-name="Ntilde" unicode="&#xd1;" horiz-adv-x="1345" 
d="M420 1090v-1090h-336v1692h466l275 -1095v1095h336v-1692h-465zM502 1849q-15 10 -30 10q-39 0 -75 -70l-16 -39l-117 77l16 39q54 134 145 186q46 26 92 26q51 0 103 -33l124 -82q15 -10 30 -10q39 0 75 71l16 38l117 -77l-16 -38q-54 -134 -145 -187q-46 -26 -91 -26
q-52 0 -104 35z" />
    <glyph glyph-name="Ograve" unicode="&#xd2;" horiz-adv-x="1235" 
d="M404 1379v-1066h318v1066h-318zM810 1692q101 0 174 -67q74 -68 74 -164v-1230q0 -96 -74 -164q-73 -67 -174 -67h-494q-101 0 -174 67q-74 68 -74 164v1230q0 96 74 164q73 67 174 67h494zM486 1758l-210 310h319l112 -310h-221z" />
    <glyph glyph-name="Oacute" unicode="&#xd3;" horiz-adv-x="1235" 
d="M404 1379v-1066h318v1066h-318zM810 1692q101 0 174 -67q74 -68 74 -164v-1230q0 -96 -74 -164q-73 -67 -174 -67h-494q-101 0 -174 67q-74 68 -74 164v1230q0 96 74 164q73 67 174 67h494zM419 1758l112 310h319l-210 -310h-221z" />
    <glyph glyph-name="Ocircumflex" unicode="&#xd4;" horiz-adv-x="1235" 
d="M404 1379v-1066h318v1066h-318zM810 1692q101 0 174 -67q74 -68 74 -164v-1230q0 -96 -74 -164q-73 -67 -174 -67h-494q-101 0 -174 67q-74 68 -74 164v1230q0 96 74 164q73 67 174 67h494zM658 1780l-94 145l-93 -145h-212l108 295h395l106 -295h-210z" />
    <glyph glyph-name="Otilde" unicode="&#xd5;" horiz-adv-x="1235" 
d="M404 1379v-1066h318v1066h-318zM810 1692q101 0 174 -67q74 -68 74 -164v-1230q0 -96 -74 -164q-73 -67 -174 -67h-494q-101 0 -174 67q-74 68 -74 164v1230q0 96 74 164q73 67 174 67h494zM442 1849q-15 10 -30 10q-39 0 -75 -70l-16 -39l-117 77l16 39q54 134 145 186
q46 26 92 26q51 0 103 -33l124 -82q15 -10 30 -10q39 0 75 71l16 38l117 -77l-16 -38q-54 -134 -145 -187q-46 -26 -91 -26q-52 0 -104 35z" />
    <glyph glyph-name="Odieresis" unicode="&#xd6;" horiz-adv-x="1235" 
d="M404 1379v-1066h318v1066h-318zM810 1692q101 0 174 -67q74 -68 74 -164v-1230q0 -96 -74 -164q-73 -67 -174 -67h-494q-101 0 -174 67q-74 68 -74 164v1230q0 96 74 164q73 67 174 67h494zM470 2034v-248h-281v248h281zM938 2034v-248h-281v248h281z" />
    <glyph glyph-name="multiply" unicode="&#xd7;" horiz-adv-x="1122" 
d="M561 1124l231 231l200 -200l-231 -231l231 -231l-199 -200l-232 232l-231 -232l-200 200l231 232l-230 230l199 200z" />
    <glyph glyph-name="Ugrave" unicode="&#xd9;" horiz-adv-x="1242" 
d="M408 313h318v1379h336v-1461q0 -96 -74 -164q-73 -67 -174 -67h-494q-101 0 -174 67q-74 68 -74 164v1461h336v-1379zM490 1758l-210 310h319l112 -310h-221z" />
    <glyph glyph-name="Uacute" unicode="&#xda;" horiz-adv-x="1242" 
d="M408 313h318v1379h336v-1461q0 -96 -74 -164q-73 -67 -174 -67h-494q-101 0 -174 67q-74 68 -74 164v1461h336v-1379zM423 1758l112 310h319l-210 -310h-221z" />
    <glyph glyph-name="Ucircumflex" unicode="&#xdb;" horiz-adv-x="1242" 
d="M408 313h318v1379h336v-1461q0 -96 -74 -164q-73 -67 -174 -67h-494q-101 0 -174 67q-74 68 -74 164v1461h336v-1379zM662 1780l-94 145l-93 -145h-212l108 295h395l106 -295h-210z" />
    <glyph glyph-name="Udieresis" unicode="&#xdc;" horiz-adv-x="1242" 
d="M408 313h318v1379h336v-1461q0 -96 -74 -164q-73 -67 -174 -67h-494q-101 0 -174 67q-74 68 -74 164v1461h336v-1379zM474 2034v-248h-281v248h281zM942 2034v-248h-281v248h281z" />
    <glyph glyph-name="Yacute" unicode="&#xdd;" horiz-adv-x="1011" 
d="M649 579v-579h-336v578l-353 1114h343q74 -247 177 -810q105 563 178 810h343zM337 1758l112 310h319l-210 -310h-221z" />
    <glyph glyph-name="Thorn" unicode="&#xde;" horiz-adv-x="1162" 
d="M460 1310v-440h151q151 0 151 104v336h-302zM459 1607h387q96 0 165 -63q71 -65 71 -156v-414q0 -184 -141 -296q-132 -105 -330 -105h-151v-805h-319l-1 2056h319v-217z" />
    <glyph glyph-name="agrave" unicode="&#xe0;" horiz-adv-x="1132" 
d="M485 623h155l-78 685zM427 326l-65 -326h-323l312 1607h424l311 -1607h-324l-63 326h-272zM485 1673l-210 310h319l112 -310h-221z" />
    <glyph glyph-name="aacute" unicode="&#xe1;" horiz-adv-x="1132" 
d="M485 623h155l-78 685zM427 326l-65 -326h-323l312 1607h424l311 -1607h-324l-63 326h-272zM419 1673l112 310h319l-210 -310h-221z" />
    <glyph glyph-name="acircumflex" unicode="&#xe2;" horiz-adv-x="1132" 
d="M485 623h155l-78 685zM427 326l-65 -326h-323l312 1607h424l311 -1607h-324l-63 326h-272zM657 1695l-94 145l-93 -145h-212l108 295h395l106 -295h-210z" />
    <glyph glyph-name="atilde" unicode="&#xe3;" horiz-adv-x="1132" 
d="M485 623h155l-78 685zM427 326l-65 -326h-323l312 1607h424l311 -1607h-324l-63 326h-272zM442 1764q-15 10 -30 10q-39 0 -75 -70l-16 -39l-117 77l16 39q54 134 145 186q46 26 92 26q51 0 103 -33l124 -82q15 -10 30 -10q39 0 75 71l16 38l117 -77l-16 -38
q-54 -134 -145 -187q-46 -26 -91 -26q-52 0 -104 35z" />
    <glyph glyph-name="adieresis" unicode="&#xe4;" horiz-adv-x="1132" 
d="M485 623h155l-78 685zM427 326l-65 -326h-323l312 1607h424l311 -1607h-324l-63 326h-272zM469 1949v-248h-281v248h281zM937 1949v-248h-281v248h281z" />
    <glyph glyph-name="aring" unicode="&#xe5;" horiz-adv-x="1132" 
d="M485 623h155l-78 685zM563 1922q-38 0 -64.5 -26.5t-26.5 -64.5q0 -37 26.5 -63.5t64.5 -26.5q37 0 63.5 26.5t26.5 63.5q0 38 -26.5 64.5t-63.5 26.5zM595 1607h180l311 -1607h-324l-63 326h-272l-65 -326h-323l312 1607h180q-73 10 -128 65q-66 66 -66 159
q0 94 66 160.5t160 66.5t160 -66.5t66 -160.5q0 -93 -66 -159q-55 -55 -128 -65z" />
    <glyph glyph-name="ae" unicode="&#xe6;" horiz-adv-x="1548" 
d="M434 623h186v720zM609 326h-233l-65 -326h-323l387 1607h1086v-297h-532v-357h442v-298h-442v-358h532v-297h-852v326z" />
    <glyph glyph-name="ccedilla" unicode="&#xe7;" horiz-adv-x="1179" 
d="M589 0h-229q-96 0 -166 64t-70 155v1169q0 91 70 156q70 63 166 63h469q96 0 165 -63q71 -65 71 -156v-323h-320v245h-302v-1013h302v246h320v-324q0 -91 -71 -155q-69 -64 -165 -64h-141q28 -14 52 -34q75 -65 75 -156q0 -90 -75.5 -154.5t-182.5 -64.5q-108 0 -183 65
l67 106q79 -39 116 -39q42 0 72.5 25.5t30.5 61.5q0 37 -30 63q-21 16 -94 44z" />
    <glyph glyph-name="egrave" unicode="&#xe8;" horiz-adv-x="1084" 
d="M458 297h532v-297h-851v1607h851v-297h-532v-357h443v-298h-443v-358zM487 1673l-210 310h319l112 -310h-221z" />
    <glyph glyph-name="eacute" unicode="&#xe9;" horiz-adv-x="1084" 
d="M458 297h532v-297h-851v1607h851v-297h-532v-357h443v-298h-443v-358zM421 1673l112 310h319l-210 -310h-221z" />
    <glyph glyph-name="ecircumflex" unicode="&#xea;" horiz-adv-x="1084" 
d="M458 297h532v-297h-851v1607h851v-297h-532v-357h443v-298h-443v-358zM659 1695l-94 145l-93 -145h-212l108 295h395l106 -295h-210z" />
    <glyph glyph-name="edieresis" unicode="&#xeb;" horiz-adv-x="1084" 
d="M458 297h532v-297h-851v1607h851v-297h-532v-357h443v-298h-443v-358zM471 1949v-248h-281v248h281zM939 1949v-248h-281v248h281z" />
    <glyph glyph-name="igrave" unicode="&#xec;" horiz-adv-x="636" 
d="M140 0v1607h319v-1607h-319zM222 1673l-210 310h319l112 -310h-221z" />
    <glyph glyph-name="iacute" unicode="&#xed;" horiz-adv-x="636" 
d="M140 0v1607h319v-1607h-319zM156 1673l112 310h319l-210 -310h-221z" />
    <glyph glyph-name="icircumflex" unicode="&#xee;" horiz-adv-x="636" 
d="M140 0v1607h319v-1607h-319zM394 1695l-94 145l-93 -145h-212l108 295h395l106 -295h-210z" />
    <glyph glyph-name="idieresis" unicode="&#xef;" horiz-adv-x="636" 
d="M140 0v1607h319v-1607h-319zM206 1949v-248h-281v248h281zM674 1949v-248h-281v248h281z" />
    <glyph glyph-name="ntilde" unicode="&#xf1;" horiz-adv-x="1340" 
d="M459 1035v-1035h-319v1607h443l261 -1040v1040h319v-1607h-442zM531 1764q-15 10 -30 10q-39 0 -75 -70l-16 -39l-117 77l16 39q54 134 145 186q46 26 92 26q51 0 103 -33l124 -82q15 -10 30 -10q39 0 75 71l16 38l117 -77l-16 -38q-54 -134 -145 -187q-46 -26 -91 -26
q-52 0 -104 35z" />
    <glyph glyph-name="ograve" unicode="&#xf2;" horiz-adv-x="1233" 
d="M443 1310v-1013h302v1013h-302zM829 1607q96 0 165 -63q71 -65 71 -156v-1169q0 -91 -71 -155q-69 -64 -165 -64h-469q-96 0 -166 64t-70 155v1169q0 91 70 156q70 63 166 63h469zM517 1673l-210 310h319l112 -310h-221z" />
    <glyph glyph-name="oacute" unicode="&#xf3;" horiz-adv-x="1233" 
d="M443 1310v-1013h302v1013h-302zM829 1607q96 0 165 -63q71 -65 71 -156v-1169q0 -91 -71 -155q-69 -64 -165 -64h-469q-96 0 -166 64t-70 155v1169q0 91 70 156q70 63 166 63h469zM451 1673l112 310h319l-210 -310h-221z" />
    <glyph glyph-name="ocircumflex" unicode="&#xf4;" horiz-adv-x="1233" 
d="M443 1310v-1013h302v1013h-302zM829 1607q96 0 165 -63q71 -65 71 -156v-1169q0 -91 -71 -155q-69 -64 -165 -64h-469q-96 0 -166 64t-70 155v1169q0 91 70 156q70 63 166 63h469zM689 1695l-94 145l-93 -145h-212l108 295h395l106 -295h-210z" />
    <glyph glyph-name="otilde" unicode="&#xf5;" horiz-adv-x="1233" 
d="M443 1310v-1013h302v1013h-302zM829 1607q96 0 165 -63q71 -65 71 -156v-1169q0 -91 -71 -155q-69 -64 -165 -64h-469q-96 0 -166 64t-70 155v1169q0 91 70 156q70 63 166 63h469zM474 1764q-15 10 -30 10q-39 0 -75 -70l-16 -39l-117 77l16 39q54 134 145 186
q46 26 92 26q51 0 103 -33l124 -82q15 -10 30 -10q39 0 75 71l16 38l117 -77l-16 -38q-54 -134 -145 -187q-46 -26 -91 -26q-52 0 -104 35z" />
    <glyph glyph-name="odieresis" unicode="&#xf6;" horiz-adv-x="1233" 
d="M443 1310v-1013h302v1013h-302zM829 1607q96 0 165 -63q71 -65 71 -156v-1169q0 -91 -71 -155q-69 -64 -165 -64h-469q-96 0 -166 64t-70 155v1169q0 91 70 156q70 63 166 63h469zM501 1949v-248h-281v248h281zM969 1949v-248h-281v248h281z" />
    <glyph glyph-name="divide" unicode="&#xf7;" horiz-adv-x="1236" 
d="M1086 783h-936v283h936v-283zM795 590v-313h-354v313h354zM795 1572v-313h-354v313h354z" />
    <glyph glyph-name="oslash" unicode="&#xf8;" horiz-adv-x="1233" 
d="M443 1310v-1013h302v1013h-302zM540 1607l17 124h270l-18 -124h20q96 0 165 -63q71 -65 71 -156v-1169q0 -91 -71 -155q-69 -64 -165 -64h-202l-17 -119h-268l16 119q-95 1 -164 64q-70 64 -70 155v1169q0 91 70 156q70 63 166 63h180z" />
    <glyph glyph-name="ugrave" unicode="&#xf9;" horiz-adv-x="1246" 
d="M451 297h302v1310h320v-1388q0 -91 -71 -155q-69 -64 -165 -64h-469q-96 0 -166 64t-70 155v1388h319v-1310zM525 1673l-210 310h319l112 -310h-221z" />
    <glyph glyph-name="uacute" unicode="&#xfa;" horiz-adv-x="1246" 
d="M451 297h302v1310h320v-1388q0 -91 -71 -155q-69 -64 -165 -64h-469q-96 0 -166 64t-70 155v1388h319v-1310zM459 1673l112 310h319l-210 -310h-221z" />
    <glyph glyph-name="ucircumflex" unicode="&#xfb;" horiz-adv-x="1246" 
d="M451 297h302v1310h320v-1388q0 -91 -71 -155q-69 -64 -165 -64h-469q-96 0 -166 64t-70 155v1388h319v-1310zM697 1695l-94 145l-93 -145h-212l108 295h395l106 -295h-210z" />
    <glyph glyph-name="udieresis" unicode="&#xfc;" horiz-adv-x="1246" 
d="M451 297h302v1310h320v-1388q0 -91 -71 -155q-69 -64 -165 -64h-469q-96 0 -166 64t-70 155v1388h319v-1310zM509 1949v-248h-281v248h281zM977 1949v-248h-281v248h281z" />
    <glyph glyph-name="yacute" unicode="&#xfd;" horiz-adv-x="1013" 
d="M663 550v-550h-320v549l-335 1058h326q70 -234 168 -769q100 535 169 769h326zM359 1673l112 310h319l-210 -310h-221z" />
    <glyph glyph-name="thorn" unicode="&#xfe;" horiz-adv-x="1162" 
d="M460 1310v-440h151q151 0 151 104v336h-302zM459 1607h387q96 0 165 -63q71 -65 71 -156v-414q0 -184 -141 -296q-132 -105 -330 -105h-151v-805h-319l-1 2056h319v-217z" />
    <glyph glyph-name="ydieresis" unicode="&#xff;" horiz-adv-x="1013" 
d="M663 550v-550h-320v549l-335 1058h326q70 -234 168 -769q100 535 169 769h326zM409 1949v-248h-281v248h281zM877 1949v-248h-281v248h281z" />
    <glyph glyph-name="dotlessi" unicode="&#x131;" horiz-adv-x="636" 
d="M140 0v1607h319v-1607h-319z" />
    <glyph glyph-name="circumflex" unicode="&#x2c6;" horiz-adv-x="909" 
d="M549 1695l-94 145l-93 -145h-212l108 295h395l106 -295h-210z" />
    <glyph glyph-name="caron" unicode="&#x2c7;" horiz-adv-x="909" 
d="M759 1990l-106 -295h-395l-108 295h212l93 -145l94 145h210z" />
    <glyph glyph-name="uni02C9" unicode="&#x2c9;" horiz-adv-x="817" 
d="M667 1945v-215h-517v215h517z" />
    <glyph glyph-name="breve" unicode="&#x2d8;" horiz-adv-x="909" 
d="M759 1990q-106 -295 -303 -295q-198 0 -306 295h212q47 -89 93 -89q47 0 94 89h210z" />
    <glyph glyph-name="dotaccent" unicode="&#x2d9;" horiz-adv-x="581" 
d="M431 1949v-220h-281v220h281z" />
    <glyph glyph-name="ring" unicode="&#x2da;" horiz-adv-x="752" 
d="M536 1991.5q66 -66.5 66 -160.5q0 -93 -66 -159.5t-160 -66.5t-160 66.5t-66 159.5q0 94 66 160.5t160 66.5t160 -66.5zM376 1922q-38 0 -64.5 -26.5t-26.5 -64.5q0 -37 26.5 -63.5t64.5 -26.5q37 0 63.5 26.5t26.5 63.5q0 38 -26.5 64.5t-63.5 26.5z" />
    <glyph glyph-name="ogonek" unicode="&#x2db;" horiz-adv-x="664" 
d="M337 -125q-30 -27 -34 -64q-1 -5 -1 -10q0 -30 22 -51q24 -22 59 -22h6q27 2 99 30l26 -116q-63 -43 -139 -48h-15q-89 0 -147 56q-55 52 -55 128q0 12 2 24q9 92 86 161q77 70 176 75l27 -114q-85 -25 -112 -49z" />
    <glyph glyph-name="tilde" unicode="&#x2dc;" horiz-adv-x="1018" 
d="M388 1764q-15 10 -30 10q-39 0 -75 -70l-16 -39l-117 77l16 39q54 134 145 186q46 26 92 26q51 0 103 -33l124 -82q15 -10 30 -10q39 0 75 71l16 38l117 -77l-16 -38q-54 -134 -145 -187q-46 -26 -91 -26q-52 0 -104 35z" />
    <glyph glyph-name="hungarumlaut" unicode="&#x2dd;" horiz-adv-x="1024" 
d="M-66 1673l112 310h319l-210 -310h-221zM365 1673l112 310h319l-210 -310h-221z" />
    <glyph glyph-name="endash" unicode="&#x2013;" horiz-adv-x="1375" 
d="M1375 662h-1375v283h1375v-283z" />
    <glyph glyph-name="emdash" unicode="&#x2014;" horiz-adv-x="2117" 
d="M2117 662h-2117v283h2117v-283z" />
    <glyph glyph-name="quoteleft" unicode="&#x2018;" horiz-adv-x="654" 
d="M150 1184v313l250 354v-354h104v-313h-354z" />
    <glyph glyph-name="quoteright" unicode="&#x2019;" horiz-adv-x="654" 
d="M504 1702v-313l-250 -354v354h-104v313h354z" />
    <glyph glyph-name="quotesinglbase" unicode="&#x201a;" horiz-adv-x="654" 
d="M504 315v-313l-250 -354v354h-104v313h354z" />
    <glyph glyph-name="quotedblleft" unicode="&#x201c;" horiz-adv-x="1150" 
d="M150 1184v313l250 354v-354h104v-313h-354zM646 1184v313l250 354v-354h104v-313h-354z" />
    <glyph glyph-name="quotedblright" unicode="&#x201d;" horiz-adv-x="1150" 
d="M504 1702v-313l-250 -354v354h-104v313h354zM1000 1702v-313l-250 -354v354h-104v313h354z" />
    <glyph glyph-name="quotedblbase" unicode="&#x201e;" horiz-adv-x="1150" 
d="M504 333v-313l-250 -354v354h-104v313h354zM1000 333v-313l-250 -354v354h-104v313h354z" />
    <glyph glyph-name="dagger" unicode="&#x2020;" horiz-adv-x="1321" 
d="M829 1017v-1017h-336v1017h-343v336h343v339h336v-339h342v-336h-342z" />
    <glyph glyph-name="daggerdbl" unicode="&#x2021;" horiz-adv-x="1321" 
d="M493 1353v339h336v-339h342v-336h-342v-373h342v-336h-342v-308h-336v308h-343v336h343v373h-343v336h343z" />
    <glyph glyph-name="bullet" unicode="&#x2022;" horiz-adv-x="792" 
d="M625.5 1039.5q98.5 -98.5 98.5 -237.5t-98.5 -237.5t-237.5 -98.5t-237 98.5t-98 237.5t98 237.5t237 98.5t237.5 -98.5z" />
    <glyph glyph-name="ellipsis" unicode="&#x2026;" horiz-adv-x="2048" 
d="M484 314v-313h-354v313h354zM1167 314v-313h-354v313h354zM1850 314v-313h-354v313h354z" />
    <glyph glyph-name="guilsinglleft" unicode="&#x2039;" horiz-adv-x="787" 
d="M150 946l487 331v-235l-262 -240l262 -240v-235l-487 331v288z" />
    <glyph glyph-name="guilsinglright" unicode="&#x203a;" horiz-adv-x="787" 
d="M637 658l-487 -331v235l262 240l-262 240v235l487 -331v-288z" />
    <glyph glyph-name="lira" unicode="&#x20a4;" horiz-adv-x="1359" 
d="M313 1136v133q0 194 148 312q139 111 347 111h356v-313h-356q-159 0 -159 -110v-133h314v-229h-314v-165h314v-228h-314q-1 -114 -55 -201h615v-313h-1053v313q159 0 159 110v91h-165v228h165v22h-2v143h-163v229h163z" />
    <glyph glyph-name="peseta" unicode="&#x20a7;" horiz-adv-x="2523" 
d="M386 1379v-463h143q143 0 143 109v354h-286zM975 1310v-285q0 -193 -134 -311q-125 -111 -312 -111h-143v-603h-302v1692h667q91 0 157 -67q9 -9 16 -18h1226q96 0 165 -63q71 -65 71 -156v-323h-320v245h-302v-254q0 -103 151 -103q198 0 330 -106q141 -112 141 -296
v-332q0 -91 -71 -155q-69 -64 -165 -64h-469q-96 0 -166 64t-70 155v324h319v-246h302v254q0 104 -151 104q-197 0 -329 105q-141 112 -141 296v254h-76v-1310h-318v1310h-76z" />
    <glyph glyph-name="Euro" unicode="&#x20ac;" horiz-adv-x="1170" 
d="M501 569v-256h271v259h285v-341q0 -96 -63 -164q-62 -67 -148 -67h-419q-86 0 -148 67q-63 68 -63 164v338h-148v213h148v149h-148v213h148v317q0 96 63 164q62 67 148 67h419q86 0 148 -67q63 -68 63 -164v-340h-285v258h-271v-235h188v-213h-188v-149h188v-213h-188z
" />
    <glyph glyph-name="trademark" unicode="&#x2122;" horiz-adv-x="1305" 
d="M424 1482h-148v-552h-150v552h-148v125h656l139 -550l139 550h209v-677h-151v446l-105 -446h-184l-106 446v-446h-151v552z" />
    <glyph glyph-name="minus" unicode="&#x2212;" horiz-adv-x="1144" 
d="M1040 783h-936v283h936v-283z" />
    <glyph glyph-name="approxequal" unicode="&#x2248;" horiz-adv-x="1310" 
d="M485 931q-21 11 -42 11q-55 0 -106 -77l-22 -43l-165 85l22 43q76 148 205 205q64 29 129 29q72 0 145 -37l174 -90q21 -11 42 -11q55 0 106 78l22 42l165 -85l-22 -42q-76 -148 -205 -206q-64 -29 -128 -29q-73 0 -146 38zM485 551q-21 11 -42 11q-55 0 -106 -77
l-22 -43l-165 85l22 43q76 148 205 205q64 29 129 29q72 0 145 -37l174 -90q21 -11 42 -11q55 0 106 78l22 42l165 -85l-22 -42q-76 -148 -205 -206q-64 -29 -128 -29q-73 0 -146 38z" />
    <glyph glyph-name="lessequal" unicode="&#x2264;" horiz-adv-x="1144" 
d="M389 900l651 -192v-283l-936 331v288l936 331v-283zM1040 0h-936v283h936v-283z" />
    <glyph glyph-name="greaterequal" unicode="&#x2265;" horiz-adv-x="1144" 
d="M104 1092v283l936 -331v-288l-936 -331v283l651 192zM1040 0h-936v283h936v-283z" />
    <glyph glyph-name="uni0237" unicode="&#x237;" horiz-adv-x="829" 
d="M194 297q152 0 152 105v1205h319v-1205q0 -184 -140 -297q-133 -105 -331 -105h-170v297h170z" />
    <glyph glyph-name="uni02BB" unicode="&#x2bb;" horiz-adv-x="548" 
d="M150 1816v219l175 248v-248h73v-219h-248z" />
    <glyph glyph-name="uni02BC" unicode="&#x2bc;" horiz-adv-x="548" 
d="M398 2283v-219l-175 -248v248h-73v219h248z" />
    <glyph glyph-name="uni02CA" unicode="&#x2ca;" horiz-adv-x="731" 
d="M150 1673l112 310h319l-210 -310h-221z" />
    <glyph glyph-name="uni02CB" unicode="&#x2cb;" horiz-adv-x="731" 
d="M360 1673l-210 310h319l112 -310h-221z" />
    <glyph glyph-name="uni02CD" unicode="&#x2cd;" horiz-adv-x="1244" 
d="M1094 -65v-215h-944v215h944z" />
    <glyph glyph-name="uni02F7" unicode="&#x2f7;" horiz-adv-x="1018" 
d="M388 -57q-15 10 -30 10q-39 0 -75 -70l-16 -39l-117 77l16 39q54 134 145 186q46 26 92 26q51 0 103 -33l124 -82q15 -10 30 -10q39 0 75 71l16 38l117 -77l-16 -38q-54 -134 -145 -187q-46 -26 -91 -26q-52 0 -104 35z" />
    <glyph glyph-name="gravecomb" unicode="&#x300;" horiz-adv-x="0" 
d="M-490 1673l-210 310h319l112 -310h-221z" />
    <glyph glyph-name="acutecomb" unicode="&#x301;" horiz-adv-x="0" 
d="M-670 1673l112 310h319l-210 -310h-221z" />
    <glyph glyph-name="uni0302" unicode="&#x302;" horiz-adv-x="0" 
d="M-391 1695l-94 145l-93 -145h-212l108 295h395l106 -295h-210z" />
    <glyph glyph-name="tildecomb" unicode="&#x303;" horiz-adv-x="0" 
d="M-522 1764q-15 10 -30 10q-39 0 -75 -70l-16 -39l-117 77l16 39q54 134 145 186q46 26 92 26q51 0 103 -33l124 -82q15 -10 30 -10q39 0 75 71l16 38l117 -77l-16 -38q-54 -134 -145 -187q-46 -26 -91 -26q-52 0 -104 35z" />
    <glyph glyph-name="uni0304" unicode="&#x304;" horiz-adv-x="0" 
d="M-223 1945v-215h-517v215h517z" />
    <glyph glyph-name="uni0305" unicode="&#x305;" horiz-adv-x="0" 
d="M2574 1820h-1137v213h1137v-213z" />
    <glyph glyph-name="uni0306" unicode="&#x306;" horiz-adv-x="0" 
d="M-151 1990q-106 -295 -303 -295q-198 0 -306 295h212q47 -89 93 -89q47 0 94 89h210z" />
    <glyph glyph-name="uni0307" unicode="&#x307;" horiz-adv-x="0" 
d="M-329 1949v-220h-281v220h281z" />
    <glyph glyph-name="uni0308" unicode="&#x308;" horiz-adv-x="0" 
d="M-489 1949v-248h-281v248h281zM-21 1949v-248h-281v248h281z" />
    <glyph glyph-name="uni0310" unicode="&#x310;" horiz-adv-x="0" 
d="M-458 1990q-106 -295 -303 -295q-198 0 -306 295h212q47 -89 93 -89q47 0 94 89h210zM-635 2187v-186h-237v186h237z" />
    <glyph glyph-name="uni0315" unicode="&#x315;" horiz-adv-x="548" 
d="M298 1607v-219l-175 -248v248h-73v219h248z" />
    <glyph glyph-name="dotbelowcomb" unicode="&#x323;" horiz-adv-x="0" 
d="M-259 -51v-266h-301v266h301z" />
    <glyph glyph-name="uni0324" unicode="&#x324;" horiz-adv-x="0" 
d="M-419 -81v-248h-281v248h281zM49 -81v-248h-281v248h281z" />
    <glyph glyph-name="uni0325" unicode="&#x325;" horiz-adv-x="0" 
d="M-214 -26.5q66 -66.5 66 -160.5q0 -93 -66 -159.5t-160 -66.5t-160 66.5t-66 159.5q0 94 66 160.5t160 66.5t160 -66.5zM-374 -96q-38 0 -64.5 -26.5t-26.5 -64.5q0 -37 26.5 -63.5t64.5 -26.5q37 0 63.5 26.5t26.5 63.5q0 38 -26.5 64.5t-63.5 26.5z" />
    <glyph glyph-name="uni0326" unicode="&#x326;" horiz-adv-x="0" 
d="M-247 -13v-188l-200 -212v212h-83v188h283z" />
    <glyph glyph-name="ordfeminine" unicode="&#xaa;" horiz-adv-x="776" 
d="M328.667 810.567h102.296l-51.4785 410.983zM290.389 632.374l-42.8984 -195.592h-213.172l205.912 964.161h279.828l205.252 -964.161h-213.831l-41.5791 195.592h-179.512zM656 302h-568.5v213h568.5v-213z" />
    <glyph glyph-name="logicalnot" unicode="&#xac;" horiz-adv-x="1144" 
d="M757 783h-653v283h936v-559h-283v276z" />
    <glyph glyph-name="uni00B2" unicode="&#xb2;" 
d="M426 727h410v-219h-645v406q0 136 90 217q89 79 233 79q47 0 66 15q21 17 21 61v187h-175v-181h-235v238q0 68 52 115q51 47 122 47h296q72 0 123 -47q52 -47 52 -115v-244q0 -136 -90 -217q-88 -79 -232 -79q-48 0 -67 -15q-21 -17 -21 -61v-187z" />
    <glyph glyph-name="uni00B3" unicode="&#xb3;" 
d="M584 1473h-175v-181h-235v238q0 68 52 115q51 47 122 47h296q72 0 123 -47q52 -47 52 -115v-244q0 -115 -68 -186q68 -71 68 -186v-245q0 -67 -52 -114q-51 -47 -123 -47h-296q-71 0 -122 47q-52 47 -52 114v239h235v-181h175v187q0 44 -21 61q-19 15 -66 15h-116v220
h116q47 0 66 15q21 17 21 61v187z" />
    <glyph glyph-name="mu" unicode="&#xb5;" horiz-adv-x="1246" 
d="M132 1607h319v-1310h302v1310h320v-1388q0 -91 -71 -155q-69 -64 -165 -64h-386v-254h-319v1861z" />
    <glyph glyph-name="uni00B9" unicode="&#xb9;" 
d="M656 727h205v-219h-645v219h205v746h-205v219h266q71 0 122 -47q52 -47 52 -115v-803z" />
    <glyph glyph-name="ordmasculine" unicode="&#xba;" horiz-adv-x="913" 
d="M320.087 1222.75v-607.775h199.312v607.775h-199.312zM574.837 1400.94q63.3574 0 108.896 -37.7988q46.8574 -38.998 46.8574 -93.5957v-701.372q0 -54.5977 -46.8574 -92.9961q-45.5381 -38.3984 -108.896 -38.3984h-309.527q-63.3574 0 -109.556 38.3984
t-46.1982 92.9961v701.372q0 54.5977 46.1982 93.5957q46.1982 37.7988 109.556 37.7988h309.527zM681 302h-568.5v213h568.5v-213z" />
    <glyph glyph-name="onequarter" unicode="&#xbc;" horiz-adv-x="2649" 
d="M656 727h205v-219h-645v219h205v746h-205v219h266q71 0 122 -47q52 -47 52 -115v-803zM906 0l624 1692h262l-625 -1692h-261zM2207 487v697h235v-697h93v-219h-93v-268h-235v268h-256q-71 0 -122 46q-52 48 -52 115l108 755h217l-88 -697h193z" />
    <glyph glyph-name="onehalf" unicode="&#xbd;" horiz-adv-x="2698" 
d="M656 727h205v-219h-645v219h205v746h-205v219h266q71 0 122 -47q52 -47 52 -115v-803zM906 0l624 1692h262l-625 -1692h-261zM2098 219h410v-219h-645v406q0 136 90 217q89 79 233 79q47 0 66 15q21 17 21 61v187h-175v-181h-235v238q0 68 52 115q51 47 122 47h296
q72 0 123 -47q52 -47 52 -115v-244q0 -136 -90 -217q-88 -79 -232 -79q-48 0 -67 -15q-21 -17 -21 -61v-187z" />
    <glyph glyph-name="threequarters" unicode="&#xbe;" horiz-adv-x="2649" 
d="M584 1473h-175v-181h-235v238q0 68 52 115q51 47 122 47h296q72 0 123 -47q52 -47 52 -115v-244q0 -115 -68 -186q68 -71 68 -186v-245q0 -67 -52 -114q-51 -47 -123 -47h-296q-71 0 -122 47q-52 47 -52 114v239h235v-181h175v187q0 44 -21 61q-19 15 -66 15h-116v220
h116q47 0 66 15q21 17 21 61v187zM906 0l624 1692h262l-625 -1692h-261zM2207 487v697h235v-697h93v-219h-93v-268h-235v268h-256q-71 0 -122 46q-52 48 -52 115l108 755h217l-88 -697h193z" />
    <glyph glyph-name="Oslash" unicode="&#xd8;" horiz-adv-x="1235" 
d="M604 313h118v1066h-10zM404 516l88 863h-88v-863zM572 0l-24 -234h-220l24 234h-36q-101 0 -174 67q-74 68 -74 164v1230q0 96 74 164q73 67 174 67h207l18 175h221l-18 -175h66q101 0 174 -67q74 -68 74 -164v-1230q0 -96 -74 -164q-73 -67 -174 -67h-238z" />
    <glyph glyph-name="germandbls" unicode="&#xdf;" horiz-adv-x="1219" 
d="M1074 332q0 -194 -148 -312q-81 -65 -202 -65q-87 0 -193 33v313q87 -33 137 -33q70 0 70 64v248q0 85 -122 97t-124 157v5q0 140 102 154q103 13 103 119v157q0 103 -139 110q-138 -7 -138 -110v-1269h-336v1269q0 194 148 312q165 109 328 109q164 0 325 -109
q148 -118 148 -312v-157q0 -153 -110 -250q151 -100 151 -282v-248z" />
    <glyph glyph-name="eth" unicode="&#xf0;" horiz-adv-x="1302" 
d="M788 551q0 62 -30 87q-27 22 -95 22q-67 0 -94 -22q-30 -25 -30 -87v-238h249v238zM629 1356q-84 79 -211 109l75 227q282 -60 438 -253l215 59l58 -213l-159 -44q79 -199 79 -481v-430q0 -195 -74 -263q-73 -67 -174 -67h-424q-102 0 -175 67q-74 68 -74 164v320
q0 233 166 339q82 53 179 53q111 0 240 -70q0 166 -40 287l-296 -81l-58 213z" />
    <glyph glyph-name="Amacron" unicode="&#x100;" horiz-adv-x="1145" 
d="M457 656h164l-82 721zM396 343l-68 -343h-340l328 1692h447l327 -1692h-341l-66 343h-287zM798 2030v-215h-517v215h517z" />
    <glyph glyph-name="amacron" unicode="&#x101;" horiz-adv-x="1132" 
d="M485 623h155l-78 685zM427 326l-65 -326h-323l312 1607h424l311 -1607h-324l-63 326h-272zM821 1945v-215h-517v215h517z" />
    <glyph glyph-name="Abreve" unicode="&#x102;" horiz-adv-x="1145" 
d="M457 656h164l-82 721zM396 343l-68 -343h-340l328 1692h447l327 -1692h-341l-66 343h-287zM844 2075q-106 -295 -303 -295q-198 0 -306 295h212q47 -89 93 -89q47 0 94 89h210z" />
    <glyph glyph-name="abreve" unicode="&#x103;" horiz-adv-x="1132" 
d="M485 623h155l-78 685zM427 326l-65 -326h-323l312 1607h424l311 -1607h-324l-63 326h-272zM867 1990q-106 -295 -303 -295q-198 0 -306 295h212q47 -89 93 -89q47 0 94 89h210z" />
    <glyph glyph-name="Aogonek" unicode="&#x104;" horiz-adv-x="1145" 
d="M457 656h164l-82 721zM955 0h-206l-66 343h-287l-68 -343h-340l328 1692h447l327 -1692l18 -76q-85 -25 -112 -49q-30 -27 -34 -64q-1 -5 -1 -10q0 -30 22 -51q24 -22 59 -22h6q27 2 99 30l26 -116q-63 -43 -139 -48h-15q-89 0 -147 56q-55 52 -55 128q0 12 2 24
q9 92 86 161q24 22 50 37z" />
    <glyph glyph-name="aogonek" unicode="&#x105;" horiz-adv-x="1132" 
d="M485 623h155l-78 685zM952 0h-190l-63 326h-272l-65 -326h-323l312 1607h424l307 -1584l23 -99q-85 -25 -112 -49q-30 -27 -34 -64q-1 -5 -1 -10q0 -30 22 -51q24 -22 59 -22h6q27 2 99 30l26 -116q-63 -43 -139 -48h-15q-89 0 -147 56q-55 52 -55 128q0 12 2 24
q9 92 86 161q24 22 50 37z" />
    <glyph glyph-name="Cacute" unicode="&#x106;" horiz-adv-x="1171" 
d="M722 1379h-318v-1066h318v259h336v-341q0 -96 -74 -164q-73 -67 -174 -67h-494q-101 0 -174 67q-74 68 -74 164v1230q0 96 74 164q73 67 174 67h494q101 0 174 -67q74 -68 74 -164v-340h-336v258zM419 1758l112 310h319l-210 -310h-221z" />
    <glyph glyph-name="cacute" unicode="&#x107;" horiz-adv-x="1179" 
d="M745 1310h-302v-1013h302v246h320v-324q0 -91 -71 -155q-69 -64 -165 -64h-469q-96 0 -166 64t-70 155v1169q0 91 70 156q70 63 166 63h469q96 0 165 -63q71 -65 71 -156v-323h-320v245zM451 1673l112 310h319l-210 -310h-221z" />
    <glyph glyph-name="Ccircumflex" unicode="&#x108;" horiz-adv-x="1171" 
d="M722 1379h-318v-1066h318v259h336v-341q0 -96 -74 -164q-73 -67 -174 -67h-494q-101 0 -174 67q-74 68 -74 164v1230q0 96 74 164q73 67 174 67h494q101 0 174 -67q74 -68 74 -164v-340h-336v258zM658 1780l-94 145l-93 -145h-212l108 295h395l106 -295h-210z" />
    <glyph glyph-name="ccircumflex" unicode="&#x109;" horiz-adv-x="1179" 
d="M745 1310h-302v-1013h302v246h320v-324q0 -91 -71 -155q-69 -64 -165 -64h-469q-96 0 -166 64t-70 155v1169q0 91 70 156q70 63 166 63h469q96 0 165 -63q71 -65 71 -156v-323h-320v245zM689 1695l-94 145l-93 -145h-212l108 295h395l106 -295h-210z" />
    <glyph glyph-name="Cdotaccent" unicode="&#x10a;" horiz-adv-x="1171" 
d="M722 1379h-318v-1066h318v259h336v-341q0 -96 -74 -164q-73 -67 -174 -67h-494q-101 0 -174 67q-74 68 -74 164v1230q0 96 74 164q73 67 174 67h494q101 0 174 -67q74 -68 74 -164v-340h-336v258zM704 2034v-220h-281v220h281z" />
    <glyph glyph-name="cdotaccent" unicode="&#x10b;" horiz-adv-x="1179" 
d="M745 1310h-302v-1013h302v246h320v-324q0 -91 -71 -155q-69 -64 -165 -64h-469q-96 0 -166 64t-70 155v1169q0 91 70 156q70 63 166 63h469q96 0 165 -63q71 -65 71 -156v-323h-320v245zM735 1949v-220h-281v220h281z" />
    <glyph glyph-name="Ccaron" unicode="&#x10c;" horiz-adv-x="1171" 
d="M722 1379h-318v-1066h318v259h336v-341q0 -96 -74 -164q-73 -67 -174 -67h-494q-101 0 -174 67q-74 68 -74 164v1230q0 96 74 164q73 67 174 67h494q101 0 174 -67q74 -68 74 -164v-340h-336v258zM868 2075l-106 -295h-395l-108 295h212l93 -145l94 145h210z" />
    <glyph glyph-name="ccaron" unicode="&#x10d;" horiz-adv-x="1179" 
d="M745 1310h-302v-1013h302v246h320v-324q0 -91 -71 -155q-69 -64 -165 -64h-469q-96 0 -166 64t-70 155v1169q0 91 70 156q70 63 166 63h469q96 0 165 -63q71 -65 71 -156v-323h-320v245zM899 1990l-106 -295h-395l-108 295h212l93 -145l94 145h210z" />
    <glyph glyph-name="Dcaron" unicode="&#x10e;" horiz-adv-x="1240" 
d="M420 1379v-1066h159q159 0 159 110v956h-318zM84 1692h742q101 0 174 -67q74 -68 74 -164v-1038q0 -194 -148 -312q-139 -111 -347 -111h-495v1692zM884 2075l-106 -295h-395l-108 295h212l93 -145l94 145h210z" />
    <glyph glyph-name="dcaron" unicode="&#x10f;" horiz-adv-x="1786" 
d="M458 1310v-1013h151q151 0 151 105v908h-302zM139 1607h705q96 0 165 -63q71 -65 71 -156v-986q0 -184 -141 -297q-132 -105 -330 -105h-470v1607zM1536 1607v-219l-175 -248v248h-73v219h248z" />
    <glyph glyph-name="Dcroat" unicode="&#x110;" horiz-adv-x="1232" 
d="M84 953v739h742q101 0 174 -67q74 -68 74 -164v-1038q0 -194 -148 -312q-139 -111 -347 -111h-495v740h-90v213h90zM420 953h176v-213h-176v-427h159q159 0 159 110v956h-318v-426z" />
    <glyph glyph-name="dcroat" unicode="&#x111;" horiz-adv-x="1178" 
d="M80 905v702h704q96 0 166 -63q70 -65 70 -156v-986q0 -184 -141 -297q-132 -105 -329 -105h-470v703h-86v202h86zM399 905h167v-202h-167v-406h151q151 0 151 105v908h-302v-405z" />
    <glyph glyph-name="Emacron" unicode="&#x112;" horiz-adv-x="1068" 
d="M420 313h560v-313h-896v1692h896v-313h-560v-376h466v-314h-466v-376zM791 2030v-215h-517v215h517z" />
    <glyph glyph-name="emacron" unicode="&#x113;" horiz-adv-x="1084" 
d="M458 297h532v-297h-851v1607h851v-297h-532v-357h443v-298h-443v-358zM823 1945v-215h-517v215h517z" />
    <glyph glyph-name="Ebreve" unicode="&#x114;" horiz-adv-x="1068" 
d="M420 313h560v-313h-896v1692h896v-313h-560v-376h466v-314h-466v-376zM837 2075q-106 -295 -303 -295q-198 0 -306 295h212q47 -89 93 -89q47 0 94 89h210z" />
    <glyph glyph-name="ebreve" unicode="&#x115;" horiz-adv-x="1084" 
d="M458 297h532v-297h-851v1607h851v-297h-532v-357h443v-298h-443v-358zM869 1990q-106 -295 -303 -295q-198 0 -306 295h212q47 -89 93 -89q47 0 94 89h210z" />
    <glyph glyph-name="Edotaccent" unicode="&#x116;" horiz-adv-x="1068" 
d="M420 313h560v-313h-896v1692h896v-313h-560v-376h466v-314h-466v-376zM673 2034v-220h-281v220h281z" />
    <glyph glyph-name="edotaccent" unicode="&#x117;" horiz-adv-x="1084" 
d="M458 297h532v-297h-851v1607h851v-297h-532v-357h443v-298h-443v-358zM705 1949v-220h-281v220h281z" />
    <glyph glyph-name="Eogonek" unicode="&#x118;" horiz-adv-x="1068" 
d="M845 0h-761v1692h896v-313h-560v-376h466v-314h-466v-376h560v-313l18 -76q-85 -25 -112 -49q-30 -27 -34 -64q-1 -5 -1 -10q0 -30 22 -51q24 -22 59 -22h6q27 2 99 30l26 -116q-63 -43 -139 -48h-15q-89 0 -147 56q-55 52 -55 128q0 12 2 24q9 92 86 161q24 22 50 37z
" />
    <glyph glyph-name="eogonek" unicode="&#x119;" horiz-adv-x="1084" 
d="M749 0h-610v1607h851v-297h-532v-357h443v-298h-443v-358h532v-297h-4q-83 -24 -109 -48q-30 -27 -34 -64q-1 -5 -1 -10q0 -30 22 -51q24 -22 59 -22h6q27 2 99 30l26 -116q-63 -43 -139 -48h-15q-89 0 -147 56q-55 52 -55 128q0 12 2 24q7 67 49 121z" />
    <glyph glyph-name="Ecaron" unicode="&#x11a;" horiz-adv-x="1068" 
d="M420 313h560v-313h-896v1692h896v-313h-560v-376h466v-314h-466v-376zM837 2075l-106 -295h-395l-108 295h212l93 -145l94 145h210z" />
    <glyph glyph-name="ecaron" unicode="&#x11b;" horiz-adv-x="1084" 
d="M458 297h532v-297h-851v1607h851v-297h-532v-357h443v-298h-443v-358zM869 1990l-106 -295h-395l-108 295h212l93 -145l94 145h210z" />
    <glyph glyph-name="Gcircumflex" unicode="&#x11c;" horiz-adv-x="1200" 
d="M722 603h-159v313h495v-685q0 -96 -74 -164q-73 -67 -174 -67h-494q-101 0 -174 67q-74 68 -74 164v1230q0 96 74 164q73 67 174 67h494q101 0 174 -67q74 -68 74 -164v-340h-336v258h-318v-1066h318v290zM658 1780l-94 145l-93 -145h-212l108 295h395l106 -295h-210z
" />
    <glyph glyph-name="gcircumflex" unicode="&#x11d;" horiz-adv-x="1209" 
d="M745 573h-151v297h471v-651q0 -91 -71 -155q-69 -64 -165 -64h-469q-96 0 -166 64t-70 155v1169q0 91 70 156q70 63 166 63h469q96 0 165 -63q71 -65 71 -156v-323h-320v245h-302v-1013h302v276zM689 1695l-94 145l-93 -145h-212l108 295h395l106 -295h-210z" />
    <glyph glyph-name="Gbreve" unicode="&#x11e;" horiz-adv-x="1200" 
d="M722 603h-159v313h495v-685q0 -96 -74 -164q-73 -67 -174 -67h-494q-101 0 -174 67q-74 68 -74 164v1230q0 96 74 164q73 67 174 67h494q101 0 174 -67q74 -68 74 -164v-340h-336v258h-318v-1066h318v290zM868 2075q-106 -295 -303 -295q-198 0 -306 295h212
q47 -89 93 -89q47 0 94 89h210z" />
    <glyph glyph-name="gbreve" unicode="&#x11f;" horiz-adv-x="1209" 
d="M745 573h-151v297h471v-651q0 -91 -71 -155q-69 -64 -165 -64h-469q-96 0 -166 64t-70 155v1169q0 91 70 156q70 63 166 63h469q96 0 165 -63q71 -65 71 -156v-323h-320v245h-302v-1013h302v276zM899 1990q-106 -295 -303 -295q-198 0 -306 295h212q47 -89 93 -89
q47 0 94 89h210z" />
    <glyph glyph-name="Gdotaccent" unicode="&#x120;" horiz-adv-x="1200" 
d="M722 603h-159v313h495v-685q0 -96 -74 -164q-73 -67 -174 -67h-494q-101 0 -174 67q-74 68 -74 164v1230q0 96 74 164q73 67 174 67h494q101 0 174 -67q74 -68 74 -164v-340h-336v258h-318v-1066h318v290zM704 2034v-220h-281v220h281z" />
    <glyph glyph-name="gdotaccent" unicode="&#x121;" horiz-adv-x="1209" 
d="M745 573h-151v297h471v-651q0 -91 -71 -155q-69 -64 -165 -64h-469q-96 0 -166 64t-70 155v1169q0 91 70 156q70 63 166 63h469q96 0 165 -63q71 -65 71 -156v-323h-320v245h-302v-1013h302v276zM735 1949v-220h-281v220h281z" />
    <glyph glyph-name="uni0122" unicode="&#x122;" horiz-adv-x="1200" 
d="M722 603h-159v313h495v-685q0 -96 -74 -164q-73 -67 -174 -67h-494q-101 0 -174 67q-74 68 -74 164v1230q0 96 74 164q73 67 174 67h494q101 0 174 -67q74 -68 74 -164v-340h-336v258h-318v-1066h318v290zM704 -13v-188l-200 -212v212h-83v188h283z" />
    <glyph glyph-name="uni0123" unicode="&#x123;" horiz-adv-x="1209" 
d="M745 573h-151v297h471v-651q0 -91 -71 -155q-69 -64 -165 -64h-469q-96 0 -166 64t-70 155v1169q0 91 70 156q70 63 166 63h469q96 0 165 -63q71 -65 71 -156v-323h-320v245h-302v-1013h302v276zM471 1816v219l175 248v-248h73v-219h-248z" />
    <glyph glyph-name="Hcircumflex" unicode="&#x124;" horiz-adv-x="1258" 
d="M420 689v-689h-336v1692h336v-689h318v689h336v-1692h-336v689h-318zM674 1780l-94 145l-93 -145h-212l108 295h395l106 -295h-210z" />
    <glyph glyph-name="hcircumflex" unicode="&#x125;" horiz-adv-x="1258" 
d="M459 655v-655h-319v1607h319v-654h302v654h320v-1607h-320v655h-302zM705 1827l-94 145l-93 -145h-212l108 295h395l106 -295h-210z" />
    <glyph glyph-name="Hbar" unicode="&#x126;" horiz-adv-x="1258" 
d="M1114 1279v-1279h-336v689h-318v-689h-336v1279h-70v213h70v200h336v-200h318v200h336v-200h77v-213h-77zM460 1279v-276h318v276h-318z" />
    <glyph glyph-name="hbar" unicode="&#x127;" horiz-adv-x="1201" 
d="M1061 1215v-1215h-319v655h-302v-655h-319v1215h-67v202h67v190h319v-190h302v190h319v-190h73v-202h-73zM440 1215v-262h302v262h-302z" />
    <glyph glyph-name="Itilde" unicode="&#x128;" horiz-adv-x="604" 
d="M84 0v1692h336v-1692h-336zM131 1849q-15 10 -30 10q-39 0 -75 -70l-16 -39l-117 77l16 39q54 134 145 186q46 26 92 26q51 0 103 -33l124 -82q15 -10 30 -10q39 0 75 71l16 38l117 -77l-16 -38q-54 -134 -145 -187q-46 -26 -91 -26q-52 0 -104 35z" />
    <glyph glyph-name="itilde" unicode="&#x129;" horiz-adv-x="636" 
d="M140 0v1607h319v-1607h-319zM179 1764q-15 10 -30 10q-39 0 -75 -70l-16 -39l-117 77l16 39q54 134 145 186q46 26 92 26q51 0 103 -33l124 -82q15 -10 30 -10q39 0 75 71l16 38l117 -77l-16 -38q-54 -134 -145 -187q-46 -26 -91 -26q-52 0 -104 35z" />
    <glyph glyph-name="Imacron" unicode="&#x12a;" horiz-adv-x="604" 
d="M84 0v1692h336v-1692h-336zM511 2030v-215h-517v215h517z" />
    <glyph glyph-name="imacron" unicode="&#x12b;" horiz-adv-x="636" 
d="M140 0v1607h319v-1607h-319zM558 1945v-215h-517v215h517z" />
    <glyph glyph-name="Ibreve" unicode="&#x12c;" horiz-adv-x="604" 
d="M84 0v1692h336v-1692h-336zM557 2075q-106 -295 -303 -295q-198 0 -306 295h212q47 -89 93 -89q47 0 94 89h210z" />
    <glyph glyph-name="ibreve" unicode="&#x12d;" horiz-adv-x="636" 
d="M140 0v1607h319v-1607h-319zM604 1990q-106 -295 -303 -295q-198 0 -306 295h212q47 -89 93 -89q47 0 94 89h210z" />
    <glyph glyph-name="Iogonek" unicode="&#x12e;" horiz-adv-x="604" 
d="M305 0h-201v1692h336v-1692l18 -76q-85 -25 -112 -49q-30 -27 -34 -64q-1 -5 -1 -10q0 -30 22 -51q24 -22 59 -22h6q27 2 99 30l26 -116q-63 -43 -139 -48h-15q-89 0 -147 56q-55 52 -55 128q0 12 2 24q9 92 86 161q24 22 50 37z" />
    <glyph glyph-name="iogonek" unicode="&#x12f;" horiz-adv-x="636" 
d="M361 0h-184v1607h319v-1607l18 -76q-85 -25 -112 -49q-30 -27 -34 -64q-1 -5 -1 -10q0 -30 22 -51q24 -22 59 -22h6q27 2 99 30l26 -116q-63 -43 -139 -48h-15q-89 0 -147 56q-55 52 -55 128q0 12 2 24q9 92 86 161q24 22 50 37z" />
    <glyph glyph-name="Idotaccent" unicode="&#x130;" horiz-adv-x="604" 
d="M84 0v1692h336v-1692h-336zM393 2034v-220h-281v220h281z" />
    <glyph glyph-name="IJ" unicode="&#x132;" horiz-adv-x="1425" 
d="M84 0v1692h336v-1692h-336zM760 313q160 0 160 110v1269h336v-1269q0 -194 -148 -312q-140 -111 -348 -111h-179v313h179z" />
    <glyph glyph-name="ij" unicode="&#x133;" horiz-adv-x="1465" 
d="M140 0v1607h319v-1607h-319zM830 297q152 0 152 105v1205h319v-1205q0 -184 -140 -297q-133 -105 -331 -105h-170v297h170z" />
    <glyph glyph-name="Jcircumflex" unicode="&#x134;" horiz-adv-x="821" 
d="M156 313q160 0 160 110v1269h336v-1269q0 -194 -148 -312q-140 -111 -348 -111h-179v313h179zM577 1780l-94 145l-93 -145h-212l108 295h395l106 -295h-210z" />
    <glyph glyph-name="jcircumflex" unicode="&#x135;" horiz-adv-x="829" 
d="M194 297q152 0 152 105v1205h319v-1205q0 -184 -140 -297q-133 -105 -331 -105h-170v297h170zM593 1695l-94 145l-93 -145h-212l108 295h395l106 -295h-210z" />
    <glyph glyph-name="uni0136" unicode="&#x136;" horiz-adv-x="1158" 
d="M420 689v-689h-336v1692h336v-689h129l208 689h341l-254 -846l254 -846h-341l-208 689h-129zM732 -13v-188l-200 -212v212h-83v188h283z" />
    <glyph glyph-name="uni0137" unicode="&#x137;" horiz-adv-x="1181" 
d="M459 655v-655h-319v1607h319v-654h123l197 654h324l-241 -803l241 -804h-324l-197 655h-123zM763 -13v-188l-200 -212v212h-83v188h283z" />
    <glyph glyph-name="kgreenlandic" unicode="&#x138;" horiz-adv-x="1181" 
d="M459 523.992v-523.992h-319v1285.58h319v-523.191h123l197 523.191h324l-241 -642.39l241 -643.19h-324l-197 523.992h-123z" />
    <glyph glyph-name="Lacute" unicode="&#x139;" horiz-adv-x="941" 
d="M84 0v1692h336v-1379h466v-313h-802zM341 1758l112 310h319l-210 -310h-221z" />
    <glyph glyph-name="lacute" unicode="&#x13a;" horiz-adv-x="946" 
d="M139 0v1607h319v-1310h443v-297h-762zM305 1812l112 310h319l-210 -310h-221z" />
    <glyph glyph-name="uni013B" unicode="&#x13b;" horiz-adv-x="941" 
d="M84 0v1692h336v-1379h466v-313h-802zM626 -13v-188l-200 -212v212h-83v188h283z" />
    <glyph glyph-name="uni013C" unicode="&#x13c;" horiz-adv-x="946" 
d="M139 0v1607h319v-1310h443v-297h-762zM661 -13v-188l-200 -212v212h-83v188h283z" />
    <glyph glyph-name="Lcaron" unicode="&#x13d;" horiz-adv-x="941" 
d="M84 0v1692h336v-1379h466v-313h-802zM886 1607v-219l-175 -248v248h-73v219h248z" />
    <glyph glyph-name="lcaron" unicode="&#x13e;" horiz-adv-x="1494" 
d="M139 0v1607h319v-1310h443v-297h-762zM1244 1607v-219l-175 -248v248h-73v219h248z" />
    <glyph glyph-name="Ldot" unicode="&#x13f;" horiz-adv-x="941" 
d="M84 0v1692h336v-1379h466v-313h-802zM792.388 872.075v-266.043h-300.892v266.043h300.892z" />
    <glyph glyph-name="ldot" unicode="&#x140;" horiz-adv-x="1247" 
d="M139 0v1607h319v-1310h443v-297h-762zM1199.39 830.075v-266.043h-300.892v266.043h300.892z" />
    <glyph glyph-name="Lslash" unicode="&#x141;" horiz-adv-x="941" 
d="M420 744v-431h466v-313h-802v744h-60v213h60v735h336v-735h286v-213h-286z" />
    <glyph glyph-name="lslash" unicode="&#x142;" horiz-adv-x="898" 
d="M400 707v-410h443v-297h-762v707h-57v202h57v698h319v-698h272v-202h-272z" />
    <glyph glyph-name="Nacute" unicode="&#x143;" horiz-adv-x="1345" 
d="M420 1090v-1090h-336v1692h466l275 -1095v1095h336v-1692h-465zM479 1758l112 310h319l-210 -310h-221z" />
    <glyph glyph-name="nacute" unicode="&#x144;" horiz-adv-x="1340" 
d="M459 1035v-1035h-319v1607h443l261 -1040v1040h319v-1607h-442zM508 1673l112 310h319l-210 -310h-221z" />
    <glyph glyph-name="uni0145" unicode="&#x145;" horiz-adv-x="1345" 
d="M420 1090v-1090h-336v1692h466l275 -1095v1095h336v-1692h-465zM764 -13v-188l-200 -212v212h-83v188h283z" />
    <glyph glyph-name="uni0146" unicode="&#x146;" horiz-adv-x="1340" 
d="M459 1035v-1035h-319v1607h443l261 -1040v1040h319v-1607h-442zM793 -13v-188l-200 -212v212h-83v188h283z" />
    <glyph glyph-name="Ncaron" unicode="&#x147;" horiz-adv-x="1345" 
d="M420 1090v-1090h-336v1692h466l275 -1095v1095h336v-1692h-465zM927 2075l-106 -295h-395l-108 295h212l93 -145l94 145h210z" />
    <glyph glyph-name="ncaron" unicode="&#x148;" horiz-adv-x="1340" 
d="M459 1035v-1035h-319v1607h443l261 -1040v1040h319v-1607h-442zM956 1990l-106 -295h-395l-108 295h212l93 -145l94 145h210z" />
    <glyph glyph-name="napostrophe" unicode="&#x149;" horiz-adv-x="1474" 
d="M398 2283v-219l-175 -248v248h-73v219h248zM593 1035v-1035h-319v1607h443l261 -1040v1040h319v-1607h-442z" />
    <glyph glyph-name="Eng" unicode="&#x14a;" horiz-adv-x="1345" 
d="M420 1090v-1090h-336v1692h466l275 -1095v1095h336v-1692h-465zM1161 315v-313l-250 -354v354h-104v313h354z" />
    <glyph glyph-name="eng" unicode="&#x14b;" horiz-adv-x="1340" 
d="M459 1035v-1035h-319v1607h443l261 -1040v1040h319v-1607h-442zM1163 315v-313l-250 -354v354h-104v313h354z" />
    <glyph glyph-name="Omacron" unicode="&#x14c;" horiz-adv-x="1235" 
d="M404 1379v-1066h318v1066h-318zM810 1692q101 0 174 -67q74 -68 74 -164v-1230q0 -96 -74 -164q-73 -67 -174 -67h-494q-101 0 -174 67q-74 68 -74 164v1230q0 96 74 164q73 67 174 67h494zM822 2030v-215h-517v215h517z" />
    <glyph glyph-name="omacron" unicode="&#x14d;" horiz-adv-x="1233" 
d="M443 1310v-1013h302v1013h-302zM829 1607q96 0 165 -63q71 -65 71 -156v-1169q0 -91 -71 -155q-69 -64 -165 -64h-469q-96 0 -166 64t-70 155v1169q0 91 70 156q70 63 166 63h469zM853 1945v-215h-517v215h517z" />
    <glyph glyph-name="Obreve" unicode="&#x14e;" horiz-adv-x="1235" 
d="M404 1379v-1066h318v1066h-318zM810 1692q101 0 174 -67q74 -68 74 -164v-1230q0 -96 -74 -164q-73 -67 -174 -67h-494q-101 0 -174 67q-74 68 -74 164v1230q0 96 74 164q73 67 174 67h494zM868 2075q-106 -295 -303 -295q-198 0 -306 295h212q47 -89 93 -89q47 0 94 89
h210z" />
    <glyph glyph-name="obreve" unicode="&#x14f;" horiz-adv-x="1233" 
d="M443 1310v-1013h302v1013h-302zM829 1607q96 0 165 -63q71 -65 71 -156v-1169q0 -91 -71 -155q-69 -64 -165 -64h-469q-96 0 -166 64t-70 155v1169q0 91 70 156q70 63 166 63h469zM899 1990q-106 -295 -303 -295q-198 0 -306 295h212q47 -89 93 -89q47 0 94 89h210z" />
    <glyph glyph-name="Ohungarumlaut" unicode="&#x150;" horiz-adv-x="1235" 
d="M404 1379v-1066h318v1066h-318zM810 1692q101 0 174 -67q74 -68 74 -164v-1230q0 -96 -74 -164q-73 -67 -174 -67h-494q-101 0 -174 67q-74 68 -74 164v1230q0 96 74 164q73 67 174 67h494zM132 1758l112 310h319l-210 -310h-221zM563 1758l112 310h319l-210 -310h-221z
" />
    <glyph glyph-name="ohungarumlaut" unicode="&#x151;" horiz-adv-x="1233" 
d="M443 1310v-1013h302v1013h-302zM829 1607q96 0 165 -63q71 -65 71 -156v-1169q0 -91 -71 -155q-69 -64 -165 -64h-469q-96 0 -166 64t-70 155v1169q0 91 70 156q70 63 166 63h469zM164 1673l112 310h319l-210 -310h-221zM595 1673l112 310h319l-210 -310h-221z" />
    <glyph glyph-name="OE" unicode="&#x152;" horiz-adv-x="1594" 
d="M404 1379v-1066h318v1066h-318zM810 1692q101 0 174 -67q74 -68 74 -164v-1230q0 -96 -74 -164q-73 -67 -174 -67h-494q-101 0 -174 67q-74 68 -74 164v1230q0 96 74 164q73 67 174 67h494zM946 313h560v-313h-896v1692h896v-313h-560v-376h466v-314h-466v-376z" />
    <glyph glyph-name="oe" unicode="&#x153;" horiz-adv-x="1840" 
d="M443 1310v-1013h302v1013h-302zM829 1607q96 0 165 -63q71 -65 71 -156v-1169q0 -91 -71 -155q-69 -64 -165 -64h-469q-96 0 -166 64t-70 155v1169q0 91 70 156q70 63 166 63h469zM1214 297h532v-297h-851v1607h851v-297h-532v-357h443v-298h-443v-358z" />
    <glyph glyph-name="Racute" unicode="&#x154;" horiz-adv-x="1231" 
d="M618 916q48 0 84 32q36 31 36 77v354h-318v-463h198zM420 603v-603h-336v1692h742q101 0 174 -67q74 -68 74 -164v-436q0 -166 -129 -265q129 -99 129 -267v-493h-336v493q0 46 -36 79q-36 31 -84 31h-198zM435 1758l112 310h319l-210 -310h-221z" />
    <glyph glyph-name="racute" unicode="&#x155;" horiz-adv-x="1245" 
d="M647 870q46 0 80 31q34 29 34 73v336h-302v-440h188zM459 573v-573h-319v1607h705q96 0 165 -63q71 -65 71 -156v-414q0 -158 -123 -252q123 -94 123 -254v-468h-320v468q0 44 -34 75q-34 30 -80 30h-188zM467 1673l112 310h319l-210 -310h-221z" />
    <glyph glyph-name="uni0156" unicode="&#x156;" horiz-adv-x="1231" 
d="M618 916q48 0 84 32q36 31 36 77v354h-318v-463h198zM420 603v-603h-336v1692h742q101 0 174 -67q74 -68 74 -164v-436q0 -166 -129 -265q129 -99 129 -267v-493h-336v493q0 46 -36 79q-36 31 -84 31h-198zM720 -13v-188l-200 -212v212h-83v188h283z" />
    <glyph glyph-name="uni0157" unicode="&#x157;" horiz-adv-x="1245" 
d="M647 870q46 0 80 31q34 29 34 73v336h-302v-440h188zM459 573v-573h-319v1607h705q96 0 165 -63q71 -65 71 -156v-414q0 -158 -123 -252q123 -94 123 -254v-468h-320v468q0 44 -34 75q-34 30 -80 30h-188zM752 -13v-188l-200 -212v212h-83v188h283z" />
    <glyph glyph-name="Rcaron" unicode="&#x158;" horiz-adv-x="1231" 
d="M618 916q48 0 84 32q36 31 36 77v354h-318v-463h198zM420 603v-603h-336v1692h742q101 0 174 -67q74 -68 74 -164v-436q0 -166 -129 -265q129 -99 129 -267v-493h-336v493q0 46 -36 79q-36 31 -84 31h-198zM884 2075l-106 -295h-395l-108 295h212l93 -145l94 145h210z
" />
    <glyph glyph-name="rcaron" unicode="&#x159;" horiz-adv-x="1245" 
d="M647 870q46 0 80 31q34 29 34 73v336h-302v-440h188zM459 573v-573h-319v1607h705q96 0 165 -63q71 -65 71 -156v-414q0 -158 -123 -252q123 -94 123 -254v-468h-320v468q0 44 -34 75q-34 30 -80 30h-188zM915 1990l-106 -295h-395l-108 295h212l93 -145l94 145h210z" />
    <glyph glyph-name="Sacute" unicode="&#x15a;" horiz-adv-x="1181" 
d="M710 1379h-318v-267q0 -109 159 -109q208 0 347 -111q148 -118 148 -312v-349q0 -96 -74 -164q-73 -67 -174 -67h-494q-101 0 -174 67q-74 68 -74 164v341h336v-259h318v267q0 109 -159 109q-208 0 -347 111q-148 118 -148 312v349q0 96 74 164q73 67 174 67h494
q101 0 174 -67q74 -68 74 -164v-340h-336v258zM407 1758l112 310h319l-210 -310h-221z" />
    <glyph glyph-name="sacute" unicode="&#x15b;" horiz-adv-x="1194" 
d="M737 1310h-302v-254q0 -103 151 -103q198 0 330 -106q141 -112 141 -296v-332q0 -91 -71 -155q-69 -64 -165 -64h-469q-96 0 -166 64t-70 155v324h319v-246h302v254q0 104 -151 104q-197 0 -329 105q-141 112 -141 296v332q0 91 70 156q70 63 166 63h469q96 0 165 -63
q71 -65 71 -156v-323h-320v245zM443 1673l112 310h319l-210 -310h-221z" />
    <glyph glyph-name="Scircumflex" unicode="&#x15c;" horiz-adv-x="1181" 
d="M710 1379h-318v-267q0 -109 159 -109q208 0 347 -111q148 -118 148 -312v-349q0 -96 -74 -164q-73 -67 -174 -67h-494q-101 0 -174 67q-74 68 -74 164v341h336v-259h318v267q0 109 -159 109q-208 0 -347 111q-148 118 -148 312v349q0 96 74 164q73 67 174 67h494
q101 0 174 -67q74 -68 74 -164v-340h-336v258zM646 1780l-94 145l-93 -145h-212l108 295h395l106 -295h-210z" />
    <glyph glyph-name="scircumflex" unicode="&#x15d;" horiz-adv-x="1194" 
d="M737 1310h-302v-254q0 -103 151 -103q198 0 330 -106q141 -112 141 -296v-332q0 -91 -71 -155q-69 -64 -165 -64h-469q-96 0 -166 64t-70 155v324h319v-246h302v254q0 104 -151 104q-197 0 -329 105q-141 112 -141 296v332q0 91 70 156q70 63 166 63h469q96 0 165 -63
q71 -65 71 -156v-323h-320v245zM681 1695l-94 145l-93 -145h-212l108 295h395l106 -295h-210z" />
    <glyph glyph-name="Scedilla" unicode="&#x15e;" horiz-adv-x="1181" 
d="M710 1379h-318v-267q0 -109 159 -109q208 0 347 -111q148 -118 148 -312v-349q0 -96 -74 -164q-73 -67 -174 -67h-494q-101 0 -174 67q-74 68 -74 164v341h336v-259h318v267q0 109 -159 109q-208 0 -347 111q-148 118 -148 312v349q0 96 74 164q73 67 174 67h494
q101 0 174 -67q74 -68 74 -164v-340h-336v258zM514 -277q42 0 72.5 25.5t30.5 61.5q0 37 -30 63q-21 16 -94 44l69 109q76 -11 135 -60q75 -65 75 -156q0 -90 -75.5 -154.5t-182.5 -64.5q-108 0 -183 65l67 106q79 -39 116 -39z" />
    <glyph glyph-name="scedilla" unicode="&#x15f;" horiz-adv-x="1194" 
d="M737 1310h-302v-254q0 -103 151 -103q198 0 330 -106q141 -112 141 -296v-332q0 -91 -71 -155q-69 -64 -165 -64h-469q-96 0 -166 64t-70 155v324h319v-246h302v254q0 104 -151 104q-197 0 -329 105q-141 112 -141 296v332q0 91 70 156q70 63 166 63h469q96 0 165 -63
q71 -65 71 -156v-323h-320v245zM549 -277q42 0 72.5 25.5t30.5 61.5q0 37 -30 63q-21 16 -94 44l69 109q76 -11 135 -60q75 -65 75 -156q0 -90 -75.5 -154.5t-182.5 -64.5q-108 0 -183 65l67 106q79 -39 116 -39z" />
    <glyph glyph-name="Scaron" unicode="&#x160;" horiz-adv-x="1181" 
d="M710 1379h-318v-267q0 -109 159 -109q208 0 347 -111q148 -118 148 -312v-349q0 -96 -74 -164q-73 -67 -174 -67h-494q-101 0 -174 67q-74 68 -74 164v341h336v-259h318v267q0 109 -159 109q-208 0 -347 111q-148 118 -148 312v349q0 96 74 164q73 67 174 67h494
q101 0 174 -67q74 -68 74 -164v-340h-336v258zM856 2075l-106 -295h-395l-108 295h212l93 -145l94 145h210z" />
    <glyph glyph-name="scaron" unicode="&#x161;" horiz-adv-x="1194" 
d="M737 1310h-302v-254q0 -103 151 -103q198 0 330 -106q141 -112 141 -296v-332q0 -91 -71 -155q-69 -64 -165 -64h-469q-96 0 -166 64t-70 155v324h319v-246h302v254q0 104 -151 104q-197 0 -329 105q-141 112 -141 296v332q0 91 70 156q70 63 166 63h469q96 0 165 -63
q71 -65 71 -156v-323h-320v245zM891 1990l-106 -295h-395l-108 295h212l93 -145l94 145h210z" />
    <glyph glyph-name="uni0162" unicode="&#x162;" horiz-adv-x="994" 
d="M426 0h-120v1379h-328v313h990v-313h-327v-1379h-116q28 -14 52 -34q75 -65 75 -156q0 -90 -75.5 -154.5t-182.5 -64.5q-108 0 -183 65l67 106q79 -39 116 -39q42 0 72.5 25.5t30.5 61.5q0 37 -30 63q-21 16 -94 44z" />
    <glyph glyph-name="uni0163" unicode="&#x163;" horiz-adv-x="976" 
d="M428 0h-94v1310h-312v297h941v-297h-311v-1310h-125q28 -14 52 -34q75 -65 75 -156q0 -90 -75.5 -154.5t-182.5 -64.5q-108 0 -183 65l67 106q79 -39 116 -39q42 0 72.5 25.5t30.5 61.5q0 37 -30 63q-21 16 -94 44z" />
    <glyph glyph-name="Tcaron" unicode="&#x164;" horiz-adv-x="994" 
d="M306 1379h-328v313h990v-313h-327v-1379h-335v1379zM778 2075l-106 -295h-395l-108 295h212l93 -145l94 145h210z" />
    <glyph glyph-name="tcaron" unicode="&#x165;" horiz-adv-x="1524" 
d="M334 1310h-312v297h941v-297h-311v-1310h-318v1310zM1274 1607v-219l-175 -248v248h-73v219h248z" />
    <glyph glyph-name="Tbar" unicode="&#x166;" horiz-adv-x="994" 
d="M380 953v426h-328v313h990v-313h-327v-426h287v-213h-287v-740h-335v740h-287v213h287z" />
    <glyph glyph-name="tbar" unicode="&#x167;" horiz-adv-x="944" 
d="M364 905v405h-312v297h941v-297h-311v-405h273v-202h-273v-703h-318v703h-273v202h273z" />
    <glyph glyph-name="Utilde" unicode="&#x168;" horiz-adv-x="1242" 
d="M408 313h318v1379h336v-1461q0 -96 -74 -164q-73 -67 -174 -67h-494q-101 0 -174 67q-74 68 -74 164v1461h336v-1379zM446 1849q-15 10 -30 10q-39 0 -75 -70l-16 -39l-117 77l16 39q54 134 145 186q46 26 92 26q51 0 103 -33l124 -82q15 -10 30 -10q39 0 75 71l16 38
l117 -77l-16 -38q-54 -134 -145 -187q-46 -26 -91 -26q-52 0 -104 35z" />
    <glyph glyph-name="utilde" unicode="&#x169;" horiz-adv-x="1246" 
d="M451 297h302v1310h320v-1388q0 -91 -71 -155q-69 -64 -165 -64h-469q-96 0 -166 64t-70 155v1388h319v-1310zM482 1764q-15 10 -30 10q-39 0 -75 -70l-16 -39l-117 77l16 39q54 134 145 186q46 26 92 26q51 0 103 -33l124 -82q15 -10 30 -10q39 0 75 71l16 38l117 -77
l-16 -38q-54 -134 -145 -187q-46 -26 -91 -26q-52 0 -104 35z" />
    <glyph glyph-name="Umacron" unicode="&#x16a;" horiz-adv-x="1242" 
d="M408 313h318v1379h336v-1461q0 -96 -74 -164q-73 -67 -174 -67h-494q-101 0 -174 67q-74 68 -74 164v1461h336v-1379zM826 2030v-215h-517v215h517z" />
    <glyph glyph-name="umacron" unicode="&#x16b;" horiz-adv-x="1246" 
d="M451 297h302v1310h320v-1388q0 -91 -71 -155q-69 -64 -165 -64h-469q-96 0 -166 64t-70 155v1388h319v-1310zM861 1945v-215h-517v215h517z" />
    <glyph glyph-name="Ubreve" unicode="&#x16c;" horiz-adv-x="1242" 
d="M408 313h318v1379h336v-1461q0 -96 -74 -164q-73 -67 -174 -67h-494q-101 0 -174 67q-74 68 -74 164v1461h336v-1379zM872 2075q-106 -295 -303 -295q-198 0 -306 295h212q47 -89 93 -89q47 0 94 89h210z" />
    <glyph glyph-name="ubreve" unicode="&#x16d;" horiz-adv-x="1246" 
d="M451 297h302v1310h320v-1388q0 -91 -71 -155q-69 -64 -165 -64h-469q-96 0 -166 64t-70 155v1388h319v-1310zM907 1990q-106 -295 -303 -295q-198 0 -306 295h212q47 -89 93 -89q47 0 94 89h210z" />
    <glyph glyph-name="Uring" unicode="&#x16e;" horiz-adv-x="1242" 
d="M408 313h318v1379h336v-1461q0 -96 -74 -164q-73 -67 -174 -67h-494q-101 0 -174 67q-74 68 -74 164v1461h336v-1379zM727 2076.5q66 -66.5 66 -160.5q0 -93 -66 -159.5t-160 -66.5t-160 66.5t-66 159.5q0 94 66 160.5t160 66.5t160 -66.5zM567 2007q-38 0 -64.5 -26.5
t-26.5 -64.5q0 -37 26.5 -63.5t64.5 -26.5q37 0 63.5 26.5t26.5 63.5q0 38 -26.5 64.5t-63.5 26.5z" />
    <glyph glyph-name="uring" unicode="&#x16f;" horiz-adv-x="1246" 
d="M451 297h302v1310h320v-1388q0 -91 -71 -155q-69 -64 -165 -64h-469q-96 0 -166 64t-70 155v1388h319v-1310zM763 1991.5q66 -66.5 66 -160.5q0 -93 -66 -159.5t-160 -66.5t-160 66.5t-66 159.5q0 94 66 160.5t160 66.5t160 -66.5zM603 1922q-38 0 -64.5 -26.5
t-26.5 -64.5q0 -37 26.5 -63.5t64.5 -26.5q37 0 63.5 26.5t26.5 63.5q0 38 -26.5 64.5t-63.5 26.5z" />
    <glyph glyph-name="Uhungarumlaut" unicode="&#x170;" horiz-adv-x="1242" 
d="M408 313h318v1379h336v-1461q0 -96 -74 -164q-73 -67 -174 -67h-494q-101 0 -174 67q-74 68 -74 164v1461h336v-1379zM136 1758l112 310h319l-210 -310h-221zM567 1758l112 310h319l-210 -310h-221z" />
    <glyph glyph-name="uhungarumlaut" unicode="&#x171;" horiz-adv-x="1246" 
d="M451 297h302v1310h320v-1388q0 -91 -71 -155q-69 -64 -165 -64h-469q-96 0 -166 64t-70 155v1388h319v-1310zM172 1673l112 310h319l-210 -310h-221zM603 1673l112 310h319l-210 -310h-221z" />
    <glyph glyph-name="Uogonek" unicode="&#x172;" horiz-adv-x="1242" 
d="M539 0h-219q-101 0 -174 67q-74 68 -74 164v1461h336v-1379h318v1379h336v-1461q0 -96 -74 -164q-73 -67 -174 -67h-51q-68 -22 -92 -43q-30 -27 -34 -64q-1 -5 -1 -10q0 -30 22 -51q24 -22 59 -22h6q27 2 99 30l26 -116q-63 -43 -139 -48h-15q-89 0 -147 56
q-55 52 -55 128q0 12 2 24q6 63 45 116z" />
    <glyph glyph-name="uogonek" unicode="&#x173;" horiz-adv-x="1246" 
d="M652 0h-284q-96 0 -166 64t-70 155v1388h319v-1310h302v1310h320v-1388q0 -91 -71 -155q-50 -47 -115 -59q-76 -24 -101 -46q-30 -27 -34 -64q-1 -5 -1 -10q0 -30 22 -51q24 -22 59 -22h6q27 2 99 30l26 -116q-63 -43 -139 -48h-15q-89 0 -147 56q-55 52 -55 128
q0 12 2 24q6 62 43 114z" />
    <glyph glyph-name="Wcircumflex" unicode="&#x174;" horiz-adv-x="1927" 
d="M720 1692h427l205 -1376q101 913 180 1376h340l-289 -1692h-449l-200 1218l-200 -1218h-449l-290 1692h340q79 -463 180 -1376zM1028 1780l-94 145l-93 -145h-212l108 295h395l106 -295h-210z" />
    <glyph glyph-name="wcircumflex" unicode="&#x175;" horiz-adv-x="1882" 
d="M733 1607h405l195 -1307q96 868 171 1307h323l-274 -1607h-427l-190 1157l-190 -1157h-426l-276 1607h323q75 -439 171 -1307zM1030 1695l-94 145l-93 -145h-212l108 295h395l106 -295h-210z" />
    <glyph glyph-name="Ycircumflex" unicode="&#x176;" horiz-adv-x="1011" 
d="M649 579v-579h-336v578l-353 1114h343q74 -247 177 -810q105 563 178 810h343zM575 1780l-94 145l-93 -145h-212l108 295h395l106 -295h-210z" />
    <glyph glyph-name="ycircumflex" unicode="&#x177;" horiz-adv-x="1013" 
d="M663 550v-550h-320v549l-335 1058h326q70 -234 168 -769q100 535 169 769h326zM597 1695l-94 145l-93 -145h-212l108 295h395l106 -295h-210z" />
    <glyph glyph-name="Ydieresis" unicode="&#x178;" horiz-adv-x="1011" 
d="M649 579v-579h-336v578l-353 1114h343q74 -247 177 -810q105 563 178 810h343zM387 2034v-248h-281v248h281zM855 2034v-248h-281v248h281z" />
    <glyph glyph-name="Zacute" unicode="&#x179;" horiz-adv-x="906" 
d="M409 1379h-390v313h827l-415 -1379h390v-313h-826zM277 1758l112 310h319l-210 -310h-221z" />
    <glyph glyph-name="zacute" unicode="&#x17a;" horiz-adv-x="944" 
d="M442 1310h-370v297h785l-394 -1310h371v-297h-785zM309 1673l112 310h319l-210 -310h-221z" />
    <glyph glyph-name="Zdotaccent" unicode="&#x17b;" horiz-adv-x="906" 
d="M409 1379h-390v313h827l-415 -1379h390v-313h-826zM561 2034v-220h-281v220h281z" />
    <glyph glyph-name="zdotaccent" unicode="&#x17c;" horiz-adv-x="944" 
d="M442 1310h-370v297h785l-394 -1310h371v-297h-785zM594 1949v-220h-281v220h281z" />
    <glyph glyph-name="Zcaron" unicode="&#x17d;" horiz-adv-x="906" 
d="M409 1379h-390v313h827l-415 -1379h390v-313h-826zM725 2075l-106 -295h-395l-108 295h212l93 -145l94 145h210z" />
    <glyph glyph-name="zcaron" unicode="&#x17e;" horiz-adv-x="944" 
d="M442 1310h-370v297h785l-394 -1310h371v-297h-785zM758 1990l-106 -295h-395l-108 295h212l93 -145l94 145h210z" />
    <glyph glyph-name="longs" unicode="&#x17f;" horiz-adv-x="1033" 
d="M140 1607h851v-297h-532v-357h443v-298h-443v-655h-319v1607z" />
    <glyph glyph-name="uni0218" unicode="&#x218;" horiz-adv-x="1181" 
d="M710 1379h-318v-267q0 -109 159 -109q208 0 347 -111q148 -118 148 -312v-349q0 -96 -74 -164q-73 -67 -174 -67h-494q-101 0 -174 67q-74 68 -74 164v341h336v-259h318v267q0 109 -159 109q-208 0 -347 111q-148 118 -148 312v349q0 96 74 164q73 67 174 67h494
q101 0 174 -67q74 -68 74 -164v-340h-336v258zM692 -13v-188l-200 -212v212h-83v188h283z" />
    <glyph glyph-name="uni0219" unicode="&#x219;" horiz-adv-x="1194" 
d="M737 1310h-302v-254q0 -103 151 -103q198 0 330 -106q141 -112 141 -296v-332q0 -91 -71 -155q-69 -64 -165 -64h-469q-96 0 -166 64t-70 155v324h319v-246h302v254q0 104 -151 104q-197 0 -329 105q-141 112 -141 296v332q0 91 70 156q70 63 166 63h469q96 0 165 -63
q71 -65 71 -156v-323h-320v245zM728 -13v-188l-200 -212v212h-83v188h283z" />
    <glyph glyph-name="uni021A" unicode="&#x21a;" horiz-adv-x="994" 
d="M306 1379h-328v313h990v-313h-327v-1379h-335v1379zM614 -13v-188l-200 -212v212h-83v188h283z" />
    <glyph glyph-name="uni021B" unicode="&#x21b;" horiz-adv-x="976" 
d="M334 1310h-312v297h941v-297h-311v-1310h-318v1310zM634 -13v-188l-200 -212v212h-83v188h283z" />
    <glyph glyph-name="uni0232" unicode="&#x232;" horiz-adv-x="1011" 
d="M649 579v-579h-336v578l-353 1114h343q74 -247 177 -810q105 563 178 810h343zM739 2030v-215h-517v215h517z" />
    <glyph glyph-name="uni0233" unicode="&#x233;" horiz-adv-x="1013" 
d="M663 550v-550h-320v549l-335 1058h326q70 -234 168 -769q100 535 169 769h326zM761 1945v-215h-517v215h517z" />
    <glyph glyph-name="uni1E0C" unicode="&#x1e0c;" horiz-adv-x="1240" 
d="M420 1379v-1066h159q159 0 159 110v956h-318zM84 1692h742q101 0 174 -67q74 -68 74 -164v-1038q0 -194 -148 -312q-139 -111 -347 -111h-495v1692zM730 -51v-266h-301v266h301z" />
    <glyph glyph-name="uni1E0D" unicode="&#x1e0d;" horiz-adv-x="1238" 
d="M458 1310v-1013h151q151 0 151 105v908h-302zM139 1607h705q96 0 165 -63q71 -65 71 -156v-986q0 -184 -141 -297q-132 -105 -330 -105h-470v1607zM760 -51v-266h-301v266h301z" />
    <glyph glyph-name="uni1E24" unicode="&#x1e24;" horiz-adv-x="1258" 
d="M420 689v-689h-336v1692h336v-689h318v689h336v-1692h-336v689h-318zM730 -51v-266h-301v266h301z" />
    <glyph glyph-name="uni1E25" unicode="&#x1e25;" horiz-adv-x="1258" 
d="M459 655v-655h-319v1607h319v-654h302v654h320v-1607h-320v655h-302zM761 -51v-266h-301v266h301z" />
    <glyph glyph-name="uni1E32" unicode="&#x1e32;" horiz-adv-x="1158" 
d="M420 689v-689h-336v1692h336v-689h129l208 689h341l-254 -846l254 -846h-341l-208 689h-129zM742 -51v-266h-301v266h301z" />
    <glyph glyph-name="uni1E33" unicode="&#x1e33;" horiz-adv-x="1181" 
d="M459 655v-655h-319v1607h319v-654h123l197 654h324l-241 -803l241 -804h-324l-197 655h-123zM772 -51v-266h-301v266h301z" />
    <glyph glyph-name="uni1E36" unicode="&#x1e36;" horiz-adv-x="941" 
d="M84 0v1692h336v-1379h466v-313h-802zM636 -51v-266h-301v266h301z" />
    <glyph glyph-name="uni1E37" unicode="&#x1e37;" horiz-adv-x="946" 
d="M139 0v1607h319v-1310h443v-297h-762zM671 -51v-266h-301v266h301z" />
    <glyph glyph-name="uni1E38" unicode="&#x1e38;" horiz-adv-x="941" 
d="M84 0v1692h336v-1379h466v-313h-802zM744 2030v-215h-517v215h517zM636 -51v-266h-301v266h301z" />
    <glyph glyph-name="uni1E39" unicode="&#x1e39;" horiz-adv-x="946" 
d="M139 0v1607h319v-1310h443v-297h-762zM779 2030v-215h-517v215h517zM671 -51v-266h-301v266h301z" />
    <glyph glyph-name="uni1E3A" unicode="&#x1e3a;" horiz-adv-x="941" 
d="M84 0v1692h336v-1379h466v-313h-802zM957 -65v-215h-944v215h944z" />
    <glyph glyph-name="uni1E3B" unicode="&#x1e3b;" horiz-adv-x="946" 
d="M139 0v1607h319v-1310h443v-297h-762zM992 -65v-215h-944v215h944z" />
    <glyph glyph-name="uni1E40" unicode="&#x1e40;" horiz-adv-x="1818" 
d="M1634 1692v-1692h-336v1115l-234 -1115h-408l-236 1115v-1115h-336v1692h466l310 -1375l308 1375h466zM1000 2034v-220h-281v220h281z" />
    <glyph glyph-name="uni1E41" unicode="&#x1e41;" horiz-adv-x="1789" 
d="M1613 1607v-1607h-320v1059l-222 -1059h-388l-224 1059v-1059h-319v1607h443l294 -1306l293 1306h443zM1017 1949v-220h-281v220h281z" />
    <glyph glyph-name="uni1E42" unicode="&#x1e42;" horiz-adv-x="1818" 
d="M1634 1692v-1692h-336v1115l-234 -1115h-408l-236 1115v-1115h-336v1692h466l310 -1375l308 1375h466zM1010 -51v-266h-301v266h301z" />
    <glyph glyph-name="uni1E43" unicode="&#x1e43;" horiz-adv-x="1789" 
d="M1613 1607v-1607h-320v1059l-222 -1059h-388l-224 1059v-1059h-319v1607h443l294 -1306l293 1306h443zM1027 -51v-266h-301v266h301z" />
    <glyph glyph-name="uni1E44" unicode="&#x1e44;" horiz-adv-x="1345" 
d="M420 1090v-1090h-336v1692h466l275 -1095v1095h336v-1692h-465zM763 2034v-220h-281v220h281z" />
    <glyph glyph-name="uni1E45" unicode="&#x1e45;" horiz-adv-x="1340" 
d="M459 1035v-1035h-319v1607h443l261 -1040v1040h319v-1607h-442zM792 1949v-220h-281v220h281z" />
    <glyph glyph-name="uni1E46" unicode="&#x1e46;" horiz-adv-x="1345" 
d="M420 1090v-1090h-336v1692h466l275 -1095v1095h336v-1692h-465zM773 -51v-266h-301v266h301z" />
    <glyph glyph-name="uni1E47" unicode="&#x1e47;" horiz-adv-x="1340" 
d="M459 1035v-1035h-319v1607h443l261 -1040v1040h319v-1607h-442zM802 -51v-266h-301v266h301z" />
    <glyph glyph-name="uni1E48" unicode="&#x1e48;" horiz-adv-x="1345" 
d="M420 1090v-1090h-336v1692h466l275 -1095v1095h336v-1692h-465zM1095 -65v-215h-944v215h944z" />
    <glyph glyph-name="uni1E49" unicode="&#x1e49;" horiz-adv-x="1340" 
d="M459 1035v-1035h-319v1607h443l261 -1040v1040h319v-1607h-442zM1124 -65v-215h-944v215h944z" />
    <glyph glyph-name="uni1E58" unicode="&#x1e58;" horiz-adv-x="1231" 
d="M618 916q48 0 84 32q36 31 36 77v354h-318v-463h198zM420 603v-603h-336v1692h742q101 0 174 -67q74 -68 74 -164v-436q0 -166 -129 -265q129 -99 129 -267v-493h-336v493q0 46 -36 79q-36 31 -84 31h-198zM720 2034v-220h-281v220h281z" />
    <glyph glyph-name="uni1E59" unicode="&#x1e59;" horiz-adv-x="1245" 
d="M647 870q46 0 80 31q34 29 34 73v336h-302v-440h188zM459 573v-573h-319v1607h705q96 0 165 -63q71 -65 71 -156v-414q0 -158 -123 -252q123 -94 123 -254v-468h-320v468q0 44 -34 75q-34 30 -80 30h-188zM751 1949v-220h-281v220h281z" />
    <glyph glyph-name="uni1E5A" unicode="&#x1e5a;" horiz-adv-x="1231" 
d="M618 916q48 0 84 32q36 31 36 77v354h-318v-463h198zM420 603v-603h-336v1692h742q101 0 174 -67q74 -68 74 -164v-436q0 -166 -129 -265q129 -99 129 -267v-493h-336v493q0 46 -36 79q-36 31 -84 31h-198zM730 -51v-266h-301v266h301z" />
    <glyph glyph-name="uni1E5B" unicode="&#x1e5b;" horiz-adv-x="1245" 
d="M647 870q46 0 80 31q34 29 34 73v336h-302v-440h188zM459 573v-573h-319v1607h705q96 0 165 -63q71 -65 71 -156v-414q0 -158 -123 -252q123 -94 123 -254v-468h-320v468q0 44 -34 75q-34 30 -80 30h-188zM601 -51v-266h-301v266h301z" />
    <glyph glyph-name="uni1E5C" unicode="&#x1e5c;" horiz-adv-x="1231" 
d="M618 916q48 0 84 32q36 31 36 77v354h-318v-463h198zM420 603v-603h-336v1692h742q101 0 174 -67q74 -68 74 -164v-436q0 -166 -129 -265q129 -99 129 -267v-493h-336v493q0 46 -36 79q-36 31 -84 31h-198zM838 2030v-215h-517v215h517zM730 -51v-266h-301v266h301z" />
    <glyph glyph-name="uni1E5D" unicode="&#x1e5d;" horiz-adv-x="1245" 
d="M647 870q46 0 80 31q34 29 34 73v336h-302v-440h188zM459 573v-573h-319v1607h705q96 0 165 -63q71 -65 71 -156v-414q0 -158 -123 -252q123 -94 123 -254v-468h-320v468q0 44 -34 75q-34 30 -80 30h-188zM869 1945v-215h-517v215h517zM601 -51v-266h-301v266h301z" />
    <glyph glyph-name="uni1E5E" unicode="&#x1e5e;" horiz-adv-x="1231" 
d="M618 916q48 0 84 32q36 31 36 77v354h-318v-463h198zM420 603v-603h-336v1692h742q101 0 174 -67q74 -68 74 -164v-436q0 -166 -129 -265q129 -99 129 -267v-493h-336v493q0 46 -36 79q-36 31 -84 31h-198zM1051 -65v-215h-944v215h944z" />
    <glyph glyph-name="uni1E5F" unicode="&#x1e5f;" horiz-adv-x="1181" 
d="M591 856q46 0 80 31q34 29 34 73v336h-302v-440h188zM403 559v-573h-319v1607h705q96 0 165 -63q71 -65 71 -156v-414q0 -158 -123 -252q123 -94 123 -254v-468h-320v468q0 44 -34 75q-34 30 -80 30h-188zM1003 -76v-204h-897v204h897z" />
    <glyph glyph-name="uni1E62" unicode="&#x1e62;" horiz-adv-x="1181" 
d="M710 1379h-318v-267q0 -109 159 -109q208 0 347 -111q148 -118 148 -312v-349q0 -96 -74 -164q-73 -67 -174 -67h-494q-101 0 -174 67q-74 68 -74 164v341h336v-259h318v267q0 109 -159 109q-208 0 -347 111q-148 118 -148 312v349q0 96 74 164q73 67 174 67h494
q101 0 174 -67q74 -68 74 -164v-340h-336v258zM702 -51v-266h-301v266h301z" />
    <glyph glyph-name="uni1E63" unicode="&#x1e63;" horiz-adv-x="1194" 
d="M737 1310h-302v-254q0 -103 151 -103q198 0 330 -106q141 -112 141 -296v-332q0 -91 -71 -155q-69 -64 -165 -64h-469q-96 0 -166 64t-70 155v324h319v-246h302v254q0 104 -151 104q-197 0 -329 105q-141 112 -141 296v332q0 91 70 156q70 63 166 63h469q96 0 165 -63
q71 -65 71 -156v-323h-320v245zM737 -51v-266h-301v266h301z" />
    <glyph glyph-name="uni1E6C" unicode="&#x1e6c;" horiz-adv-x="994" 
d="M306 1379h-328v313h990v-313h-327v-1379h-335v1379zM624 -51v-266h-301v266h301z" />
    <glyph glyph-name="uni1E6D" unicode="&#x1e6d;" horiz-adv-x="976" 
d="M334 1310h-312v297h941v-297h-311v-1310h-318v1310zM643 -51v-266h-301v266h301z" />
    <glyph glyph-name="Wgrave" unicode="&#x1e80;" horiz-adv-x="1927" 
d="M720 1692h427l205 -1376q101 913 180 1376h340l-289 -1692h-449l-200 1218l-200 -1218h-449l-290 1692h340q79 -463 180 -1376zM856 1758l-210 310h319l112 -310h-221z" />
    <glyph glyph-name="wgrave" unicode="&#x1e81;" horiz-adv-x="1882" 
d="M733 1607h405l195 -1307q96 868 171 1307h323l-274 -1607h-427l-190 1157l-190 -1157h-426l-276 1607h323q75 -439 171 -1307zM858 1673l-210 310h319l112 -310h-221z" />
    <glyph glyph-name="Wacute" unicode="&#x1e82;" horiz-adv-x="1927" 
d="M720 1692h427l205 -1376q101 913 180 1376h340l-289 -1692h-449l-200 1218l-200 -1218h-449l-290 1692h340q79 -463 180 -1376zM790 1758l112 310h319l-210 -310h-221z" />
    <glyph glyph-name="wacute" unicode="&#x1e83;" horiz-adv-x="1882" 
d="M733 1607h405l195 -1307q96 868 171 1307h323l-274 -1607h-427l-190 1157l-190 -1157h-426l-276 1607h323q75 -439 171 -1307zM792 1673l112 310h319l-210 -310h-221z" />
    <glyph glyph-name="Wdieresis" unicode="&#x1e84;" horiz-adv-x="1927" 
d="M720 1692h427l205 -1376q101 913 180 1376h340l-289 -1692h-449l-200 1218l-200 -1218h-449l-290 1692h340q79 -463 180 -1376zM840 2034v-248h-281v248h281zM1308 2034v-248h-281v248h281z" />
    <glyph glyph-name="wdieresis" unicode="&#x1e85;" horiz-adv-x="1882" 
d="M733 1607h405l195 -1307q96 868 171 1307h323l-274 -1607h-427l-190 1157l-190 -1157h-426l-276 1607h323q75 -439 171 -1307zM842 1949v-248h-281v248h281zM1310 1949v-248h-281v248h281z" />
    <glyph glyph-name="uni1E88" unicode="&#x1e88;" horiz-adv-x="1927" 
d="M720 1692h427l205 -1376q101 913 180 1376h340l-289 -1692h-449l-200 1218l-200 -1218h-449l-290 1692h340q79 -463 180 -1376zM1084 -51v-266h-301v266h301z" />
    <glyph glyph-name="uni1E89" unicode="&#x1e89;" horiz-adv-x="1882" 
d="M733 1607h405l195 -1307q96 868 171 1307h323l-274 -1607h-427l-190 1157l-190 -1157h-426l-276 1607h323q75 -439 171 -1307zM1086 -51v-266h-301v266h301z" />
    <glyph glyph-name="uni1E92" unicode="&#x1e92;" horiz-adv-x="906" 
d="M409 1379h-390v313h827l-415 -1379h390v-313h-826zM571 -51v-266h-301v266h301z" />
    <glyph glyph-name="uni1E93" unicode="&#x1e93;" horiz-adv-x="944" 
d="M442 1310h-370v297h785l-394 -1310h371v-297h-785zM604 -51v-266h-301v266h301z" />
    <glyph glyph-name="uni1EBC" unicode="&#x1ebc;" horiz-adv-x="1068" 
d="M420 313h560v-313h-896v1692h896v-313h-560v-376h466v-314h-466v-376zM411 1849q-15 10 -30 10q-39 0 -75 -70l-16 -39l-117 77l16 39q54 134 145 186q46 26 92 26q51 0 103 -33l124 -82q15 -10 30 -10q39 0 75 71l16 38l117 -77l-16 -38q-54 -134 -145 -187
q-46 -26 -91 -26q-52 0 -104 35z" />
    <glyph glyph-name="uni1EBD" unicode="&#x1ebd;" horiz-adv-x="1084" 
d="M458 297h532v-297h-851v1607h851v-297h-532v-357h443v-298h-443v-358zM444 1764q-15 10 -30 10q-39 0 -75 -70l-16 -39l-117 77l16 39q54 134 145 186q46 26 92 26q51 0 103 -33l124 -82q15 -10 30 -10q39 0 75 71l16 38l117 -77l-16 -38q-54 -134 -145 -187
q-46 -26 -91 -26q-52 0 -104 35z" />
    <glyph glyph-name="Ygrave" unicode="&#x1ef2;" horiz-adv-x="1011" 
d="M649 579v-579h-336v578l-353 1114h343q74 -247 177 -810q105 563 178 810h343zM403 1758l-210 310h319l112 -310h-221z" />
    <glyph glyph-name="ygrave" unicode="&#x1ef3;" horiz-adv-x="1013" 
d="M663 550v-550h-320v549l-335 1058h326q70 -234 168 -769q100 535 169 769h326zM425 1673l-210 310h319l112 -310h-221z" />
    <glyph glyph-name="uni1EF4" unicode="&#x1ef4;" horiz-adv-x="1011" 
d="M649 579v-579h-336v578l-353 1114h343q74 -247 177 -810q105 563 178 810h343zM631 -51v-266h-301v266h301z" />
    <glyph glyph-name="uni1EF5" unicode="&#x1ef5;" horiz-adv-x="1013" 
d="M663 550v-550h-320v549l-335 1058h326q70 -234 168 -769q100 535 169 769h326zM853 -51v-266h-301v266h301z" />
    <glyph glyph-name="uni2010" unicode="&#x2010;" horiz-adv-x="1040" 
d="M863 662h-753v283h753v-283z" />
    <glyph glyph-name="uni2011" unicode="&#x2011;" horiz-adv-x="1040" 
d="M863 662h-753v283h753v-283z" />
    <glyph glyph-name="figuredash" unicode="&#x2012;" horiz-adv-x="1302" 
d="M1385 705h-1375v283h1375v-283z" />
    <glyph glyph-name="twodotenleader" unicode="&#x2025;" horiz-adv-x="1365" 
d="M484 314v-313h-354v313h354zM1167 314v-313h-354v313h354z" />
    <glyph glyph-name="fraction" unicode="&#x2044;" horiz-adv-x="646" 
d="M-120 0l624 1692h262l-625 -1692h-261z" />
    <glyph glyph-name="uni204C" unicode="&#x204c;" horiz-adv-x="792" 
d="M625.5 1039.5q98.5 -98.5 98.5 -237.5t-98.5 -237.5t-237.5 -98.5t-237 98.5t-98 237.5t98 237.5t237 98.5t237.5 -98.5z" />
    <glyph glyph-name="uni204D" unicode="&#x204d;" horiz-adv-x="792" 
d="M398.5 1039.5q-98.5 -98.5 -98.5 -237.5t98.5 -237.5t237.5 -98.5t237 98.5t98 237.5t-98 237.5t-237 98.5t-237.5 -98.5z" />
    <glyph glyph-name="franc" unicode="&#x20a3;" horiz-adv-x="1092" 
d="M84 1692h896v-313h-560v-376h466v-314h-466v-689h-336v1692zM610.5 316h-568.5v213h568.5v-213z" />
    <glyph glyph-name="uni2053" unicode="&#x2053;" horiz-adv-x="1815" 
d="M615 861q-31.5 11 -63 11q-82.5 0 -159 -77l-33 -43l-247.5 85l33 43q114 148 307.5 205q96 29 193.5 29q108 0 217.5 -37l261 -90q31.5 -11 63 -11q82.5 0 159 78l33 42l247.5 -85l-33 -42q-114 -148 -307.5 -206q-96 -29 -192 -29q-109.5 0 -219 38z" />
    <glyph glyph-name="uni20AF" unicode="&#x20af;" horiz-adv-x="2402" 
d="M420 1379v-1066h159q159 0 159 110v956h-318zM84 1692h742q101 0 174 -67q74 -68 74 -164v-1038q0 -194 -148 -312q-139 -111 -347 -111h-495v1692zM1699 1310v-440h151q151 0 151 104v336h-302zM1380 1607h705q96 0 165 -63q71 -65 71 -156v-414q0 -184 -141 -296
q-132 -105 -330 -105h-151v-573h-319v1607z" />
    <glyph glyph-name="uni2100" unicode="&#x2100;" horiz-adv-x="2418" 
d="M371.25 832.5h116.25l-58.5 513.75zM327.75 609.75l-48.75 -244.5h-242.25l234 1205.25h318l233.25 -1205.25h-243l-47.25 244.5h-204zM739 0l624 1692h262l-625 -1692h-261zM1687.5 982.5h-226.5v-759.75h226.5v184.5h240v-243q0 -68.25 -53.25 -116.25
q-51.75 -48 -123.75 -48h-351.75q-72 0 -124.5 48t-52.5 116.25v876.75q0 68.25 52.5 117q52.5 47.25 124.5 47.25h351.75q72 0 123.75 -47.25q53.25 -48.75 53.25 -117v-242.25h-240v183.75z" />
    <glyph glyph-name="uni2105" unicode="&#x2105;" horiz-adv-x="2528" 
d="M582 1347.75h-226.5v-759.75h226.5v184.5h240v-243q0 -68.25 -53.25 -116.25q-51.75 -48 -123.75 -48h-351.75q-72 0 -124.5 48t-52.5 116.25v876.75q0 68.25 52.5 117q52.5 47.25 124.5 47.25h351.75q72 0 123.75 -47.25q53.25 -48.75 53.25 -117v-242.25h-240v183.75z
M795 0l624 1692h262l-625 -1692h-261zM1503 982.5v-759.75h226.5v759.75h-226.5zM1792.5 1205.25q72 0 123.75 -47.25q53.25 -48.75 53.25 -117v-876.75q0 -68.25 -53.25 -116.25q-51.75 -48 -123.75 -48h-351.75q-72 0 -124.5 48t-52.5 116.25v876.75q0 68.25 52.5 117
q52.5 47.25 124.5 47.25h351.75z" />
    <glyph glyph-name="uni2106" unicode="&#x2106;" horiz-adv-x="2539" 
d="M582 1347.75h-226.5v-759.75h226.5v184.5h240v-243q0 -68.25 -53.25 -116.25q-51.75 -48 -123.75 -48h-351.75q-72 0 -124.5 48t-52.5 116.25v876.75q0 68.25 52.5 117q52.5 47.25 124.5 47.25h351.75q72 0 123.75 -47.25q53.25 -48.75 53.25 -117v-242.25h-240v183.75z
M795 0l624 1692h262l-625 -1692h-261zM1509 222.75h226.5v982.5h240v-1041q0 -68.25 -53.25 -116.25q-51.75 -48 -123.75 -48h-351.75q-72 0 -124.5 48t-52.5 116.25v1041h239.25v-982.5z" />
    <glyph glyph-name="uni2116" unicode="&#x2116;" horiz-adv-x="2258" 
d="M420 1090v-1090h-336v1692h466l275 -1095v1095h336v-1692h-465zM1665.09 1222.75v-607.775h199.312v607.775h-199.312zM1919.84 1400.94q63.3574 0 108.896 -37.7988q46.8574 -38.998 46.8574 -93.5957v-701.372q0 -54.5977 -46.8574 -92.9961
q-45.5381 -38.3984 -108.896 -38.3984h-309.527q-63.3574 0 -109.556 38.3984t-46.1982 92.9961v701.372q0 54.5977 46.1982 93.5957q46.1982 37.7988 109.556 37.7988h309.527zM2026 302h-568.5v213h568.5v-213z" />
    <glyph glyph-name="estimated" unicode="&#x212e;" horiz-adv-x="1179" 
d="M443 1236v-278h302v278h-302zM443 661v-364h302v246h320v-324q0 -91 -71 -155q-69 -64 -165 -64h-469q-96 0 -166 64t-70 155v1095q0 91 70 156q70 63 166 63h469q96 0 165 -63q71 -65 71 -156v-356h1v-297h-623z" />
    <glyph glyph-name="onethird" unicode="&#x2153;" horiz-adv-x="2698" 
d="M656 727h205v-219h-645v219h205v746h-205v219h266q71 0 122 -47q52 -47 52 -115v-803zM906 0l624 1692h262l-625 -1692h-261zM2256 935h-175v-181h-235v238q0 68 52 115q51 47 122 47h296q72 0 123 -47q52 -47 52 -115v-244q0 -115 -68 -186q68 -71 68 -186v-245
q0 -67 -52 -114q-51 -47 -123 -47h-296q-71 0 -122 47q-52 47 -52 114v239h235v-181h175v187q0 44 -21 61q-19 15 -66 15h-116v220h116q47 0 66 15q21 17 21 61v187z" />
    <glyph glyph-name="twothirds" unicode="&#x2154;" horiz-adv-x="2698" 
d="M426 727h410v-219h-645v406q0 136 90 217q89 79 233 79q47 0 66 15q21 17 21 61v187h-175v-181h-235v238q0 68 52 115q51 47 122 47h296q72 0 123 -47q52 -47 52 -115v-244q0 -136 -90 -217q-88 -79 -232 -79q-48 0 -67 -15q-21 -17 -21 -61v-187zM906 0l624 1692h262
l-625 -1692h-261zM2256 935h-175v-181h-235v238q0 68 52 115q51 47 122 47h296q72 0 123 -47q52 -47 52 -115v-244q0 -115 -68 -186q68 -71 68 -186v-245q0 -67 -52 -114q-51 -47 -123 -47h-296q-71 0 -122 47q-52 47 -52 114v239h235v-181h175v187q0 44 -21 61
q-19 15 -66 15h-116v220h116q47 0 66 15q21 17 21 61v187z" />
    <glyph glyph-name="equivalence" unicode="&#x2261;" horiz-adv-x="1144" 
d="M1040 783h-936v283h936v-283zM1040 217h-936v283h936v-283zM1040 1349h-936v283h936v-283z" />
    <glyph glyph-name="uniFB00" unicode="&#xfb00;" horiz-adv-x="2066" 
d="M140 1607h851v-297h-532v-357h443v-298h-443v-655h-319v1607zM1173 1607h851v-297h-532v-357h443v-298h-443v-655h-319v1607z" />
    <glyph glyph-name="uniFB01" unicode="&#xfb01;" horiz-adv-x="1669" 
d="M140 1607h851v-297h-532v-357h443v-298h-443v-655h-319v1607zM1173 0v1607h319v-1607h-319z" />
    <glyph glyph-name="uniFB02" unicode="&#xfb02;" horiz-adv-x="1979" 
d="M140 1607h851v-297h-532v-357h443v-298h-443v-655h-319v1607zM1172 0v1607h319v-1310h443v-297h-762z" />
    <glyph glyph-name="uniFB03" unicode="&#xfb03;" horiz-adv-x="2702" 
d="M140 1607h851v-297h-532v-357h443v-298h-443v-655h-319v1607zM1173 1607h851v-297h-532v-357h443v-298h-443v-655h-319v1607zM2206 0v1607h319v-1607h-319z" />
    <glyph glyph-name="uniFB04" unicode="&#xfb04;" horiz-adv-x="3012" 
d="M140 1607h851v-297h-532v-357h443v-298h-443v-655h-319v1607zM1173 1607h851v-297h-532v-357h443v-298h-443v-655h-319v1607zM2205 0v1607h319v-1310h443v-297h-762z" />
    <glyph glyph-name="uniFB05" unicode="&#xfb05;" horiz-adv-x="1889" 
d="M459 1310v-357h443v-298h-443v-655h-319v1607h1736v-297h-311v-1310h-318v1310h-788z" />
    <glyph glyph-name="uniFB06" unicode="&#xfb06;" horiz-adv-x="1955" 
d="M435 1310v-254q0 -103 151 -103q198 0 330 -106q141 -112 141 -296v-332q0 -91 -71 -155q-69 -64 -165 -64h-469q-96 0 -166 64t-70 155v324h319v-246h302v254q0 104 -151 104q-197 0 -329 105q-141 112 -141 296v332q0 91 70 156q70 63 166 63h1590v-297h-311v-1310
h-318v1310h-878z" />
    <glyph glyph-name="currency" unicode="&#xa4;" horiz-adv-x="1277" 
d="M369 1276q33 11 70 11h418q29 0 55 -7l136 131l159 -152l-142 -137q2 -15 2 -31v-485l140 -135l-159 -153l-124 119q-31 -10 -67 -10h-418q-44 0 -81 15l-130 -124l-158 153l158 152v468q0 7 1 15l-159 153l158 152zM494 1045v-376h308v376h-308z" />
    <glyph glyph-name="uni2070" unicode="&#x2070;" 
d="M438 1473v-746h175v746h-175zM673 1692q72 0 123 -47q52 -47 52 -115v-861q0 -67 -52 -114q-51 -47 -123 -47h-296q-71 0 -122 47q-52 47 -52 114v861q0 68 52 115q51 47 122 47h296z" />
    <glyph glyph-name="uni2074" unicode="&#x2074;" horiz-adv-x="977" 
d="M535 995v697h235v-697h93v-219h-93v-268h-235v268h-256q-71 0 -122 46q-52 48 -52 115l108 755h217l-88 -697h193z" />
    <glyph glyph-name="uni2075" unicode="&#x2075;" 
d="M445 1473v-220q116 60 204 60q58 0 104 -26q102 -60 102 -228v-390q0 -67 -52 -114q-51 -47 -123 -47h-296q-71 0 -122 47q-52 47 -52 114v239h235v-181h175v332q0 44 -16 60q-15 16 -61 16q-47 0 -71 -15q-27 -18 -27 -61v-83h-235v716h645v-219h-410z" />
    <glyph glyph-name="uni2076" unicode="&#x2076;" 
d="M438 727h175v213q0 44 -21 61q-19 16 -66 16q-48 0 -67 -16q-21 -17 -21 -61v-213zM438 1166q91 49 168 49q68 0 126 -37q116 -75 116 -238v-271q0 -67 -52 -114q-51 -47 -123 -47h-296q-71 0 -122 47q-52 47 -52 114v861q0 68 52 115q51 47 122 47h296q72 0 123 -47
q52 -47 52 -115v-238h-235v181h-175v-307z" />
    <glyph glyph-name="uni2077" unicode="&#x2077;" 
d="M401 1473v-181h-235v238q0 68 52 115q51 47 122 47h296q72 0 123 -47q52 -47 52 -115q0 -161 -45 -296q-31 -94 -123 -274q-110 -216 -110 -403v-49h-235v49q0 146 42 276q30 94 113 256q112 219 121 384h-173z" />
    <glyph glyph-name="uni2078" unicode="&#x2078;" 
d="M601 1473h-175v-187q0 -44 21 -61q19 -15 67 -15q47 0 66 15q21 17 21 61v187zM426 727h175v187q0 44 -21 61q-19 15 -66 15q-48 0 -67 -15q-21 -17 -21 -61v-187zM191 1286v244q0 68 52 115q51 47 122 47h296q72 0 123 -47q52 -47 52 -115v-244q0 -115 -68 -186
q68 -71 68 -186v-245q0 -67 -52 -114q-51 -47 -123 -47h-296q-71 0 -122 47q-52 47 -52 114v245q0 115 67 186q-67 71 -67 186z" />
    <glyph glyph-name="uni2079" unicode="&#x2079;" 
d="M600 1473h-175v-214q0 -43 21 -60q18 -16 66 -16q47 0 67 16q21 17 21 60v214zM600 1034q-91 -49 -168 -49q-68 0 -126 37q-116 75 -116 237v271q0 68 52 115q51 47 122 47h296q72 0 123 -47q52 -47 52 -115v-861q0 -67 -52 -114q-51 -47 -123 -47h-296q-71 0 -122 47
q-52 47 -52 114v239h235v-181h175v307z" />
    <glyph glyph-name="uni207A" unicode="&#x207a;" horiz-adv-x="913" 
d="M519 1164h229v-198h-229v-229h-197v229h-229v198h229v228h197v-228z" />
    <glyph glyph-name="uni207B" unicode="&#x207b;" horiz-adv-x="863" 
d="M759 868h-655v198h655v-198z" />
    <glyph glyph-name="uni207C" unicode="&#x207c;" horiz-adv-x="871" 
d="M763 729h-655v199h655v-199zM763 1112h-655v197h655v-197z" />
    <glyph glyph-name="uni207D" unicode="&#x207d;" horiz-adv-x="784" 
d="M248 1635q0 126 96 202q90 72 225 72h39v-151h-39q-103 -11 -103 -83v-1065q0 -72 103 -83h39v-151h-39q-135 0 -225 72q-96 76 -96 202v985z" />
    <glyph glyph-name="uni207E" unicode="&#x207e;" horiz-adv-x="788" 
d="M451 650q0 -126 -96 -202q-90 -72 -225 -72h-39v151h39q103 11 103 83v1065q0 72 -103 83h-39v151h39q135 0 225 -72q96 -76 96 -202v-985z" />
    <glyph glyph-name="uni207F" unicode="&#x207f;" horiz-adv-x="1033" 
d="M363 1292v-725h-223v1125h310l183 -728v728h223v-1125h-309z" />
    <glyph glyph-name="uni2080" unicode="&#x2080;" 
d="M438 373v-746h175v746h-175zM673 592q72 0 123 -47q52 -47 52 -115v-861q0 -67 -52 -114q-51 -47 -123 -47h-296q-71 0 -122 47q-52 47 -52 114v861q0 68 52 115q51 47 122 47h296z" />
    <glyph glyph-name="uni2081" unicode="&#x2081;" 
d="M656 -373h205v-219h-645v219h205v746h-205v219h266q71 0 122 -47q52 -47 52 -115v-803z" />
    <glyph glyph-name="uni2082" unicode="&#x2082;" 
d="M426 -373h410v-219h-645v406q0 136 90 217q89 79 233 79q47 0 66 15q21 17 21 61v187h-175v-181h-235v238q0 68 52 115q51 47 122 47h296q72 0 123 -47q52 -47 52 -115v-244q0 -136 -90 -217q-88 -79 -232 -79q-48 0 -67 -15q-21 -17 -21 -61v-187z" />
    <glyph glyph-name="uni2083" unicode="&#x2083;" 
d="M584 373h-175v-181h-235v238q0 68 52 115q51 47 122 47h296q72 0 123 -47q52 -47 52 -115v-244q0 -115 -68 -186q68 -71 68 -186v-245q0 -67 -52 -114q-51 -47 -123 -47h-296q-71 0 -122 47q-52 47 -52 114v239h235v-181h175v187q0 44 -21 61q-19 15 -66 15h-116v220h116
q47 0 66 15q21 17 21 61v187z" />
    <glyph glyph-name="uni2084" unicode="&#x2084;" horiz-adv-x="977" 
d="M535 -105v697h235v-697h93v-219h-93v-268h-235v268h-256q-71 0 -122 46q-52 48 -52 115l108 755h217l-88 -697h193z" />
    <glyph glyph-name="uni2085" unicode="&#x2085;" 
d="M445 373v-220q116 60 204 60q58 0 104 -26q102 -60 102 -228v-390q0 -67 -52 -114q-51 -47 -123 -47h-296q-71 0 -122 47q-52 47 -52 114v239h235v-181h175v332q0 44 -16 60q-15 16 -61 16q-47 0 -71 -15q-27 -18 -27 -61v-83h-235v716h645v-219h-410z" />
    <glyph glyph-name="uni2086" unicode="&#x2086;" 
d="M438 -373h175v213q0 44 -21 61q-19 16 -66 16q-48 0 -67 -16q-21 -17 -21 -61v-213zM438 66q91 49 168 49q68 0 126 -37q116 -75 116 -238v-271q0 -67 -52 -114q-51 -47 -123 -47h-296q-71 0 -122 47q-52 47 -52 114v861q0 68 52 115q51 47 122 47h296q72 0 123 -47
q52 -47 52 -115v-238h-235v181h-175v-307z" />
    <glyph glyph-name="uni2087" unicode="&#x2087;" 
d="M401 373v-181h-235v238q0 68 52 115q51 47 122 47h296q72 0 123 -47q52 -47 52 -115q0 -161 -45 -296q-31 -94 -123 -274q-110 -216 -110 -403v-49h-235v49q0 146 42 276q30 94 113 256q112 219 121 384h-173z" />
    <glyph glyph-name="uni2088" unicode="&#x2088;" 
d="M601 373h-175v-187q0 -44 21 -61q19 -15 67 -15q47 0 66 15q21 17 21 61v187zM426 -373h175v187q0 44 -21 61q-19 15 -66 15q-48 0 -67 -15q-21 -17 -21 -61v-187zM191 186v244q0 68 52 115q51 47 122 47h296q72 0 123 -47q52 -47 52 -115v-244q0 -115 -68 -186
q68 -71 68 -186v-245q0 -67 -52 -114q-51 -47 -123 -47h-296q-71 0 -122 47q-52 47 -52 114v245q0 115 67 186q-67 71 -67 186z" />
    <glyph glyph-name="uni2089" unicode="&#x2089;" 
d="M600 373h-175v-214q0 -43 21 -60q18 -16 66 -16q47 0 67 16q21 17 21 60v214zM600 -66q-91 -49 -168 -49q-68 0 -126 37q-116 75 -116 237v271q0 68 52 115q51 47 122 47h296q72 0 123 -47q52 -47 52 -115v-861q0 -67 -52 -114q-51 -47 -123 -47h-296q-71 0 -122 47
q-52 47 -52 114v239h235v-181h175v307z" />
    <glyph glyph-name="uni208A" unicode="&#x208a;" horiz-adv-x="913" 
d="M519 100h229v-198h-229v-229h-197v229h-229v198h229v228h197v-228z" />
    <glyph glyph-name="uni208B" unicode="&#x208b;" horiz-adv-x="863" 
d="M759 -99h-655v198h655v-198z" />
    <glyph glyph-name="uni208C" unicode="&#x208c;" horiz-adv-x="871" 
d="M763 -290h-655v199h655v-199zM763 93h-655v197h655v-197z" />
    <glyph glyph-name="uni208D" unicode="&#x208d;" horiz-adv-x="784" 
d="M248 850q0 126 96 202q90 72 225 72h39v-151h-39q-103 -11 -103 -83v-1065q0 -72 103 -83h39v-151h-39q-135 0 -225 72q-96 76 -96 202v985z" />
    <glyph glyph-name="uni208E" unicode="&#x208e;" horiz-adv-x="788" 
d="M451 -135q0 -126 -96 -202q-90 -72 -225 -72h-39v151h39q103 11 103 83v1065q0 72 -103 83h-39v151h39q135 0 225 -72q96 -76 96 -202v-985z" />
    <glyph glyph-name="uni2023" unicode="&#x2023;" horiz-adv-x="1156" 
d="M110 1370l936 -470l-936 -480v950z" />
    <glyph glyph-name="onedotenleader" unicode="&#x2024;" horiz-adv-x="683" 
d="M484 314v-313h-354v313h354z" />
    <glyph glyph-name="uni2027" unicode="&#x2027;" horiz-adv-x="508" 
d="M428.388 872.075v-266.043h-300.892v266.043h300.892z" />
    <glyph glyph-name="uni2015" unicode="&#x2015;" horiz-adv-x="3072" 
d="M3175.5 662h-3175.5v283h3175.5v-283z" />
    <glyph glyph-name="uni2016" unicode="&#x2016;" horiz-adv-x="1191" 
d="M150 -413v2334h297v-2334h-297zM744 -413v2334h297v-2334h-297z" />
    <glyph glyph-name="underscoredbl" unicode="&#x2017;" horiz-adv-x="1437" 
d="M1287 -256h-1137v213h1137v-213zM1287 0h-1137v213h1137v-213z" />
    <glyph glyph-name="quotereversed" unicode="&#x201b;" horiz-adv-x="654" 
d="M150 1702v-313l250 -354v354h104v313h-354z" />
    <glyph glyph-name="uni201F" unicode="&#x201f;" horiz-adv-x="1150" 
d="M646 1702v-313l250 -354v354h104v313h-354zM150 1702v-313l250 -354v354h104v313h-354z" />
    <glyph glyph-name="perthousand" unicode="&#x2030;" horiz-adv-x="2851" 
d="M438 1558v-560h175v560h-175zM673 1722q72 0 123 -35q52 -36 52 -86v-646q0 -50 -52 -86q-51 -35 -123 -35h-296q-71 0 -122 35q-52 36 -52 86v646q0 50 52 86q51 35 122 35h296zM616 0l624 1692h262l-625 -1692h-261zM1489 694v-560h175v560h-175zM1725 858
q71 0 122 -35q52 -36 52 -86v-646q0 -50 -52 -86q-51 -35 -122 -35h-297q-71 0 -122 35q-52 36 -52 86v646q0 50 52 86q51 35 122 35h297zM2264 694v-560h174v560h-174zM2499 858q71 0 122 -35q52 -36 52 -86v-646q0 -50 -52 -86q-51 -35 -122 -35h-297q-71 0 -122 35
q-52 36 -52 86v646q0 50 52 86q51 35 122 35h297z" />
    <glyph glyph-name="uni2031" unicode="&#x2031;" horiz-adv-x="3687" 
d="M438 1558v-560h175v560h-175zM673 1722q72 0 123 -35q52 -36 52 -86v-646q0 -50 -52 -86q-51 -35 -123 -35h-296q-71 0 -122 35q-52 36 -52 86v646q0 50 52 86q51 35 122 35h296zM642 0l624 1692h262l-625 -1692h-261zM1548 694v-560h174v560h-174zM1783 858
q71 0 122 -35q52 -36 52 -86v-646q0 -50 -52 -86q-51 -35 -122 -35h-297q-71 0 -122 35q-52 36 -52 86v646q0 50 52 86q51 35 122 35h297zM2324 694v-560h174v560h-174zM2559 858q71 0 122 -35q52 -36 52 -86v-646q0 -50 -52 -86q-51 -35 -122 -35h-297q-71 0 -122 35
q-52 36 -52 86v646q0 50 52 86q51 35 122 35h297zM3100 694v-560h174v560h-174zM3335 858q71 0 122 -35q52 -36 52 -86v-646q0 -50 -52 -86q-51 -35 -122 -35h-297q-71 0 -122 35q-52 36 -52 86v646q0 50 52 86q51 35 122 35h297z" />
    <glyph glyph-name="minute" unicode="&#x2032;" horiz-adv-x="654" 
d="M203 1141l-74 665h336l-77 -665h-185z" />
    <glyph glyph-name="second" unicode="&#x2033;" horiz-adv-x="990" 
d="M203 1141l-74 665h336l-77 -665h-185zM539 1141l-74 665h336l-77 -665h-185z" />
    <glyph glyph-name="uni2034" unicode="&#x2034;" horiz-adv-x="1326" 
d="M203 1141l-74 665h336l-77 -665h-185zM539 1141l-74 665h336l-77 -665h-185zM875 1141l-74 665h336l-77 -665h-185z" />
    <glyph glyph-name="uni2035" unicode="&#x2035;" horiz-adv-x="654" 
d="M391 1141l74 665h-336l77 -665h185z" />
    <glyph glyph-name="uni2036" unicode="&#x2036;" horiz-adv-x="1326" 
d="M391 1141l74 665h-336l77 -665h185zM1063 1141l74 665h-336l77 -665h185z" />
    <glyph glyph-name="uni2037" unicode="&#x2037;" horiz-adv-x="1998" 
d="M391 1141l74 665h-336l77 -665h185zM1063 1141l74 665h-336l77 -665h185zM1735 1141l74 665h-336l77 -665h185z" />
    <glyph glyph-name="uni2038" unicode="&#x2038;" horiz-adv-x="1250" 
d="M625 -249l-192 -569h-283l331 818h288l331 -818h-283z" />
    </font>
</defs>
</svg>
