<?xml version="1.0" standalone="no"?>
<!DOCTYPE svg PUBLIC "-//W3C//DTD SVG 1.1//EN" "http://www.w3.org/Graphics/SVG/1.1/DTD/svg11.dtd" >
<svg xmlns="http://www.w3.org/2000/svg" xmlns:xlink="http://www.w3.org/1999/xlink" version="1.1">
<metadata>
Created by FontForge 20170731 at Mon May  6 05:41:28 2019
 By Aleksey,,,
</metadata>
<defs>
<font id="KozGoPr6N-Bold-AlphaNum" horiz-adv-x="1000" vert-adv-y="1000" >
  <font-face 
    font-family="KozGoPr6N-Bold-AlphaNum"
    font-weight="700"
    font-stretch="normal"
    units-per-em="1000"
    panose-1="2 0 8 3 0 0 0 0 0 0"
    ascent="800"
    descent="-200"
    bbox="9 -95 992 856"
    underline-thickness="50"
    underline-position="-200"
    unicode-range="U+2156-32BF"
  />
<missing-glyph horiz-adv-x="364" 
d="M33 0v666h265v-666h-265zM66 33h199v600h-199v-600z" />
    <glyph glyph-name=".notdef" horiz-adv-x="364" 
d="M33 0v666h265v-666h-265zM66 33h199v600h-199v-600z" />
    <glyph glyph-name=".null" horiz-adv-x="0" vert-adv-y="0" 
 />
    <glyph glyph-name="nonmarkingreturn" horiz-adv-x="333" 
 />
    <glyph glyph-name="uni2156" unicode="&#x2156;" 
d="M394 378h-364v66l67 48q96 69 132 103.5t36 63.5q0 59 -77 59q-54 0 -112 -45l-41 80q71 57 178 57q76 0 123 -36.5t47 -104.5q0 -44 -30 -82t-88 -79l-49 -34v-1h178v-95zM801 810l-520 -860h-83l520 860h83zM947 382v-95h-207l-10 -47q13 1 37 1q38 0 71.5 -6.5
t65 -21.5t50 -44.5t18.5 -70.5q0 -68 -55.5 -108t-161.5 -40q-92 0 -152 27l24 88q51 -23 124 -23q98 0 98 53q0 62 -144 62q-38 0 -78 -7l32 232h288z" />
    <glyph glyph-name="uni2157" unicode="&#x2157;" 
d="M28 407l28 86q68 -30 130 -30q88 0 88 42q0 23 -25 35.5t-66 12.5h-64v84h63q31 -1 56 10t25 32q0 40 -75 40q-55 0 -118 -30l-29 83q63 38 172 38q79 0 125 -31.5t46 -81.5q0 -79 -94 -102v-2q47 -2 79 -28.5t32 -67.5q0 -61 -56.5 -93.5t-151.5 -32.5q-106 0 -165 36z
M801 810l-520 -860h-83l520 860h83zM947 382v-95h-207l-10 -47q13 1 37 1q38 0 71.5 -6.5t65 -21.5t50 -44.5t18.5 -70.5q0 -68 -55.5 -108t-161.5 -40q-92 0 -152 27l24 88q51 -23 124 -23q98 0 98 53q0 62 -144 62q-38 0 -78 -7l32 232h288z" />
    <glyph glyph-name="uni2158" unicode="&#x2158;" 
d="M363 370h-115v103h-220v75l171 253h164v-244h57v-84h-57v-103zM137 557h111v86q0 27 2 95h-2q-24 -41 -55 -90l-56 -88v-3zM801 810l-520 -860h-83l520 860h83zM947 382v-95h-207l-10 -47q13 1 37 1q38 0 71.5 -6.5t65 -21.5t50 -44.5t18.5 -70.5q0 -68 -55.5 -108
t-161.5 -40q-92 0 -152 27l24 88q51 -23 124 -23q98 0 98 53q0 62 -144 62q-38 0 -78 -7l32 232h288z" />
    <glyph glyph-name="uni2159" unicode="&#x2159;" 
d="M915 388v-91q-11 2 -40 2q-150 -5 -174 -81h2q39 29 108 29q66 0 113.5 -37t47.5 -106q0 -70 -55 -112t-134 -42q-100 0 -151 56.5t-51 134.5q0 115 80 181q41 35 91 49.5t126 16.5q20 2 37 0zM782 36q31 0 50 17.5t19 46.5q0 31 -21.5 47.5t-56.5 16.5q-33 0 -55 -18
t-22 -37q0 -28 23 -50.5t63 -22.5zM193 372v333h-2l-96 -41l-20 85l137 57h93v-434h-112zM801 810l-520 -860h-83l520 860h83z" />
    <glyph glyph-name="uni215A" unicode="&#x215a;" 
d="M915 388v-91q-11 2 -40 2q-150 -5 -174 -81h2q39 29 108 29q66 0 113.5 -37t47.5 -106q0 -70 -55 -112t-134 -42q-100 0 -151 56.5t-51 134.5q0 115 80 181q41 35 91 49.5t126 16.5q20 2 37 0zM782 36q31 0 50 17.5t19 46.5q0 31 -21.5 47.5t-56.5 16.5q-33 0 -55 -18
t-22 -37q0 -28 23 -50.5t63 -22.5zM801 810l-520 -860h-83l520 860h83zM372 798v-95h-207l-9 -48q12 2 36 2q37 0 70 -6.5t65 -21t51 -44.5t19 -71q0 -68 -55.5 -108t-161.5 -40q-90 0 -152 26l25 89q53 -24 123 -24q98 0 98 55q0 60 -144 60q-42 0 -78 -6l32 232h288z" />
    <glyph glyph-name="uni2160" unicode="&#x2160;" 
d="M425 774h150v-777h-150v777z" />
    <glyph glyph-name="uni2161" unicode="&#x2161;" 
d="M269 774h146v-777h-146v777zM585 774h146v-777h-146v777z" />
    <glyph glyph-name="uni2162" unicode="&#x2162;" 
d="M180 774h141v-777h-141v777zM429 774h142v-777h-142v777zM678 774h142v-777h-142v777z" />
    <glyph glyph-name="uni2163" unicode="&#x2163;" 
d="M119 774h142v-777h-142v777zM691 -3h-163l-218 777h157l86 -362q25 -107 60 -271h4q23 113 62 269l90 364h154z" />
    <glyph glyph-name="uni2164" unicode="&#x2164;" 
d="M582 -3h-178l-254 777h165l107 -370q42 -148 74 -278h3q35 139 79 276l110 372h162z" />
    <glyph glyph-name="uni2165" unicode="&#x2165;" 
d="M458 -3h-163l-218 777h158l86 -362q26 -114 59 -271h3q25 119 63 269l90 364h154zM739 774h142v-777h-142v777z" />
    <glyph glyph-name="uni2166" unicode="&#x2166;" 
d="M378 -3h-153l-196 777h143l79 -353q29 -133 54 -263h2q21 124 52 261l73 355h139zM583 774h134v-777h-134v777zM798 774h134v-777h-134v777z" />
    <glyph glyph-name="uni2167" unicode="&#x2167;" 
d="M373 774h233v-777h-109v759l-166 -759h-134l-173 777h132l66 -353q15 -84 44 -262h3q24 160 42 260zM772 -3h-109v777h109v-777zM829 -3v777h109v-777h-109z" />
    <glyph glyph-name="uni2168" unicode="&#x2168;" 
d="M106 774h142v-777h-142v777zM921 -3h-163l-80 166q-58 121 -69 149h-2q-11 -26 -64 -148l-74 -167h-159l216 393l-205 384h161l80 -171l56 -129h1q23 57 53 128l76 172h159l-207 -378z" />
    <glyph glyph-name="uni2169" unicode="&#x2169;" 
d="M844 -3h-176l-95 166q-22 37 -82 149h-2q-22 -50 -76 -148l-87 -167h-172l245 395l-233 382h175l93 -174q35 -64 66 -130h3q23 54 61 130l91 174h173l-236 -378z" />
    <glyph glyph-name="uni216A" unicode="&#x216a;" 
d="M690 -3h-163l-80 166q-43 88 -71 149h-2q-24 -61 -63 -148l-74 -167h-158l215 393l-205 384h162l79 -171l56 -129h2q20 52 52 128l76 172h159l-206 -378zM753 774h141v-777h-141v777z" />
    <glyph glyph-name="uni216B" unicode="&#x216b;" 
d="M583 -3h-158l-66 162q-33 78 -58 145h-2q-13 -44 -52 -144l-59 -163h-156l190 394l-180 383h154l66 -169q28 -71 47 -128h2q15 50 41 127l61 170h156l-182 -375zM586 774h134v-777h-134v777zM798 774h134v-777h-134v777z" />
    <glyph glyph-name="uni2170" unicode="&#x2170;" 
d="M500 641q-42 0 -64.5 25t-22.5 60q0 37 24 61.5t63 24.5t63 -24.5t24 -61.5q0 -36 -24 -60.5t-63 -24.5zM575 -3h-150v563h150v-563z" />
    <glyph glyph-name="uni2171" unicode="&#x2171;" 
d="M342 645q-41 0 -63 25t-22 59q0 36 23.5 59.5t61.5 23.5t61.5 -23.5t23.5 -59.5q0 -35 -24 -59.5t-61 -24.5zM658 645q-41 0 -62.5 25t-21.5 59q0 36 23.5 59.5t61.5 23.5t61 -23.5t23 -59.5q0 -35 -23.5 -59.5t-61.5 -24.5zM414 -3h-145v563h145v-563zM731 -3h-145v563
h145v-563z" />
    <glyph glyph-name="uni2172" unicode="&#x2172;" 
d="M259 649q-39 0 -61 24t-22 57q0 35 23 58.5t61 23.5q37 0 60 -23.5t23 -58.5q0 -34 -23.5 -57.5t-60.5 -23.5zM500 649q-40 0 -61.5 24t-21.5 57q0 35 23 58.5t60 23.5t60 -23.5t23 -58.5t-23 -58t-60 -23zM740 649q-38 0 -60.5 23.5t-22.5 57.5q0 35 23 58.5t61 23.5
q37 0 60 -23.5t23 -58.5q0 -34 -23 -57.5t-61 -23.5zM330 -3h-142v563h142v-563zM571 -3h-142v563h142v-563zM811 -3h-141v563h141v-563z" />
    <glyph glyph-name="uni2173" unicode="&#x2173;" 
d="M208 649q-40 0 -61.5 24t-21.5 57q0 35 23 58.5t60 23.5t60 -23.5t23 -58.5t-23 -58t-60 -23zM279 -3h-142v563h142v-563zM346 560h160l81 -262q20 -62 39 -134h3q16 64 38 134l80 262h156l-217 -563h-127z" />
    <glyph glyph-name="uni2174" unicode="&#x2174;" 
d="M203 560h165l94 -276q21 -64 40 -142h4q14 63 40 142l91 276h159l-237 -563h-122z" />
    <glyph glyph-name="uni2175" unicode="&#x2175;" 
d="M792 649q-40 0 -61.5 24t-21.5 57q0 35 23 58.5t60 23.5t60 -23.5t23 -58.5t-23 -58t-60 -23zM97 560h160l81 -262q29 -98 38 -134h4q13 55 37 134l81 262h156l-217 -563h-127zM863 -3h-142v563h142v-563z" />
    <glyph glyph-name="uni2176" unicode="&#x2176;" 
d="M643 658q-37 0 -58 22.5t-21 54.5q0 33 21.5 55t56.5 22t57 -22t22 -55t-21.5 -55t-56.5 -22zM858 658q-37 0 -58.5 22.5t-21.5 54.5q0 33 21.5 55t56.5 22q36 0 57.5 -22t21.5 -55t-21 -55t-56 -22zM40 560h152l76 -262q24 -79 37 -134h3q18 73 36 134l76 262h148
l-205 -563h-121zM709 -3h-134v563h134v-563zM923 -3h-134v563h134v-563z" />
    <glyph glyph-name="uni2177" unicode="&#x2177;" 
d="M553 665q-31 0 -48.5 22t-17.5 52q0 31 18.5 52t46.5 21q29 0 47.5 -21t18.5 -52t-18 -52.5t-47 -21.5zM716 665q-31 0 -48 21.5t-17 52.5t18 52t47 21t47 -21t18 -52q0 -32 -18 -53t-47 -21zM880 665q-31 0 -48.5 21.5t-17.5 52.5t18 52t47 21t47.5 -21t18.5 -52
t-18 -52.5t-47 -21.5zM371 560h236v-563h-109v554l-179 -554h-106l-177 563h133l68 -262q17 -67 32 -134h3q12 58 31 134zM771 -3h-109v563h109v-563zM934 -3h-109v563h109v-563z" />
    <glyph glyph-name="uni2178" unicode="&#x2178;" 
d="M211 649q-41 0 -62.5 24t-21.5 57q0 35 23 58.5t60 23.5t60 -23.5t23 -58.5t-22.5 -58t-59.5 -23zM281 -3h-142v563h142v-563zM360 560h159l59 -102q22 -38 52 -96h3q21 46 50 99l55 99h152l-178 -268l184 -295h-159l-63 109l-54 100h-3q-17 -35 -51 -98l-63 -111h-152
l187 289z" />
    <glyph glyph-name="uni2179" unicode="&#x2179;" 
d="M215 560h172l64 -102q24 -38 55 -96h3q31 57 55 99l61 99h163l-194 -268l200 -295h-171l-68 109q-25 39 -58 100h-3q-43 -77 -57 -99l-68 -110h-164l204 289z" />
    <glyph glyph-name="uni217A" unicode="&#x217a;" 
d="M790 649q-40 0 -61.5 24t-21.5 57q0 35 23 58.5t60 23.5t60 -23.5t23 -58.5t-23 -58t-60 -23zM114 560h159l59 -102q22 -38 52 -96h3q33 68 50 99l56 99h151l-178 -268l183 -295h-159l-62 109l-54 100h-3q-28 -57 -51 -98l-63 -111h-153l188 289zM861 -3h-142v563h142
v-563z" />
    <glyph glyph-name="uni217B" unicode="&#x217b;" 
d="M641 658q-37 0 -58 22.5t-21 54.5q0 33 22 55t57 22t56.5 -22t21.5 -55t-21.5 -55t-56.5 -22zM856 658q-37 0 -58 22.5t-21 54.5q0 33 21.5 55t56.5 22t57 -22t22 -55t-21.5 -55t-56.5 -22zM47 560h158l55 -102q6 -13 23.5 -46t25.5 -50h2q32 66 49 99l52 99h150
l-170 -267l176 -296h-159l-59 109l-51 100h-2l-49 -98l-60 -111h-150l180 289zM708 -3h-134v563h134v-563zM922 -3h-134v563h134v-563z" />
    <glyph glyph-name="uni2460" unicode="&#x2460;" 
d="M972 380q0 -129 -64 -237.5t-172.5 -171.5t-235.5 -63q-195 0 -333.5 138.5t-138.5 333.5t138.5 333.5t333.5 138.5t333.5 -138.5t138.5 -333.5zM500 815q-181 0 -308 -128t-127 -307q0 -180 127.5 -307.5t307.5 -127.5t307.5 127.5t127.5 307.5t-127.5 307.5
t-307.5 127.5zM457 121v411h-1l-97 -46l-20 92l134 61h102v-518h-118z" />
    <glyph glyph-name="uni2461" unicode="&#x2461;" 
d="M972 380q0 -129 -64 -237.5t-172.5 -171.5t-235.5 -63q-195 0 -333.5 138.5t-138.5 333.5t138.5 333.5t333.5 138.5t333.5 -138.5t138.5 -333.5zM500 815q-181 0 -308 -128t-127 -307q0 -180 127.5 -307.5t307.5 -127.5t307.5 127.5t127.5 307.5t-127.5 307.5
t-307.5 127.5zM684 123h-368v75l66 60q97 86 133.5 130.5t37.5 84.5q0 32 -22 53t-65 21q-54 0 -111 -41l-32 87q69 52 168 52q89 0 135.5 -45.5t46.5 -114.5q0 -63 -36.5 -112.5t-113.5 -110.5l-49 -37v-2h210v-100z" />
    <glyph glyph-name="uni2462" unicode="&#x2462;" 
d="M972 380q0 -129 -64 -237.5t-172.5 -171.5t-235.5 -63q-195 0 -333.5 138.5t-138.5 333.5t138.5 333.5t333.5 138.5t333.5 -138.5t138.5 -333.5zM500 815q-181 0 -308 -128t-127 -307q0 -180 127.5 -307.5t307.5 -127.5t307.5 127.5t127.5 307.5t-127.5 307.5
t-307.5 127.5zM318 150l23 93q54 -32 119 -32q48 0 72 19.5t24 47.5q0 36 -32 54.5t-77 18.5h-46v87h45q38 0 66 14t28 44q0 23 -19 38t-57 15q-60 0 -107 -30l-24 88q62 38 158 38q82 0 127.5 -37t45.5 -91q0 -86 -94 -118v-2q49 -10 80 -44t31 -81q0 -68 -57 -112.5
t-155 -44.5q-97 0 -151 35z" />
    <glyph glyph-name="uni2463" unicode="&#x2463;" 
d="M972 380q0 -129 -64 -237.5t-172.5 -171.5t-235.5 -63q-195 0 -333.5 138.5t-138.5 333.5t138.5 333.5t333.5 138.5t333.5 -138.5t138.5 -333.5zM500 815q-181 0 -308 -128t-127 -307q0 -180 127.5 -307.5t307.5 -127.5t307.5 127.5t127.5 307.5t-127.5 307.5
t-307.5 127.5zM629 121h-114v121h-233v79l204 318h143v-306h62v-91h-62v-121zM383 333h132v120q0 52 3 96l-2 1q-23 -48 -51 -97l-82 -118v-2z" />
    <glyph glyph-name="uni2464" unicode="&#x2464;" 
d="M972 380q0 -129 -64 -237.5t-172.5 -171.5t-235.5 -63q-195 0 -333.5 138.5t-138.5 333.5t138.5 333.5t333.5 138.5t333.5 -138.5t138.5 -333.5zM500 815q-181 0 -308 -128t-127 -307q0 -180 127.5 -307.5t307.5 -127.5t307.5 127.5t127.5 307.5t-127.5 307.5
t-307.5 127.5zM662 637v-100h-198l-11 -78q17 3 34 3q46 0 87.5 -13.5t75 -53t33.5 -100.5q0 -75 -60.5 -127.5t-160.5 -52.5q-83 0 -143 28l21 92q57 -26 115 -26q42 0 72.5 20.5t30.5 56.5q0 86 -143 86q-36 0 -69 -5l31 270h285z" />
    <glyph glyph-name="uni2465" unicode="&#x2465;" 
d="M972 380q0 -129 -64 -237.5t-172.5 -171.5t-235.5 -63q-195 0 -333.5 138.5t-138.5 333.5t138.5 333.5t333.5 138.5t333.5 -138.5t138.5 -333.5zM500 815q-181 0 -308 -128t-127 -307q0 -180 127.5 -307.5t307.5 -127.5t307.5 127.5t127.5 307.5t-127.5 307.5
t-307.5 127.5zM641 645v-95q-18 1 -51 -2q-134 -8 -164 -121h3q41 40 110 40q68 0 113 -45.5t45 -119.5q0 -77 -54.5 -132t-138.5 -55q-96 0 -148.5 62t-52.5 162q0 121 70 208.5t210 95.5q17 2 58 2zM506 195q35 0 55 30.5t20 72.5q-1 36 -21.5 64t-58.5 28q-9 0 -20 -2.5
t-27 -10t-26.5 -25.5t-10.5 -44q0 -11 3 -26.5t11 -37t27.5 -35.5t47.5 -14z" />
    <glyph glyph-name="uni2466" unicode="&#x2466;" 
d="M972 380q0 -129 -64 -237.5t-172.5 -171.5t-235.5 -63q-195 0 -333.5 138.5t-138.5 333.5t138.5 333.5t333.5 138.5t333.5 -138.5t138.5 -333.5zM500 815q-181 0 -308 -128t-127 -307q0 -180 127.5 -307.5t307.5 -127.5t307.5 127.5t127.5 307.5t-127.5 307.5
t-307.5 127.5zM325 637h365v-78l-215 -438h-128l215 414v2h-237v100z" />
    <glyph glyph-name="uni2467" unicode="&#x2467;" 
d="M396 387v2q-75 37 -75 112q0 64 52 104t131 40q84 0 129 -38.5t45 -92.5q0 -77 -77 -113v-2q43 -15 69.5 -47.5t26.5 -79.5q0 -72 -55.5 -114.5t-144.5 -42.5q-90 0 -141.5 41.5t-51.5 102.5q0 89 92 128zM502 571q-35 0 -53 -19t-18 -49q0 -53 82 -75q25 6 42 26t17 46
q0 28 -17.5 49.5t-52.5 21.5zM420 271v-2q0 -32 22.5 -56t59.5 -24q38 0 59 21.5t21 51.5q0 36 -25.5 60t-68.5 33q-32 -9 -50 -31t-18 -53zM972 380q0 -129 -64 -237.5t-172.5 -171.5t-235.5 -63q-195 0 -333.5 138.5t-138.5 333.5t138.5 333.5t333.5 138.5t333.5 -138.5
t138.5 -333.5zM500 815q-181 0 -308 -128t-127 -307q0 -180 127.5 -307.5t307.5 -127.5t307.5 127.5t127.5 307.5t-127.5 307.5t-307.5 127.5z" />
    <glyph glyph-name="uni2468" unicode="&#x2468;" 
d="M972 380q0 -129 -64 -237.5t-172.5 -171.5t-235.5 -63q-195 0 -333.5 138.5t-138.5 333.5t138.5 333.5t333.5 138.5t333.5 -138.5t138.5 -333.5zM500 815q-181 0 -308 -128t-127 -307q0 -180 127.5 -307.5t307.5 -127.5t307.5 127.5t127.5 307.5t-127.5 307.5
t-307.5 127.5zM359 115v95q18 -1 51 2q137 8 163 121h-3q-40 -40 -110 -40q-68 0 -112.5 45.5t-44.5 119.5q0 77 54.5 132t138.5 55q96 0 148.5 -62t52.5 -162q0 -126 -72.5 -212t-207.5 -92q-17 -2 -58 -2zM495 565h-1q-36 0 -55.5 -30t-19.5 -73q0 -36 21 -64t59 -28
q27 0 48 13t30 33q6 10 6 36q-3 47 -24.5 80t-63.5 33z" />
    <glyph glyph-name="uni2469" unicode="&#x2469;" 
d="M972 379q0 -129 -64 -237.5t-172.5 -171.5t-235.5 -63q-195 0 -333.5 138.5t-138.5 333.5t138.5 333.5t333.5 138.5t333.5 -138.5t138.5 -333.5zM500 814q-181 0 -308 -128t-127 -307q0 -180 127.5 -307.5t307.5 -127.5t307.5 127.5t127.5 307.5t-127.5 307.5
t-307.5 127.5zM645 131q-53 0 -88 37.5t-48.5 90t-14.5 117.5q0 109 39.5 180t114.5 71q43 0 73.5 -22t46 -60t22 -77.5t6.5 -84.5q0 -124 -42 -188t-109 -64zM646 216q26 0 38.5 36.5t12.5 127.5q0 82 -11 122t-38 40q-55 0 -55 -178q0 -148 53 -148zM295 136v392h-1
l-82 -41l-16 79l109 56h91v-486h-101z" />
    <glyph glyph-name="uni246A" unicode="&#x246a;" 
d="M972 380q0 -129 -64 -237.5t-172.5 -171.5t-235.5 -63q-195 0 -333.5 138.5t-138.5 333.5t138.5 333.5t333.5 138.5t333.5 -138.5t138.5 -333.5zM500 815q-181 0 -308 -128t-127 -307q0 -180 127.5 -307.5t307.5 -127.5t307.5 127.5t127.5 307.5t-127.5 307.5
t-307.5 127.5zM299 137v392h-2l-81 -41l-18 79l110 56h91v-486h-100zM631 137v392h-1l-82 -41l-17 79l110 56h90v-486h-100z" />
    <glyph glyph-name="uni246B" unicode="&#x246b;" 
d="M972 380q0 -129 -64 -237.5t-172.5 -171.5t-235.5 -63q-195 0 -333.5 138.5t-138.5 333.5t138.5 333.5t333.5 138.5t333.5 -138.5t138.5 -333.5zM500 815q-181 0 -308 -128t-127 -307q0 -180 127.5 -307.5t307.5 -127.5t307.5 127.5t127.5 307.5t-127.5 307.5
t-307.5 127.5zM296 137v392h-2l-81 -41l-17 79l110 56h90v-486h-100zM777 139h-283v68l51 60q70 81 97.5 124t27.5 86q0 29 -17 47.5t-51 18.5q-40 0 -79 -27l-18 79q50 33 115 33q79 0 114.5 -42.5t35.5 -99.5q0 -62 -33.5 -114t-96.5 -113l-30 -30v-2h167v-88z" />
    <glyph glyph-name="uni246C" unicode="&#x246c;" 
d="M972 380q0 -129 -64 -237.5t-172.5 -171.5t-235.5 -63q-195 0 -333.5 138.5t-138.5 333.5t138.5 333.5t333.5 138.5t333.5 -138.5t138.5 -333.5zM500 815q-181 0 -308 -128t-127 -307q0 -180 127.5 -307.5t307.5 -127.5t307.5 127.5t127.5 307.5t-127.5 307.5
t-307.5 127.5zM296 137v392h-2l-81 -41l-17 79l110 56h90v-486h-100zM503 156l14 81q34 -21 81 -21q40 0 60 20t20 47q0 74 -117 74v74q103 0 103 60q0 25 -16 39.5t-46 14.5q-36 0 -69 -20l-13 75q42 28 108 28t101.5 -35t35.5 -83q0 -36 -20 -65t-54 -43v-1q40 -13 64 -45
t24 -77q0 -59 -45.5 -103t-127.5 -44q-59 0 -103 24z" />
    <glyph glyph-name="uni246D" unicode="&#x246d;" 
d="M972 380q0 -129 -64 -237.5t-172.5 -171.5t-235.5 -63q-195 0 -333.5 138.5t-138.5 333.5t138.5 333.5t333.5 138.5t333.5 -138.5t138.5 -333.5zM500 815q-181 0 -308 -128t-127 -307q0 -180 127.5 -307.5t307.5 -127.5t307.5 127.5t127.5 307.5t-127.5 307.5
t-307.5 127.5zM742 136h-89v112h-182v69l175 304h96v-291h52v-82h-52v-112zM553 330h100v110q0 42 4 73h-2q-13 -32 -33 -67l-69 -115v-1zM296 137v392h-2l-81 -41l-17 79l110 56h90v-486h-100z" />
    <glyph glyph-name="uni246E" unicode="&#x246e;" 
d="M972 380q0 -129 -64 -237.5t-172.5 -171.5t-235.5 -63q-195 0 -333.5 138.5t-138.5 333.5t138.5 333.5t333.5 138.5t333.5 -138.5t138.5 -333.5zM500 815q-181 0 -308 -128t-127 -307q0 -180 127.5 -307.5t307.5 -127.5t307.5 127.5t127.5 307.5t-127.5 307.5
t-307.5 127.5zM295 137v392h-1l-82 -41l-16 79l109 56h91v-486h-101zM762 621v-88h-137l-10 -82h19q53 0 96.5 -37.5t43.5 -109.5q0 -73 -48 -122.5t-129 -49.5q-58 0 -98 22l16 79q36 -17 76 -17q38 0 60 21.5t22 56.5q0 43 -30 64t-79 21q-16 0 -40 -2l26 244h212z" />
    <glyph glyph-name="uni246F" unicode="&#x246f;" 
d="M972 380q0 -129 -64 -237.5t-172.5 -171.5t-235.5 -63q-195 0 -333.5 138.5t-138.5 333.5t138.5 333.5t333.5 138.5t333.5 -138.5t138.5 -333.5zM500 815q-181 0 -308 -128t-127 -307q0 -180 127.5 -307.5t307.5 -127.5t307.5 127.5t127.5 307.5t-127.5 307.5
t-307.5 127.5zM756 628v-83q-133 0 -158 -130h2q32 40 82 40q53 0 85 -41.5t32 -108.5q0 -68 -39 -120.5t-110 -52.5t-113 53.5t-42 147.5q0 105 50.5 186t153.5 103q11 2 57 6zM650 200q54 0 54 108q-1 31 -14.5 55t-40.5 24q-32 0 -50 -31q-6 -12 -6 -48q0 -46 14.5 -77
t42.5 -31zM295 137v392h-1l-82 -41l-16 79l109 56h91v-486h-101z" />
    <glyph glyph-name="uni2470" unicode="&#x2470;" 
d="M972 380q0 -129 -64 -237.5t-172.5 -171.5t-235.5 -63q-195 0 -333.5 138.5t-138.5 333.5t138.5 333.5t333.5 138.5t333.5 -138.5t138.5 -333.5zM500 815q-181 0 -308 -128t-127 -307q0 -180 127.5 -307.5t307.5 -127.5t307.5 127.5t127.5 307.5t-127.5 307.5
t-307.5 127.5zM295 137v392h-1l-82 -41l-16 79l109 56h91v-486h-101zM509 621h279v-68l-164 -416h-98l160 394v2h-177v88z" />
    <glyph glyph-name="uni2471" unicode="&#x2471;" 
d="M568 392l-1 2q-62 36 -62 104q0 59 42 94.5t104 35.5q57 0 95.5 -33t38.5 -88q0 -68 -67 -106v-2q38 -17 59 -49t21 -74q0 -67 -45.5 -105.5t-109.5 -38.5q-66 0 -109 36t-43 99q0 83 77 125zM650 566q-27 0 -40 -19t-13 -45q0 -55 61 -77q18 7 30 28t12 46q0 27 -12 47
t-38 20zM646 194q32 0 46.5 23.5t14.5 54.5q0 35 -21 59.5t-51 34.5q-51 -26 -51 -91q0 -34 16.5 -57.5t45.5 -23.5zM972 380q0 -129 -64 -237.5t-172.5 -171.5t-235.5 -63q-195 0 -333.5 138.5t-138.5 333.5t138.5 333.5t333.5 138.5t333.5 -138.5t138.5 -333.5zM500 815
q-181 0 -308 -128t-127 -307q0 -180 127.5 -307.5t307.5 -127.5t307.5 127.5t127.5 307.5t-127.5 307.5t-307.5 127.5zM295 137v392h-1l-82 -41l-16 79l109 56h91v-486h-101z" />
    <glyph glyph-name="uni2472" unicode="&#x2472;" 
d="M972 380q0 -129 -64 -237.5t-172.5 -171.5t-235.5 -63q-195 0 -333.5 138.5t-138.5 333.5t138.5 333.5t333.5 138.5t333.5 -138.5t138.5 -333.5zM500 815q-181 0 -308 -128t-127 -307q0 -180 127.5 -307.5t307.5 -127.5t307.5 127.5t127.5 307.5t-127.5 307.5
t-307.5 127.5zM538 132v83q18 0 45 5q40 7 71.5 37t42.5 88h-3q-32 -40 -81 -40q-53 0 -85 41.5t-32 108.5q0 68 39 120.5t110 52.5q70 0 112.5 -53.5t42.5 -147.5q0 -117 -56.5 -193.5t-147.5 -95.5q-11 -2 -58 -6zM645 560q-15 0 -25 -5.5t-19.5 -31t-9.5 -71.5
q0 -31 13.5 -55t41.5 -24q33 0 49 31q7 10 7 48q0 46 -15 77t-42 31zM295 137v392h-1l-82 -41l-16 79l109 56h91v-486h-101z" />
    <glyph glyph-name="uni2473" unicode="&#x2473;" 
d="M972 380q0 -129 -64 -237.5t-172.5 -171.5t-235.5 -63q-195 0 -333.5 138.5t-138.5 333.5t138.5 333.5t333.5 138.5t333.5 -138.5t138.5 -333.5zM500 815q-181 0 -308 -128t-127 -307q0 -180 127.5 -307.5t307.5 -127.5t307.5 127.5t127.5 307.5t-127.5 307.5
t-307.5 127.5zM673 132q-42 0 -72.5 22.5t-46 60t-22.5 77.5t-7 85q0 109 38 180t112 71q143 0 143 -245q0 -124 -40.5 -187.5t-104.5 -63.5zM673 217q24 0 35 36t11 127q0 83 -10 123t-35 40q-50 0 -50 -173q0 -153 49 -153zM469 139h-259v71l47 64q40 54 57.5 80
t33.5 61.5t16 64.5q0 31 -16.5 47.5t-43.5 16.5q-35 0 -69 -21l-14 79q43 26 100 26q42 0 72 -13.5t44.5 -35.5t20.5 -44t6 -46q0 -35 -9 -65.5t-29 -61.5t-35.5 -50t-46.5 -52l-29 -30v-3h154v-88z" />
    <glyph glyph-name="uni2474" unicode="&#x2474;" 
d="M214 852v-5q-109 -146 -109 -467q0 -319 109 -467v-5h-76q-110 146 -110 472t110 472h76zM786 -92v5q109 146 109 467q0 319 -109 467v5h76q110 -146 110 -472t-110 -472h-76zM469 36v565h-2l-125 -63l-23 101l163 82h113v-685h-126z" />
    <glyph glyph-name="uni2475" unicode="&#x2475;" 
d="M214 852v-5q-109 -146 -109 -467q0 -319 109 -467v-5h-76q-110 146 -110 472t110 472h76zM786 -92v5q109 146 109 467q0 319 -109 467v5h76q110 -146 110 -472t-110 -472h-76zM715 39h-430v84l77 80q111 113 159 181t48 133q0 47 -26.5 76.5t-81.5 29.5q-64 0 -129 -48
l-33 98q80 59 187 59t161.5 -58.5t54.5 -145.5q0 -84 -50.5 -161t-140.5 -163l-53 -51v-2h257v-112z" />
    <glyph glyph-name="uni2476" unicode="&#x2476;" 
d="M214 852v-5q-109 -146 -109 -467q0 -319 109 -467v-5h-76q-110 146 -110 472t110 472h76zM786 -92v5q109 146 109 467q0 319 -109 467v5h76q110 -146 110 -472t-110 -472h-76zM287 69l26 102q62 -37 136 -37q62 0 94.5 30.5t32.5 75.5q0 56 -42.5 84t-104.5 28h-44v97h42
q50 1 88.5 23.5t38.5 69.5q0 37 -25 60.5t-73 23.5q-60 0 -121 -37l-25 96q28 19 76.5 33t100.5 14q96 0 148.5 -48.5t52.5 -118.5q0 -54 -29.5 -94.5t-85.5 -62.5v-3q60 -13 99 -58.5t39 -112.5q0 -87 -68 -146.5t-185 -59.5q-103 0 -171 41z" />
    <glyph glyph-name="uni2477" unicode="&#x2477;" 
d="M649 36h-122v173h-282v88l258 427h146v-413h89v-102h-89v-173zM380 311h149v160q0 48 5 108h-3q-26 -57 -53 -104l-98 -162v-2zM214 852v-5q-109 -146 -109 -467q0 -319 109 -467v-5h-76q-110 146 -110 472t110 472h76zM786 -92v5q109 146 109 467q0 319 -109 467v5h76
q110 -146 110 -472t-110 -472h-76z" />
    <glyph glyph-name="uni2478" unicode="&#x2478;" 
d="M214 852v-5q-109 -146 -109 -467q0 -319 109 -467v-5h-76q-110 146 -110 472t110 472h76zM786 -92v5q109 146 109 467q0 319 -109 467v5h76q110 -146 110 -472t-110 -472h-76zM688 721v-112h-224l-17 -130q20 2 34 2q41 0 79 -12t71.5 -36.5t54 -67.5t20.5 -99
q0 -101 -70 -169.5t-185 -68.5q-96 0 -158 35l24 102q60 -31 126 -31q55 0 92.5 32.5t37.5 88.5q-2 128 -170 128q-38 0 -75 -5l41 343h319z" />
    <glyph glyph-name="uni2479" unicode="&#x2479;" 
d="M671 732v-108q-122 5 -185.5 -53t-78.5 -145h2q48 53 129 53q82 0 136 -58t54 -151q0 -98 -64 -170t-166 -72q-108 0 -166.5 79.5t-58.5 207.5q0 173 84.5 287t241.5 127q31 5 72 3zM505 125q41 0 66 37.5t25 96.5q0 60 -26 93t-67 33q-30 0 -53.5 -14t-34.5 -35
q-8 -18 -8 -51q0 -72 25 -116t73 -44zM214 852v-5q-109 -146 -109 -467q0 -319 109 -467v-5h-76q-110 146 -110 472t110 472h76zM786 -92v5q109 146 109 467q0 319 -109 467v5h76q110 -146 110 -472t-110 -472h-76z" />
    <glyph glyph-name="uni247A" unicode="&#x247a;" 
d="M214 852v-5q-109 -146 -109 -467q0 -319 109 -467v-5h-76q-110 146 -110 472t110 472h76zM786 -92v5q109 146 109 467q0 319 -109 467v5h76q110 -146 110 -472t-110 -472h-76zM298 721h426v-86l-261 -599h-136l259 570v3h-288v112z" />
    <glyph glyph-name="uni247B" unicode="&#x247b;" 
d="M388 394l-1 2q-96 52 -96 151q0 82 61.5 133.5t153.5 51.5q95 0 149 -49.5t54 -120.5q0 -101 -101 -154v-3q56 -24 89.5 -69t33.5 -106q0 -91 -66.5 -146.5t-168.5 -55.5q-105 0 -166.5 53.5t-61.5 134.5q0 120 120 178zM504 642q-43 0 -65 -26.5t-22 -63.5
q0 -73 97 -105q31 10 51.5 38t20.5 63q0 39 -20.5 66.5t-61.5 27.5zM501 119q46 0 72.5 30t26.5 73q0 92 -111 127q-88 -31 -88 -121q0 -45 27.5 -77t72.5 -32zM214 852v-5q-109 -146 -109 -467q0 -319 109 -467v-5h-76q-110 146 -110 472t110 472h76zM786 -92v5
q109 146 109 467q0 319 -109 467v5h76q110 -146 110 -472t-110 -472h-76z" />
    <glyph glyph-name="uni247C" unicode="&#x247c;" 
d="M329 28v108q122 -5 185.5 53t78.5 145h-2q-48 -53 -129 -53q-82 0 -136 58t-54 151q0 98 64 170t166 72q108 0 166.5 -79.5t58.5 -207.5q0 -173 -84.5 -287t-241.5 -127q-31 -5 -72 -3zM495 635q-41 0 -66 -37.5t-25 -96.5q0 -60 26 -93t67 -33q30 0 53.5 14t34.5 35
q8 18 8 51q0 72 -25 116t-73 44zM214 852v-5q-109 -146 -109 -467q0 -319 109 -467v-5h-76q-110 146 -110 472t110 472h76zM786 -92v5q109 146 109 467q0 319 -109 467v5h76q110 -146 110 -472t-110 -472h-76z" />
    <glyph glyph-name="uni247D" unicode="&#x247d;" 
d="M639 713q42 0 72.5 -21.5t46.5 -53t25.5 -79t12 -85.5t2.5 -88q0 -175 -49.5 -257t-113.5 -82q-43 0 -75 24.5t-49 60t-27.5 83.5t-13 85t-2.5 75q0 146 43.5 242t127.5 96zM634 163h1q51 0 51 217t-52 217q-53 0 -53 -228q0 -206 53 -206zM214 852v-5
q-109 -146 -109 -467q0 -319 109 -467v-5h-76q-110 146 -110 472t110 472h76zM786 -92v5q109 146 109 467q0 319 -109 467v5h76q110 -146 110 -472t-110 -472h-76zM272 53v545h-2l-75 -40l-10 94l96 55h103v-654h-112z" />
    <glyph glyph-name="uni247E" unicode="&#x247e;" 
d="M214 852v-5q-109 -146 -109 -467q0 -319 109 -467v-5h-76q-110 146 -110 472t110 472h76zM786 -92v5q109 146 109 467q0 319 -109 467v5h76q110 -146 110 -472t-110 -472h-76zM293 53v545h-2l-75 -40l-11 94l97 55h102v-654h-111zM637 53v545h-2l-75 -40l-11 94l97 55
h102v-654h-111z" />
    <glyph glyph-name="uni247F" unicode="&#x247f;" 
d="M214 852v-5q-109 -146 -109 -467q0 -319 109 -467v-5h-76q-110 146 -110 472t110 472h76zM786 -92v5q109 146 109 467q0 319 -109 467v5h76q110 -146 110 -472t-110 -472h-76zM272 53v545h-2l-75 -40l-10 94l96 55h103v-654h-112zM777 55h-307v90l55 88q7 11 24.5 39.5
t24 39t20.5 35t20 37t15 33.5t12.5 35.5t6.5 33t3 35.5q0 38 -19.5 62t-55.5 24q-38 0 -78 -21l-9 101q50 26 108 26q85 0 129.5 -48.5t44.5 -132.5q0 -90 -41.5 -167.5t-111.5 -157.5l-30 -36v-2h189v-114z" />
    <glyph glyph-name="uni2480" unicode="&#x2480;" 
d="M214 852v-5q-109 -146 -109 -467q0 -319 109 -467v-5h-76q-110 146 -110 472t110 472h76zM786 -92v5q109 146 109 467q0 319 -109 467v5h76q110 -146 110 -472t-110 -472h-76zM272 53v545h-2l-75 -40l-10 94l96 55h103v-654h-112zM474 70l12 104q35 -21 79 -21
q48 0 72 27.5t24 66.5q0 36 -13.5 59.5t-37.5 32t-39 10.5t-37 2v94q51 0 79.5 21.5t28.5 63.5q0 34 -19 54.5t-52 20.5q-34 0 -63 -20l-11 99q46 29 110 29q80 0 120.5 -46t40.5 -111q0 -47 -23.5 -84.5t-61.5 -57.5v-2q47 -21 75 -64.5t28 -103.5q0 -77 -54 -137t-154 -60
q-58 0 -104 23z" />
    <glyph glyph-name="uni2481" unicode="&#x2481;" 
d="M758 55h-102v152h-200v88l214 412h88v-396h61v-104h-61v-152zM559 311h99v125q0 54 5 93h-2q-4 -11 -30 -70l-72 -147v-1zM214 852v-5q-109 -146 -109 -467q0 -319 109 -467v-5h-76q-110 146 -110 472t110 472h76zM786 -92v5q109 146 109 467q0 319 -109 467v5h76
q110 -146 110 -472t-110 -472h-76zM272 53v545h-2l-75 -40l-10 94l96 55h103v-654h-112z" />
    <glyph glyph-name="uni2482" unicode="&#x2482;" 
d="M214 852v-5q-109 -146 -109 -467q0 -319 109 -467v-5h-76q-110 146 -110 472t110 472h76zM786 -92v5q109 146 109 467q0 319 -109 467v5h76q110 -146 110 -472t-110 -472h-76zM272 53v545h-2l-75 -40l-10 94l96 55h103v-654h-112zM502 384l32 321h235v-113h-138l-13 -120
q60 0 108.5 -50t48.5 -142q0 -101 -55.5 -167t-150.5 -66q-58 0 -98 22l16 103q37 -17 71 -17q50 0 73.5 30.5t23.5 79.5q0 64 -37.5 91.5t-85.5 27.5h-8h-13.5h-8.5z" />
    <glyph glyph-name="uni2483" unicode="&#x2483;" 
d="M762 713v-109q-45 -3 -67 -9q-42 -10 -73 -59.5t-40 -108.5l3 1q35 38 89 38q60 0 99 -53.5t39 -137.5q0 -54 -18 -104t-61 -87t-102 -37q-75 0 -119.5 70t-44.5 195q0 113 31.5 195.5t77.5 129.5q76 76 186 76zM642 138q24 0 40.5 31t16.5 100q0 51 -16 82t-43 31
q-36 0 -54 -44q-4 -15 -4 -47q0 -70 16 -111.5t44 -41.5zM214 852v-5q-109 -146 -109 -467q0 -319 109 -467v-5h-76q-110 146 -110 472t110 472h76zM786 -92v5q109 146 109 467q0 319 -109 467v5h76q110 -146 110 -472t-110 -472h-76zM272 53v545h-2l-75 -40l-10 94l96 55
h103v-654h-112z" />
    <glyph glyph-name="uni2484" unicode="&#x2484;" 
d="M214 852v-5q-109 -146 -109 -467q0 -319 109 -467v-5h-76q-110 146 -110 472t110 472h76zM786 -92v5q109 146 109 467q0 319 -109 467v5h76q110 -146 110 -472t-110 -472h-76zM272 53v545h-2l-75 -40l-10 94l96 55h103v-654h-112zM485 705h304v-87l-176 -563h-110
l166 534v2h-184v114z" />
    <glyph glyph-name="uni2485" unicode="&#x2485;" 
d="M551 403v2q-75 50 -75 141q0 76 49.5 121.5t119.5 45.5q53 0 102 -40t49 -119q0 -91 -87 -143v-2q96 -49 96 -172q0 -91 -53 -140.5t-120 -49.5t-119.5 44.5t-52.5 135.5q0 110 91 176zM644 632q-18 0 -30.5 -9.5t-17.5 -24.5t-7 -27t-2 -23q0 -73 63 -101q21 9 32 37.5
t11 60.5q0 87 -49 87zM635 128q62 0 62 106q0 46 -23 79t-53 47q-50 -43 -50 -125q0 -47 15.5 -77t48.5 -30zM214 852v-5q-109 -146 -109 -467q0 -319 109 -467v-5h-76q-110 146 -110 472t110 472h76zM786 -92v5q109 146 109 467q0 319 -109 467v5h76q110 -146 110 -472
t-110 -472h-76zM272 53v545h-2l-75 -40l-10 94l96 55h103v-654h-112z" />
    <glyph glyph-name="uni2486" unicode="&#x2486;" 
d="M518 47v109q44 3 67 9q40 9 71 59t41 109l-3 -1q-33 -38 -89 -38q-60 0 -99 53.5t-39 137.5q0 54 18 104t61 87t103 37q75 0 119 -70t44 -195q0 -113 -31 -195.5t-78 -129.5q-74 -76 -185 -76zM637 622q-25 0 -41 -34.5t-16 -92.5q0 -53 16 -85t43 -32q17 0 31.5 12.5
t21.5 31.5q5 15 5 53q0 67 -16 107t-44 40zM214 852v-5q-109 -146 -109 -467q0 -319 109 -467v-5h-76q-110 146 -110 472t110 472h76zM786 -92v5q109 146 109 467q0 319 -109 467v5h76q110 -146 110 -472t-110 -472h-76zM272 53v545h-2l-75 -40l-10 94l96 55h103v-654h-112z
" />
    <glyph glyph-name="uni2487" unicode="&#x2487;" 
d="M666 47h-1q-44 0 -75.5 28.5t-47 78.5t-22.5 104t-7 117q0 149 40 243.5t118 94.5q33 0 58.5 -14t41 -42t25.5 -57t14 -71t5.5 -72.5t1.5 -71.5q0 -177 -47 -257.5t-104 -80.5zM665 157q48 0 48 223t-48 223q-49 0 -49 -235q0 -211 49 -211zM214 852v-5
q-109 -146 -109 -467q0 -319 109 -467v-5h-76q-110 146 -110 472t110 472h76zM786 -92v5q109 146 109 467q0 319 -109 467v5h76q110 -146 110 -472t-110 -472h-76zM467 55h-282v85l51 87q31 55 43.5 78t33.5 68t29.5 81.5t8.5 72.5q0 39 -19 62.5t-51 23.5q-26 0 -70 -17
l-7 95q44 22 95 22q78 0 120.5 -48t42.5 -131q0 -45 -9.5 -85.5t-34.5 -89t-39 -71.5t-53 -82l-27 -42v-2h168v-107z" />
    <glyph glyph-name="uni2488" unicode="&#x2488;" 
d="M411 -3v611h-3l-163 -77l-41 121l231 109h131v-764h-155zM885 -10q-37 0 -61 25.5t-24 66.5t24.5 67t61.5 26q38 0 62 -25.5t24 -67.5q0 -40 -23 -66t-64 -26z" />
    <glyph glyph-name="uni2489" unicode="&#x2489;" 
d="M248 557l-65 115q105 100 262 100q119 0 188 -65t69 -171q0 -92 -57.5 -170.5t-169.5 -172.5l-79 -60v-2h323v-131h-562v95l100 84q160 136 221 206.5t61 137.5q0 50 -33.5 82t-88.5 32q-87 0 -169 -80zM885 -10q-37 0 -61 25.5t-24 66.5t24.5 67t61.5 26q38 0 62 -25.5
t24 -67.5q0 -40 -23 -66t-64 -26z" />
    <glyph glyph-name="uni248A" unicode="&#x248a;" 
d="M217 584l-41 117q39 30 107.5 50.5t143.5 20.5q120 0 188 -54.5t68 -136.5q0 -136 -150 -183v-2q76 -9 127 -58.5t51 -124.5q0 -99 -84.5 -163t-230.5 -64q-75 0 -139 19t-104 49l40 121q31 -23 84.5 -42.5t110.5 -19.5q73 0 113 31t40 77q0 57 -49.5 84.5t-119.5 27.5
h-85v116h83q59 0 104 26.5t45 77.5q0 40 -32.5 66t-91.5 26q-49 0 -99 -19.5t-79 -41.5zM885 -10q-37 0 -61 25.5t-24 66.5t24.5 67t61.5 26q38 0 62 -25.5t24 -67.5q0 -40 -23 -66t-64 -26z" />
    <glyph glyph-name="uni248B" unicode="&#x248b;" 
d="M652 -3h-159v171h-369v104l312 489h216v-474h103v-119h-103v-171zM285 287h208v217q0 45 4 149h-5q-36 -76 -78 -150l-129 -214v-2zM885 -10q-37 0 -61 25.5t-24 66.5t24.5 67t61.5 26q38 0 62 -25.5t24 -67.5q0 -40 -23 -66t-64 -26z" />
    <glyph glyph-name="uni248C" unicode="&#x248c;" 
d="M201 366l50 392h432v-131h-321l-19 -134q38 4 62 4q44 0 85 -6.5t83 -24t72.5 -44.5t50 -72t19.5 -102q0 -110 -90.5 -186t-241.5 -76q-135 0 -223 49l32 127q87 -51 187 -51q67 0 117.5 33.5t50.5 96.5q0 139 -227 139q-67 0 -119 -14zM885 -10q-37 0 -61 25.5t-24 66.5
t24.5 67t61.5 26q38 0 62 -25.5t24 -67.5q0 -40 -23 -66t-64 -26z" />
    <glyph glyph-name="uni248D" unicode="&#x248d;" 
d="M312 440h3q66 64 173 64q105 0 177 -66.5t72 -182.5q0 -115 -82 -192t-204 -77q-101 0 -173 47t-104.5 121t-32.5 165q0 196 123 324t342 128q13 0 35 -2l13 -120q-24 2 -41 2q-113 0 -197 -56.5t-104 -154.5zM435 389q-57 0 -97 -37.5t-40 -78.5q3 -73 41.5 -120.5
t107.5 -47.5q56 0 90.5 38.5t34.5 99.5q0 65 -36.5 105.5t-100.5 40.5zM885 -10q-37 0 -61 25.5t-24 66.5t24.5 67t61.5 26q38 0 62 -25.5t24 -67.5q0 -40 -23 -66t-64 -26z" />
    <glyph glyph-name="uni248E" unicode="&#x248e;" 
d="M160 758h555v-103l-333 -655h-176l334 625v2h-380v131zM885 -10q-37 0 -61 25.5t-24 66.5t24.5 67t61.5 26q38 0 62 -25.5t24 -67.5q0 -40 -23 -66t-64 -26z" />
    <glyph glyph-name="uni248F" unicode="&#x248f;" 
d="M286 387v3q-118 55 -118 166q0 95 77.5 155.5t196.5 60.5q131 0 196 -60.5t65 -135.5q0 -54 -30 -99t-88 -71v-2q66 -22 108 -69.5t42 -117.5q0 -103 -83 -167t-219 -64q-140 0 -216 63.5t-76 147.5q0 134 145 190zM438 661q-57 0 -86.5 -28.5t-29.5 -69.5
q0 -81 130 -111q42 10 70.5 38.5t28.5 67.5q0 41 -28.5 72t-84.5 31zM436 99q59 0 94.5 30t35.5 73q0 103 -144 132q-55 -10 -85.5 -42t-30.5 -77q-1 -46 35.5 -81t94.5 -35zM885 -10q-37 0 -61 25.5t-24 66.5t24.5 67t61.5 26q38 0 62 -25.5t24 -67.5q0 -40 -23 -66
t-64 -26z" />
    <glyph glyph-name="uni2490" unicode="&#x2490;" 
d="M565 318h-3q-66 -64 -173 -64q-105 0 -177 66.5t-72 182.5q0 115 82 192t204 77q78 0 138.5 -27.5t97 -74.5t55.5 -105.5t19 -125.5q0 -92 -29.5 -172.5t-86 -143.5t-147 -99.5t-203.5 -36.5q-12 0 -34 2l-14 120q26 -2 42 -2q113 0 197 56.5t104 154.5zM430 653
q-57 0 -91 -39t-34 -99q0 -65 36 -105.5t101 -40.5q57 0 97 37.5t40 78.5q-3 73 -41.5 120.5t-107.5 47.5zM885 -10q-37 0 -61 25.5t-24 66.5t24.5 67t61.5 26q38 0 62 -25.5t24 -67.5q0 -40 -23 -66t-64 -26z" />
    <glyph glyph-name="Japan1.20587" unicode="&#x2491;" 
d="M602 766q107 0 167 -105.5t60 -283.5q0 -180 -60.5 -285t-166.5 -105q-105 0 -165.5 104.5t-60.5 285.5q0 180 60.5 284.5t165.5 104.5zM602 97h1q97 0 97 280t-98 280q-97 0 -97 -280t97 -280zM189 761h106v-764h-131v625h-3l-104 -51l-16 118zM897 -10q-32 0 -53 22
t-21 58q0 34 21 56.5t53 22.5q33 0 54 -21.5t21 -57.5q0 -35 -19.5 -57.5t-55.5 -22.5z" />
    <glyph glyph-name="Japan1.20588" unicode="&#x2492;" 
d="M576 -3v611h-3l-102 -51l-17 133l146 71h126v-764h-150zM199 -4v611h-2l-103 -51l-16 133l146 71h125v-764h-150zM897 -10q-32 0 -53 22t-21 58q0 34 21 56.5t53 22.5q33 0 54 -21.5t21 -57.5q0 -35 -19.5 -57.5t-55.5 -22.5z" />
    <glyph glyph-name="uni249C" unicode="&#x249c;" 
d="M698 410v-192q0 -74 8 -125h-117l-8 60h-2q-48 -65 -134 -65q-66 0 -106.5 44.5t-40.5 111.5q0 96 77 145.5t194 49.5v10q0 35 -22 61t-68 26q-63 0 -121 -34l-25 86q70 42 171 42q61 0 102 -19t60 -54t25.5 -69t6.5 -78zM574 259v98q-63 0 -110.5 -22.5t-47.5 -75.5
q0 -39 21 -59t48 -20q31 0 60 19t29 60zM214 852v-5q-109 -146 -109 -467q0 -319 109 -467v-5h-76q-110 146 -110 472t110 472h76zM786 -92v5q109 146 109 467q0 319 -109 467v5h76q110 -146 110 -472t-110 -472h-76z" />
    <glyph glyph-name="uni249D" unicode="&#x249d;" 
d="M312 157v598h123v-281h3q44 68 119 68t114.5 -72t39.5 -186q0 -135 -49 -209.5t-126 -74.5q-38 0 -64 16.5t-48 56.5h-2l-7 -68h-107q4 61 4 152zM435 342v-144q0 -28 18 -60.5t53 -32.5q82 0 82 171q0 75 -20.5 118t-61.5 43q-31 0 -51 -31t-20 -64zM211 852v-5
q-110 -148 -110 -467q0 -320 110 -467v-5h-73q-110 146 -110 472t110 472h73zM789 -92v5q110 148 110 467q0 320 -110 467v5h73q110 -146 110 -472t-110 -472h-73z" />
    <glyph glyph-name="uni249E" unicode="&#x249e;" 
d="M211 852v-5q-110 -148 -110 -467q0 -320 110 -467v-5h-73q-110 146 -110 472t110 472h73zM789 -92v5q110 148 110 467q0 320 -110 467v5h73q110 -146 110 -472t-110 -472h-73zM668 207l14 -98q-42 -21 -117 -21q-115 0 -182.5 70.5t-67.5 194.5q0 122 74 199.5t198 77.5
q56 0 101 -18l-20 -100q-35 15 -83 15q-67 0 -107 -47.5t-40 -120.5q0 -78 40.5 -123t105.5 -45q45 0 84 16z" />
    <glyph glyph-name="uni249F" unicode="&#x249f;" 
d="M564 755h123v-598q0 -58 4 -152h-106l-7 66h-3q-16 -31 -47 -51t-70 -20q-81 0 -124.5 75.5t-43.5 192.5q0 131 50 202.5t124 71.5q71 0 98 -58h2v271zM564 195v139q0 31 -7.5 53.5t-19.5 32t-22 13.5t-19 4q-41 0 -62 -47t-21 -122q0 -76 22 -119.5t59 -43.5
q35 0 52.5 29.5t17.5 60.5zM211 852v-5q-110 -148 -110 -467q0 -320 110 -467v-5h-73q-110 146 -110 472t110 472h73zM789 -92v5q110 148 110 467q0 320 -110 467v5h73q110 -146 110 -472t-110 -472h-73z" />
    <glyph glyph-name="uni24A0" unicode="&#x24a0;" 
d="M704 317h-293q0 -66 37.5 -99t98.5 -33q63 0 118 21l18 -92q-61 -26 -156 -26q-113 0 -174.5 68.5t-61.5 190.5q0 131 64 207t161 76q94 0 143 -66.5t49 -180.5q0 -47 -4 -66zM411 406h184q1 56 -20 93.5t-67 37.5q-45 0 -69.5 -40t-27.5 -91zM211 852v-5
q-110 -148 -110 -467q0 -320 110 -467v-5h-73q-110 146 -110 472t110 472h73zM789 -92v5q110 148 110 467q0 320 -110 467v5h73q110 -146 110 -472t-110 -472h-73z" />
    <glyph glyph-name="uni24A1" unicode="&#x24a1;" 
d="M211 852v-5q-110 -148 -110 -467q0 -320 110 -467v-5h-73q-110 146 -110 472t110 472h73zM789 -92v5q110 148 110 467q0 320 -110 467v5h73q110 -146 110 -472t-110 -472h-73zM529 5h-123v433h-73v90h73v16q0 60 17 103.5t38.5 64t51.5 32.5t46 14t33 2q49 0 87 -14
l-15 -99q-23 10 -53 10q-29 0 -47 -12.5t-25 -36.5t-8.5 -39.5t-1.5 -40.5h110v-90h-110v-433z" />
    <glyph glyph-name="uni24A2" unicode="&#x24a2;" 
d="M688 502v-303q0 -29 -1 -50t-6 -52t-14 -53t-26 -46.5t-40.5 -39.5t-60 -25t-82.5 -10q-76 0 -132 27l24 98q47 -25 106 -25q108 0 108 139v38h-2q-32 -58 -104 -58q-83 0 -125.5 75t-42.5 181q0 128 52 202.5t128 74.5q71 0 106 -67h2l6 61h108q-4 -65 -4 -167zM564 334
v140q0 40 -17.5 66.5t-46.5 26.5q-42 0 -64.5 -46.5t-22.5 -119.5q0 -75 23 -117t61 -42q26 0 46.5 24t20.5 68zM211 852v-5q-110 -148 -110 -467q0 -320 110 -467v-5h-73q-110 146 -110 472t110 472h73zM789 -92v5q110 148 110 467q0 320 -110 467v5h73q110 -146 110 -472
t-110 -472h-73z" />
    <glyph glyph-name="uni24A3" unicode="&#x24a3;" 
d="M211 852v-5q-110 -148 -110 -467q0 -320 110 -467v-5h-73q-110 146 -110 472t110 472h73zM789 -92v5q110 148 110 467q0 320 -110 467v5h73q110 -146 110 -472t-110 -472h-73zM313 5v750h123v-282h3q16 26 47 47.5t75 21.5q66 0 101 -55t35 -161v-321h-123v322
q0 108 -63 108q-27 0 -45 -19.5t-24 -41.5t-6 -42v-327h-123z" />
    <glyph glyph-name="uni24A4" unicode="&#x24a4;" 
d="M211 852v-5q-110 -148 -110 -467q0 -320 110 -467v-5h-73q-110 146 -110 472t110 472h73zM789 -92v5q110 148 110 467q0 320 -110 467v5h73q110 -146 110 -472t-110 -472h-73zM499 604q-31 0 -52.5 23.5t-21.5 56.5q0 36 22 59t53 23q32 0 53.5 -22.5t21.5 -59.5
q0 -35 -22 -57.5t-54 -22.5zM561 -5h-123v531h123v-531z" />
    <glyph glyph-name="uni24A5" unicode="&#x24a5;" 
d="M211 852v-5q-110 -148 -110 -467q0 -320 110 -467v-5h-73q-110 146 -110 472t110 472h73zM789 -92v5q110 148 110 467q0 320 -110 467v5h73q110 -146 110 -472t-110 -472h-73zM526 651q-32 0 -53 23.5t-21 56.5q0 37 22 59.5t53 22.5t52.5 -22.5t21.5 -59.5
q0 -35 -22 -57.5t-53 -22.5zM355 -68l-10 100q34 3 55.5 12t35 21.5t19.5 38t8 51t2 71.5v345h123v-373q0 -44 -4 -77.5t-18 -70.5t-38.5 -60.5t-68.5 -40t-104 -17.5z" />
    <glyph glyph-name="uni24A6" unicode="&#x24a6;" 
d="M211 852v-5q-110 -148 -110 -467q0 -320 110 -467v-5h-73q-110 146 -110 472t110 472h73zM789 -92v5q110 148 110 467q0 320 -110 467v5h73q110 -146 110 -472t-110 -472h-73zM448 755v-457h2q13 35 31 74l88 165h132l-139 -223l147 -309h-137l-96 229l-28 -48v-181h-124
v750h124z" />
    <glyph glyph-name="uni24A7" unicode="&#x24a7;" 
d="M211 852v-5q-110 -148 -110 -467q0 -320 110 -467v-5h-73q-110 146 -110 472t110 472h73zM789 -92v5q110 148 110 467q0 320 -110 467v5h73q110 -146 110 -472t-110 -472h-73zM438 5v750h123v-750h-123z" />
    <glyph glyph-name="uni24A8" unicode="&#x24a8;" 
d="M211 852v-5q-110 -148 -110 -467q0 -320 110 -467v-5h-73q-110 146 -110 472t110 472h73zM789 -92v5q110 148 110 467q0 320 -110 467v5h73q110 -146 110 -472t-110 -472h-73zM258 93v385q0 45 -4 147h94l6 -56h1q35 61 93 61q72 0 91 -59h3q4 10 13 21.5t32.5 24.5
t53.5 13q58 0 79.5 -44t21.5 -132v-361h-105v321q0 57 -7 81t-30 24q-49 0 -49 -94v-332h-103v322q0 57 -7.5 80.5t-29.5 23.5q-48 0 -48 -95v-331h-105z" />
    <glyph glyph-name="uni24A9" unicode="&#x24a9;" 
d="M211 852v-5q-110 -148 -110 -467q0 -320 110 -467v-5h-73q-110 146 -110 472t110 472h73zM789 -92v5q110 148 110 467q0 320 -110 467v5h73q110 -146 110 -472t-110 -472h-73zM308 93v378q0 24 -0.5 49.5t-1.5 56t-1 48.5h106l6 -69h2q45 75 132 75q67 0 104 -51.5
t37 -146.5v-340h-124v332q0 99 -62 99q-36 0 -55.5 -33.5t-19.5 -73.5v-324h-123z" />
    <glyph glyph-name="uni24AA" unicode="&#x24aa;" 
d="M501 88q-103 0 -160.5 72t-57.5 197q0 132 63.5 202.5t156.5 70.5q99 0 156.5 -72.5t57.5 -196.5q0 -76 -20.5 -132t-54 -85t-69 -42.5t-72.5 -13.5zM502 184q47 0 69.5 53t22.5 123q0 43 -8 80t-29.5 65.5t-54.5 28.5q-51 0 -73.5 -51.5t-22.5 -122.5q0 -78 23.5 -127
t72.5 -49zM211 852v-5q-110 -148 -110 -467q0 -320 110 -467v-5h-73q-110 146 -110 472t110 472h73zM789 -92v5q110 148 110 467q0 320 -110 467v5h73q110 -146 110 -472t-110 -472h-73z" />
    <glyph glyph-name="uni24AB" unicode="&#x24ab;" 
d="M312 -68v568q0 43 -4 169h109l7 -69h2q37 75 119 75q83 0 124.5 -76.5t41.5 -193.5q0 -134 -49.5 -203.5t-125.5 -69.5q-63 0 -97 57h-4v-257h-123zM435 474v-140q0 -35 17 -65.5t52 -30.5q42 0 63 47t21 120q0 77 -21.5 120.5t-60.5 43.5q-33 0 -52 -30t-19 -65z
M211 852v-5q-110 -148 -110 -467q0 -320 110 -467v-5h-73q-110 146 -110 472t110 472h73zM789 -92v5q110 148 110 467q0 320 -110 467v5h73q110 -146 110 -472t-110 -472h-73z" />
    <glyph glyph-name="uni24AC" unicode="&#x24ac;" 
d="M564 -68v259h-2q-36 -59 -108 -59q-76 0 -120.5 74.5t-44.5 185.5q0 132 52.5 207.5t131.5 75.5q72 0 105 -68l2 -1l6 63h106q-5 -115 -5 -165v-572h-123zM564 330v145q0 29 -8 49.5t-20.5 29t-22 12t-17.5 3.5q-40 0 -62 -44t-22 -122q0 -75 22 -120t62 -45q28 0 48 26
t20 66zM211 852v-5q-110 -148 -110 -467q0 -320 110 -467v-5h-73q-110 146 -110 472t110 472h73zM789 -92v5q110 148 110 467q0 320 -110 467v5h73q110 -146 110 -472t-110 -472h-73z" />
    <glyph glyph-name="uni24AD" unicode="&#x24ad;" 
d="M211 852v-5q-110 -148 -110 -467q0 -320 110 -467v-5h-73q-110 146 -110 472t110 472h73zM789 -92v5q110 148 110 467q0 320 -110 467v5h73q110 -146 110 -472t-110 -472h-73zM366 93v347q0 108 -4 185h113l5 -107h5q21 55 61.5 83.5t87.5 28.5q20 0 40 -3v-126
q-15 4 -48 4q-39 0 -68 -17t-43 -42.5t-20 -48t-6 -39.5v-265h-123z" />
    <glyph glyph-name="uni24AE" unicode="&#x24ae;" 
d="M211 852v-5q-110 -148 -110 -467q0 -320 110 -467v-5h-73q-110 146 -110 472t110 472h73zM789 -92v5q110 148 110 467q0 320 -110 467v5h73q110 -146 110 -472t-110 -472h-73zM305 127l26 93q64 -37 151 -37q44 0 67 16.5t23 39.5q0 24 -21 39.5t-74 32.5
q-159 50 -159 154q0 71 56.5 118t151.5 47q86 0 142 -32l-27 -91q-63 28 -124 28q-39 0 -60.5 -13.5t-21.5 -35.5q0 -26 20.5 -40t79.5 -34q83 -27 118.5 -66t35.5 -95q0 -73 -58 -118t-164 -45q-98 0 -162 39z" />
    <glyph glyph-name="uni24AF" unicode="&#x24af;" 
d="M211 852v-5q-110 -148 -110 -467q0 -320 110 -467v-5h-73q-110 146 -110 472t110 472h73zM789 -92v5q110 148 110 467q0 320 -110 467v5h73q110 -146 110 -472t-110 -472h-73zM403 668l123 40v-135h129v-91h-129v-251q0 -90 68 -90q28 0 51 6l2 -99q-29 -10 -92 -10
q-48 0 -80 16.5t-46.5 46t-20 58.5t-5.5 65v258h-77v91h77v95z" />
    <glyph glyph-name="uni24B0" unicode="&#x24b0;" 
d="M211 852v-5q-110 -148 -110 -467q0 -320 110 -467v-5h-73q-110 146 -110 472t110 472h73zM789 -92v5q110 148 110 467q0 320 -110 467v5h73q110 -146 110 -472t-110 -472h-73zM692 625v-376q0 -30 2 -85.5t2 -70.5h-108l-7 62h-2q-46 -67 -128 -67q-143 0 -143 217v320
h123v-304q0 -126 66 -126q34 0 53 28t19 65v337h123z" />
    <glyph glyph-name="uni24B1" unicode="&#x24b1;" 
d="M211 852v-5q-110 -148 -110 -467q0 -320 110 -467v-5h-73q-110 146 -110 472t110 472h73zM789 -92v5q110 148 110 467q0 320 -110 467v5h73q110 -146 110 -472t-110 -472h-73zM280 625h134l60 -254q12 -53 29 -146h3q16 85 31 146l61 254h122l-163 -532h-114z" />
    <glyph glyph-name="uni24B2" unicode="&#x24b2;" 
d="M211 852v-5q-110 -148 -110 -467q0 -320 110 -467v-5h-73q-110 146 -110 472t110 472h73zM789 -92v5q110 148 110 467q0 320 -110 467v5h73q110 -146 110 -472t-110 -472h-73zM225 625h106l46 -246q19 -132 20 -142h3q13 113 18 139l46 249h84l45 -245q14 -64 22 -143h4
q5 55 20 141l41 247h94l-116 -532h-88l-41 204q-19 99 -23 163h-3q-8 -73 -23 -165l-41 -202h-95z" />
    <glyph glyph-name="uni24B3" unicode="&#x24b3;" 
d="M211 852v-5q-110 -148 -110 -467q0 -320 110 -467v-5h-73q-110 146 -110 472t110 472h73zM789 -92v5q110 148 110 467q0 320 -110 467v5h73q110 -146 110 -472t-110 -472h-73zM295 625h134l41 -109q17 -47 34 -100h3l32 100l39 109h125l-125 -262l129 -270h-134l-47 116
q-9 22 -34 93h-3q-18 -62 -30 -93l-44 -116h-122l124 266z" />
    <glyph glyph-name="uni24B4" unicode="&#x24b4;" 
d="M211 852v-5q-110 -148 -110 -467q0 -320 110 -467v-5h-73q-110 146 -110 472t110 472h73zM789 -92v5q110 148 110 467q0 320 -110 467v5h73q110 -146 110 -472t-110 -472h-73zM292 688h133l66 -286q3 -16 9.5 -46t9.5 -45h2l17 90l60 287h121l-117 -405
q-31 -103 -57 -165t-67 -108q-29 -32 -61 -52t-54 -26l-37 107q42 16 74 45q19 18 33 41t19 37t5 19q0 12 -5 29z" />
    <glyph glyph-name="uni24B5" unicode="&#x24b5;" 
d="M211 852v-5q-110 -148 -110 -467q0 -320 110 -467v-5h-73q-110 146 -110 472t110 472h73zM789 -92v5q110 148 110 467q0 320 -110 467v5h73q110 -146 110 -472t-110 -472h-73zM318 96v79l162 256q27 43 55 85v3h-199v103h341v-85l-158 -250q-22 -36 -56 -85v-2h218v-104
h-363z" />
    <glyph glyph-name="uni24B6" unicode="&#x24b6;" 
d="M972 380q0 -129 -64 -237.5t-172.5 -171.5t-235.5 -63q-195 0 -333.5 138.5t-138.5 333.5t138.5 333.5t333.5 138.5t333.5 -138.5t138.5 -333.5zM500 815q-181 0 -308 -128t-127 -307q0 -180 127.5 -307.5t307.5 -127.5t307.5 127.5t127.5 307.5t-127.5 307.5
t-307.5 127.5zM580 271h-166l-41 -141h-107l170 520h125l173 -520h-111zM431 349h130l-35 116q-13 35 -30 96h-2q-9 -36 -27 -96z" />
    <glyph glyph-name="uni24B7" unicode="&#x24b7;" 
d="M320 126v504q68 12 160 12q111 0 161 -31q61 -34 61 -101q0 -36 -23 -65.5t-66 -44.5v-3q46 -10 77 -42t31 -82q0 -66 -52 -108q-59 -47 -217 -47q-86 0 -132 8zM423 561v-132h61q56 0 85 19t29 50q0 67 -108 67q-19 0 -67 -4zM423 353v-154q16 -3 62 -3q54 0 90.5 18.5
t36.5 61.5q0 77 -129 77h-60zM972 380q0 -129 -64 -237.5t-172.5 -171.5t-235.5 -63q-195 0 -333.5 138.5t-138.5 333.5t138.5 333.5t333.5 138.5t333.5 -138.5t138.5 -333.5zM500 815q-181 0 -308 -128t-127 -307q0 -180 127.5 -307.5t307.5 -127.5t307.5 127.5
t127.5 307.5t-127.5 307.5t-307.5 127.5z" />
    <glyph glyph-name="uni24B8" unicode="&#x24b8;" 
d="M972 380q0 -129 -64 -237.5t-172.5 -171.5t-235.5 -63q-195 0 -333.5 138.5t-138.5 333.5t138.5 333.5t333.5 138.5t333.5 -138.5t138.5 -333.5zM500 815q-181 0 -308 -128t-127 -307q0 -180 127.5 -307.5t307.5 -127.5t307.5 127.5t127.5 307.5t-127.5 307.5
t-307.5 127.5zM665 221l19 -83q-48 -24 -144 -24q-132 0 -205.5 71.5t-73.5 187.5q0 124 81.5 198.5t209.5 74.5q90 0 136 -25l-24 -83q-52 22 -110 22q-82 0 -133.5 -48t-51.5 -134q0 -80 49 -128t136 -48q67 0 111 19z" />
    <glyph glyph-name="uni24B9" unicode="&#x24b9;" 
d="M972 380q0 -129 -64 -237.5t-172.5 -171.5t-235.5 -63q-195 0 -333.5 138.5t-138.5 333.5t138.5 333.5t333.5 138.5t333.5 -138.5t138.5 -333.5zM500 815q-181 0 -308 -128t-127 -307q0 -180 127.5 -307.5t307.5 -127.5t307.5 127.5t127.5 307.5t-127.5 307.5
t-307.5 127.5zM319 125v506q75 11 147 11q135 0 201 -56q79 -65 79 -194q0 -138 -80 -208q-74 -66 -223 -66q-71 0 -124 7zM423 556v-353q11 -3 44 -3q81 -1 125.5 47t44.5 142q0 84 -41.5 128t-118.5 44q-39 0 -54 -5z" />
    <glyph glyph-name="uni24BA" unicode="&#x24ba;" 
d="M972 380q0 -129 -64 -237.5t-172.5 -171.5t-235.5 -63q-195 0 -333.5 138.5t-138.5 333.5t138.5 333.5t333.5 138.5t333.5 -138.5t138.5 -333.5zM500 815q-181 0 -308 -128t-127 -307q0 -180 127.5 -307.5t307.5 -127.5t307.5 127.5t127.5 307.5t-127.5 307.5
t-307.5 127.5zM662 431v-85h-235v-138h260v-86h-364v516h352v-85h-248v-122h235z" />
    <glyph glyph-name="uni24BB" unicode="&#x24bb;" 
d="M972 380q0 -129 -64 -237.5t-172.5 -171.5t-235.5 -63q-195 0 -333.5 138.5t-138.5 333.5t138.5 333.5t333.5 138.5t333.5 -138.5t138.5 -333.5zM500 815q-181 0 -308 -128t-127 -307q0 -180 127.5 -307.5t307.5 -127.5t307.5 127.5t127.5 307.5t-127.5 307.5
t-307.5 127.5zM321 120v518h362v-85h-259v-130h241v-85h-241v-218h-103z" />
    <glyph glyph-name="uni24BC" unicode="&#x24bc;" 
d="M972 380q0 -129 -64 -237.5t-172.5 -171.5t-235.5 -63q-195 0 -333.5 138.5t-138.5 333.5t138.5 333.5t333.5 138.5t333.5 -138.5t138.5 -333.5zM500 815q-181 0 -308 -128t-127 -307q0 -180 127.5 -307.5t307.5 -127.5t307.5 127.5t127.5 307.5t-127.5 307.5
t-307.5 127.5zM521 328v83h188v-268q-78 -29 -171 -29q-71 0 -124.5 20t-82 48t-46 66t-22.5 66.5t-5 56.5q0 133 83 204t211 71q89 0 141 -25l-23 -85q-49 22 -122 22q-82 0 -132 -47t-50 -132q0 -83 47.5 -131.5t125.5 -48.5q47 0 71 8v121h-89z" />
    <glyph glyph-name="uni24BD" unicode="&#x24bd;" 
d="M972 380q0 -129 -64 -237.5t-172.5 -171.5t-235.5 -63q-195 0 -333.5 138.5t-138.5 333.5t138.5 333.5t333.5 138.5t333.5 -138.5t138.5 -333.5zM500 815q-181 0 -308 -128t-127 -307q0 -180 127.5 -307.5t307.5 -127.5t307.5 127.5t127.5 307.5t-127.5 307.5
t-307.5 127.5zM298 640h104v-205h196v205h104v-520h-104v224h-196v-224h-104v520z" />
    <glyph glyph-name="uni24BE" unicode="&#x24be;" 
d="M972 380q0 -129 -64 -237.5t-172.5 -171.5t-235.5 -63q-195 0 -333.5 138.5t-138.5 333.5t138.5 333.5t333.5 138.5t333.5 -138.5t138.5 -333.5zM500 815q-181 0 -308 -128t-127 -307q0 -180 127.5 -307.5t307.5 -127.5t307.5 127.5t127.5 307.5t-127.5 307.5
t-307.5 127.5zM448 640h104v-520h-104v520z" />
    <glyph glyph-name="uni24BF" unicode="&#x24bf;" 
d="M972 380q0 -129 -64 -237.5t-172.5 -171.5t-235.5 -63q-195 0 -333.5 138.5t-138.5 333.5t138.5 333.5t333.5 138.5t333.5 -138.5t138.5 -333.5zM500 815q-181 0 -308 -128t-127 -307q0 -180 127.5 -307.5t307.5 -127.5t307.5 127.5t127.5 307.5t-127.5 307.5
t-307.5 127.5zM526 327v313h104v-309q0 -217 -201 -217q-61 0 -105 16l17 84q36 -12 81 -12q51 0 77.5 28t26.5 97z" />
    <glyph glyph-name="uni24C0" unicode="&#x24c0;" 
d="M972 380q0 -129 -64 -237.5t-172.5 -171.5t-235.5 -63q-195 0 -333.5 138.5t-138.5 333.5t138.5 333.5t333.5 138.5t333.5 -138.5t138.5 -333.5zM500 815q-181 0 -308 -128t-127 -307q0 -180 127.5 -307.5t307.5 -127.5t307.5 127.5t127.5 307.5t-127.5 307.5
t-307.5 127.5zM310 120v520h103v-239l2 -1q23 38 38 58l129 182h128l-176 -222l188 -298h-122l-140 232l-47 -55v-177h-103z" />
    <glyph glyph-name="uni24C1" unicode="&#x24c1;" 
d="M972 380q0 -129 -64 -237.5t-172.5 -171.5t-235.5 -63q-195 0 -333.5 138.5t-138.5 333.5t138.5 333.5t333.5 138.5t333.5 -138.5t138.5 -333.5zM500 815q-181 0 -308 -128t-127 -307q0 -180 127.5 -307.5t307.5 -127.5t307.5 127.5t127.5 307.5t-127.5 307.5
t-307.5 127.5zM320 122v518h104v-431h271v-87h-375z" />
    <glyph glyph-name="uni24C2" unicode="&#x24c2;" 
d="M972 380q0 -129 -64 -237.5t-172.5 -171.5t-235.5 -63q-195 0 -333.5 138.5t-138.5 333.5t138.5 333.5t333.5 138.5t333.5 -138.5t138.5 -333.5zM500 815q-181 0 -308 -128t-127 -307q0 -180 127.5 -307.5t307.5 -127.5t307.5 127.5t127.5 307.5t-127.5 307.5
t-307.5 127.5zM655 120l-8 199q-5 101 -4 169h-2q-7 -26 -14.5 -52t-16 -56t-13.5 -46l-62 -206h-80l-57 200q-16 58 -40 159h-2q-3 -107 -7 -171l-8 -196h-94l37 520h118l57 -201q35 -132 41 -160h3q5 18 43 160l59 201h116l32 -520h-98z" />
    <glyph glyph-name="uni24C3" unicode="&#x24c3;" 
d="M972 380q0 -129 -64 -237.5t-172.5 -171.5t-235.5 -63q-195 0 -333.5 138.5t-138.5 333.5t138.5 333.5t333.5 138.5t333.5 -138.5t138.5 -333.5zM500 815q-181 0 -308 -128t-127 -307q0 -180 127.5 -307.5t307.5 -127.5t307.5 127.5t127.5 307.5t-127.5 307.5
t-307.5 127.5zM393 120h-95v520h114l122 -213q43 -80 79 -164h2q-8 102 -8 216v161h95v-520h-105l-123 216q-24 43 -84 171h-2q5 -102 5 -221v-166z" />
    <glyph glyph-name="uni24C4" unicode="&#x24c4;" 
d="M972 380q0 -129 -64 -237.5t-172.5 -171.5t-235.5 -63q-195 0 -333.5 138.5t-138.5 333.5t138.5 333.5t333.5 138.5t333.5 -138.5t138.5 -333.5zM500 815q-181 0 -308 -128t-127 -307q0 -180 127.5 -307.5t307.5 -127.5t307.5 127.5t127.5 307.5t-127.5 307.5
t-307.5 127.5zM496 114q-112 0 -178 74t-66 188q0 117 70 193.5t181 76.5q113 0 179 -74.5t66 -186.5q0 -126 -70 -198.5t-182 -72.5zM500 199q66 0 102 51.5t36 130.5q0 75 -36.5 127.5t-100.5 52.5q-66 0 -102.5 -52t-36.5 -131q-1 -78 36.5 -128.5t101.5 -50.5z" />
    <glyph glyph-name="uni24C5" unicode="&#x24c5;" 
d="M972 380q0 -129 -64 -237.5t-172.5 -171.5t-235.5 -63q-195 0 -333.5 138.5t-138.5 333.5t138.5 333.5t333.5 138.5t333.5 -138.5t138.5 -333.5zM500 815q-181 0 -308 -128t-127 -307q0 -180 127.5 -307.5t307.5 -127.5t307.5 127.5t127.5 307.5t-127.5 307.5
t-307.5 127.5zM320 120v511q68 11 163 11q118 0 176 -43q58 -46 58 -119q0 -88 -63.5 -132t-173.5 -44q-36 0 -57 4v-188h-103zM423 557v-167q20 -5 60 -5q61 0 96 25t35 68q0 41 -33.5 62.5t-88.5 21.5q-49 0 -69 -5z" />
    <glyph glyph-name="uni24C6" unicode="&#x24c6;" 
d="M972 380q0 -129 -64 -237.5t-172.5 -171.5t-235.5 -63q-195 0 -333.5 138.5t-138.5 333.5t138.5 333.5t333.5 138.5t333.5 -138.5t138.5 -333.5zM500 815q-181 0 -308 -128t-127 -307q0 -180 127.5 -307.5t307.5 -127.5t307.5 127.5t127.5 307.5t-127.5 307.5
t-307.5 127.5zM734 123l-47 -78q-81 25 -171 60q-18 7 -35 9q-97 5 -163 73t-66 188q0 118 69.5 194.5t183.5 76.5q112 0 177.5 -74.5t65.5 -185.5q0 -87 -36 -149t-93 -86v-2q75 -18 115 -26zM501 199q64 0 100.5 50.5t36.5 131.5q0 76 -36.5 128t-100.5 52
q-65 0 -102 -52.5t-37 -130.5q0 -82 38 -130.5t101 -48.5z" />
    <glyph glyph-name="uni24C7" unicode="&#x24c7;" 
d="M972 380q0 -129 -64 -237.5t-172.5 -171.5t-235.5 -63q-195 0 -333.5 138.5t-138.5 333.5t138.5 333.5t333.5 138.5t333.5 -138.5t138.5 -333.5zM500 815q-181 0 -308 -128t-127 -307q0 -180 127.5 -307.5t307.5 -127.5t307.5 127.5t127.5 307.5t-127.5 307.5
t-307.5 127.5zM318 120v511q73 11 164 11q221 0 221 -148q0 -52 -30 -86t-76 -45v-3q58 -16 80 -91q32 -119 50 -149h-110q-13 18 -41 122q-12 50 -33.5 67t-66.5 19h-55v-208h-103zM421 559v-153h68q52 0 81.5 21.5t29.5 57.5q0 79 -109 79q-43 0 -70 -5z" />
    <glyph glyph-name="uni24C8" unicode="&#x24c8;" 
d="M972 380q0 -129 -64 -237.5t-172.5 -171.5t-235.5 -63q-195 0 -333.5 138.5t-138.5 333.5t138.5 333.5t333.5 138.5t333.5 -138.5t138.5 -333.5zM500 815q-181 0 -308 -128t-127 -307q0 -180 127.5 -307.5t307.5 -127.5t307.5 127.5t127.5 307.5t-127.5 307.5
t-307.5 127.5zM298 157l27 85q72 -42 160 -42q54 0 83 18t29 48q0 25 -26 41t-96 35q-82 21 -125.5 56t-43.5 97q0 66 58 108.5t154 42.5q90 0 160 -33l-28 -84q-64 31 -133 31q-50 0 -78 -16t-28 -40q0 -28 26.5 -42.5t100.5 -34.5q87 -24 126 -60t39 -95
q0 -67 -56.5 -112.5t-172.5 -45.5q-107 0 -176 43z" />
    <glyph glyph-name="uni24C9" unicode="&#x24c9;" 
d="M972 380q0 -129 -64 -237.5t-172.5 -171.5t-235.5 -63q-195 0 -333.5 138.5t-138.5 333.5t138.5 333.5t333.5 138.5t333.5 -138.5t138.5 -333.5zM500 815q-181 0 -308 -128t-127 -307q0 -180 127.5 -307.5t307.5 -127.5t307.5 127.5t127.5 307.5t-127.5 307.5
t-307.5 127.5zM447 102v430h-177v88h460v-88h-179v-430h-104z" />
    <glyph glyph-name="uni24CA" unicode="&#x24ca;" 
d="M972 380q0 -129 -64 -237.5t-172.5 -171.5t-235.5 -63q-195 0 -333.5 138.5t-138.5 333.5t138.5 333.5t333.5 138.5t333.5 -138.5t138.5 -333.5zM500 815q-181 0 -308 -128t-127 -307q0 -180 127.5 -307.5t307.5 -127.5t307.5 127.5t127.5 307.5t-127.5 307.5
t-307.5 127.5zM297 632h104v-304q0 -69 25.5 -103t71.5 -34q101 0 101 137v304h104v-295q0 -115 -54.5 -173t-152.5 -58q-199 0 -199 231v295z" />
    <glyph glyph-name="uni24CB" unicode="&#x24cb;" 
d="M972 380q0 -129 -64 -237.5t-172.5 -171.5t-235.5 -63q-195 0 -333.5 138.5t-138.5 333.5t138.5 333.5t333.5 138.5t333.5 -138.5t138.5 -333.5zM500 815q-181 0 -308 -128t-127 -307q0 -180 127.5 -307.5t307.5 -127.5t307.5 127.5t127.5 307.5t-127.5 307.5
t-307.5 127.5zM556 104h-123l-168 520h116l68 -243q31 -115 48 -184h2q19 75 51 183l72 244h113z" />
    <glyph glyph-name="uni24CC" unicode="&#x24cc;" 
d="M972 380q0 -129 -64 -237.5t-172.5 -171.5t-235.5 -63q-195 0 -333.5 138.5t-138.5 333.5t138.5 333.5t333.5 138.5t333.5 -138.5t138.5 -333.5zM500 815q-181 0 -308 -128t-127 -307q0 -180 127.5 -307.5t307.5 -127.5t307.5 127.5t127.5 307.5t-127.5 307.5
t-307.5 127.5zM426 104h-103l-103 520h106l33 -218q15 -120 22 -183h2q11 75 32 183l45 218h90l41 -218q14 -84 28 -182h2q3 28 7 58.5t9 67.5t8 57l35 217h100l-110 -520h-104l-39 201q-15 90 -26 167h-1q-14 -91 -31 -168z" />
    <glyph glyph-name="uni24CD" unicode="&#x24cd;" 
d="M972 380q0 -129 -64 -237.5t-172.5 -171.5t-235.5 -63q-195 0 -333.5 138.5t-138.5 333.5t138.5 333.5t333.5 138.5t333.5 -138.5t138.5 -333.5zM500 815q-181 0 -308 -128t-127 -307q0 -180 127.5 -307.5t307.5 -127.5t307.5 127.5t127.5 307.5t-127.5 307.5
t-307.5 127.5zM730 120h-122l-60 109q0 1 -52 97h-2q-11 -28 -46 -95l-57 -111h-120l161 263l-156 257h122l62 -114q23 -45 42 -87h2q21 48 40 86l59 115h121l-158 -254z" />
    <glyph glyph-name="uni24CE" unicode="&#x24ce;" 
d="M972 380q0 -129 -64 -237.5t-172.5 -171.5t-235.5 -63q-195 0 -333.5 138.5t-138.5 333.5t138.5 333.5t333.5 138.5t333.5 -138.5t138.5 -333.5zM500 815q-181 0 -308 -128t-127 -307q0 -180 127.5 -307.5t307.5 -127.5t307.5 127.5t127.5 307.5t-127.5 307.5
t-307.5 127.5zM549 104h-104v216l-186 304h123l73 -137q6 -14 15.5 -33t16.5 -34l14 -30h2q7 16 22.5 47.5t23.5 48.5l73 138h123l-196 -301v-219z" />
    <glyph glyph-name="uni24CF" unicode="&#x24cf;" 
d="M972 380q0 -129 -64 -237.5t-172.5 -171.5t-235.5 -63q-195 0 -333.5 138.5t-138.5 333.5t138.5 333.5t333.5 138.5t333.5 -138.5t138.5 -333.5zM500 815q-181 0 -308 -128t-127 -307q0 -180 127.5 -307.5t307.5 -127.5t307.5 127.5t127.5 307.5t-127.5 307.5
t-307.5 127.5zM296 122v59l265 368v3h-241v86h379v-63l-260 -364v-2h265v-87h-408z" />
    <glyph glyph-name="uni24D0" unicode="&#x24d0;" 
d="M972 380q0 -129 -64 -237.5t-172.5 -171.5t-235.5 -63q-195 0 -333.5 138.5t-138.5 333.5t138.5 333.5t333.5 138.5t333.5 -138.5t138.5 -333.5zM500 815q-181 0 -308 -128t-127 -307q0 -180 127.5 -307.5t307.5 -127.5t307.5 127.5t127.5 307.5t-127.5 307.5
t-307.5 127.5zM659 414v-133q0 -60 7 -92h-94l-7 41h-2q-40 -50 -118 -50q-57 0 -90.5 34t-33.5 81q0 72 62 109t172 36q0 66 -79 66q-61 0 -107 -29l-21 68q62 34 147 34q164 0 164 -165zM558 323v51q-136 0 -136 -68q0 -25 16 -38t41 -13q30 0 54.5 17.5t24.5 50.5z" />
    <glyph glyph-name="uni24D1" unicode="&#x24d1;" 
d="M972 380q0 -129 -64 -237.5t-172.5 -171.5t-235.5 -63q-195 0 -333.5 138.5t-138.5 333.5t138.5 333.5t333.5 138.5t333.5 -138.5t138.5 -333.5zM500 815q-181 0 -308 -128t-127 -307q0 -180 127.5 -307.5t307.5 -127.5t307.5 127.5t127.5 307.5t-127.5 307.5
t-307.5 127.5zM318 197v445h103v-225h2q38 60 122 60q71 0 115.5 -54t44.5 -138q0 -98 -52 -152.5t-124 -54.5q-81 0 -120 64h-2l-4 -56h-88q3 42 3 111zM421 306v-62q0 -33 25 -58.5t61 -25.5q44 0 69 31.5t25 87.5q0 51 -24.5 83.5t-68.5 32.5q-40 0 -63.5 -27.5
t-23.5 -61.5z" />
    <glyph glyph-name="uni24D2" unicode="&#x24d2;" 
d="M972 380q0 -129 -64 -237.5t-172.5 -171.5t-235.5 -63q-195 0 -333.5 138.5t-138.5 333.5t138.5 333.5t333.5 138.5t333.5 -138.5t138.5 -333.5zM500 815q-181 0 -308 -128t-127 -307q0 -180 127.5 -307.5t307.5 -127.5t307.5 127.5t127.5 307.5t-127.5 307.5
t-307.5 127.5zM623 277l14 -78q-44 -19 -112 -19q-94 0 -149.5 53t-55.5 142t60 146.5t163 57.5q53 0 96 -17l-19 -80q-34 16 -76 16q-54 0 -86.5 -33t-32.5 -84q0 -59 35 -89t85 -30q41 0 78 15z" />
    <glyph glyph-name="uni24D3" unicode="&#x24d3;" 
d="M972 380q0 -129 -64 -237.5t-172.5 -171.5t-235.5 -63q-195 0 -333.5 138.5t-138.5 333.5t138.5 333.5t333.5 138.5t333.5 -138.5t138.5 -333.5zM500 815q-181 0 -308 -128t-127 -307q0 -180 127.5 -307.5t307.5 -127.5t307.5 127.5t127.5 307.5t-127.5 307.5
t-307.5 127.5zM576 654h103v-445q0 -74 4 -111h-92l-5 60h-1q-38 -68 -125 -68q-71 0 -118 55t-47 140q-1 93 49.5 148.5t123.5 55.5q76 0 106 -48h2v213zM576 262v58q0 39 -24 63t-58 24q-45 0 -70 -33.5t-25 -86.5q0 -52 25.5 -83.5t68.5 -31.5q32 0 57.5 23t25.5 67z" />
    <glyph glyph-name="uni24D4" unicode="&#x24d4;" 
d="M972 380q0 -129 -64 -237.5t-172.5 -171.5t-235.5 -63q-195 0 -333.5 138.5t-138.5 333.5t138.5 333.5t333.5 138.5t333.5 -138.5t138.5 -333.5zM500 815q-181 0 -308 -128t-127 -307q0 -180 127.5 -307.5t307.5 -127.5t307.5 127.5t127.5 307.5t-127.5 307.5
t-307.5 127.5zM683 354h-267q2 -43 36.5 -67.5t84.5 -24.5q61 0 112 18l15 -74q-62 -26 -142 -26q-98 0 -154 54.5t-56 146.5q0 88 53.5 152t146.5 64q89 0 132 -58t43 -139q0 -26 -4 -46zM416 430h170q0 34 -17.5 63t-61.5 29q-41 0 -63.5 -28.5t-27.5 -63.5z" />
    <glyph glyph-name="uni24D5" unicode="&#x24d5;" 
d="M972 380q0 -129 -64 -237.5t-172.5 -171.5t-235.5 -63q-195 0 -333.5 138.5t-138.5 333.5t138.5 333.5t333.5 138.5t333.5 -138.5t138.5 -333.5zM500 815q-181 0 -308 -128t-127 -307q0 -180 127.5 -307.5t307.5 -127.5t307.5 127.5t127.5 307.5t-127.5 307.5
t-307.5 127.5zM530 87h-109v320h-54v80h54v14q0 84 43 129.5t114 45.5q37 0 66 -9l-7 -84q-17 6 -43 6q-23 0 -37 -9.5t-19.5 -28t-6.5 -31t-1 -33.5h86v-80h-86v-320z" />
    <glyph glyph-name="uni24D6" unicode="&#x24d6;" 
d="M972 380q0 -129 -64 -237.5t-172.5 -171.5t-235.5 -63q-195 0 -333.5 138.5t-138.5 333.5t138.5 333.5t333.5 138.5t333.5 -138.5t138.5 -333.5zM500 815q-181 0 -308 -128t-127 -307q0 -180 127.5 -307.5t307.5 -127.5t307.5 127.5t127.5 307.5t-127.5 307.5
t-307.5 127.5zM685 537v-227q0 -45 -7.5 -80.5t-29 -71.5t-67.5 -56t-115 -20q-86 0 -142 31l24 84q52 -30 115 -30q52 0 82.5 28.5t30.5 85.5v31h-2q-39 -56 -114 -56q-74 0 -122 55.5t-48 138.5q0 94 53 152.5t130 58.5q78 0 114 -60h1l4 51h96q-3 -42 -3 -115zM576 427
v63q0 41 -24.5 63t-56.5 22q-41 0 -68 -33t-27 -89q0 -50 24.5 -83t69.5 -33q31 0 56.5 22.5t25.5 67.5z" />
    <glyph glyph-name="uni24D7" unicode="&#x24d7;" 
d="M972 380q0 -129 -64 -237.5t-172.5 -171.5t-235.5 -63q-195 0 -333.5 138.5t-138.5 333.5t138.5 333.5t333.5 138.5t333.5 -138.5t138.5 -333.5zM500 815q-181 0 -308 -128t-127 -307q0 -180 127.5 -307.5t307.5 -127.5t307.5 127.5t127.5 307.5t-127.5 307.5
t-307.5 127.5zM329 99v557h106v-225h1q42 59 115 59q57 0 95.5 -41t38.5 -127v-223h-104v213q0 94 -72 94q-27 0 -51.5 -20t-24.5 -59v-228h-104z" />
    <glyph glyph-name="uni24D8" unicode="&#x24d8;" 
d="M972 380q0 -129 -64 -237.5t-172.5 -171.5t-235.5 -63q-195 0 -333.5 138.5t-138.5 333.5t138.5 333.5t333.5 138.5t333.5 -138.5t138.5 -333.5zM500 815q-181 0 -308 -128t-127 -307q0 -180 127.5 -307.5t307.5 -127.5t307.5 127.5t127.5 307.5t-127.5 307.5
t-307.5 127.5zM500 527q-29 0 -45 18t-16 42q0 25 17 42t44 17t44 -16.5t17 -42.5q0 -25 -17 -42.5t-44 -17.5zM552 88h-104v383h104v-383z" />
    <glyph glyph-name="uni24D9" unicode="&#x24d9;" 
d="M972 380q0 -129 -64 -237.5t-172.5 -171.5t-235.5 -63q-195 0 -333.5 138.5t-138.5 333.5t138.5 333.5t333.5 138.5t333.5 -138.5t138.5 -333.5zM500 815q-181 0 -308 -128t-127 -307q0 -180 127.5 -307.5t307.5 -127.5t307.5 127.5t127.5 307.5t-127.5 307.5
t-307.5 127.5zM529 612q-29 0 -45 18t-16 42q0 26 17 43t44 17t43.5 -17t16.5 -43q0 -25 -16.5 -42.5t-43.5 -17.5zM378 43l-11 81q70 4 90 37t20 125v270h104v-295q0 -33 -3 -59t-15.5 -57.5t-33 -52t-59.5 -35t-92 -14.5z" />
    <glyph glyph-name="uni24DA" unicode="&#x24da;" 
d="M972 380q0 -129 -64 -237.5t-172.5 -171.5t-235.5 -63q-195 0 -333.5 138.5t-138.5 333.5t138.5 333.5t333.5 138.5t333.5 -138.5t138.5 -333.5zM500 815q-181 0 -308 -128t-127 -307q0 -180 127.5 -307.5t307.5 -127.5t307.5 127.5t127.5 307.5t-127.5 307.5
t-307.5 127.5zM433 656v-340h2q13 25 29 47l87 119h125l-141 -157l160 -226h-128l-103 165l-31 -38v-127h-104v557h104z" />
    <glyph glyph-name="uni24DB" unicode="&#x24db;" 
d="M972 380q0 -129 -64 -237.5t-172.5 -171.5t-235.5 -63q-195 0 -333.5 138.5t-138.5 333.5t138.5 333.5t333.5 138.5t333.5 -138.5t138.5 -333.5zM500 815q-181 0 -308 -128t-127 -307q0 -180 127.5 -307.5t307.5 -127.5t307.5 127.5t127.5 307.5t-127.5 307.5
t-307.5 127.5zM448 99v557h104v-557h-104z" />
    <glyph glyph-name="uni24DC" unicode="&#x24dc;" 
d="M972 380q0 -129 -64 -237.5t-172.5 -171.5t-235.5 -63q-195 0 -333.5 138.5t-138.5 333.5t138.5 333.5t333.5 138.5t333.5 -138.5t138.5 -333.5zM500 815q-181 0 -308 -128t-127 -307q0 -180 127.5 -307.5t307.5 -127.5t307.5 127.5t127.5 307.5t-127.5 307.5
t-307.5 127.5zM230 190v267q0 64 -3 115h88l5 -53h2q43 62 112 62q35 0 61 -18.5t38 -48.5h2q45 67 115 67q53 0 86.5 -40.5t33.5 -123.5v-227h-101v211q0 95 -58 95q-23 0 -42 -19t-19 -56v-231h-101v223q0 83 -55 83q-25 0 -44 -22t-19 -57v-227h-101z" />
    <glyph glyph-name="uni24DD" unicode="&#x24dd;" 
d="M972 380q0 -129 -64 -237.5t-172.5 -171.5t-235.5 -63q-195 0 -333.5 138.5t-138.5 333.5t138.5 333.5t333.5 138.5t333.5 -138.5t138.5 -333.5zM500 815q-181 0 -308 -128t-127 -307q0 -180 127.5 -307.5t307.5 -127.5t307.5 127.5t127.5 307.5t-127.5 307.5
t-307.5 127.5zM322 190v265q0 66 -3 117h92l5 -56h2q15 26 47 45.5t75 19.5q59 0 98 -41t39 -125v-225h-103v215q0 91 -71 91q-32 0 -55 -22.5t-23 -59.5v-224h-103z" />
    <glyph glyph-name="uni24DE" unicode="&#x24de;" 
d="M972 380q0 -129 -64 -237.5t-172.5 -171.5t-235.5 -63q-195 0 -333.5 138.5t-138.5 333.5t138.5 333.5t333.5 138.5t333.5 -138.5t138.5 -333.5zM500 815q-181 0 -308 -128t-127 -307q0 -180 127.5 -307.5t307.5 -127.5t307.5 127.5t127.5 307.5t-127.5 307.5
t-307.5 127.5zM498 181q-88 0 -143.5 54t-55.5 142q0 92 56.5 147.5t148.5 55.5q88 0 142 -55t54 -141q0 -100 -59.5 -151.5t-142.5 -51.5zM501 256q41 0 67.5 34.5t26.5 90.5q0 50 -24 87t-70 37q-48 0 -72.5 -37t-24.5 -88q0 -52 25 -88t72 -36z" />
    <glyph glyph-name="uni24DF" unicode="&#x24df;" 
d="M972 380q0 -129 -64 -237.5t-172.5 -171.5t-235.5 -63q-195 0 -333.5 138.5t-138.5 333.5t138.5 333.5t333.5 138.5t333.5 -138.5t138.5 -333.5zM500 815q-181 0 -308 -128t-127 -307q0 -180 127.5 -307.5t307.5 -127.5t307.5 127.5t127.5 307.5t-127.5 307.5
t-307.5 127.5zM319 95v411q0 72 -3 127h90l4 -58h2q44 66 131 66q69 0 115.5 -54t46.5 -140q0 -98 -51.5 -151.5t-123.5 -53.5q-75 0 -107 48h-1v-195h-103zM422 471v-60q0 -40 26 -64t59 -24q44 0 69 32.5t25 87.5q0 51 -24 83.5t-68 32.5q-36 0 -61.5 -26t-25.5 -62z" />
    <glyph glyph-name="uni24E0" unicode="&#x24e0;" 
d="M972 380q0 -129 -64 -237.5t-172.5 -171.5t-235.5 -63q-195 0 -333.5 138.5t-138.5 333.5t138.5 333.5t333.5 138.5t333.5 -138.5t138.5 -333.5zM500 815q-181 0 -308 -128t-127 -307q0 -180 127.5 -307.5t307.5 -127.5t307.5 127.5t127.5 307.5t-127.5 307.5
t-307.5 127.5zM577 95v206h-2q-38 -59 -119 -59q-68 0 -115 54t-47 139q0 98 52.5 152t121.5 54q78 0 112 -57l2 -1l3 50h98q-2 -37 -2 -112v-426h-104zM577 410v65q0 36 -23.5 60t-59.5 24q-45 0 -70 -32.5t-25 -86.5q0 -52 25 -84.5t68 -32.5q34 0 59.5 24.5t25.5 62.5z
" />
    <glyph glyph-name="uni24E1" unicode="&#x24e1;" 
d="M972 380q0 -129 -64 -237.5t-172.5 -171.5t-235.5 -63q-195 0 -333.5 138.5t-138.5 333.5t138.5 333.5t333.5 138.5t333.5 -138.5t138.5 -333.5zM500 815q-181 0 -308 -128t-127 -307q0 -180 127.5 -307.5t307.5 -127.5t307.5 127.5t127.5 307.5t-127.5 307.5
t-307.5 127.5zM381 190v252q0 80 -3 130h93l3 -80h2q33 89 131 89q6 0 28 -2v-99q-16 4 -40 4q-46 0 -74.5 -20t-34.5 -51q-1 -8 -1 -23v-200h-104z" />
    <glyph glyph-name="uni24E2" unicode="&#x24e2;" 
d="M972 380q0 -129 -64 -237.5t-172.5 -171.5t-235.5 -63q-195 0 -333.5 138.5t-138.5 333.5t138.5 333.5t333.5 138.5t333.5 -138.5t138.5 -333.5zM500 815q-181 0 -308 -128t-127 -307q0 -180 127.5 -307.5t307.5 -127.5t307.5 127.5t127.5 307.5t-127.5 307.5
t-307.5 127.5zM332 215l21 75q60 -35 140 -35q75 0 75 40q0 17 -17 26.5t-62 18.5q-145 29 -145 116q0 55 47.5 89.5t127.5 34.5q79 0 129 -27l-20 -72q-58 26 -120 26q-66 0 -66 -38q0 -17 19 -26.5t69 -20.5q71 -14 104 -42.5t33 -77.5q0 -53 -46.5 -87t-140.5 -34
q-80 0 -148 34z" />
    <glyph glyph-name="uni24E3" unicode="&#x24e3;" 
d="M972 380q0 -129 -64 -237.5t-172.5 -171.5t-235.5 -63q-195 0 -333.5 138.5t-138.5 333.5t138.5 333.5t333.5 138.5t333.5 -138.5t138.5 -333.5zM500 815q-181 0 -308 -128t-127 -307q0 -180 127.5 -307.5t307.5 -127.5t307.5 127.5t127.5 307.5t-127.5 307.5
t-307.5 127.5zM410 588l104 28v-100h111v-76h-111v-161q0 -36 11 -52.5t38 -16.5q22 0 37 4l1 -78q-23 -10 -73 -10q-118 0 -118 141v173h-74v76h74v72z" />
    <glyph glyph-name="uni24E4" unicode="&#x24e4;" 
d="M972 380q0 -129 -64 -237.5t-172.5 -171.5t-235.5 -63q-195 0 -333.5 138.5t-138.5 333.5t138.5 333.5t333.5 138.5t333.5 -138.5t138.5 -333.5zM500 815q-181 0 -308 -128t-127 -307q0 -180 127.5 -307.5t307.5 -127.5t307.5 127.5t127.5 307.5t-127.5 307.5
t-307.5 127.5zM678 570v-266q0 -68 3 -116h-91l-5 57h-2q-42 -66 -125 -66q-60 0 -97.5 40t-37.5 128v223h104v-207q0 -99 70 -99q34 0 55.5 23t21.5 53v230h104z" />
    <glyph glyph-name="uni24E5" unicode="&#x24e5;" 
d="M972 380q0 -129 -64 -237.5t-172.5 -171.5t-235.5 -63q-195 0 -333.5 138.5t-138.5 333.5t138.5 333.5t333.5 138.5t333.5 -138.5t138.5 -333.5zM500 815q-181 0 -308 -128t-127 -307q0 -180 127.5 -307.5t307.5 -127.5t307.5 127.5t127.5 307.5t-127.5 307.5
t-307.5 127.5zM298 570h114l63 -187q19 -59 26 -96h3q11 52 27 96l61 187h110l-161 -382h-85z" />
    <glyph glyph-name="uni24E6" unicode="&#x24e6;" 
d="M972 380q0 -129 -64 -237.5t-172.5 -171.5t-235.5 -63q-195 0 -333.5 138.5t-138.5 333.5t138.5 333.5t333.5 138.5t333.5 -138.5t138.5 -333.5zM500 815q-181 0 -308 -128t-127 -307q0 -180 127.5 -307.5t307.5 -127.5t307.5 127.5t127.5 307.5t-127.5 307.5
t-307.5 127.5zM213 570h107l36 -168q3 -16 12 -58t13 -66h1q1 8 31 123l47 169h83l45 -164q29 -118 31 -128h1q5 41 25 127l39 165h103l-124 -382h-94l-41 145q-19 64 -28 123h-4q-9 -60 -29 -122l-44 -146h-95z" />
    <glyph glyph-name="uni24E7" unicode="&#x24e7;" 
d="M972 380q0 -129 -64 -237.5t-172.5 -171.5t-235.5 -63q-195 0 -333.5 138.5t-138.5 333.5t138.5 333.5t333.5 138.5t333.5 -138.5t138.5 -333.5zM500 815q-181 0 -308 -128t-127 -307q0 -180 127.5 -307.5t307.5 -127.5t307.5 127.5t127.5 307.5t-127.5 307.5
t-307.5 127.5zM305 570h120l41 -68q3 -6 17.5 -30t20.5 -36h2q13 27 36 67l41 67h112l-130 -183l133 -199h-118l-44 72q-18 27 -39 68h-2q-19 -38 -37 -68l-43 -72h-115l136 195z" />
    <glyph glyph-name="uni24E8" unicode="&#x24e8;" 
d="M972 380q0 -129 -64 -237.5t-172.5 -171.5t-235.5 -63q-195 0 -333.5 138.5t-138.5 333.5t138.5 333.5t333.5 138.5t333.5 -138.5t138.5 -333.5zM500 815q-181 0 -308 -128t-127 -307q0 -180 127.5 -307.5t307.5 -127.5t307.5 127.5t127.5 307.5t-127.5 307.5
t-307.5 127.5zM313 630h115l65 -199l24 -82h2q12 57 20 82l57 199h109l-97 -266q-38 -104 -68 -157t-64 -82q-49 -44 -105 -51l-24 90q35 7 63 28.5t39 40t11 27.5t-5 19z" />
    <glyph glyph-name="uni24E9" unicode="&#x24e9;" 
d="M972 380q0 -129 -64 -237.5t-172.5 -171.5t-235.5 -63q-195 0 -333.5 138.5t-138.5 333.5t138.5 333.5t333.5 138.5t333.5 -138.5t138.5 -333.5zM500 815q-181 0 -308 -128t-127 -307q0 -180 127.5 -307.5t307.5 -127.5t307.5 127.5t127.5 307.5t-127.5 307.5
t-307.5 127.5zM328 188v62l143 166q21 24 67 70v2h-195v82h323v-65l-136 -161q-44 -48 -68 -72v-2h209v-82h-343z" />
    <glyph glyph-name="uni24EA" unicode="&#x24ea;" 
d="M972 380q0 -129 -64 -237.5t-172.5 -171.5t-235.5 -63q-195 0 -333.5 138.5t-138.5 333.5t138.5 333.5t333.5 138.5t333.5 -138.5t138.5 -333.5zM500 815q-181 0 -308 -128t-127 -307q0 -180 127.5 -307.5t307.5 -127.5t307.5 127.5t127.5 307.5t-127.5 307.5
t-307.5 127.5zM499 115q-54 0 -94 24.5t-61 65t-30.5 84t-9.5 89.5q0 116 51 192t147 76q52 0 90.5 -22t60.5 -59.5t32.5 -83t10.5 -97.5q0 -124 -51 -196.5t-146 -72.5zM501 207q73 0 73 174q0 172 -73 172q-75 0 -75 -183q0 -163 75 -163z" />
    <glyph glyph-name="uni24EB" unicode="&#x24eb;" 
d="M500 852q129 0 237.5 -64t171.5 -172.5t63 -235.5q0 -195 -138.5 -333.5t-333.5 -138.5t-333.5 138.5t-138.5 333.5t138.5 333.5t333.5 138.5zM298 510v-374h114v488h-101l-110 -57l21 -93l74 36h2zM628 510v-374h114v488h-101l-110 -57l21 -93l73 36h3z" />
    <glyph glyph-name="uni24EC" unicode="&#x24ec;" 
d="M500 852q129 0 237.5 -64t171.5 -172.5t63 -235.5q0 -195 -138.5 -333.5t-333.5 -138.5t-333.5 138.5t-138.5 333.5t138.5 333.5t333.5 138.5zM288 510v-374h114v488h-101l-110 -57l21 -93l74 36h2zM493 137h293v101h-156v3l29 28q63 63 92.5 109.5t29.5 109.5
q0 25 -7 47.5t-23.5 45t-50.5 35.5t-81 13q-66 0 -115 -29l21 -91q42 23 80 23q63 0 63 -54q0 -40 -28 -82t-92 -114l-55 -64v-81z" />
    <glyph glyph-name="uni24ED" unicode="&#x24ed;" 
d="M500 852q129 0 237.5 -64t171.5 -172.5t63 -235.5q0 -195 -138.5 -333.5t-333.5 -138.5t-333.5 138.5t-138.5 333.5t138.5 333.5t333.5 138.5zM288 510v-374h114v488h-101l-110 -57l21 -93l74 36h2zM515 245l-18 -92q48 -22 108 -22q95 0 146 46.5t51 104.5
q0 42 -22 74.5t-59 46.5v2q29 14 47.5 41.5t18.5 60.5q0 51 -40.5 86.5t-116.5 35.5q-66 0 -113 -27l17 -87q37 19 75 19q30 0 47.5 -12t17.5 -34q0 -19 -11.5 -30.5t-34 -16t-36.5 -5.5t-37 -1v-86q26 0 42 -1.5t40.5 -6.5t37 -20t12.5 -38t-21 -40t-63 -17q-49 0 -88 19z
" />
    <glyph glyph-name="uni24EE" unicode="&#x24ee;" 
d="M500 852q129 0 237.5 -64t171.5 -172.5t63 -235.5q0 -195 -138.5 -333.5t-333.5 -138.5t-333.5 138.5t-138.5 333.5t138.5 333.5t333.5 138.5zM288 510v-374h114v488h-101l-110 -57l21 -93l74 36h2zM669 136h103v107h49v93h-49v288h-118l-182 -299v-82h197v-107zM669 336
h-91v2l64 112q20 34 27 53h4q-4 -42 -4 -60v-107z" />
    <glyph glyph-name="uni24EF" unicode="&#x24ef;" 
d="M500 852q129 0 237.5 -64t171.5 -172.5t63 -235.5q0 -195 -138.5 -333.5t-333.5 -138.5t-333.5 138.5t-138.5 333.5t138.5 333.5t333.5 138.5zM288 510v-374h114v488h-101l-110 -57l21 -93l74 36h2zM780 522v101h-219l-26 -254q18 2 38 2q102 0 102 -77
q0 -30 -18.5 -48.5t-56.5 -18.5q-33 0 -71 18l-19 -92q37 -22 97 -22q84 0 133 50.5t49 124.5q0 61 -40.5 105t-104.5 44l6 67h130z" />
    <glyph glyph-name="uni24F0" unicode="&#x24f0;" 
d="M500 852q129 0 237.5 -64t171.5 -172.5t63 -235.5q0 -195 -138.5 -333.5t-333.5 -138.5t-333.5 138.5t-138.5 333.5t138.5 333.5t333.5 138.5zM767 533v95q-11 1 -33 1q-107 0 -178 -84t-71 -213q0 -96 42.5 -148.5t113.5 -52.5q83 0 128 54t45 120q0 64 -39 105.5
t-98 41.5q-42 0 -67 -18h-3q13 45 40 68q22 19 45 24t75 7zM288 510v-374h114v488h-101l-110 -57l21 -93l74 36h2zM651 211q-26 0 -40.5 23.5t-14.5 53.5q0 47 12 65.5t40 18.5q30 0 43.5 -22.5t13.5 -54.5q0 -84 -54 -84z" />
    <glyph glyph-name="uni24F1" unicode="&#x24f1;" 
d="M500 852q129 0 237.5 -64t171.5 -172.5t63 -235.5q0 -195 -138.5 -333.5t-333.5 -138.5t-333.5 138.5t-138.5 333.5t138.5 333.5t333.5 138.5zM288 510v-374h114v488h-101l-110 -57l21 -93l74 36h2zM794 623h-299v-101h180v-3l-152 -383h112l159 409v78z" />
    <glyph glyph-name="uni24F2" unicode="&#x24f2;" 
d="M500 852q129 0 237.5 -64t171.5 -172.5t63 -235.5q0 -195 -138.5 -333.5t-333.5 -138.5t-333.5 138.5t-138.5 333.5t138.5 333.5t333.5 138.5zM288 510v-374h114v488h-101l-110 -57l21 -93l74 36h2zM741 399v2q67 34 67 102q0 60 -46 92t-104 32q-73 0 -120.5 -37
t-47.5 -95q0 -63 59 -101v-2q-33 -19 -53 -52t-20 -71q0 -68 50 -103t121 -35q70 0 121 38t51 108q0 89 -78 122zM656 555q9 0 15.5 -1t17 -6t16 -19t5.5 -35q0 -20 -11.5 -38.5t-31.5 -27.5q-72 20 -72 69q0 24 13.5 41t47.5 17zM651 205q-68 0 -68 74q0 49 49 76
q34 -8 58 -29.5t24 -51.5q0 -24 -6.5 -39.5t-18.5 -21t-19.5 -7t-18.5 -1.5z" />
    <glyph glyph-name="uni24F3" unicode="&#x24f3;" 
d="M500 852q129 0 237.5 -64t171.5 -172.5t63 -235.5q0 -195 -138.5 -333.5t-333.5 -138.5t-333.5 138.5t-138.5 333.5t138.5 333.5t333.5 138.5zM288 510v-374h114v488h-101l-110 -57l21 -93l74 36h2zM534 227v-96q49 0 62 2q51 8 91.5 32.5t64 55.5t39 69.5t21 72
t5.5 65.5q0 95 -42.5 148t-114.5 53q-81 0 -126.5 -53.5t-45.5 -120.5q0 -64 39 -105.5t98 -41.5q40 0 62 18h3q-12 -35 -28.5 -57t-40 -30t-40 -10t-47.5 -2zM650 549q30 0 42 -25t12 -52q0 -49 -11 -66.5t-42 -17.5q-28 0 -41 22.5t-13 54.5q0 84 53 84z" />
    <glyph glyph-name="uni24F4" unicode="&#x24f4;" 
d="M500 852q129 0 237.5 -64t171.5 -172.5t63 -235.5q0 -195 -138.5 -333.5t-333.5 -138.5t-333.5 138.5t-138.5 333.5t138.5 333.5t333.5 138.5zM203 137h267v101h-142v3l26 28q38 43 58 69t36.5 66.5t16.5 83.5q0 25 -6.5 47.5t-21.5 45t-45.5 35.5t-73.5 13
q-60 0 -105 -29l18 -91q40 23 70 23q21 0 36.5 -12.5t15.5 -41.5q0 -28 -15 -61t-32.5 -59t-55.5 -76l-47 -64v-81zM670 131q66 0 108.5 65.5t42.5 188.5q0 244 -147 244q-76 0 -115 -72.5t-39 -180.5q0 -45 7.5 -85.5t23.5 -78t46.5 -59.5t72.5 -22zM672 229
q-22 0 -31.5 33.5t-9.5 117.5q0 151 42 151q36 0 36 -151q0 -61 -5.5 -96t-13 -45t-18.5 -10z" />
    <glyph glyph-name="uni24FF" unicode="&#x24ff;" 
d="M500 852q129 0 237.5 -64t171.5 -172.5t63 -235.5q0 -195 -138.5 -333.5t-333.5 -138.5t-333.5 138.5t-138.5 333.5t138.5 333.5t333.5 138.5zM500 109q106 0 157 76.5t51 194.5q0 50 -10.5 95t-32.5 85.5t-64 64.5t-99 24q-73 0 -122 -40t-68.5 -99t-19.5 -132
q0 -52 11 -98t34 -85.5t65 -62.5t98 -23zM502 206q-63 0 -63 167q0 181 63 181q62 0 62 -174t-62 -174z" />
    <glyph glyph-name="uni2776" unicode="&#x2776;" 
d="M500 852q129 0 237.5 -64t171.5 -172.5t63 -235.5q0 -195 -138.5 -333.5t-333.5 -138.5t-333.5 138.5t-138.5 333.5t138.5 333.5t333.5 138.5zM449 514v-396h138v522h-117l-148 -66l23 -107l103 47h1z" />
    <glyph glyph-name="uni2777" unicode="&#x2777;" 
d="M500 852q129 0 237.5 -64t171.5 -172.5t63 -235.5q0 -195 -138.5 -333.5t-333.5 -138.5t-333.5 138.5t-138.5 333.5t138.5 333.5t333.5 138.5zM305 119h390v118h-187v1l51 40q126 101 126 202q0 77 -51.5 123t-142.5 46q-105 0 -182 -56l39 -102q63 44 114 44
q40 0 60 -18.5t20 -48.5q-1 -38 -37 -79.5t-128 -120.5l-72 -63v-86z" />
    <glyph glyph-name="uni2778" unicode="&#x2778;" 
d="M500 852q129 0 237.5 -64t171.5 -172.5t63 -235.5q0 -195 -138.5 -333.5t-333.5 -138.5t-333.5 138.5t-138.5 333.5t138.5 333.5t333.5 138.5zM332 253l-27 -107q62 -37 165 -37q101 0 162.5 44t61.5 116q0 49 -32 83t-81 42v2q97 33 97 120q0 58 -49.5 95.5t-135.5 37.5
q-107 0 -173 -40l27 -103q53 30 113 30q72 0 72 -44q0 -25 -25 -37t-59 -12h-52v-101h55q39 0 67 -17t28 -47q0 -27 -23 -41.5t-65 -14.5q-58 0 -126 31z" />
    <glyph glyph-name="uni2779" unicode="&#x2779;" 
d="M500 852q129 0 237.5 -64t171.5 -172.5t63 -235.5q0 -195 -138.5 -333.5t-333.5 -138.5t-333.5 138.5t-138.5 333.5t138.5 333.5t333.5 138.5zM508 118h135v116h59v107h-59v299h-179l-187 -313v-93h231v-116zM508 436v-95h-100v2l53 92q27 54 48 103h3q-4 -72 -4 -102z
" />
    <glyph glyph-name="uni277A" unicode="&#x277a;" 
d="M500 852q129 0 237.5 -64t171.5 -172.5t63 -235.5q0 -195 -138.5 -333.5t-333.5 -138.5t-333.5 138.5t-138.5 333.5t138.5 333.5t333.5 138.5zM670 522v117h-306l-34 -283q44 6 71 6q148 0 148 -76q0 -35 -29 -50.5t-69 -15.5q-68 0 -123 25l-24 -107q64 -29 154 -29
q114 0 176 53t62 131q0 88 -61 131q-56 41 -148 41q-20 0 -32 -1l8 58h207z" />
    <glyph glyph-name="uni277B" unicode="&#x277b;" 
d="M500 852q129 0 237.5 -64t171.5 -172.5t63 -235.5q0 -195 -138.5 -333.5t-333.5 -138.5t-333.5 138.5t-138.5 333.5t138.5 333.5t333.5 138.5zM435 431l-1 1q10 34 35 57.5t55 33t48 12.5t29 3q36 0 53 -2v110q-22 2 -42 2q-88 0 -153 -25.5t-101 -70t-53 -98.5t-17 -118
q0 -97 53 -162t156 -65q89 0 147.5 55t58.5 134q0 76 -48.5 120t-118.5 44q-65 0 -101 -31zM501 213q-34 0 -50.5 26.5t-16.5 62.5q0 23 6 35q18 26 56 26q29 0 47 -19.5t18 -55.5q0 -33 -17 -54t-43 -21z" />
    <glyph glyph-name="uni277C" unicode="&#x277c;" 
d="M500 852q129 0 237.5 -64t171.5 -172.5t63 -235.5q0 -195 -138.5 -333.5t-333.5 -138.5t-333.5 138.5t-138.5 333.5t138.5 333.5t333.5 138.5zM702 639h-389v-118h237v-1l-214 -402h153l213 432v89z" />
    <glyph glyph-name="uni277D" unicode="&#x277d;" 
d="M500 852q129 0 237.5 -64t171.5 -172.5t63 -235.5q0 -195 -138.5 -333.5t-333.5 -138.5t-333.5 138.5t-138.5 333.5t138.5 333.5t333.5 138.5zM615 398v2q72 36 72 112q0 54 -46 95.5t-137 41.5q-86 0 -140.5 -42t-54.5 -108q0 -76 74 -114v-2q-91 -39 -91 -127
q0 -58 52 -102.5t152 -44.5q97 0 154.5 44t57.5 117q0 48 -27 81t-66 47zM500 554q29 0 42.5 -17.5t13.5 -39.5q0 -20 -13.5 -36t-31.5 -20q-66 21 -66 61q0 22 14.5 37t40.5 15zM502 206q-27 0 -45 19t-18 44q0 53 52 66q32 -8 52.5 -27.5t20.5 -46.5q0 -23 -16.5 -39
t-45.5 -16z" />
    <glyph glyph-name="uni277E" unicode="&#x277e;" 
d="M500 852q129 0 237.5 -64t171.5 -172.5t63 -235.5q0 -195 -138.5 -333.5t-333.5 -138.5t-333.5 138.5t-138.5 333.5t138.5 333.5t333.5 138.5zM346 222v-110q22 -2 42 -2q88 0 153 25.5t101 70t53 98.5t17 118q0 97 -53 162t-156 65q-89 0 -147.5 -55t-58.5 -134
q0 -76 48.5 -120t118.5 -44q65 0 101 31l1 -1q-10 -34 -35 -57.5t-55 -33t-48 -12.5t-29 -3q-36 0 -53 2zM499 545q37 0 52 -27.5t15 -60.5q0 -24 -6 -36q-18 -26 -56 -26q-29 0 -47 19.5t-18 55.5q0 33 17 54t43 21z" />
    <glyph glyph-name="uni277F" unicode="&#x277f;" 
d="M500 852q129 0 237.5 -64t171.5 -172.5t63 -235.5q0 -195 -138.5 -333.5t-333.5 -138.5t-333.5 138.5t-138.5 333.5t138.5 333.5t333.5 138.5zM288 510v-374h114v488h-101l-110 -57l21 -93l74 36h2zM651 131q72 0 118.5 65.5t46.5 188.5q0 244 -161 244q-84 0 -127 -72.5
t-43 -180.5q0 -45 8.5 -85.5t26 -78t51.5 -59.5t80 -22zM654 229q-31 0 -43.5 33t-12.5 118q0 151 57 151q27 0 37.5 -36.5t10.5 -114.5q0 -151 -49 -151z" />
    <glyph glyph-name="uni3251" unicode="&#x3251;" 
d="M972 380q0 -129 -64 -237.5t-172.5 -171.5t-235.5 -63q-195 0 -333.5 138.5t-138.5 333.5t138.5 333.5t333.5 138.5t333.5 -138.5t138.5 -333.5zM500 815q-181 0 -308 -128t-127 -307q0 -180 127.5 -307.5t307.5 -127.5t307.5 127.5t127.5 307.5t-127.5 307.5
t-307.5 127.5zM469 139h-259v71l47 64q40 54 57.5 80t33.5 61.5t16 64.5q0 31 -16.5 47.5t-43.5 16.5q-35 0 -69 -21l-14 79q43 26 100 26q42 0 72 -13.5t44.5 -35.5t20.5 -44t6 -46q0 -35 -9 -65.5t-29 -61.5t-35.5 -50t-46.5 -52l-29 -30v-3h154v-88zM642 137v390h-1
l-78 -40l-17 82l105 54h91v-486h-100z" />
    <glyph glyph-name="uni3252" unicode="&#x3252;" 
d="M972 380q0 -129 -64 -237.5t-172.5 -171.5t-235.5 -63q-195 0 -333.5 138.5t-138.5 333.5t138.5 333.5t333.5 138.5t333.5 -138.5t138.5 -333.5zM500 815q-181 0 -308 -128t-127 -307q0 -180 127.5 -307.5t307.5 -127.5t307.5 127.5t127.5 307.5t-127.5 307.5
t-307.5 127.5zM468 139h-258v71l47 64q40 54 57.5 80t33.5 61.5t16 64.5q0 31 -17 47.5t-44 16.5q-34 0 -68 -21l-14 79q43 26 100 26q42 0 72 -13.5t44 -35.5t20 -44t6 -46q0 -45 -19 -89t-39.5 -70t-60.5 -70l-29 -30v-3h153v-88zM796 139h-258v71l47 64q39 53 57.5 80.5
t34 62.5t15.5 65q0 26 -16 44t-45 18q-34 0 -68 -21l-14 79q43 26 100 26q42 0 72 -13.5t44 -35.5t20 -44t6 -46q0 -45 -19.5 -89.5t-39 -69.5t-60.5 -70l-29 -30v-3h153v-88z" />
    <glyph glyph-name="uni3253" unicode="&#x3253;" 
d="M972 380q0 -129 -64 -237.5t-172.5 -171.5t-235.5 -63q-195 0 -333.5 138.5t-138.5 333.5t138.5 333.5t333.5 138.5t333.5 -138.5t138.5 -333.5zM500 815q-181 0 -308 -128t-127 -307q0 -180 127.5 -307.5t307.5 -127.5t307.5 127.5t127.5 307.5t-127.5 307.5
t-307.5 127.5zM468 139h-258v71l47 64q40 54 57.5 80t33.5 61.5t16 64.5q0 31 -17 47.5t-44 16.5q-34 0 -68 -21l-14 79q43 26 100 26q42 0 72 -13.5t44 -35.5t20 -44t6 -46q0 -45 -19 -89t-39.5 -70t-60.5 -70l-29 -30v-3h153v-88zM532 151l11 81q33 -17 74 -17t61 19
t20 44q0 77 -114 77v74q101 0 101 62q0 24 -17 39t-46 15q-34 0 -61 -16l-11 76q42 23 98 23q67 0 102 -35t35 -83q0 -35 -19.5 -63.5t-50.5 -42.5v-2q39 -15 62 -47t23 -76q0 -56 -46 -101.5t-129 -45.5q-55 0 -93 19z" />
    <glyph glyph-name="uni3254" unicode="&#x3254;" 
d="M972 380q0 -129 -64 -237.5t-172.5 -171.5t-235.5 -63q-195 0 -333.5 138.5t-138.5 333.5t138.5 333.5t333.5 138.5t333.5 -138.5t138.5 -333.5zM500 815q-181 0 -308 -128t-127 -307q0 -180 127.5 -307.5t307.5 -127.5t307.5 127.5t127.5 307.5t-127.5 307.5
t-307.5 127.5zM769 137h-89v110h-181v71l168 305h102v-296h46v-80h-46v-110zM589 327h91v114q0 13 6 76h-2q-11 -27 -31 -67l-64 -120v-3zM469 139h-259v71l47 64q40 54 57.5 80t33.5 61.5t16 64.5q0 31 -16.5 47.5t-43.5 16.5q-35 0 -69 -21l-14 79q43 26 100 26
q42 0 72 -13.5t44.5 -35.5t20.5 -44t6 -46q0 -35 -9 -65.5t-29 -61.5t-35.5 -50t-46.5 -52l-29 -30v-3h154v-88z" />
    <glyph glyph-name="uni3255" unicode="&#x3255;" 
d="M972 380q0 -129 -64 -237.5t-172.5 -171.5t-235.5 -63q-195 0 -333.5 138.5t-138.5 333.5t138.5 333.5t333.5 138.5t333.5 -138.5t138.5 -333.5zM500 815q-181 0 -308 -128t-127 -307q0 -180 127.5 -307.5t307.5 -127.5t307.5 127.5t127.5 307.5t-127.5 307.5
t-307.5 127.5zM469 139h-259v71l47 64q40 54 57.5 80t33.5 61.5t16 64.5q0 31 -16.5 47.5t-43.5 16.5q-35 0 -69 -21l-14 79q43 26 100 26q42 0 72 -13.5t44.5 -35.5t20.5 -44t6 -46q0 -35 -9 -65.5t-29 -61.5t-35.5 -50t-46.5 -52l-29 -30v-3h154v-88zM785 621v-88h-129
l-9 -83h16q44 0 87.5 -38t43.5 -108q0 -73 -47.5 -122.5t-127.5 -49.5q-54 0 -90 19l15 80q35 -15 68 -15q42 0 62 21t20 55q0 46 -32 66t-76 20q-23 0 -31 -1l24 244h206z" />
    <glyph glyph-name="uni3256" unicode="&#x3256;" 
d="M972 380q0 -129 -64 -237.5t-172.5 -171.5t-235.5 -63q-195 0 -333.5 138.5t-138.5 333.5t138.5 333.5t333.5 138.5t333.5 -138.5t138.5 -333.5zM500 815q-181 0 -308 -128t-127 -307q0 -180 127.5 -307.5t307.5 -127.5t307.5 127.5t127.5 307.5t-127.5 307.5
t-307.5 127.5zM766 628v-83q-27 -1 -42.5 -4t-37.5 -14t-37.5 -38.5t-25.5 -70.5h2q27 29 68 29q51 0 84 -40t33 -103q0 -65 -40 -118.5t-114 -53.5q-63 0 -100.5 52.5t-37.5 147.5q0 157 93 244q56 52 155 52zM715 293q0 37 -12.5 61.5t-38.5 24.5q-30 0 -39 -21t-9 -69
q0 -40 13.5 -64.5t34.5 -24.5q51 0 51 93zM469 139h-259v71l47 64q40 54 57.5 80t33.5 61.5t16 64.5q0 31 -16.5 47.5t-43.5 16.5q-35 0 -69 -21l-14 79q43 26 100 26q42 0 72 -13.5t44.5 -35.5t20.5 -44t6 -46q0 -35 -9 -65.5t-29 -61.5t-35.5 -50t-46.5 -52l-29 -30v-3
h154v-88z" />
    <glyph glyph-name="uni3257" unicode="&#x3257;" 
d="M972 380q0 -129 -64 -237.5t-172.5 -171.5t-235.5 -63q-195 0 -333.5 138.5t-138.5 333.5t138.5 333.5t333.5 138.5t333.5 -138.5t138.5 -333.5zM500 815q-181 0 -308 -128t-127 -307q0 -180 127.5 -307.5t307.5 -127.5t307.5 127.5t127.5 307.5t-127.5 307.5
t-307.5 127.5zM468 139h-258v71l47 64q40 54 57.5 80t33.5 61.5t16 64.5q0 31 -17 47.5t-44 16.5q-34 0 -68 -21l-14 79q43 26 100 26q42 0 72 -13.5t44 -35.5t20 -44t6 -46q0 -45 -19 -89t-39.5 -70t-60.5 -70l-29 -30v-3h153v-88zM538 621h264v-70l-147 -414h-94l141 393
v3h-164v88z" />
    <glyph glyph-name="uni3258" unicode="&#x3258;" 
d="M591 393v1q-61 36 -61 104q0 58 42.5 92.5t105.5 34.5q52 0 92.5 -31t40.5 -88q0 -68 -69 -105v-2q39 -17 59 -50t20 -75q0 -68 -45.5 -105t-107.5 -37q-63 0 -107.5 34t-44.5 100q0 82 75 127zM677 566q-56 0 -56 -66q0 -56 64 -78q19 10 30 31t11 45q0 68 -49 68z
M671 194q59 0 59 77q0 34 -22 58.5t-52 32.5q-47 -29 -47 -85q0 -35 15.5 -59t46.5 -24zM972 380q0 -129 -64 -237.5t-172.5 -171.5t-235.5 -63q-195 0 -333.5 138.5t-138.5 333.5t138.5 333.5t333.5 138.5t333.5 -138.5t138.5 -333.5zM500 815q-181 0 -308 -128t-127 -307
q0 -180 127.5 -307.5t307.5 -127.5t307.5 127.5t127.5 307.5t-127.5 307.5t-307.5 127.5zM468 139h-258v71l47 64q40 54 57.5 80t33.5 61.5t16 64.5q0 31 -17 47.5t-44 16.5q-34 0 -68 -21l-14 79q43 26 100 26q42 0 72 -13.5t44 -35.5t20 -44t6 -46q0 -45 -19 -89
t-39.5 -70t-60.5 -70l-29 -30v-3h153v-88z" />
    <glyph glyph-name="uni3259" unicode="&#x3259;" 
d="M570 132v83q27 1 42 4t38 14t38.5 38.5t24.5 70.5h-2q-27 -29 -67 -29q-51 0 -84 40t-33 103q0 65 40 118.5t113 53.5q64 0 101.5 -52.5t37.5 -147.5q0 -157 -93 -244q-56 -52 -156 -52zM622 467q0 -37 12.5 -61.5t37.5 -24.5q31 0 40 22t9 68q0 40 -13.5 64.5
t-34.5 24.5q-51 0 -51 -93zM469 139h-259v71l47 64q40 54 57.5 80t33.5 61.5t16 64.5q0 31 -16.5 47.5t-43.5 16.5q-35 0 -69 -21l-14 79q43 26 100 26q42 0 72 -13.5t44.5 -35.5t20.5 -44t6 -46q0 -35 -9 -65.5t-29 -61.5t-35.5 -50t-46.5 -52l-29 -30v-3h154v-88zM972 380
q0 -129 -64 -237.5t-172.5 -171.5t-235.5 -63q-195 0 -333.5 138.5t-138.5 333.5t138.5 333.5t333.5 138.5t333.5 -138.5t138.5 -333.5zM500 815q-181 0 -308 -128t-127 -307q0 -180 127.5 -307.5t307.5 -127.5t307.5 127.5t127.5 307.5t-127.5 307.5t-307.5 127.5z" />
    <glyph glyph-name="uni325A" unicode="&#x325a;" 
d="M972 380q0 -129 -64 -237.5t-172.5 -171.5t-235.5 -63q-195 0 -333.5 138.5t-138.5 333.5t138.5 333.5t333.5 138.5t333.5 -138.5t138.5 -333.5zM500 815q-181 0 -308 -128t-127 -307q0 -180 127.5 -307.5t307.5 -127.5t307.5 127.5t127.5 307.5t-127.5 307.5
t-307.5 127.5zM673 132h-1q-41 0 -71 22t-46 59.5t-23 77.5t-7 85q0 108 38 180t112 72q143 0 143 -243q0 -127 -42 -190t-103 -63zM673 217q24 0 35 35t11 128q0 85 -9.5 124t-35.5 39q-29 0 -39.5 -43.5t-10.5 -130.5q0 -83 12 -117.5t37 -34.5zM212 151l11 81
q27 -17 67 -17q38 0 55.5 19.5t17.5 45.5q0 75 -102 75v74q89 0 89 62q0 24 -15 39t-41 15q-31 0 -54 -16l-10 76q38 23 91 23q64 0 97 -35t33 -83q0 -35 -18.5 -63.5t-48.5 -42.5v-2q38 -15 59.5 -47t21.5 -76q0 -56 -43.5 -101.5t-121.5 -45.5q-52 0 -88 19z" />
    <glyph glyph-name="uni325B" unicode="&#x325b;" 
d="M972 380q0 -129 -64 -237.5t-172.5 -171.5t-235.5 -63q-195 0 -333.5 138.5t-138.5 333.5t138.5 333.5t333.5 138.5t333.5 -138.5t138.5 -333.5zM500 815q-181 0 -308 -128t-127 -307q0 -180 127.5 -307.5t307.5 -127.5t307.5 127.5t127.5 307.5t-127.5 307.5
t-307.5 127.5zM213 151l11 81q27 -17 67 -17q38 0 56 19.5t18 45.5q0 75 -103 75v74q89 0 89 62q0 24 -15 39t-41 15q-31 0 -54 -16l-10 76q38 23 92 23q64 0 96.5 -35t32.5 -83q0 -35 -18.5 -63.5t-48.5 -42.5v-2q38 -15 59.5 -47t21.5 -76q0 -56 -43.5 -101.5
t-121.5 -45.5q-50 0 -88 19zM642 137v390h-1l-78 -40l-17 82l105 54h91v-486h-100z" />
    <glyph glyph-name="uni325C" unicode="&#x325c;" 
d="M972 380q0 -129 -64 -237.5t-172.5 -171.5t-235.5 -63q-195 0 -333.5 138.5t-138.5 333.5t138.5 333.5t333.5 138.5t333.5 -138.5t138.5 -333.5zM500 815q-181 0 -308 -128t-127 -307q0 -180 127.5 -307.5t307.5 -127.5t307.5 127.5t127.5 307.5t-127.5 307.5
t-307.5 127.5zM212 151l11 81q27 -17 67 -17q38 0 55.5 19.5t17.5 45.5q0 75 -102 75v74q89 0 89 62q0 24 -15 39t-41 15q-31 0 -54 -16l-10 76q38 23 91 23q64 0 97 -35t33 -83q0 -35 -18.5 -63.5t-48.5 -42.5v-2q38 -15 59.5 -47t21.5 -76q0 -56 -43.5 -101.5
t-121.5 -45.5q-52 0 -88 19zM794 139h-258v71l47 64q40 54 57.5 80t33.5 61.5t16 64.5q0 31 -17 47.5t-44 16.5q-34 0 -68 -21l-14 79q43 26 100 26q42 0 72 -13.5t44 -35.5t20 -44t6 -46q0 -45 -19 -89t-39.5 -70t-60.5 -70l-29 -30v-3h153v-88z" />
    <glyph glyph-name="uni325D" unicode="&#x325d;" 
d="M972 380q0 -129 -64 -237.5t-172.5 -171.5t-235.5 -63q-195 0 -333.5 138.5t-138.5 333.5t138.5 333.5t333.5 138.5t333.5 -138.5t138.5 -333.5zM500 815q-181 0 -308 -128t-127 -307q0 -180 127.5 -307.5t307.5 -127.5t307.5 127.5t127.5 307.5t-127.5 307.5
t-307.5 127.5zM212 151l11 81q27 -17 67 -17q38 0 55.5 19.5t17.5 45.5q0 75 -102 75v74q89 0 89 62q0 24 -15 39t-41 15q-31 0 -54 -16l-10 76q38 23 91 23q64 0 97 -35t33 -83q0 -35 -18.5 -63.5t-48.5 -42.5v-2q38 -15 59.5 -47t21.5 -76q0 -56 -43.5 -101.5
t-121.5 -45.5q-52 0 -88 19zM530 151l11 81q33 -17 74 -17q42 0 62 19.5t20 45.5q0 75 -115 75v74q101 0 101 62q0 24 -17 39t-46 15q-34 0 -61 -16l-11 76q42 23 98 23q68 0 102.5 -35t34.5 -83q0 -35 -19.5 -63.5t-50.5 -42.5v-2q40 -14 62.5 -46.5t22.5 -76.5
q0 -56 -46 -101.5t-129 -45.5q-53 0 -93 19z" />
    <glyph glyph-name="uni325E" unicode="&#x325e;" 
d="M972 380q0 -129 -64 -237.5t-172.5 -171.5t-235.5 -63q-195 0 -333.5 138.5t-138.5 333.5t138.5 333.5t333.5 138.5t333.5 -138.5t138.5 -333.5zM500 815q-181 0 -308 -128t-127 -307q0 -180 127.5 -307.5t307.5 -127.5t307.5 127.5t127.5 307.5t-127.5 307.5
t-307.5 127.5zM774 137h-89v110h-181v71l168 305h102v-296h46v-80h-46v-110zM593 327h92v114q0 34 6 76h-2q-11 -27 -31 -67l-65 -120v-3zM208 151l10 81q29 -17 67 -17t56 19.5t18 45.5q0 75 -103 75v74q89 0 89 62q0 24 -14.5 39t-40.5 15q-32 0 -55 -16l-10 76
q40 23 92 23q64 0 96.5 -35t32.5 -83q0 -35 -18.5 -63.5t-48.5 -42.5v-2q38 -15 59.5 -47t21.5 -76q0 -56 -43 -101.5t-121 -45.5q-52 0 -88 19z" />
    <glyph glyph-name="uni325F" unicode="&#x325f;" 
d="M972 380q0 -129 -64 -237.5t-172.5 -171.5t-235.5 -63q-195 0 -333.5 138.5t-138.5 333.5t138.5 333.5t333.5 138.5t333.5 -138.5t138.5 -333.5zM500 815q-181 0 -308 -128t-127 -307q0 -180 127.5 -307.5t307.5 -127.5t307.5 127.5t127.5 307.5t-127.5 307.5
t-307.5 127.5zM382 404v-2q38 -15 59.5 -47t21.5 -76q0 -56 -43 -101.5t-121 -45.5q-53 0 -89 19l11 81q27 -17 67 -17q37 0 55 19t18 44q0 77 -102 77v74q89 0 89 62q0 24 -15 39t-41 15q-31 0 -54 -16l-10 76q38 23 92 23q64 0 96.5 -35t32.5 -83q0 -35 -18.5 -63.5
t-48.5 -42.5zM785 621v-88h-129l-9 -83h16q44 0 87.5 -38t43.5 -108q0 -73 -47.5 -122.5t-127.5 -49.5q-54 0 -90 19l15 80q35 -15 68 -15q42 0 62 21t20 55q0 46 -32 66t-76 20q-23 0 -31 -1l24 244h206z" />
    <glyph glyph-name="uni32B1" unicode="&#x32b1;" 
d="M972 380q0 -129 -64 -237.5t-172.5 -171.5t-235.5 -63q-195 0 -333.5 138.5t-138.5 333.5t138.5 333.5t333.5 138.5t333.5 -138.5t138.5 -333.5zM500 815q-181 0 -308 -128t-127 -307q0 -180 127.5 -307.5t307.5 -127.5t307.5 127.5t127.5 307.5t-127.5 307.5
t-307.5 127.5zM773 628v-83q-27 -1 -42.5 -4t-38 -14t-38 -38.5t-25.5 -70.5h2q27 29 68 29q51 0 84 -40t33 -103q0 -65 -40 -118.5t-114 -53.5q-63 0 -100.5 52.5t-37.5 147.5q0 157 93 244q56 52 156 52zM670 200h1q50 0 50 93q0 37 -12.5 61.5t-38.5 24.5
q-16 0 -26.5 -7.5t-15 -22.5t-5.5 -27.5t-1 -32.5q0 -40 13.5 -64.5t34.5 -24.5zM202 151l11 81q27 -17 67 -17q37 0 55 19t18 44q0 77 -102 77v74q89 0 89 62q0 24 -15 39t-41 15q-31 0 -54 -16l-10 76q38 23 92 23q64 0 96.5 -35t32.5 -83q0 -35 -18.5 -63.5t-48.5 -42.5
v-2q38 -15 59.5 -47t21.5 -76q0 -56 -43 -101.5t-121 -45.5q-53 0 -89 19z" />
    <glyph glyph-name="uni32B2" unicode="&#x32b2;" 
d="M972 380q0 -129 -64 -237.5t-172.5 -171.5t-235.5 -63q-195 0 -333.5 138.5t-138.5 333.5t138.5 333.5t333.5 138.5t333.5 -138.5t138.5 -333.5zM500 815q-181 0 -308 -128t-127 -307q0 -180 127.5 -307.5t307.5 -127.5t307.5 127.5t127.5 307.5t-127.5 307.5
t-307.5 127.5zM210 151l11 81q27 -17 67 -17q37 0 55 19t18 44q0 77 -102 77v74q89 0 89 62q0 24 -15 39t-41 15q-31 0 -54 -16l-10 76q38 23 92 23q64 0 96.5 -35t32.5 -83q0 -35 -18.5 -63.5t-48.5 -42.5v-2q38 -15 59.5 -47t21.5 -76q0 -56 -43 -101.5t-121 -45.5
q-53 0 -89 19zM538 621h264v-70l-147 -414h-94l141 393v3h-164v88z" />
    <glyph glyph-name="uni32B3" unicode="&#x32b3;" 
d="M598 393v1q-62 36 -62 104q0 58 42.5 92.5t105.5 34.5q52 0 92.5 -31t40.5 -88q0 -68 -69 -105v-2q39 -17 59 -50t20 -75q0 -68 -45.5 -105t-107.5 -37t-106.5 33.5t-44.5 100.5q0 82 75 127zM684 566q-24 0 -38 -14.5t-16.5 -26.5t-2.5 -25q0 -56 64 -78q19 10 30 31
t11 45q0 68 -48 68zM677 194q59 0 59 77q0 34 -22 58.5t-52 32.5q-47 -29 -47 -85q0 -35 15.5 -59t46.5 -24zM972 380q0 -129 -64 -237.5t-172.5 -171.5t-235.5 -63q-195 0 -333.5 138.5t-138.5 333.5t138.5 333.5t333.5 138.5t333.5 -138.5t138.5 -333.5zM500 815
q-181 0 -308 -128t-127 -307q0 -180 127.5 -307.5t307.5 -127.5t307.5 127.5t127.5 307.5t-127.5 307.5t-307.5 127.5zM202 151l11 81q27 -17 67 -17q37 0 55 19t18 44q0 77 -102 77v74q89 0 89 62q0 24 -15 39t-41 15q-31 0 -54 -16l-10 76q38 23 92 23q64 0 96.5 -35
t32.5 -83q0 -35 -18.5 -63.5t-48.5 -42.5v-2q38 -15 59.5 -47t21.5 -76q0 -56 -43 -101.5t-121 -45.5q-53 0 -89 19z" />
    <glyph glyph-name="uni32B4" unicode="&#x32b4;" 
d="M972 380q0 -129 -64 -237.5t-172.5 -171.5t-235.5 -63q-195 0 -333.5 138.5t-138.5 333.5t138.5 333.5t333.5 138.5t333.5 -138.5t138.5 -333.5zM500 815q-181 0 -308 -128t-127 -307q0 -180 127.5 -307.5t307.5 -127.5t307.5 127.5t127.5 307.5t-127.5 307.5
t-307.5 127.5zM570 132v83q27 1 42 4t38 14t38.5 38.5t24.5 70.5h-2q-27 -29 -67 -29q-51 0 -84 40t-33 103q0 65 40 118.5t113 53.5q64 0 101.5 -52.5t37.5 -147.5q0 -157 -93 -244q-56 -52 -156 -52zM622 467q0 -37 12.5 -61.5t37.5 -24.5q31 0 40 22t9 68
q0 40 -13.5 64.5t-34.5 24.5q-51 0 -51 -93zM210 151l11 81q27 -17 67 -17q37 0 55 19t18 44q0 77 -102 77v74q89 0 89 62q0 24 -15 39t-41 15q-31 0 -54 -16l-10 76q38 23 92 23q64 0 96.5 -35t32.5 -83q0 -35 -18.5 -63.5t-48.5 -42.5v-2q38 -15 59.5 -47t21.5 -76
q0 -56 -43 -101.5t-121 -45.5q-53 0 -89 19z" />
    <glyph glyph-name="uni32B5" unicode="&#x32b5;" 
d="M972 380q0 -129 -64 -237.5t-172.5 -171.5t-235.5 -63q-195 0 -333.5 138.5t-138.5 333.5t138.5 333.5t333.5 138.5t333.5 -138.5t138.5 -333.5zM500 815q-181 0 -308 -128t-127 -307q0 -180 127.5 -307.5t307.5 -127.5t307.5 127.5t127.5 307.5t-127.5 307.5
t-307.5 127.5zM418 137h-89v110h-181v71l168 305h102v-296h46v-80h-46v-110zM237 327h92v114q0 34 6 76h-2q-11 -27 -31 -67l-65 -120v-3zM673 132q-42 0 -72.5 22.5t-46 60t-22.5 77.5t-7 85q0 109 38 180t112 71q143 0 143 -245q0 -124 -40.5 -187.5t-104.5 -63.5z
M674 217q24 0 34.5 39t10.5 124q0 83 -10 123t-35 40q-50 0 -50 -173q0 -60 7 -95t17.5 -46.5t25.5 -11.5z" />
    <glyph glyph-name="uni32B6" unicode="&#x32b6;" 
d="M972 380q0 -129 -64 -237.5t-172.5 -171.5t-235.5 -63q-195 0 -333.5 138.5t-138.5 333.5t138.5 333.5t333.5 138.5t333.5 -138.5t138.5 -333.5zM500 815q-181 0 -308 -128t-127 -307q0 -180 127.5 -307.5t307.5 -127.5t307.5 127.5t127.5 307.5t-127.5 307.5
t-307.5 127.5zM426 137h-89v110h-181v71l168 305h102v-296h46v-80h-46v-110zM245 327h92v114q0 34 6 76h-2q-11 -27 -31 -67l-65 -120v-3zM644 137v390h-1l-78 -40l-17 82l105 54h92v-486h-101z" />
    <glyph glyph-name="uni32B7" unicode="&#x32b7;" 
d="M972 380q0 -129 -64 -237.5t-172.5 -171.5t-235.5 -63q-195 0 -333.5 138.5t-138.5 333.5t138.5 333.5t333.5 138.5t333.5 -138.5t138.5 -333.5zM500 815q-181 0 -308 -128t-127 -307q0 -180 127.5 -307.5t307.5 -127.5t307.5 127.5t127.5 307.5t-127.5 307.5
t-307.5 127.5zM418 137h-89v110h-181v71l168 305h102v-296h46v-80h-46v-110zM237 327h92v114q0 34 6 76h-2q-11 -27 -31 -67l-65 -120v-3zM796 139h-258v71l47 64q39 53 57.5 80.5t34 62.5t15.5 65q0 26 -16 44t-45 18q-34 0 -68 -21l-14 79q43 26 100 26q42 0 72 -13.5
t44 -35.5t20 -44t6 -46q0 -45 -19.5 -89.5t-39 -69.5t-60.5 -70l-29 -30v-3h153v-88z" />
    <glyph glyph-name="uni32B8" unicode="&#x32b8;" 
d="M972 380q0 -129 -64 -237.5t-172.5 -171.5t-235.5 -63q-195 0 -333.5 138.5t-138.5 333.5t138.5 333.5t333.5 138.5t333.5 -138.5t138.5 -333.5zM500 815q-181 0 -308 -128t-127 -307q0 -180 127.5 -307.5t307.5 -127.5t307.5 127.5t127.5 307.5t-127.5 307.5
t-307.5 127.5zM425 137h-89v110h-181v71l168 305h102v-296h46v-80h-46v-110zM244 327h92v114q0 34 6 76h-2q-11 -27 -31 -67l-65 -120v-3zM539 151l11 81q33 -17 74 -17t61 19t20 44q0 77 -114 77v74q101 0 101 62q0 24 -17 39t-46 15q-34 0 -61 -16l-11 76q42 23 98 23
q67 0 102 -35t35 -83q0 -35 -19.5 -63.5t-50.5 -42.5v-2q39 -15 62 -47t23 -76q0 -56 -46 -101.5t-129 -45.5q-55 0 -93 19z" />
    <glyph glyph-name="uni32B9" unicode="&#x32b9;" 
d="M418 137h-89v110h-181v71l168 305h102v-296h46v-80h-46v-110zM776 137h-90v110h-180v71l167 305h103v-296h45v-80h-45v-110zM237 327h92v114q0 34 6 76h-2q-11 -27 -31 -67l-65 -120v-3zM595 327h91v114q0 27 7 76h-3q-16 -40 -31 -67l-64 -120v-3zM972 380
q0 -129 -64 -237.5t-172.5 -171.5t-235.5 -63q-195 0 -333.5 138.5t-138.5 333.5t138.5 333.5t333.5 138.5t333.5 -138.5t138.5 -333.5zM500 815q-181 0 -308 -128t-127 -307q0 -180 127.5 -307.5t307.5 -127.5t307.5 127.5t127.5 307.5t-127.5 307.5t-307.5 127.5z" />
    <glyph glyph-name="uni32BA" unicode="&#x32ba;" 
d="M972 380q0 -129 -64 -237.5t-172.5 -171.5t-235.5 -63q-195 0 -333.5 138.5t-138.5 333.5t138.5 333.5t333.5 138.5t333.5 -138.5t138.5 -333.5zM500 815q-181 0 -308 -128t-127 -307q0 -180 127.5 -307.5t307.5 -127.5t307.5 127.5t127.5 307.5t-127.5 307.5
t-307.5 127.5zM426 137h-89v110h-181v71l168 305h102v-296h46v-80h-46v-110zM245 327h92v114q0 34 6 76h-2q-11 -27 -31 -67l-65 -120v-3zM784 621v-88h-130l-8 -83h16q42 0 86 -38t44 -108q0 -73 -47.5 -122.5t-127.5 -49.5q-55 0 -89 19l14 80q35 -15 68 -15
q41 0 61.5 20.5t20.5 52.5q0 47 -30 68t-78 21q-23 0 -31 -1l24 244h207z" />
    <glyph glyph-name="uni32BB" unicode="&#x32bb;" 
d="M972 380q0 -129 -64 -237.5t-172.5 -171.5t-235.5 -63q-195 0 -333.5 138.5t-138.5 333.5t138.5 333.5t333.5 138.5t333.5 -138.5t138.5 -333.5zM500 815q-181 0 -308 -128t-127 -307q0 -180 127.5 -307.5t307.5 -127.5t307.5 127.5t127.5 307.5t-127.5 307.5
t-307.5 127.5zM771 628v-83q-27 -1 -42.5 -4t-38 -14t-38 -38.5t-25.5 -70.5h2q29 29 69 29q50 0 83 -40t33 -103q0 -65 -40 -118.5t-113 -53.5q-63 0 -101 52.5t-38 147.5q0 157 93 244q56 52 156 52zM719 293q0 37 -12.5 61.5t-38.5 24.5q-16 0 -26.5 -7.5t-15 -22.5
t-5.5 -27.5t-1 -32.5q0 -40 13.5 -64.5t34.5 -24.5q8 0 14 2t16 9.5t15.5 28.5t5.5 53zM418 137h-89v110h-181v71l168 305h102v-296h46v-80h-46v-110zM237 327h92v114q0 34 6 76h-2q-11 -27 -31 -67l-65 -120v-3z" />
    <glyph glyph-name="uni32BC" unicode="&#x32bc;" 
d="M972 380q0 -129 -64 -237.5t-172.5 -171.5t-235.5 -63q-195 0 -333.5 138.5t-138.5 333.5t138.5 333.5t333.5 138.5t333.5 -138.5t138.5 -333.5zM500 815q-181 0 -308 -128t-127 -307q0 -180 127.5 -307.5t307.5 -127.5t307.5 127.5t127.5 307.5t-127.5 307.5
t-307.5 127.5zM425 137h-89v110h-181v71l167 305h103v-296h45v-80h-45v-110zM244 327h92v114q0 34 6 76h-3q-11 -30 -31 -67l-64 -120v-3zM537 621h263v-70l-147 -414h-94l141 393v3h-163v88z" />
    <glyph glyph-name="uni32BD" unicode="&#x32bd;" 
d="M598 393v1q-62 36 -62 104q0 58 42.5 92.5t105.5 34.5q52 0 92.5 -31t40.5 -88q0 -68 -69 -105v-2q39 -17 59 -50t20 -75q0 -68 -45.5 -105t-107.5 -37t-106.5 33.5t-44.5 100.5q0 82 75 127zM684 566q-24 0 -38 -14.5t-16.5 -26.5t-2.5 -25q0 -56 64 -78q19 10 30 31
t11 45q0 68 -48 68zM677 194q59 0 59 77q0 34 -22 58.5t-52 32.5q-47 -29 -47 -85q0 -35 15.5 -59t46.5 -24zM972 380q0 -129 -64 -237.5t-172.5 -171.5t-235.5 -63q-195 0 -333.5 138.5t-138.5 333.5t138.5 333.5t333.5 138.5t333.5 -138.5t138.5 -333.5zM500 815
q-181 0 -308 -128t-127 -307q0 -180 127.5 -307.5t307.5 -127.5t307.5 127.5t127.5 307.5t-127.5 307.5t-307.5 127.5zM418 137h-89v110h-181v71l168 305h102v-296h46v-80h-46v-110zM237 327h92v114q0 34 6 76h-2q-11 -27 -31 -67l-65 -120v-3z" />
    <glyph glyph-name="uni32BE" unicode="&#x32be;" 
d="M972 380q0 -129 -64 -237.5t-172.5 -171.5t-235.5 -63q-195 0 -333.5 138.5t-138.5 333.5t138.5 333.5t333.5 138.5t333.5 -138.5t138.5 -333.5zM500 815q-181 0 -308 -128t-127 -307q0 -180 127.5 -307.5t307.5 -127.5t307.5 127.5t127.5 307.5t-127.5 307.5
t-307.5 127.5zM424 137h-89v110h-181v71l168 305h102v-296h46v-80h-46v-110zM243 327h92v114q0 34 6 76h-2q-11 -27 -31 -67l-65 -120v-3zM574 132v83q26 1 41.5 4t38.5 14t39 38.5t25 70.5h-2q-27 -29 -68 -29q-50 0 -83 40t-33 103q0 65 39.5 118.5t112.5 53.5
q64 0 102 -52.5t38 -147.5q0 -157 -93 -244q-58 -52 -157 -52zM627 467q0 -37 12.5 -61.5t37.5 -24.5q30 0 39.5 22.5t9.5 67.5q0 40 -14 64.5t-35 24.5q-50 0 -50 -93z" />
    <glyph glyph-name="uni32BF" unicode="&#x32bf;" 
d="M972 380q0 -129 -64 -237.5t-172.5 -171.5t-235.5 -63q-195 0 -333.5 138.5t-138.5 333.5t138.5 333.5t333.5 138.5t333.5 -138.5t138.5 -333.5zM500 815q-181 0 -308 -128t-127 -307q0 -180 127.5 -307.5t307.5 -127.5t307.5 127.5t127.5 307.5t-127.5 307.5
t-307.5 127.5zM679 132q-42 0 -72 22t-46 59.5t-23 77.5t-7 85q0 108 38.5 180t112.5 72q143 0 143 -243q0 -127 -42.5 -190t-103.5 -63zM679 217q24 0 35.5 35t11.5 128q0 84 -10 123.5t-36 39.5t-38 -37.5t-12 -125.5q0 -90 11.5 -126.5t37.5 -36.5zM455 621v-88h-129
l-9 -83h16q43 0 87 -38.5t44 -107.5q0 -73 -47.5 -122.5t-127.5 -49.5q-56 0 -90 19l14 80q37 -15 69 -15q42 0 62 21t20 55q0 46 -32 66t-76 20q-23 0 -31 -1l24 244h206z" />
    </font>
</defs>
</svg>
