<?xml version="1.0" standalone="no"?>
<!DOCTYPE svg PUBLIC "-//W3C//DTD SVG 1.1//EN" "http://www.w3.org/Graphics/SVG/1.1/DTD/svg11.dtd" >
<svg xmlns="http://www.w3.org/2000/svg" xmlns:xlink="http://www.w3.org/1999/xlink" version="1.1">
<metadata>
Created by FontForge 20170731 at Fri Mar  2 05:25:38 2012
 By Aleksey,,,
Copyright (c) 2011 by Daniel hernndez. All rights reserved.
</metadata>
<defs>
<font id="Sanchez-Regular" horiz-adv-x="613" >
  <font-face 
    font-family="Sanchez Regular"
    font-weight="400"
    font-stretch="normal"
    units-per-em="1000"
    panose-1="2 0 0 0 0 0 0 0 0 0"
    ascent="750"
    descent="-250"
    x-height="492"
    cap-height="718"
    bbox="-42.0625 -274 1054 1003.76"
    underline-thickness="50"
    underline-position="-200"
    unicode-range="U+0020-FB02"
  />
<missing-glyph horiz-adv-x="313" 
 />
    <glyph glyph-name="ff" unicode="ff" horiz-adv-x="753" 
d="M279 0h-226q-13 0 -13 12v43q0 12 13 12h55v358h-57q-13 0 -13 12v43q0 12 13 12h57v62q0 83 42.5 126.5t118.5 43.5q56 0 101 -40q10 -9 3 -17l-24 -31q-9 -9 -17 -2q-24 19 -55 19q-41 0 -63.5 -25.5t-22.5 -74.5v-61h283v62q0 83 42.5 126.5t118.5 43.5q56 0 101 -40
q10 -9 3 -17l-24 -31q-9 -9 -17 -2q-24 19 -55 19q-41 0 -63.5 -25.5t-22.5 -74.5v-61h128q13 0 13 -12v-43q0 -12 -13 -12h-128v-358h88q12 0 12 -12v-43q0 -12 -12 -12h-226q-13 0 -13 12v43q0 12 13 12h55v358h-283v-358h88q12 0 12 -12v-43q0 -12 -12 -12z" />
    <glyph glyph-name="fi" unicode="fi" horiz-adv-x="665" 
d="M279 0h-226q-13 0 -13 12v43q0 12 13 12h55v358h-57q-13 0 -13 12v43q0 12 13 12h57v62q0 83 42.5 126.5t118.5 43.5q56 0 101 -40q10 -9 3 -17l-24 -31q-9 -9 -17 -2q-24 19 -55 19q-41 0 -63.5 -25.5t-22.5 -74.5v-61h358q12 0 12 -12v-413h53q13 0 13 -12v-43
q0 -12 -13 -12h-191q-13 0 -13 12v43q0 12 13 12h55v358h-287v-358h88q12 0 12 -12v-43q0 -12 -12 -12zM574 600q0 -23 -16.5 -39t-39.5 -16t-39.5 16t-16.5 39t16.5 40t39.5 17t39.5 -17t16.5 -40z" />
    <glyph glyph-name="fl" unicode="fl" horiz-adv-x="680" 
d="M279 0h-226q-13 0 -13 12v43q0 12 13 12h55v358h-57q-13 0 -13 12v43q0 12 13 12h57v62q0 83 42.5 126.5t118.5 43.5q56 0 101 -40q10 -9 3 -17l-24 -31q-9 -9 -17 -2q-24 19 -55 19q-41 0 -63.5 -25.5t-22.5 -74.5v-61h128q13 0 13 -12v-43q0 -12 -13 -12h-128v-358h88
q12 0 12 -12v-43q0 -12 -12 -12zM629 0h-191q-13 0 -13 12v43q0 12 13 12h55v584h-55q-13 0 -13 12v43q0 12 13 12h111q27 0 27 -25v-626h53q13 0 13 -12v-43q0 -12 -13 -12z" />
    <glyph glyph-name=".notdef" horiz-adv-x="313" 
 />
    <glyph glyph-name=".notdef" horiz-adv-x="313" 
 />
    <glyph glyph-name=".null" horiz-adv-x="0" 
 />
    <glyph glyph-name="nonmarkingreturn" horiz-adv-x="333" 
 />
    <glyph glyph-name="space" unicode=" " horiz-adv-x="313" 
 />
    <glyph glyph-name="exclam" unicode="!" horiz-adv-x="182" 
d="M121 148h-60q-12 0 -12 12v588q0 12 12 12h60q12 0 12 -12v-588q0 -12 -12 -12zM144 4q0 -22 -15 -37.5t-38 -15.5q-22 0 -37.5 15.5t-15.5 37.5t15.5 37.5t37.5 15.5q23 0 38 -15.5t15 -37.5z" />
    <glyph glyph-name="quotedbl" unicode="&#x22;" horiz-adv-x="278" 
d="M90 561h-34q-13 0 -13 13l-5 163q0 13 14 13h43q15 0 13 -13l-5 -163q0 -13 -13 -13zM222 561h-34q-13 0 -13 13l-5 163q0 13 13 13h44q15 0 13 -13l-5 -163q0 -13 -13 -13z" />
    <glyph glyph-name="numbersign" unicode="#" horiz-adv-x="612" 
d="M507 112h-98l-31 -107q-3 -12 -15 -12h-49q-14 0 -9 12l30 107h-130l-31 -107q-3 -12 -16 -12h-49q-12 0 -9 12l31 107h-80q-13 0 -13 12v37q0 12 13 12h97l36 126h-79q-12 0 -12 13v36q0 13 12 13h97l32 109q3 13 16 13h50q11 0 8 -13l-32 -109h131l32 109q3 13 16 13
h49q13 0 8 -13l-31 -109h80q13 0 13 -13v-36q0 -13 -13 -13h-98l-37 -126h81q12 0 12 -12v-37q0 -12 -12 -12zM352 173l37 126h-131l-36 -126h130z" />
    <glyph glyph-name="dollar" unicode="$" horiz-adv-x="646" 
d="M361 -86h-54q-12 0 -12 12v75q-67 9 -110.5 40.5t-65.5 68.5h-2l2 -67q1 -12 -12 -12h-56q-13 0 -13 12v188q0 12 13 12h63q12 0 12 -12v-6q1 -10 12.5 -32t34.5 -50t67.5 -48.5t99.5 -20.5q77 0 120.5 32t43.5 89q0 35 -24.5 60t-63.5 39t-86.5 25.5t-95 26.5
t-86.5 35.5t-63.5 58.5t-24.5 90q0 81 60 135.5t163 58.5v69q0 12 12 12h54q12 0 12 -12v-79q86 -12 131 -69l-2 39q0 12 13 12h56q12 0 12 -12v-181q0 -12 -12 -12h-63q-12 0 -12 12v13q-1 18 -11 38t-29.5 40.5t-56 34t-84.5 13.5q-66 0 -106.5 -31.5t-40.5 -80.5
q0 -38 25 -64.5t65 -41t88 -27t96 -27t88 -34t65 -55.5t25 -86q0 -85 -58.5 -141t-176.5 -60v-68q0 -12 -12 -12z" />
    <glyph glyph-name="percent" unicode="%" horiz-adv-x="753" 
d="M183 359q-68 0 -106.5 50.5t-38.5 134.5q0 79 39.5 129.5t105.5 50.5q67 0 105.5 -50t38.5 -130q0 -84 -38 -134.5t-106 -50.5zM183 414q40 0 62.5 33.5t22.5 94.5t-22 94t-63 33t-63 -33t-22 -94t22.5 -94.5t62.5 -33.5zM571 -7q-68 0 -106.5 50.5t-38.5 134.5
q0 80 39 130t106 50q66 0 105 -50t39 -130q0 -84 -38 -134.5t-106 -50.5zM571 48q40 0 62 33.5t22 94.5t-22 94t-62 33q-41 0 -63 -33t-22 -94t22.5 -94.5t62.5 -33.5zM276 -74h-60q-12 0 -9 12l243 810q3 12 16 12h59q12 0 9 -12l-243 -810q-3 -12 -15 -12z" />
    <glyph glyph-name="ampersand" unicode="&#x26;" horiz-adv-x="674" 
d="M603 0h-81q-21 0 -48 37l-21 30q-71 -74 -180 -74q-114 0 -175 61.5t-61 140.5q0 47 16.5 84t46.5 62t53 38.5t55 26.5q-68 79 -68 155t47.5 119.5t119.5 43.5q68 0 116.5 -40t48.5 -117q0 -67 -41.5 -109t-111.5 -77l133 -189q26 53 26 150q0 12 13 12h132q12 0 12 -12
v-37q0 -12 -12 -12h-74q-4 -90 -49 -168l40 -56h63q13 0 13 -12v-45q0 -12 -13 -12zM410 126l-158 221q-23 -10 -38.5 -19t-39 -27.5t-36 -45t-12.5 -58.5q0 -59 43 -95t105 -36q86 0 136 60zM279 435q27 12 42.5 20.5t35.5 24t29.5 36.5t9.5 48q0 37 -22.5 62.5t-62.5 25.5
q-41 0 -66 -25t-25 -67q0 -53 59 -125z" />
    <glyph glyph-name="quotesingle" unicode="'" horiz-adv-x="147" 
d="M90 561h-34q-13 0 -13 13l-5 163q0 13 14 13h43q13 0 13 -13l-5 -163q0 -13 -13 -13z" />
    <glyph glyph-name="parenleft" unicode="(" horiz-adv-x="412" 
d="M373 -2v-51q0 -13 -13 -13q-58 0 -114 25.5t-103 74.5t-76 131.5t-29 185.5t29 184.5t76 130.5t103 74t114 25q13 0 13 -13v-51q0 -13 -13 -13q-41 0 -82 -21t-77 -60.5t-58 -107t-22 -151.5q0 -85 22.5 -152.5t58.5 -106t76.5 -58.5t81.5 -20q13 0 13 -13z" />
    <glyph glyph-name="parenright" unicode=")" horiz-adv-x="412" 
d="M38 -53v50q0 14 14 14q41 0 81.5 19.5t76.5 58.5t58.5 106t22.5 152q0 84 -22 151.5t-58 107t-77 60.5t-82 21q-14 0 -14 13v51q0 13 14 13q58 0 113.5 -25t103 -73.5t76 -130.5t28.5 -185t-28.5 -185.5t-76 -131.5t-103 -74.5t-113.5 -25.5q-14 0 -14 14z" />
    <glyph glyph-name="asterisk" unicode="*" horiz-adv-x="413" 
d="M223 420h-34q-6 0 -10 4t-3 9l11 113l-68 -89q-10 -11 -20 -1l-23 24q-11 11 0 20l91 69l-115 -12q-6 -1 -10 3t-4 10v34q0 6 4 10t10 3l114 -14l-91 72q-11 9 0 19l24 24q11 9 19 0l71 -89l-13 113q-1 5 3 9t10 4h34q6 0 10 -3.5t3 -9.5l-11 -114l69 90q10 11 19 0
l24 -23q11 -11 -1 -20l-89 -73l113 16q6 1 10 -3t4 -10v-34q0 -14 -14 -14l-111 11l88 -68q9 -8 0 -19l-24 -24q-9 -11 -19 0l-71 87l13 -111q1 -6 -3 -9.5t-10 -3.5z" />
    <glyph glyph-name="plus" unicode="+" horiz-adv-x="401" 
d="M231 96h-58q-12 0 -12 13v107h-109q-14 0 -14 13v51q0 13 14 13h109v110q0 12 12 12h58q12 0 12 -12v-110h106q13 0 13 -13v-51q0 -13 -13 -13h-106v-107q0 -13 -12 -13z" />
    <glyph glyph-name="comma" unicode="," horiz-adv-x="159" 
d="M45 -90v17q0 6 7 6q16 0 28.5 13.5t12.5 39.5l-2 12q-6 -5 -19 -5q-18 0 -31 12.5t-13 33.5q0 20 14 33.5t34 13.5q26 0 40.5 -19t14.5 -54q0 -56 -22 -82t-57 -26q-7 0 -7 5z" />
    <glyph glyph-name="hyphen" unicode="-" horiz-adv-x="414" 
d="M363 222h-311q-14 0 -14 13v51q0 13 14 13h311q13 0 13 -13v-51q0 -13 -13 -13z" />
    <glyph glyph-name="period" unicode="." horiz-adv-x="151" 
d="M123 40q0 -20 -13.5 -33.5t-33.5 -13.5t-34 13.5t-14 33.5t14 33.5t34 13.5t33.5 -13.5t13.5 -33.5z" />
    <glyph glyph-name="slash" unicode="/" horiz-adv-x="405" 
d="M108 -74h-60q-12 0 -9 12l242 810q5 12 17 12h59q13 0 8 -12l-242 -810q-3 -12 -15 -12z" />
    <glyph glyph-name="zero" unicode="0" horiz-adv-x="654" 
d="M327 -7q-136 0 -212.5 101t-76.5 269q0 160 78 260.5t211 100.5t211 -100.5t78 -260.5q0 -167 -76.5 -268.5t-212.5 -101.5zM327 74q92 0 144 74.5t52 211.5q0 133 -52.5 209t-143.5 76t-143.5 -76t-52.5 -209q0 -136 52 -211t144 -75z" />
    <glyph glyph-name="one" unicode="1" horiz-adv-x="508" 
d="M458 0h-395q-13 0 -13 12v51q0 12 13 12h162v549l-138 -99q-10 -7 -17 3l-28 41q-8 9 3 17l174 125q10 7 18 7h63q12 0 12 -12v-631h146q12 0 12 -12v-51q0 -12 -12 -12z" />
    <glyph glyph-name="two" unicode="2" horiz-adv-x="602" 
d="M551 0h-500q-13 0 -13 12v31q0 60 23.5 108t61 78.5t82.5 55.5t90 46.5t82.5 44.5t61 55.5t23.5 73.5q0 58 -44.5 98.5t-113.5 40.5q-83 0 -126 -41t-43 -104q0 -12 -13 -12h-65q-12 0 -12 12q0 93 65.5 159t193.5 66q115 0 181.5 -62.5t66.5 -150.5q0 -60 -30 -108
t-75 -76.5t-98 -57t-99 -52t-78.5 -60.5t-35.5 -82h340v72q0 12 12 12h63q13 0 13 -12v-135q0 -12 -13 -12z" />
    <glyph glyph-name="three" unicode="3" horiz-adv-x="590" 
d="M407 378v-1q15 0 36.5 -8.5t47 -27t43 -56t17.5 -86.5q0 -93 -73 -149.5t-192 -56.5q-30 0 -57.5 4.5t-48 11.5t-40.5 17.5t-32.5 19.5t-25.5 20.5t-19 18.5t-13 16l-7 9q-10 8 0 17l43 40q8 8 18 0l16 -17q15 -16 20.5 -21t24 -19t33 -19.5t38.5 -11t50 -5.5
q80 0 127.5 37t47.5 99q0 127 -172 127h-40q-12 0 -12 13v45q0 13 12 13h32q25 0 49 4.5t50 16.5t42 36.5t16 59.5q0 51 -37 85t-110 34q-66 0 -100.5 -35.5t-34.5 -80.5q0 -12 -12 -12h-61q-12 0 -12 12q0 89 60 142.5t160 53.5q118 0 178 -58.5t60 -132.5
q0 -70 -46 -112.5t-76 -42.5z" />
    <glyph glyph-name="four" unicode="4" horiz-adv-x="608" 
d="M557 0h-288q-12 0 -12 12v51q0 12 12 12h115v150h-333q-12 0 -12 13v40q0 14 13 32l312 385q18 23 37 23h57q13 0 13 -12v-411h79q13 0 13 -13v-44q0 -13 -13 -13h-79v-150h86q13 0 13 -12v-51q0 -12 -13 -12zM384 295v315l-255 -315h255z" />
    <glyph glyph-name="five" unicode="5" horiz-adv-x="590" 
d="M286 -7q-26 0 -50.5 3.5t-44.5 10t-37.5 13.5t-32 17t-25.5 18t-20.5 18t-15 16t-11 13t-6.5 8q-10 8 0 17l43 40q8 8 18 0q2 -2 15.5 -17t20 -21t24 -19t33 -19t39 -11.5t50.5 -5.5q83 0 129.5 42t46.5 119q0 72 -47.5 115.5t-128.5 43.5q-34 0 -67 -6t-68.5 -16.5
t-39.5 -11.5q-27 -5 -27 24v324q0 12 12 12h401q12 0 12 -12v-130q0 -12 -12 -12h-64q-12 0 -12 12v67h-249v-203q1 0 14.5 4t28 7t39.5 6t50 3q119 0 183.5 -63t64.5 -168q0 -109 -72.5 -173.5t-193.5 -64.5z" />
    <glyph glyph-name="six" unicode="6" 
d="M535 523h-60q-13 0 -13 12q0 40 -34.5 75t-100.5 35q-86 0 -135 -61t-58 -173q81 51 195 51q118 0 182 -63t64 -168q0 -104 -71 -171t-190 -67q-131 0 -203.5 98t-72.5 262q0 172 74 271.5t215 99.5q100 0 160.5 -52.5t60.5 -136.5q0 -12 -13 -12zM131 339
q2 -127 49.5 -196t132.5 -69q80 0 126 44.5t46 116.5t-47 115.5t-127 43.5q-98 0 -180 -55z" />
    <glyph glyph-name="seven" unicode="7" horiz-adv-x="598" 
d="M301 0h-63q-12 0 -12 12q0 122 24 212t58 141t68.5 91t59.5 87.5t27 105.5h-337v-72q0 -12 -12 -12h-63q-13 0 -13 12v135q0 12 13 12h496q12 0 12 -12v-33q0 -54 -13.5 -99t-35.5 -78.5t-48 -66.5t-52 -72t-47.5 -84.5t-35 -114t-13.5 -151.5q0 -13 -13 -13z" />
    <glyph glyph-name="eight" unicode="8" horiz-adv-x="608" 
d="M430 387v-1q14 0 35 -9t46 -28t42 -57t17 -87q0 -93 -73.5 -152.5t-191.5 -59.5q-119 0 -193 59t-74 153q0 49 17 87t41.5 57t46 28t35.5 9v1q-30 0 -73 39.5t-43 109.5q0 74 60 130.5t182 57.5q122 0 182 -57t60 -131q0 -37 -14.5 -68t-35 -47.5t-38 -25t-28.5 -8.5z
M317 345h-26q-78 0 -120.5 -35.5t-42.5 -99.5q0 -62 48 -99t128 -37t127.5 37.5t47.5 98.5q0 63 -42.5 99t-119.5 36zM456 527q0 50 -39.5 83.5t-112.5 33.5t-112.5 -33.5t-39.5 -83.5q0 -35 15 -60t39.5 -36.5t48 -16.5t47.5 -5q26 0 50 5t49 16.5t40 36.5t15 60z" />
    <glyph glyph-name="nine" unicode="9" horiz-adv-x="612" 
d="M77 194h61q12 0 12 -12q0 -40 34.5 -75t101.5 -35q86 0 134.5 61t57.5 173q-81 -51 -194 -51q-119 0 -182.5 62.5t-63.5 168.5q0 104 71 171t190 67q131 0 202.5 -98t71.5 -262q0 -170 -75 -270.5t-212 -100.5q-100 0 -160.5 52.5t-60.5 136.5q0 12 12 12zM482 378
q-2 127 -49.5 196t-132.5 69q-80 0 -126 -44.5t-46 -116.5t47 -115.5t127 -43.5q98 0 180 55z" />
    <glyph glyph-name="colon" unicode=":" horiz-adv-x="171" 
d="M133 40q0 -20 -14 -33.5t-34 -13.5t-33.5 13.5t-13.5 33.5t14 33.5t33 13.5q20 0 34 -13.5t14 -33.5zM133 440q0 -20 -14 -33.5t-34 -13.5q-19 0 -33 13.5t-14 33.5t13.5 34t33.5 14t34 -14t14 -34z" />
    <glyph glyph-name="semicolon" unicode=";" horiz-adv-x="179" 
d="M134 440q0 -20 -14 -33.5t-34 -13.5t-33.5 13.5t-13.5 33.5t13.5 34t33.5 14t34 -14t14 -34zM55 -90v17q0 6 6 6q16 0 28.5 13.5t12.5 39.5l-2 12q-5 -5 -19 -5q-18 0 -30.5 13t-12.5 33t13.5 33.5t33.5 13.5q26 0 41 -19t15 -54q0 -56 -22.5 -82t-57.5 -26q-6 0 -6 5z
" />
    <glyph glyph-name="less" unicode="&#x3c;" horiz-adv-x="438" 
d="M387 66l-335 160q-14 6 -14 19v18q0 13 14 19l335 161q13 5 13 -8v-43q0 -14 -13 -20l-247 -118l247 -118q13 -5 13 -19v-43q0 -13 -13 -8z" />
    <glyph glyph-name="equal" unicode="=" horiz-adv-x="423" 
d="M372 335h-320q-14 0 -14 14v50q0 14 14 14h320q13 0 13 -14v-50q0 -14 -13 -14zM372 100h-320q-14 0 -14 13v51q0 13 14 13h320q13 0 13 -13v-51q0 -13 -13 -13z" />
    <glyph glyph-name="greater" unicode="&#x3e;" horiz-adv-x="438" 
d="M400 263v-18q0 -13 -13 -19l-335 -160q-14 -5 -14 8v43q0 14 14 19l246 118l-246 118q-14 7 -14 20v43q0 13 14 8l335 -161q13 -6 13 -19z" />
    <glyph glyph-name="question" unicode="?" horiz-adv-x="582" 
d="M303 127h-69q-13 0 -13 12q0 63 24 112t58 79t68 55.5t58 57.5t24 70q0 59 -44 95t-120 36q-81 0 -121.5 -40t-41.5 -105q0 -12 -12 -12h-63q-13 0 -13 12q0 94 61.5 159.5t189.5 65.5q120 0 187.5 -58t67.5 -146q0 -48 -17 -86.5t-42 -61.5t-55 -48.5t-55 -47.5
t-42 -57.5t-17 -79.5q0 -12 -13 -12zM322 4q0 -22 -15 -37.5t-38 -15.5q-22 0 -37.5 15.5t-15.5 37.5t15.5 37.5t37.5 15.5q23 0 38 -15.5t15 -37.5z" />
    <glyph glyph-name="at" unicode="@" horiz-adv-x="783" 
d="M609 -27l16 -35q5 -11 -6 -16q-10 -5 -28 -13t-77 -21.5t-122 -13.5q-151 0 -252.5 101.5t-101.5 254.5q0 162 115 278.5t273 116.5q147 0 233 -78.5t86 -193.5q0 -131 -68 -203t-153 -72h-20q-23 0 -32.5 8.5t-6.5 29.5l3 25q0 -3 -11 -17.5t-37 -31.5t-56 -17
q-60 0 -102 41.5t-42 128.5q0 93 57.5 151t137.5 58q67 0 90 -46l4 25q2 11 13 11h30q12 0 10 -12l-38 -295h22q53 0 94 56.5t41 157.5q0 92 -69.5 149.5t-185.5 57.5q-135 0 -226.5 -98.5t-91.5 -229.5q0 -126 82 -207t202 -81q60 0 110 9t70 19l20 9q12 7 17 -6zM481 231
l13 103q-1 12 -7 25t-25 27.5t-46 14.5q-53 0 -94.5 -42.5t-41.5 -111.5q0 -57 28.5 -85t69.5 -28q36 0 68 33t35 64z" />
    <glyph glyph-name="A" unicode="A" horiz-adv-x="841" 
d="M768 0h-226q-12 0 -12 12v51q0 12 12 12h70l-65 173h-279l-65 -173h70q12 0 12 -12v-51q0 -12 -12 -12h-225q-12 0 -12 12v51q0 12 12 12h67l215 568h-54q-13 0 -13 12v51q0 12 13 12h136q24 0 36.5 -10t21.5 -33l230 -600h68q12 0 12 -12v-51q0 -12 -12 -12zM520 317
l-111 297h-3l-112 -297h226z" />
    <glyph glyph-name="B" unicode="B" horiz-adv-x="681" 
d="M384 0h-323q-13 0 -13 12v51q0 12 13 12h76v568h-76q-13 0 -13 12v51q0 12 13 12h322q100 0 155.5 -53t55.5 -139q0 -101 -89 -151q128 -37 128 -170q0 -94 -62.5 -149.5t-186.5 -55.5zM224 75h153q79 0 123.5 33.5t44.5 103.5q0 125 -162 125h-159v-262zM224 403h153
q52 1 90.5 30t38.5 86q0 67 -40.5 95.5t-99.5 28.5h-142v-240z" />
    <glyph glyph-name="C" unicode="C" horiz-adv-x="752" 
d="M655 209l42 -28q9 -7 3 -20q-7 -14 -17.5 -29.5t-37.5 -42.5t-59 -46.5t-84.5 -34.5t-112.5 -15q-146 0 -243.5 102t-97.5 268q0 165 98.5 263t237.5 98q155 0 225 -107l-1 89q-2 12 12 12h56q13 0 13 -12v-218q0 -13 -13 -13h-63q-12 0 -12 13v9q0 46 -62.5 95.5
t-149.5 49.5q-99 0 -173.5 -73.5t-74.5 -208.5q0 -134 75 -208.5t176 -74.5q54 0 99 13.5t73.5 35.5t44.5 40t27 37q8 15 19 6z" />
    <glyph glyph-name="D" unicode="D" horiz-adv-x="740" 
d="M342 0h-287q-12 0 -12 12v51q0 12 12 12h77v568h-77q-12 0 -12 12v51q0 12 12 12h270q166 0 264 -95.5t98 -262.5t-93 -263.5t-252 -96.5zM219 75h99q278 2 278 283q0 135 -71.5 210t-209.5 75h-96v-568z" />
    <glyph glyph-name="E" unicode="E" horiz-adv-x="653" 
d="M592 0h-531q-13 0 -13 12v51q0 12 13 12h76v568h-76q-13 0 -13 12v51q0 12 13 12h531q13 0 13 -12v-161q0 -13 -13 -13h-54q-12 0 -12 13v98h-302v-248h253q13 0 13 -12v-51q0 -12 -13 -12h-253v-245h301v98q0 12 13 12h54q13 0 13 -12v-161q0 -12 -13 -12z" />
    <glyph glyph-name="F" unicode="F" horiz-adv-x="635" 
d="M337 0h-276q-13 0 -13 12v51q0 12 13 12h76v568h-76q-13 0 -13 12v51q0 12 13 12h513q13 0 13 -12v-161q0 -13 -13 -13h-54q-12 0 -12 13v98h-284v-248h235q13 0 13 -12v-51q0 -12 -13 -12h-235v-245h113q12 0 12 -12v-51q0 -12 -12 -12z" />
    <glyph glyph-name="G" unicode="G" horiz-adv-x="750" 
d="M690 0h-53q-13 0 -13 12l1 69q-88 -88 -233 -88q-148 0 -246 102t-98 268q0 111 49.5 195t126 125t165.5 41q153 0 220 -95l-1 77q-2 12 12 12h56q13 0 13 -12v-206q0 -12 -13 -12h-63q-12 0 -12 12v12q0 44 -60.5 87t-147.5 43q-101 0 -176.5 -77.5t-75.5 -204.5
q0 -132 76 -207.5t178 -75.5q86 0 140.5 30t81.5 71v78h-186q-12 0 -12 13v46q0 12 12 12h259q12 0 12 -12v-303q0 -12 -12 -12z" />
    <glyph glyph-name="H" unicode="H" horiz-adv-x="820" 
d="M760 0h-241q-12 0 -12 12v51q0 12 12 12h77v245h-372v-245h77q13 0 13 -12v-51q0 -12 -13 -12h-240q-13 0 -13 12v51q0 12 13 12h76v568h-76q-13 0 -13 12v51q0 12 13 12h240q13 0 13 -12v-51q0 -12 -13 -12h-77v-250h372v250h-77q-12 0 -12 12v51q0 12 12 12h241
q12 0 12 -12v-51q0 -12 -12 -12h-77v-568h77q12 0 12 -12v-51q0 -12 -12 -12z" />
    <glyph glyph-name="I" unicode="I" horiz-adv-x="362" 
d="M301 0h-240q-13 0 -13 12v51q0 12 13 12h76v568h-76q-13 0 -13 12v51q0 12 13 12h240q13 0 13 -12v-51q0 -12 -13 -12h-77v-568h77q13 0 13 -12v-51q0 -12 -13 -12z" />
    <glyph glyph-name="J" unicode="J" horiz-adv-x="484" 
d="M259 262v381h-76q-13 0 -13 12v51q0 12 13 12h240q13 0 13 -12v-51q0 -12 -13 -12h-77v-372q0 -147 -69 -209t-216 -62q-13 0 -13 12v51q0 12 13 12q110 0 154 45.5t44 141.5z" />
    <glyph glyph-name="K" unicode="K" horiz-adv-x="763" 
d="M702 0h-87q-36 0 -60 48l-94 191q-8 16 -14.5 25t-28 18t-53.5 9h-141v-216h92q13 0 13 -12v-51q0 -12 -13 -12h-255q-13 0 -13 12v51q0 12 13 12h76v568h-76q-13 0 -13 12v51q0 12 13 12h224q12 0 12 -12v-51q0 -12 -12 -12h-61v-281h105q106 0 157.5 62.5t51.5 218.5
h-68q-12 0 -12 12v51q0 12 12 12h223q12 0 12 -12v-51q0 -12 -12 -12h-69q0 -241 -136 -315q23 -11 36 -28.5t30 -51.5l87 -173h61q12 0 12 -12v-51q0 -12 -12 -12z" />
    <glyph glyph-name="L" unicode="L" horiz-adv-x="670" 
d="M608 0h-547q-13 0 -13 12v51q0 12 13 12h76v568h-76q-13 0 -13 12v51q0 12 13 12h239q13 0 13 -13v-49q0 -13 -13 -13h-76v-568h318v98q0 12 13 12h54q12 0 12 -12v-160q0 -13 -13 -13z" />
    <glyph glyph-name="M" unicode="M" horiz-adv-x="919" 
d="M859 0h-231q-12 0 -12 12v51q0 12 12 12h67v498h-1l-190 -472q-12 -30 -45 -30q-31 0 -43 30l-190 472h-2v-498h67q13 0 13 -12v-51q0 -12 -13 -12h-230q-13 0 -13 12v51q0 12 13 12h76v568h-76q-13 0 -13 12v51q0 12 13 12h154q34 0 47 -34l149 -360l47 -126h4
q28 78 46 124l150 362q13 34 48 34h153q12 0 12 -12v-51q0 -12 -12 -12h-77v-568h77q12 0 12 -12v-51q0 -12 -12 -12z" />
    <glyph glyph-name="N" unicode="N" horiz-adv-x="820" 
d="M670 0h-54q-19 0 -30 7.5t-21 23.5l-289 452l-50 84h-2v-492h77q13 0 13 -12v-51q0 -12 -13 -12h-240q-13 0 -13 12v51q0 12 13 12h76v568h-76q-13 0 -13 12v51q0 12 13 12h140q29 0 51 -34l285 -446l57 -97h2v502h-77q-12 0 -12 12v51q0 12 12 12h241q12 0 12 -12v-51
q0 -12 -12 -12h-77v-631q0 -12 -13 -12z" />
    <glyph glyph-name="O" unicode="O" horiz-adv-x="793" 
d="M397 -7q-149 0 -249 103.5t-100 266.5q0 164 103 262.5t246 98.5t245 -98.5t102 -262.5q0 -165 -98.5 -267.5t-248.5 -102.5zM397 74q102 0 178 76.5t76 209.5q0 134 -77.5 209.5t-176.5 75.5t-177 -75.5t-78 -209.5q0 -133 76.5 -209.5t178.5 -76.5z" />
    <glyph glyph-name="P" unicode="P" horiz-adv-x="658" 
d="M322 0h-261q-13 0 -13 12v51q0 12 13 12h76v568h-76q-13 0 -13 12v51q0 12 13 12h308q106 0 173.5 -61.5t67.5 -165.5q0 -105 -66 -162.5t-186 -57.5h-134v-196h98q12 0 12 -12v-51q0 -12 -12 -12zM224 342h130q168 0 168 148q0 77 -47.5 115t-119.5 38h-131v-301z" />
    <glyph glyph-name="Q" unicode="Q" horiz-adv-x="769" 
d="M716 -26l15 -40q3 -10 -7 -16q-61 -27 -127 -27q-52 0 -99 11.5t-77.5 28t-53 33.5t-33 28.5t-9.5 11.5q-122 22 -199.5 119.5t-77.5 239.5q0 164 103 262.5t246 98.5t245 -98.5t102 -262.5q0 -155 -87 -255t-224 -112q57 -38 166 -38q57 0 103 20q11 5 14 -4zM397 77
q102 0 178 75t76 208q0 134 -77.5 208t-176.5 74q-46 0 -90.5 -17.5t-81.5 -51t-60 -89t-23 -124.5q0 -133 76 -208t179 -75z" />
    <glyph glyph-name="R" unicode="R" horiz-adv-x="715" 
d="M655 0h-87q-36 0 -60 48l-94 191q-12 25 -25.5 37t-37.5 13h-127v-214h90q12 0 12 -12v-51q0 -12 -12 -12h-253q-13 0 -13 12v51q0 12 13 12h76v568h-76q-13 0 -13 12v51q0 12 13 12h308q107 0 174 -56.5t67 -159.5q0 -157 -147 -196q19 -15 47 -67l84 -164h61
q12 0 12 -12v-51q0 -12 -12 -12zM224 360h128q170 0 170 139q0 144 -170 144h-128v-283z" />
    <glyph glyph-name="S" unicode="S" horiz-adv-x="666" 
d="M117 0h-56q-13 0 -13 12v234q0 13 13 13h63q12 0 12 -13v-21q0 -6 6.5 -21.5t23 -38t39.5 -42.5t61.5 -34.5t83.5 -14.5q77 0 120.5 32t43.5 89q0 33 -24.5 56.5t-63.5 37.5t-86.5 26t-95 27.5t-86.5 37t-63.5 60t-24.5 90.5q0 84 63.5 139t170.5 55q135 0 198 -79l-2 62
q0 12 13 12h56q12 0 12 -12v-218q0 -12 -12 -12h-63q-12 0 -12 12v28q0 41 -46 83t-135 42q-66 0 -106.5 -31.5t-40.5 -80.5q0 -35 25 -60t65 -40t88 -27.5t96 -27.5t88 -36t65 -57.5t25 -86.5q0 -88 -63 -145t-188 -57q-92 0 -152 37t-87 80l1 -98q0 -12 -12 -12z" />
    <glyph glyph-name="T" unicode="T" horiz-adv-x="727" 
d="M478 0h-233q-13 0 -13 13v49q0 13 13 13h76v568h-189v-106q0 -14 -14 -14h-56q-14 0 -14 14v168q0 13 14 13h603q14 0 14 -13v-168q0 -14 -14 -14h-57q-13 0 -13 14v106h-187v-568h70q14 0 14 -13v-49q0 -13 -14 -13z" />
    <glyph glyph-name="U" unicode="U" horiz-adv-x="814" 
d="M590 260v383h-77q-12 0 -12 12v51q0 12 12 12h241q12 0 12 -12v-51q0 -12 -12 -12h-77v-374q0 -135 -70.5 -205.5t-198.5 -70.5q-129 0 -200 70.5t-71 205.5v374h-76q-13 0 -13 12v51q0 12 13 12h240q13 0 13 -12v-51q0 -12 -13 -12h-77v-377q0 -192 184 -192
q94 0 138 49.5t44 136.5z" />
    <glyph glyph-name="V" unicode="V" horiz-adv-x="848" 
d="M444 0h-39q-19 0 -29 9t-18 31l-233 603h-64q-13 0 -13 12v51q0 12 13 12h225q12 0 12 -12v-51q0 -12 -12 -12h-68l203 -537h6l203 537h-68q-13 0 -13 12v51q0 12 13 12h225q13 0 13 -12v-51q0 -12 -13 -12h-66l-231 -603q-7 -21 -16.5 -30.5t-29.5 -9.5z" />
    <glyph glyph-name="W" unicode="W" horiz-adv-x="1094" 
d="M748 0h-38q-37 0 -47 40l-116 508h-3l-114 -508q-10 -40 -48 -40h-37q-35 0 -48 40l-183 603h-63q-13 0 -13 12v51q0 12 13 12h225q13 0 13 -12v-51q0 -12 -13 -12h-70l155 -537h6l139 612h80l140 -612h6l155 537h-71q-12 0 -12 12v51q0 12 12 12h226q12 0 12 -12v-51
q0 -12 -12 -12h-64l-183 -603q-12 -40 -47 -40z" />
    <glyph glyph-name="X" unicode="X" horiz-adv-x="814" 
d="M746 0h-241q-12 0 -12 12v51q0 12 12 12h66l-166 233l-171 -233h67q13 0 13 -12v-51q0 -12 -13 -12h-240q-13 0 -13 12v51q0 12 13 12h77l216 287l-217 281h-76q-13 0 -13 12v51q0 12 13 12h240q13 0 13 -12v-51q0 -12 -13 -12h-68l170 -226l170 226h-61q-12 0 -12 12v51
q0 12 12 12h241q12 0 12 -12v-51q0 -12 -12 -12h-83l-216 -281l212 -287h80q12 0 12 -12v-51q0 -12 -12 -12z" />
    <glyph glyph-name="Y" unicode="Y" horiz-adv-x="759" 
d="M500 0h-241q-12 0 -12 12v51q0 12 12 12h77v214l-40 69q-39 70 -89.5 157.5t-77.5 127.5h-68q-13 0 -13 12v51q0 12 13 12h225q12 0 12 -12v-51q0 -12 -12 -12h-66l157 -278h6l156 278h-66q-12 0 -12 12v51q0 12 12 12h226q12 0 12 -12v-51q0 -12 -12 -12h-69
q-27 -40 -78 -127.5t-89.5 -156t-39.5 -69.5v-215h77q12 0 12 -12v-51q0 -12 -12 -12z" />
    <glyph glyph-name="Z" unicode="Z" horiz-adv-x="641" 
d="M580 0h-518q-14 0 -14 13v43q0 10 20 34l406 553h-342v-81q0 -14 -14 -14h-56q-14 0 -14 14v143q0 13 14 13h518q13 0 13 -13v-37q0 -17 -20 -41l-406 -552h343v81q0 14 13 14h57q13 0 13 -14v-143q0 -13 -13 -13z" />
    <glyph glyph-name="bracketleft" unicode="[" horiz-adv-x="304" 
d="M252 -71h-201q-13 0 -13 12v813q0 12 13 12h201q14 0 14 -14v-52q0 -13 -14 -13h-130v-679h130q14 0 14 -14v-52q0 -13 -14 -13z" />
    <glyph glyph-name="backslash" unicode="\" horiz-adv-x="405" 
d="M123 748l242 -810q5 -12 -9 -12h-59q-11 0 -16 12l-242 810q-3 12 9 12h59q13 0 16 -12z" />
    <glyph glyph-name="bracketright" unicode="]" horiz-adv-x="304" 
d="M266 754v-813q0 -12 -13 -12h-201q-14 0 -14 13v52q0 14 14 14h130v679h-130q-14 0 -14 13v52q0 14 14 14h201q13 0 13 -12z" />
    <glyph glyph-name="underscore" unicode="_" horiz-adv-x="554" 
d="M503 -100h-451q-14 0 -14 13v51q0 13 14 13h451q13 0 13 -13v-51q0 -13 -13 -13z" />
    <glyph glyph-name="grave" unicode="`" horiz-adv-x="291" 
d="M252 604l-25 -29q-9 -10 -19 -2l-168 134q-9 7 -2 19l32 37q9 11 19 2l161 -142q11 -8 2 -19z" />
    <glyph glyph-name="a" unicode="a" horiz-adv-x="580" 
d="M529 0h-87q-43 0 -43 42v51h-2q-73 -101 -195 -101q-72 0 -118 37.5t-46 101.5q0 82 71.5 120.5t196.5 38.5h84v12q0 125 -130 125q-30 0 -56 -4.5t-42.5 -11.5t-28 -14t-17.5 -11.5t-7 -4.5q-10 -4 -15 3l-28 35q-7 8 2 16q3 4 9 9.5t23 15.5t37.5 18t54 14.5t71.5 6.5
q210 0 210 -200v-232h56q12 0 12 -12v-43q0 -12 -12 -12zM390 149v81h-79q-58 0 -96 -6t-64.5 -26t-26.5 -56q0 -34 28.5 -56.5t74.5 -22.5q97 0 163 86z" />
    <glyph glyph-name="b" unicode="b" 
d="M170 0h-51q-12 0 -12 12v639h-56q-13 0 -13 12v43q0 12 13 12h123q13 0 13 -12v-266l-3 -39h3q17 41 59 69.5t104 28.5q101 0 162.5 -69.5t61.5 -180.5q0 -116 -62.5 -186t-162.5 -70q-63 0 -105 29.5t-60 71.5h-1v-82q0 -12 -13 -12zM338 63q68 0 111 51t43 134
q0 82 -44 131.5t-110 49.5q-65 0 -109 -49t-44 -133q0 -83 43.5 -133.5t109.5 -50.5z" />
    <glyph glyph-name="c" unicode="c" horiz-adv-x="539" 
d="M465 144l29 -28q10 -8 3 -18q-6 -11 -20.5 -26t-40 -34t-66 -32t-86.5 -13q-105 0 -175.5 69t-70.5 186q0 116 70.5 183.5t167.5 67.5q107 0 159 -74h1l-1 55q0 13 13 13h38q12 0 12 -13v-170q0 -12 -12 -12h-46q-12 0 -12 12v17q-1 36 -41 69t-101 33q-62 0 -113 -49
t-51 -133q0 -85 50 -134.5t117 -49.5q57 0 100.5 26.5t58.5 51.5q7 12 17 3z" />
    <glyph glyph-name="d" unicode="d" horiz-adv-x="612" 
d="M562 0h-87q-23 0 -33.5 9.5t-10.5 32.5v56h-1q-16 -42 -60 -73.5t-107 -31.5q-100 0 -162.5 70t-62.5 186q0 111 62.5 180.5t163.5 69.5q62 0 103 -28.5t59 -69.5h1q-1 20 -1 33v217h-56q-13 0 -13 12v43q0 12 13 12h124q12 0 12 -12v-639h56q12 0 12 -12v-43
q0 -12 -12 -12zM275 63q66 0 109 50.5t43 133.5q0 85 -44 133.5t-108 48.5q-66 0 -110.5 -49t-44.5 -132t43.5 -134t111.5 -51z" />
    <glyph glyph-name="e" unicode="e" horiz-adv-x="538" 
d="M483 236h-360q4 -83 52.5 -128t113.5 -45q57 0 100.5 26t58.5 51q8 10 18 3l27 -27q10 -9 4 -18q-7 -11 -21 -26t-39.5 -34t-66 -32t-86.5 -13q-105 0 -175.5 69t-70.5 186q0 116 70 183.5t166 67.5q107 0 166 -66.5t57 -183.5q0 -13 -14 -13zM125 297h289q-3 62 -39 99
t-99 37q-57 0 -100 -34t-51 -102z" />
    <glyph glyph-name="f" unicode="f" horiz-adv-x="387" 
d="M279 0h-226q-13 0 -13 12v43q0 12 13 12h55v358h-57q-13 0 -13 12v43q0 12 13 12h57v62q0 83 42.5 126.5t118.5 43.5q56 0 101 -40q10 -9 3 -17l-24 -31q-9 -9 -17 -2q-24 19 -55 19q-41 0 -63.5 -25.5t-22.5 -74.5v-61h128q13 0 13 -12v-43q0 -12 -13 -12h-128v-358h88
q12 0 12 -12v-43q0 -12 -12 -12z" />
    <glyph glyph-name="g" unicode="g" horiz-adv-x="611" 
d="M268 -234q-24 0 -46 2.5t-38.5 7t-32 10t-26.5 11t-21 12t-15 10.5t-10 9l-5 4q-10 10 -3 18l26 37q6 9 17 1q1 0 6.5 -4.5t11 -8.5t15 -9.5t21.5 -10t26.5 -8.5t33.5 -6.5t39 -2.5q72 0 115.5 34.5t43.5 108.5v114q-18 -42 -59.5 -72t-103.5 -30q-102 0 -163.5 71
t-61.5 183q0 114 62.5 183t162.5 69q62 0 104.5 -28.5t61.5 -69.5h2l-1 79q0 12 12 12h118q12 0 12 -12v-43q0 -12 -12 -12h-54v-444q0 -107 -65.5 -161t-172.5 -54zM275 63q65 0 108.5 50t43.5 133q0 85 -43.5 134t-108.5 49q-67 0 -111 -50t-44 -134q0 -81 44 -131.5
t111 -50.5z" />
    <glyph glyph-name="h" unicode="h" horiz-adv-x="621" 
d="M570 0h-95q-43 0 -43 42v263q0 58 -28 90t-82 32q-21 0 -39.5 -5t-31.5 -12.5t-24 -17t-18 -18.5t-11.5 -16.5t-6.5 -11.5l-2 -5v-274h53q13 0 13 -12v-43q0 -12 -13 -12h-191q-13 0 -13 12v43q0 12 13 12h55v584h-55q-13 0 -13 12v43q0 12 13 12h126q12 0 12 -12v-223
q0 -33 -4 -61h2q49 77 156 77q80 0 125 -47t46 -127v-258h56q13 0 13 -12v-43q0 -12 -13 -12z" />
    <glyph glyph-name="i" unicode="i" horiz-adv-x="293" 
d="M242 0h-191q-13 0 -13 12v43q0 12 13 12h55v358h-55q-13 0 -13 12v43q0 12 13 12h126q12 0 12 -12v-413h53q13 0 13 -12v-43q0 -12 -13 -12zM202 600q0 -23 -16.5 -39t-39.5 -16t-39.5 16t-16.5 39t16.5 40t39.5 17t39.5 -17t16.5 -40z" />
    <glyph glyph-name="j" unicode="j" horiz-adv-x="326" 
d="M288 601q0 -23 -16.5 -39.5t-39.5 -16.5t-39.5 16.5t-16.5 39.5t16.5 39.5t39.5 16.5t39.5 -16.5t16.5 -39.5zM189 -63v488h-56q-12 0 -12 12v43q0 12 12 12h127q12 0 12 -12v-544q0 -83 -42.5 -126.5t-118.5 -43.5q-56 0 -100 39q-10 9 -2 19l23 30q9 9 18 2
q24 -19 54 -19q85 0 85 100z" />
    <glyph glyph-name="k" unicode="k" horiz-adv-x="614" 
d="M570 0h-54q-31 0 -53 31l-177 240l-97 -90v-114h53q13 0 13 -12v-43q0 -12 -13 -12h-191q-13 0 -13 12v43q0 12 13 12h55v584h-55q-13 0 -13 12v43q0 12 13 12h126q12 0 12 -12v-448l182 167h-36q-12 0 -12 12v43q0 12 12 12h192q12 0 12 -12v-43q0 -12 -12 -12h-65
l-122 -107l187 -251h43q12 0 12 -12v-43q0 -12 -12 -12z" />
    <glyph glyph-name="l" unicode="l" horiz-adv-x="293" 
d="M242 0h-191q-13 0 -13 12v43q0 12 13 12h55v584h-55q-13 0 -13 12v43q0 12 13 12h111q27 0 27 -25v-626h53q13 0 13 -12v-43q0 -12 -13 -12z" />
    <glyph glyph-name="m" unicode="m" horiz-adv-x="931" 
d="M880 0h-95q-23 0 -33.5 9.5t-10.5 32.5v263q0 58 -27.5 90t-81.5 32q-79 0 -124 -69q6 -18 6 -40v-251h56q12 0 12 -12v-43q0 -12 -12 -12h-191q-13 0 -13 12v43q0 12 13 12h53v238q0 58 -28 90t-82 32q-21 0 -39.5 -5t-31.5 -12.5t-24 -17t-18 -18.5t-11.5 -16.5
t-6.5 -11.5l-2 -5v-274h49q12 0 12 -12v-43q0 -12 -12 -12h-187q-13 0 -13 12v43q0 12 13 12h55v358h-55q-13 0 -13 12v43q0 12 13 12h98q17 0 24.5 -6.5t7.5 -23.5l-2 -50h3q52 87 162 87q109 0 149 -83q57 83 161 83q80 0 124.5 -47t44.5 -127l1 -258h56q13 0 13 -12v-43
q0 -12 -13 -12z" />
    <glyph glyph-name="n" unicode="n" horiz-adv-x="621" 
d="M570 0h-95q-43 0 -43 42v263q0 58 -28 90t-82 32q-16 0 -31 -3t-26.5 -8t-21.5 -11t-17.5 -13t-13.5 -14t-10.5 -13.5t-7 -11.5t-4.5 -8l-1 -3v-275h53q13 0 13 -12v-43q0 -12 -13 -12h-191q-13 0 -13 12v43q0 12 13 12h55v358h-55q-13 0 -13 12v43q0 12 13 12h117
q13 0 13 -12l-2 -68h3q52 87 161 87q80 0 125 -47t46 -127v-258h56q13 0 13 -12v-43q0 -12 -13 -12z" />
    <glyph glyph-name="o" unicode="o" horiz-adv-x="575" 
d="M287 -7q-109 0 -179 69.5t-70 185.5q0 115 71 183t179 68q107 0 177.5 -68.5t70.5 -182.5q0 -115 -70 -185t-179 -70zM287 63q70 0 118 51t48 133t-48.5 132t-116.5 50t-117 -50t-49 -132t48 -133t117 -51z" />
    <glyph glyph-name="p" unicode="p" 
d="M252 -225h-201q-13 0 -13 12v43q0 12 13 12h56v583h-54q-13 0 -13 12v43q0 12 13 12h117q13 0 13 -12l-1 -79h1q19 41 61.5 69.5t104.5 28.5q101 0 163 -68.5t62 -183.5q0 -112 -61 -183t-163 -71q-62 0 -103.5 28.5t-59.5 69.5h-3q3 -32 3 -46v-203h65q13 0 13 -12v-43
q0 -12 -13 -12zM338 63q67 0 110.5 50.5t43.5 131.5q0 84 -43.5 134t-110.5 50q-63 0 -108 -49t-45 -142q0 -81 45.5 -128t107.5 -47z" />
    <glyph glyph-name="q" unicode="q" 
d="M562 -225h-201q-13 0 -13 12v43q0 12 13 12h65v208l3 45h-3q-18 -42 -60 -72t-103 -30q-102 0 -163.5 71t-61.5 183q0 115 62.5 183.5t162.5 68.5q62 0 104.5 -28.5t61.5 -68.5h2l-1 78q0 12 12 12h52q12 0 12 -12v-638h56q12 0 12 -12v-43q0 -12 -12 -12zM275 63
q65 0 108.5 50t43.5 133q0 85 -43.5 134t-108.5 49q-67 0 -111 -50t-44 -133q0 -82 44 -132.5t111 -50.5z" />
    <glyph glyph-name="r" unicode="r" horiz-adv-x="421" 
d="M242 0h-191q-13 0 -13 12v43q0 12 13 12h55v358h-55q-13 0 -13 12v43q0 12 13 12h117q13 0 13 -12v-125h3q1 6 4.5 15t19 33t37 42.5t62 33.5t91.5 15q13 0 13 -13v-53q0 -13 -13 -13h-21q-86 0 -137 -55t-51 -125v-168h53q13 0 13 -12v-43q0 -12 -13 -12z" />
    <glyph glyph-name="s" unicode="s" horiz-adv-x="486" 
d="M260 -7q-67 0 -107 25t-50 47h-2q2 -49 2 -52q0 -13 -14 -13h-34q-13 0 -13 13v150q0 13 13 13h39q14 0 14 -13v-20q1 -3 3.5 -9t13.5 -20.5t25.5 -26t40.5 -20.5t58 -9q53 0 80.5 20.5t27.5 57.5q0 27 -31 43.5t-75.5 27.5t-88.5 25t-75 45.5t-31 79.5q0 65 47 103.5
t120 38.5q99 0 142 -58h2q-2 36 -2 37q0 13 13 13h32q13 0 13 -13v-139q0 -13 -13 -13h-39q-14 0 -14 13v14q0 27 -31.5 53.5t-92.5 26.5q-39 0 -67 -21t-28 -57q0 -31 31.5 -49.5t76.5 -29t90 -23.5t76.5 -43t31.5 -76q0 -60 -45.5 -100.5t-138.5 -40.5z" />
    <glyph glyph-name="t" unicode="t" horiz-adv-x="401" 
d="M348 82l24 -31q8 -9 -2 -19q-44 -39 -101 -39q-76 0 -118.5 43.5t-42.5 126.5v262h-56q-14 0 -14 13v41q0 13 14 13h56v101q0 14 14 14h56q13 0 13 -14v-101h127q14 0 14 -13v-41q0 -13 -14 -13h-127v-260q0 -50 22.5 -75.5t63.5 -25.5q34 0 53 19q10 9 18 -1z" />
    <glyph glyph-name="u" unicode="u" horiz-adv-x="608" 
d="M557 0h-87q-43 0 -43 42v37h-3q-41 -86 -156 -86q-80 0 -126.5 47.5t-47.5 126.5v258h-57q-12 0 -12 12v43q0 12 12 12h96q43 0 43 -42v-263q0 -58 28 -90t82 -32q28 0 52 8.5t38.5 20.5t24.5 25t14 21t4 10v275h-54q-12 0 -12 12v43q0 12 12 12h124q12 0 12 -12v-413h56
q13 0 13 -12v-43q0 -12 -13 -12z" />
    <glyph glyph-name="v" unicode="v" horiz-adv-x="588" 
d="M326 0h-67q-10 0 -14 3.5t-8 14.5l-159 407h-56q-12 0 -12 12v43q0 12 12 12h186q12 0 12 -12v-43q0 -12 -12 -12h-44l128 -337h2l130 337h-45q-12 0 -12 12v43q0 12 12 12h186q13 0 13 -12v-43q0 -12 -13 -12h-55l-161 -407q-6 -18 -23 -18z" />
    <glyph glyph-name="w" unicode="w" horiz-adv-x="812" 
d="M576 0h-59q-21 0 -24 21l-85 335h-2l-85 -335q-4 -21 -25 -21h-58q-18 0 -24 21l-132 404h-56q-12 0 -12 12v43q0 12 12 12h187q12 0 12 -12v-43q0 -12 -12 -12h-46l101 -337h2l88 337h-39q-12 0 -12 12v43q0 12 12 12h176q12 0 12 -12v-43q0 -12 -12 -12h-39l88 -337h2
l100 337h-45q-13 0 -13 12v43q0 12 13 12h186q12 0 12 -12v-43q0 -12 -12 -12h-55l-132 -404q-8 -21 -24 -21z" />
    <glyph glyph-name="x" unicode="x" horiz-adv-x="557" 
d="M523 0h-188q-12 0 -12 12v43q0 12 12 12h50l-118 145l-110 -145h46q12 0 12 -12v-43q0 -12 -12 -12h-169q-12 0 -12 12v43q0 12 12 12h48l146 184l-146 174h-48q-12 0 -12 12v43q0 12 12 12h188q12 0 12 -12v-43q0 -12 -12 -12h-47l118 -143l101 143h-40q-12 0 -12 12v43
q0 12 12 12h169q12 0 12 -12v-43q0 -12 -12 -12h-54l-136 -185l146 -173h44q12 0 12 -12v-43q0 -12 -12 -12z" />
    <glyph glyph-name="y" unicode="y" horiz-adv-x="590" 
d="M247 -63l27 74h-13q-16 0 -26 25l-153 389h-55q-12 0 -12 12v43q0 12 12 12h181q13 0 13 -12v-43q0 -12 -13 -12h-41l129 -339h2l120 339h-45q-12 0 -12 12v43q0 12 12 12h186q12 0 12 -12v-43q0 -12 -12 -12h-56l-178 -489q-33 -89 -68.5 -129.5t-101.5 -40.5
q-57 0 -101 39q-10 10 -3 18l25 32q9 7 18 1q24 -19 53 -19q37 0 58.5 22.5t41.5 77.5z" />
    <glyph glyph-name="z" unicode="z" horiz-adv-x="519" 
d="M468 0h-417q-13 0 -13 12v41q0 19 15 34l324 338h-271v-77q0 -12 -12 -12h-43q-13 0 -13 12v132q0 12 13 12h417q13 0 13 -12v-35q0 -18 -16 -32l-328 -346h275v79q0 12 13 12h43q13 0 13 -12v-134q0 -12 -13 -12z" />
    <glyph glyph-name="braceleft" unicode="{" horiz-adv-x="341" 
d="M302 -7v-52q0 -13 -13 -13q-168 0 -168 156v120q0 50 -24.5 82.5t-44.5 32.5q-14 0 -14 14v31q0 13 14 13q20 1 44.5 33t24.5 83v114q0 158 168 158q13 0 13 -13v-52q0 -13 -13 -13q-44 0 -64 -20.5t-20 -66.5v-106q0 -40 -16.5 -72t-32.5 -44l-16 -13v-34q3 -2 7 -5
t15.5 -14.5t20 -25t15.5 -36t7 -47.5v-112q0 -46 19.5 -65.5t64.5 -19.5q13 0 13 -13z" />
    <glyph glyph-name="bar" unicode="|" horiz-adv-x="160" 
d="M110 -131h-59q-13 0 -13 12v867q0 12 13 12h59q12 0 12 -12v-867q0 -12 -12 -12z" />
    <glyph glyph-name="braceright" unicode="}" horiz-adv-x="341" 
d="M52 -72q-14 0 -14 13v52q0 13 14 13q44 0 64 19.5t20 65.5v112q0 25 6.5 47.5t16 36.5t19.5 24.5t16 14.5l7 5v34q-7 4 -18 13.5t-29 42.5t-18 73v106q0 46 -20 66.5t-64 20.5q-14 0 -14 13v52q0 13 14 13q168 0 168 -158v-114q0 -51 24 -83t45 -33q13 0 13 -13v-31
q0 -14 -13 -14q-20 0 -44.5 -32.5t-24.5 -82.5v-120q0 -156 -168 -156z" />
    <glyph glyph-name="exclamdown" unicode="&#xa1;" horiz-adv-x="182" 
d="M121 -268h-60q-12 0 -12 12v588q0 12 12 12h60q12 0 12 -12v-588q0 -12 -12 -12zM144 488q0 -22 -15 -37.5t-38 -15.5q-22 0 -37.5 15.5t-15.5 37.5t15.5 37.5t37.5 15.5q23 0 38 -15.5t15 -37.5z" />
    <glyph glyph-name="cent" unicode="&#xa2;" horiz-adv-x="539" 
d="M300 -13h-44q-12 0 -12 12v54q-90 12 -148 79t-58 173q0 105 59.5 171t146.5 77v71q0 12 13 12h43q12 0 12 -12v-73q90 -13 123 -70h3l-3 56q0 12 13 12h38q12 0 12 -12v-170q0 -12 -12 -12h-46q-12 0 -12 12v17q-1 35 -41 68t-101 33q-62 0 -113 -49t-51 -132
q0 -85 50 -134.5t117 -49.5q57 0 100.5 26.5t58.5 51.5q7 11 17 3l29 -29q9 -7 3 -18q-9 -15 -27.5 -34t-62.5 -41.5t-95 -27.5v-52q0 -12 -12 -12z" />
    <glyph glyph-name="sterling" unicode="&#xa3;" horiz-adv-x="598" 
d="M548 0h-488q-12 0 -12 12v48q0 15 11 22q2 1 16 10.5t23.5 17t24.5 22t24.5 28.5t16.5 34.5t7 41.5q0 29 -12 60h-108q-13 0 -13 12v37q0 12 13 12h73q-45 76 -45 143q0 102 70.5 163t182.5 61q103 0 163.5 -55.5t60.5 -150.5v-16q0 -12 -13 -12h-61q-13 0 -13 12v17
q0 55 -37.5 91t-99.5 36q-69 0 -115.5 -37.5t-46.5 -114.5q0 -14 2.5 -28t5.5 -23.5t10 -23.5l10 -20t13 -21.5t13 -20.5h190q13 0 13 -12v-37q0 -12 -13 -12h-161q9 -31 9 -58q0 -89 -91 -163h377q12 0 12 -12v-51q0 -12 -12 -12z" />
    <glyph glyph-name="yen" unicode="&#xa5;" horiz-adv-x="759" 
d="M500 0h-241q-12 0 -12 12v51q0 12 12 12h77v140h-125q-12 0 -12 13v39q0 12 12 12h113v26l-29 50h-124q-13 0 -13 13v39q0 12 13 12h84l-126 224h-68q-13 0 -13 12v51q0 12 13 12h225q12 0 12 -12v-51q0 -12 -12 -12h-66l157 -278h6l156 278h-66q-12 0 -12 12v51
q0 12 12 12h226q12 0 12 -12v-51q0 -12 -12 -12h-69l-126 -224h80q12 0 12 -12v-39q0 -13 -12 -13h-121l-30 -50v-26h109q12 0 12 -12v-39q0 -13 -12 -13h-119v-140h77q12 0 12 -12v-51q0 -12 -12 -12z" />
    <glyph glyph-name="brokenbar" unicode="&#xa6;" horiz-adv-x="160" 
d="M110 410h-59q-13 0 -13 12v326q0 12 13 12h59q12 0 12 -12v-326q0 -12 -12 -12zM110 -131h-59q-13 0 -13 12v326q0 12 13 12h59q12 0 12 -12v-326q0 -12 -12 -12z" />
    <glyph glyph-name="section" unicode="&#xa7;" horiz-adv-x="646" 
d="M107 -224h-56q-13 0 -13 12v234q0 12 13 12h63q12 0 12 -12v-22q1 -10 12.5 -31.5t34.5 -49.5t67.5 -48.5t99.5 -20.5q77 0 120.5 31.5t43.5 89.5q0 35 -24.5 60t-63.5 39t-86.5 25.5t-95 26.5t-86.5 35.5t-63.5 58.5t-24.5 90q0 66 39 114q-39 44 -39 110q0 84 63.5 139
t170.5 55q135 0 198 -79l-2 62q0 12 13 12h56q12 0 12 -12v-218q0 -12 -12 -12h-63q-12 0 -12 12v25q0 42 -45 85t-136 43q-66 0 -106.5 -31.5t-40.5 -80.5q0 -38 25 -64.5t65 -41t88 -27t96 -27t88 -34t65 -55.5t25 -86q0 -73 -40 -120q40 -42 40 -104q0 -88 -63 -145
t-188 -57q-92 0 -152 36.5t-86 79.5h-2l2 -97q1 -12 -12 -12zM480 124q24 29 24 71t-35.5 69.5t-81 38.5t-108.5 28.5t-99 37.5q-24 -27 -24 -63t21.5 -61.5t59.5 -40.5t77.5 -25.5t87.5 -24.5t78 -30z" />
    <glyph glyph-name="dieresis" unicode="&#xa8;" horiz-adv-x="313" 
d="M120 598q0 -18 -12.5 -30t-30.5 -12t-30 12t-12 30t12 30.5t30 12.5t30.5 -12.5t12.5 -30.5zM278 598q0 -18 -12.5 -30t-30.5 -12t-30 12t-12 30t12 30.5t30 12.5t30.5 -12.5t12.5 -30.5z" />
    <glyph glyph-name="copyright" unicode="&#xa9;" horiz-adv-x="670" 
d="M632 348q0 -121 -88 -209t-209 -88t-209 88t-88 209t88 209t209 88t209 -88t88 -209zM580 348q0 101 -72 172.5t-173 71.5t-172.5 -71.5t-71.5 -172.5t71.5 -172.5t172.5 -71.5t173 71.5t72 172.5zM441 283l28 -18q7 -6 3 -12q-8 -15 -20.5 -29.5t-45.5 -31.5t-73 -17
q-69 0 -117 47.5t-48 128.5t48 128.5t117 47.5q40 0 73 -17t45.5 -31.5t20.5 -29.5q4 -6 -2 -12l-29 -20q-7 -4 -11 2q-29 52 -97 52q-45 0 -75.5 -30.5t-30.5 -88.5t31 -89.5t77 -31.5q67 0 95 49q5 8 11 3z" />
    <glyph glyph-name="ordfeminine" unicode="&#xaa;" horiz-adv-x="328" 
d="M125 471q-37 0 -62 20t-25 55q0 73 111 73h59v3q0 31 -11.5 45.5t-47.5 14.5q-13 0 -25 -2t-19.5 -5t-13 -6.5t-8.5 -5.5l-3 -2q-4 -2 -7 2l-16 21q-3 5 0 7q28 33 94 33q104 0 104 -104v-106h29q5 0 5 -5v-28q0 -6 -5 -6h-49q-22 0 -22 21v13h-1q-38 -38 -87 -38z
M137 512q43 0 71 32v44h-56q-64 0 -64 -37q0 -18 13 -28.5t36 -10.5z" />
    <glyph glyph-name="guillemotleft" unicode="&#xab;" horiz-adv-x="521" 
d="M272 61l-220 152q-14 11 -14 23v22q0 12 14 21l220 153q13 8 13 -5v-44q0 -13 -13 -22l-165 -115l165 -114q13 -11 13 -22v-44q0 -6 -4.5 -7.5t-8.5 2.5zM469 61l-220 152q-13 10 -13 23v22q0 12 13 21l220 153q14 7 14 -5v-44q0 -13 -14 -22l-165 -115l165 -114
q14 -10 14 -22v-44q0 -15 -14 -5z" />
    <glyph glyph-name="logicalnot" unicode="&#xac;" horiz-adv-x="565" 
d="M514 141h-46q-13 0 -13 12v171h-403q-14 0 -14 13v43q0 13 14 13h461q13 0 13 -13v-227q0 -12 -12 -12z" />
    <glyph glyph-name="registered" unicode="&#xae;" horiz-adv-x="670" 
d="M632 348q0 -121 -88 -209t-209 -88t-209 88t-88 209t88 209t209 88t209 -88t88 -209zM335 100q103 0 175.5 72.5t72.5 175.5t-72.5 175.5t-175.5 72.5t-175.5 -72.5t-72.5 -175.5t72.5 -175.5t175.5 -72.5zM480 179h-46q-14 0 -25 22l-51 99q-12 22 -26 22h-52v-97h37
q6 0 6 -5v-35q0 -6 -6 -6h-117q-5 0 -5 6v35q0 5 5 5h31v255h-31q-5 0 -5 6v35q0 5 5 5h148q51 0 82.5 -26t31.5 -77q0 -76 -69 -95q1 -1 18 -30l37 -72h32q5 0 5 -5v-36q0 -6 -5 -6zM280 365h65q67 0 67 57q0 28 -18 43t-49 15h-65v-115z" />
    <glyph glyph-name="macron" unicode="&#xaf;" horiz-adv-x="392" 
d="M344 554h-296q-13 0 -13 13v42q0 14 13 14h296q13 0 13 -14v-42q0 -13 -13 -13z" />
    <glyph glyph-name="degree" unicode="&#xb0;" horiz-adv-x="220" 
d="M110 419q-31 0 -51.5 20t-20.5 57q0 32 21 53.5t51 21.5t51 -21.5t21 -53.5q0 -37 -20.5 -57t-51.5 -20zM110 457q14 0 24 10.5t10 28.5q0 16 -10 26.5t-24 10.5t-24 -10.5t-10 -26.5q0 -18 10 -28.5t24 -10.5z" />
    <glyph glyph-name="plusminus" unicode="&#xb1;" horiz-adv-x="401" 
d="M349 329h-106v-107q0 -13 -12 -13h-58q-12 0 -12 13v107h-109q-14 0 -14 13v51q0 13 14 13h109v110q0 12 12 12h58q12 0 12 -12v-110h106q13 0 13 -13v-51q0 -13 -13 -13zM349 91h-297q-14 0 -14 13v51q0 13 14 13h297q13 0 13 -13v-51q0 -13 -13 -13z" />
    <glyph glyph-name="acute" unicode="&#xb4;" horiz-adv-x="291" 
d="M251 706l-168 -134q-12 -7 -19 3l-25 29q-9 11 2 19l161 141q9 9 19 -1l31 -38q8 -10 -1 -19z" />
    <glyph glyph-name="paragraph" unicode="&#xb6;" horiz-adv-x="663" 
d="M557 -78h-63q-12 0 -12 12v709h-72v-709q0 -12 -12 -12h-62q-13 0 -13 12v302h-40q-113 0 -179 59t-66 178t65 182t170 63h340q12 0 12 -12v-51q0 -12 -12 -12h-44v-709q0 -12 -12 -12z" />
    <glyph glyph-name="periodcentered" unicode="&#xb7;" horiz-adv-x="151" 
d="M123 290q0 -20 -13.5 -33.5t-33.5 -13.5t-34 13.5t-14 33.5t14 33.5t34 13.5t33.5 -13.5t13.5 -33.5z" />
    <glyph glyph-name="cedilla" unicode="&#xb8;" horiz-adv-x="236" 
d="M113 -156q-37 0 -72 23q-11 7 -3 16l10 12q8 8 17 3q19 -13 44 -13q43 0 43 33q0 26 -49 26q-13 0 -17.5 4t-1.5 13l20 57l42 -1l-15 -42q7 0 14 -1t22 -5.5t24.5 -17t9.5 -32.5q0 -35 -23.5 -55t-64.5 -20z" />
    <glyph glyph-name="ordmasculine" unicode="&#xba;" horiz-adv-x="317" 
d="M159 471q-51 0 -86 35.5t-35 92.5q0 58 35.5 91.5t85.5 33.5t85 -34t35 -91t-35 -92.5t-85 -35.5zM159 513q33 0 55 22.5t22 62.5t-23 62.5t-54 22.5t-54.5 -23t-23.5 -62q0 -40 22.5 -62.5t55.5 -22.5z" />
    <glyph glyph-name="guillemotright" unicode="&#xbb;" horiz-adv-x="521" 
d="M249 61q-13 -7 -13 5v44q0 12 13 22l165 114l-165 115q-13 8 -13 22v44q0 6 4 7.5t9 -2.5l220 -153q14 -9 14 -21v-22q0 -12 -14 -23zM52 61q-14 -7 -14 5v44q0 12 14 22l165 114l-165 115q-14 9 -14 22v44q0 15 14 5l220 -153q13 -9 13 -21v-22q0 -13 -13 -23z" />
    <glyph glyph-name="onehalf" unicode="&#xbd;" horiz-adv-x="703" 
d="M238 -74h-59q-12 0 -9 12l242 810q4 12 17 12h59q12 0 8 -12l-242 -810q-3 -12 -16 -12zM655 0h-243q-10 0 -10 10v21q0 41 21 69t50 43.5t58.5 28.5t50 32.5t20.5 47.5t-18 43.5t-49 15.5q-76 0 -76 -62q0 -8 -7 -8h-39q-8 0 -8 8q0 46 33 79.5t97 33.5q59 0 91.5 -31
t32.5 -76q0 -37 -19.5 -63.5t-47.5 -42t-56 -28.5t-49.5 -31t-23.5 -42h151v35q0 8 8 8h35q8 0 8 -8v-73q0 -10 -10 -10zM262 362h-191q-9 0 -9 10v29q0 9 9 9h73v250l-73 -55q-6 -4 -10 1l-21 28q-3 5 3 10l97 74q5 3 13 3h39q8 0 8 -9v-302h62q10 0 10 -9v-29
q0 -10 -10 -10z" />
    <glyph glyph-name="questiondown" unicode="&#xbf;" horiz-adv-x="582" 
d="M468 -37h63q13 0 13 -12q0 -94 -62 -159.5t-189 -65.5q-120 0 -187.5 58t-67.5 146q0 48 17 86.5t42 61.5t55 48.5t55 47.5t42 57.5t17 79.5q0 12 13 12h69q13 0 13 -12q0 -63 -24 -112t-58 -79t-68 -55.5t-58 -57.5t-24 -70q0 -59 44 -95t120 -36q81 0 121.5 40
t41.5 105q0 12 12 12zM366 446q0 -22 -15.5 -37.5t-37.5 -15.5q-23 0 -38 15.5t-15 37.5t15 37.5t38 15.5q22 0 37.5 -15.5t15.5 -37.5z" />
    <glyph glyph-name="Agrave" unicode="&#xc0;" horiz-adv-x="841" 
d="M768 0h-226q-12 0 -12 12v51q0 12 12 12h70l-65 173h-279l-65 -173h70q12 0 12 -12v-51q0 -12 -12 -12h-225q-12 0 -12 12v51q0 12 12 12h67l215 568h-54q-13 0 -13 12v51q0 12 13 12h136q24 0 36.5 -10t21.5 -33l230 -600h68q12 0 12 -12v-51q0 -12 -12 -12zM520 317
l-111 297h-3l-112 -297h226zM496 830l-25 -29q-9 -10 -19 -2l-168 134q-9 7 -2 19l32 37q9 11 19 2l161 -142q11 -8 2 -19z" />
    <glyph glyph-name="Aacute" unicode="&#xc1;" horiz-adv-x="841" 
d="M768 0h-226q-12 0 -12 12v51q0 12 12 12h70l-65 173h-279l-65 -173h70q12 0 12 -12v-51q0 -12 -12 -12h-225q-12 0 -12 12v51q0 12 12 12h67l215 568h-54q-13 0 -13 12v51q0 12 13 12h136q24 0 36.5 -10t21.5 -33l230 -600h68q12 0 12 -12v-51q0 -12 -12 -12zM520 317
l-111 297h-3l-112 -297h226zM571 932l-168 -134q-12 -7 -19 3l-25 29q-9 11 2 19l161 141q9 9 19 -1l31 -38q8 -10 -1 -19z" />
    <glyph glyph-name="Acircumflex" unicode="&#xc2;" horiz-adv-x="841" 
d="M768 0h-226q-12 0 -12 12v51q0 12 12 12h70l-65 173h-279l-65 -173h70q12 0 12 -12v-51q0 -12 -12 -12h-225q-12 0 -12 12v51q0 12 12 12h67l215 568h-54q-13 0 -13 12v51q0 12 13 12h136q24 0 36.5 -10t21.5 -33l230 -600h68q12 0 12 -12v-51q0 -12 -12 -12zM520 317
l-111 297h-3l-112 -297h226zM573 830l-25 -29q-8 -10 -19 -2l-124 105l-122 -105q-10 -9 -19 2l-25 29q-7 11 2 19l155 136q4 4 10 4q5 0 10 -5l155 -135q8 -10 2 -19z" />
    <glyph glyph-name="Atilde" unicode="&#xc3;" horiz-adv-x="841" 
d="M768 0h-226q-12 0 -12 12v51q0 12 12 12h70l-65 173h-279l-65 -173h70q12 0 12 -12v-51q0 -12 -12 -12h-225q-12 0 -12 12v51q0 12 12 12h67l215 568h-54q-13 0 -13 12v51q0 12 13 12h136q24 0 36.5 -10t21.5 -33l230 -600h68q12 0 12 -12v-51q0 -12 -12 -12zM520 317
l-111 297h-3l-112 -297h226zM525 910h24q12 0 12 -12q0 -113 -87 -113q-32 0 -56.5 15.5t-44 31.5t-37.5 16q-21 0 -31 -12.5t-10 -44.5q0 -12 -12 -12h-24q-12 0 -12 12q0 108 86 108q37 0 77 -33t61 -33q24 0 33 14t9 51q0 12 12 12z" />
    <glyph glyph-name="Adieresis" unicode="&#xc4;" horiz-adv-x="841" 
d="M768 0h-226q-12 0 -12 12v51q0 12 12 12h70l-65 173h-279l-65 -173h70q12 0 12 -12v-51q0 -12 -12 -12h-225q-12 0 -12 12v51q0 12 12 12h67l215 568h-54q-13 0 -13 12v51q0 12 13 12h136q24 0 36.5 -10t21.5 -33l230 -600h68q12 0 12 -12v-51q0 -12 -12 -12zM520 317
l-111 297h-3l-112 -297h226zM371 824q0 -18 -12.5 -30t-30.5 -12t-30 12t-12 30t12 30.5t30 12.5t30.5 -12.5t12.5 -30.5zM529 824q0 -18 -12.5 -30t-30.5 -12t-30 12t-12 30t12 30.5t30 12.5t30.5 -12.5t12.5 -30.5z" />
    <glyph glyph-name="Aring" unicode="&#xc5;" horiz-adv-x="841" 
d="M768 0h-226q-12 0 -12 12v51q0 12 12 12h70l-65 173h-279l-65 -173h70q12 0 12 -12v-51q0 -12 -12 -12h-225q-12 0 -12 12v51q0 12 12 12h67l215 568h-54q-13 0 -13 12v51q0 12 13 12h136q24 0 36.5 -10t21.5 -33l230 -600h68q12 0 12 -12v-51q0 -12 -12 -12zM520 317
l-111 297h-3l-112 -297h226zM452 829q-12 -20 -35 -26.5t-43 5.5t-26.5 35.5t5.5 43.5t35 26.5t43 -5.5t26.5 -35.5t-5.5 -43.5zM429 849q4 11 -1.5 21.5t-16.5 14.5t-21.5 -1t-14.5 -17q-4 -11 1.5 -21.5t17.5 -14.5q11 -4 21 1t14 17z" />
    <glyph glyph-name="AE" unicode="&#xc6;" horiz-adv-x="1044" 
d="M984 0h-532q-12 0 -12 12v51q0 12 12 12h77v245h-209l-104 -245h69q13 0 13 -12v-51q0 -12 -13 -12h-224q-13 0 -13 12v51q0 12 13 12h67l242 568h-55q-12 0 -12 12v51q0 12 12 12h669q12 0 12 -12v-161q0 -13 -12 -13h-54q-13 0 -13 13v98h-301v-248h253q12 0 12 -12
v-51q0 -12 -12 -12h-253v-245h301v98q0 12 12 12h55q12 0 12 -12v-161q0 -12 -12 -12zM529 395v248h-71l-108 -248h179z" />
    <glyph glyph-name="Ccedilla" unicode="&#xc7;" horiz-adv-x="752" 
d="M655 209l42 -28q9 -7 3 -20q-7 -14 -17.5 -29.5t-37.5 -42.5t-59 -46.5t-84.5 -34.5t-112.5 -15q-146 0 -243.5 102t-97.5 268q0 165 98.5 263t237.5 98q155 0 225 -107l-1 89q-2 12 12 12h56q13 0 13 -12v-218q0 -13 -13 -13h-63q-12 0 -12 13v9q0 46 -62.5 95.5
t-149.5 49.5q-99 0 -173.5 -73.5t-74.5 -208.5q0 -134 75 -208.5t176 -74.5q54 0 99 13.5t73.5 35.5t44.5 40t27 37q8 15 19 6zM373 -156q-37 0 -72 23q-11 7 -3 16l10 12q8 8 17 3q19 -13 44 -13q43 0 43 33q0 26 -49 26q-13 0 -17.5 4t-1.5 13l20 57l42 -1l-15 -42
q7 0 14 -1t22 -5.5t24.5 -17t9.5 -32.5q0 -35 -23.5 -55t-64.5 -20z" />
    <glyph glyph-name="Egrave" unicode="&#xc8;" horiz-adv-x="653" 
d="M592 0h-531q-13 0 -13 12v51q0 12 13 12h76v568h-76q-13 0 -13 12v51q0 12 13 12h531q13 0 13 -12v-161q0 -13 -13 -13h-54q-12 0 -12 13v98h-302v-248h253q13 0 13 -12v-51q0 -12 -13 -12h-253v-245h301v98q0 12 13 12h54q13 0 13 -12v-161q0 -12 -13 -12zM405 830
l-25 -29q-9 -10 -19 -2l-168 134q-9 7 -2 19l32 37q9 11 19 2l161 -142q11 -8 2 -19z" />
    <glyph glyph-name="Eacute" unicode="&#xc9;" horiz-adv-x="653" 
d="M441 932l-168 -134q-12 -7 -19 3l-25 29q-9 11 2 19l161 141q9 9 19 -1l31 -38q8 -10 -1 -19zM592 0h-531q-13 0 -13 12v51q0 12 13 12h76v568h-76q-13 0 -13 12v51q0 12 13 12h531q13 0 13 -12v-161q0 -13 -13 -13h-54q-12 0 -12 13v98h-302v-248h253q13 0 13 -12v-51
q0 -12 -13 -12h-253v-245h301v98q0 12 13 12h54q13 0 13 -12v-161q0 -12 -13 -12z" />
    <glyph glyph-name="Ecircumflex" unicode="&#xca;" horiz-adv-x="653" 
d="M473 830l-25 -29q-8 -10 -19 -2l-124 105l-122 -105q-10 -9 -19 2l-25 29q-7 11 2 19l155 136q4 4 10 4q5 0 10 -5l155 -135q8 -10 2 -19zM592 0h-531q-13 0 -13 12v51q0 12 13 12h76v568h-76q-13 0 -13 12v51q0 12 13 12h531q13 0 13 -12v-161q0 -13 -13 -13h-54
q-12 0 -12 13v98h-302v-248h253q13 0 13 -12v-51q0 -12 -13 -12h-253v-245h301v98q0 12 13 12h54q13 0 13 -12v-161q0 -12 -13 -12z" />
    <glyph glyph-name="Edieresis" unicode="&#xcb;" horiz-adv-x="653" 
d="M285 824q0 -18 -12.5 -30t-30.5 -12t-30 12t-12 30t12 30.5t30 12.5t30.5 -12.5t12.5 -30.5zM443 824q0 -18 -12.5 -30t-30.5 -12t-30 12t-12 30t12 30.5t30 12.5t30.5 -12.5t12.5 -30.5zM592 0h-531q-13 0 -13 12v51q0 12 13 12h76v568h-76q-13 0 -13 12v51q0 12 13 12
h531q13 0 13 -12v-161q0 -13 -13 -13h-54q-12 0 -12 13v98h-302v-248h253q13 0 13 -12v-51q0 -12 -13 -12h-253v-245h301v98q0 12 13 12h54q13 0 13 -12v-161q0 -12 -13 -12z" />
    <glyph glyph-name="Igrave" unicode="&#xcc;" horiz-adv-x="378" 
d="M317 0h-240q-13 0 -13 12v51q0 12 13 12h76v568h-76q-13 0 -13 12v51q0 12 13 12h240q13 0 13 -12v-51q0 -12 -13 -12h-77v-568h77q13 0 13 -12v-51q0 -12 -13 -12zM249 808l-25 -29q-9 -10 -19 -2l-168 134q-9 7 -2 19l32 37q9 11 19 2l161 -142q11 -8 2 -19z" />
    <glyph glyph-name="Iacute" unicode="&#xcd;" horiz-adv-x="391" 
d="M301 0h-240q-13 0 -13 12v51q0 12 13 12h76v568h-76q-13 0 -13 12v51q0 12 13 12h240q13 0 13 -12v-51q0 -12 -13 -12h-77v-568h77q13 0 13 -12v-51q0 -12 -13 -12zM338 908l-168 -134q-12 -7 -19 3l-25 29q-9 11 2 19l161 141q9 9 19 -1l31 -38q8 -10 -1 -19z" />
    <glyph glyph-name="Icircumflex" unicode="&#xce;" horiz-adv-x="381" 
d="M309 0h-240q-13 0 -13 12v51q0 12 13 12h76v568h-76q-13 0 -13 12v51q0 12 13 12h240q13 0 13 -12v-51q0 -12 -13 -12h-77v-568h77q13 0 13 -12v-51q0 -12 -13 -12zM359 830l-25 -29q-8 -10 -19 -2l-124 105l-122 -105q-10 -9 -19 2l-25 29q-7 11 2 19l155 136q4 4 10 4
q5 0 10 -5l155 -135q8 -10 2 -19z" />
    <glyph glyph-name="Idieresis" unicode="&#xcf;" horiz-adv-x="362" 
d="M301 0h-240q-13 0 -13 12v51q0 12 13 12h76v568h-76q-13 0 -13 12v51q0 12 13 12h240q13 0 13 -12v-51q0 -12 -13 -12h-77v-568h77q13 0 13 -12v-51q0 -12 -13 -12zM147 824q0 -18 -12.5 -30t-30.5 -12t-30 12t-12 30t12 30.5t30 12.5t30.5 -12.5t12.5 -30.5zM305 824
q0 -18 -12.5 -30t-30.5 -12t-30 12t-12 30t12 30.5t30 12.5t30.5 -12.5t12.5 -30.5z" />
    <glyph glyph-name="Eth" unicode="&#xd0;" horiz-adv-x="741" 
d="M348 0h-287q-13 0 -13 12v51q0 12 13 12h76v249h-68q-14 0 -14 13v42q0 14 14 14h68v250h-76q-13 0 -13 12v51q0 12 13 12h269q166 0 264 -95.5t98 -262.5t-92.5 -263.5t-251.5 -96.5zM224 75h100q136 1 207 72t71 211q0 135 -71.5 210t-209.5 75h-97v-250h153
q13 0 13 -14v-42q0 -13 -13 -13h-153v-249z" />
    <glyph glyph-name="Ntilde" unicode="&#xd1;" horiz-adv-x="820" 
d="M670 0h-54q-19 0 -30 7.5t-21 23.5l-289 452l-50 84h-2v-492h77q13 0 13 -12v-51q0 -12 -13 -12h-240q-13 0 -13 12v51q0 12 13 12h76v568h-76q-13 0 -13 12v51q0 12 13 12h140q29 0 51 -34l285 -446l57 -97h2v502h-77q-12 0 -12 12v51q0 12 12 12h241q12 0 12 -12v-51
q0 -12 -12 -12h-77v-631q0 -12 -13 -12zM539 910h24q12 0 12 -12q0 -113 -87 -113q-32 0 -56.5 15.5t-44 31.5t-37.5 16q-21 0 -31 -12.5t-10 -44.5q0 -12 -12 -12h-24q-12 0 -12 12q0 108 86 108q37 0 77 -33t61 -33q24 0 33 14t9 51q0 12 12 12z" />
    <glyph glyph-name="Ograve" unicode="&#xd2;" horiz-adv-x="793" 
d="M397 -7q-149 0 -249 103.5t-100 266.5q0 164 103 262.5t246 98.5t245 -98.5t102 -262.5q0 -165 -98.5 -267.5t-248.5 -102.5zM397 74q102 0 178 76.5t76 209.5q0 134 -77.5 209.5t-176.5 75.5t-177 -75.5t-78 -209.5q0 -133 76.5 -209.5t178.5 -76.5zM475 830l-25 -29
q-9 -10 -19 -2l-168 134q-9 7 -2 19l32 37q9 11 19 2l161 -142q11 -8 2 -19z" />
    <glyph glyph-name="Oacute" unicode="&#xd3;" horiz-adv-x="793" 
d="M499 932l-168 -134q-12 -7 -19 3l-25 29q-9 11 2 19l161 141q9 9 19 -1l31 -38q8 -10 -1 -19zM397 -7q-149 0 -249 103.5t-100 266.5q0 164 103 262.5t246 98.5t245 -98.5t102 -262.5q0 -165 -98.5 -267.5t-248.5 -102.5zM397 74q102 0 178 76.5t76 209.5
q0 134 -77.5 209.5t-176.5 75.5t-177 -75.5t-78 -209.5q0 -133 76.5 -209.5t178.5 -76.5z" />
    <glyph glyph-name="Ocircumflex" unicode="&#xd4;" horiz-adv-x="793" 
d="M563 830l-25 -29q-8 -10 -19 -2l-124 105l-122 -105q-10 -9 -19 2l-25 29q-7 11 2 19l155 136q4 4 10 4q5 0 10 -5l155 -135q8 -10 2 -19zM397 -7q-149 0 -249 103.5t-100 266.5q0 164 103 262.5t246 98.5t245 -98.5t102 -262.5q0 -165 -98.5 -267.5t-248.5 -102.5z
M397 74q102 0 178 76.5t76 209.5q0 134 -77.5 209.5t-176.5 75.5t-177 -75.5t-78 -209.5q0 -133 76.5 -209.5t178.5 -76.5z" />
    <glyph glyph-name="Otilde" unicode="&#xd5;" horiz-adv-x="793" 
d="M397 -7q-149 0 -249 103.5t-100 266.5q0 164 103 262.5t246 98.5t245 -98.5t102 -262.5q0 -165 -98.5 -267.5t-248.5 -102.5zM397 74q102 0 178 76.5t76 209.5q0 134 -77.5 209.5t-176.5 75.5t-177 -75.5t-78 -209.5q0 -133 76.5 -209.5t178.5 -76.5zM524 910h24
q12 0 12 -12q0 -113 -87 -113q-32 0 -56.5 15.5t-44 31.5t-37.5 16q-21 0 -31 -12.5t-10 -44.5q0 -12 -12 -12h-24q-12 0 -12 12q0 108 86 108q37 0 77 -33t61 -33q24 0 33 14t9 51q0 12 12 12z" />
    <glyph glyph-name="Odieresis" unicode="&#xd6;" horiz-adv-x="793" 
d="M360 824q0 -18 -12.5 -30t-30.5 -12t-30 12t-12 30t12 30.5t30 12.5t30.5 -12.5t12.5 -30.5zM518 824q0 -18 -12.5 -30t-30.5 -12t-30 12t-12 30t12 30.5t30 12.5t30.5 -12.5t12.5 -30.5zM397 -7q-149 0 -249 103.5t-100 266.5q0 164 103 262.5t246 98.5t245 -98.5
t102 -262.5q0 -165 -98.5 -267.5t-248.5 -102.5zM397 74q102 0 178 76.5t76 209.5q0 134 -77.5 209.5t-176.5 75.5t-177 -75.5t-78 -209.5q0 -133 76.5 -209.5t178.5 -76.5z" />
    <glyph glyph-name="multiply" unicode="&#xd7;" horiz-adv-x="352" 
d="M308 203l-40 -40q-8 -8 -17 0l-75 75l-77 -78q-9 -8 -19 0l-36 36q-8 10 0 20l77 77l-78 78q-9 9 0 18l40 40q8 9 17 0l78 -80l77 77q8 10 18 0l36 -36q9 -10 0 -19l-76 -76l75 -74q8 -9 0 -18z" />
    <glyph glyph-name="Oslash" unicode="&#xd8;" horiz-adv-x="793" 
d="M308 -51h-60q-12 0 -9 12l18 60q-96 41 -152.5 131t-56.5 211q0 164 103 262.5t246 98.5q33 0 68 -8l17 55q3 12 16 12h59q12 0 9 -12l-23 -78q91 -40 146 -125.5t55 -204.5q0 -165 -98.5 -267.5t-248.5 -102.5q-30 0 -62 8l-12 -40q-3 -12 -15 -12zM282 107l160 529
q-25 8 -54 8q-96 -3 -171 -78t-75 -206q0 -92 39 -156.5t101 -96.5zM359 81q24 -6 50 -6q98 5 170 80t72 205q0 89 -37.5 151.5t-96.5 94.5z" />
    <glyph glyph-name="Ugrave" unicode="&#xd9;" horiz-adv-x="814" 
d="M590 260v383h-77q-12 0 -12 12v51q0 12 12 12h241q12 0 12 -12v-51q0 -12 -12 -12h-77v-374q0 -135 -70.5 -205.5t-198.5 -70.5q-129 0 -200 70.5t-71 205.5v374h-76q-13 0 -13 12v51q0 12 13 12h240q13 0 13 -12v-51q0 -12 -13 -12h-77v-377q0 -192 184 -192
q94 0 138 49.5t44 136.5zM516 830l-25 -29q-9 -10 -19 -2l-168 134q-9 7 -2 19l32 37q9 11 19 2l161 -142q11 -8 2 -19z" />
    <glyph glyph-name="Uacute" unicode="&#xda;" horiz-adv-x="814" 
d="M545 932l-168 -134q-12 -7 -19 3l-25 29q-9 11 2 19l161 141q9 9 19 -1l31 -38q8 -10 -1 -19zM590 260v383h-77q-12 0 -12 12v51q0 12 12 12h241q12 0 12 -12v-51q0 -12 -12 -12h-77v-374q0 -135 -70.5 -205.5t-198.5 -70.5q-129 0 -200 70.5t-71 205.5v374h-76
q-13 0 -13 12v51q0 12 13 12h240q13 0 13 -12v-51q0 -12 -13 -12h-77v-377q0 -192 184 -192q94 0 138 49.5t44 136.5z" />
    <glyph glyph-name="Ucircumflex" unicode="&#xdb;" horiz-adv-x="814" 
d="M575 830l-25 -29q-8 -10 -19 -2l-124 105l-122 -105q-10 -9 -19 2l-25 29q-7 11 2 19l155 136q4 4 10 4q5 0 10 -5l155 -135q8 -10 2 -19zM590 260v383h-77q-12 0 -12 12v51q0 12 12 12h241q12 0 12 -12v-51q0 -12 -12 -12h-77v-374q0 -135 -70.5 -205.5t-198.5 -70.5
q-129 0 -200 70.5t-71 205.5v374h-76q-13 0 -13 12v51q0 12 13 12h240q13 0 13 -12v-51q0 -12 -13 -12h-77v-377q0 -192 184 -192q94 0 138 49.5t44 136.5z" />
    <glyph glyph-name="Udieresis" unicode="&#xdc;" horiz-adv-x="814" 
d="M370 824q0 -18 -12.5 -30t-30.5 -12t-30 12t-12 30t12 30.5t30 12.5t30.5 -12.5t12.5 -30.5zM528 824q0 -18 -12.5 -30t-30.5 -12t-30 12t-12 30t12 30.5t30 12.5t30.5 -12.5t12.5 -30.5zM590 260v383h-77q-12 0 -12 12v51q0 12 12 12h241q12 0 12 -12v-51q0 -12 -12 -12
h-77v-374q0 -135 -70.5 -205.5t-198.5 -70.5q-129 0 -200 70.5t-71 205.5v374h-76q-13 0 -13 12v51q0 12 13 12h240q13 0 13 -12v-51q0 -12 -13 -12h-77v-377q0 -192 184 -192q94 0 138 49.5t44 136.5z" />
    <glyph glyph-name="Yacute" unicode="&#xdd;" horiz-adv-x="759" 
d="M500 0h-241q-12 0 -12 12v51q0 12 12 12h77v214l-40 69q-39 70 -89.5 157.5t-77.5 127.5h-68q-13 0 -13 12v51q0 12 13 12h225q12 0 12 -12v-51q0 -12 -12 -12h-66l157 -278h6l156 278h-66q-12 0 -12 12v51q0 12 12 12h226q12 0 12 -12v-51q0 -12 -12 -12h-69
q-27 -40 -78 -127.5t-89.5 -156t-39.5 -69.5v-215h77q12 0 12 -12v-51q0 -12 -12 -12zM488 932l-168 -134q-12 -7 -19 3l-25 29q-9 11 2 19l161 141q9 9 19 -1l31 -38q8 -10 -1 -19z" />
    <glyph glyph-name="Thorn" unicode="&#xde;" horiz-adv-x="626" 
d="M296 0h-245q-13 0 -13 12v45q0 12 13 12h70v580h-68q-13 0 -13 12v45q0 12 13 12h139q13 0 13 -12l-1 -122h143q108 0 174 -56t66 -159t-64.5 -156.5t-186.5 -53.5h-134v-90h94q13 0 13 -12v-45q0 -12 -13 -12zM203 230h141q156 0 156 139q0 72 -44 106t-112 34h-141
v-279z" />
    <glyph glyph-name="germandbls" unicode="&#xdf;" horiz-adv-x="697" 
d="M232 0h-181q-13 0 -13 12v45q0 12 13 12h57v413q0 111 63.5 176.5t157.5 65.5q85 0 129.5 -39t44.5 -97q0 -31 -13 -54.5t-31.5 -37.5t-37 -27.5t-31.5 -33.5t-13 -47q0 -32 29 -52.5t70.5 -33.5t83 -29.5t70.5 -50.5t29 -85q0 -64 -58.5 -106.5t-141.5 -42.5
q-154 0 -205 142q-1 1 -1 2q-6 11 6 17l35 16q13 5 17 -6l4 -9q4 -9 10 -19.5t17.5 -24t25.5 -24t36 -18t48 -7.5q50 0 84.5 23.5t34.5 58.5t-28.5 57t-69 34.5t-81 27.5t-69 46t-28.5 79q0 41 19.5 70t42.5 42.5t42.5 33.5t19.5 45q0 32 -22.5 53.5t-68.5 21.5
q-55 0 -95.5 -44.5t-40.5 -122.5v-413h40q12 0 12 -12v-45q0 -12 -12 -12z" />
    <glyph glyph-name="agrave" unicode="&#xe0;" horiz-adv-x="580" 
d="M529 0h-87q-43 0 -43 42v51h-2q-73 -101 -195 -101q-72 0 -118 37.5t-46 101.5q0 82 71.5 120.5t196.5 38.5h84v12q0 125 -130 125q-30 0 -56 -4.5t-42.5 -11.5t-28 -14t-17.5 -11.5t-7 -4.5q-10 -4 -15 3l-28 35q-7 8 2 16q3 4 9 9.5t23 15.5t37.5 18t54 14.5t71.5 6.5
q210 0 210 -200v-232h56q12 0 12 -12v-43q0 -12 -12 -12zM390 149v81h-79q-58 0 -96 -6t-64.5 -26t-26.5 -56q0 -34 28.5 -56.5t74.5 -22.5q97 0 163 86zM369 604l-25 -29q-9 -10 -19 -2l-168 134q-9 7 -2 19l32 37q9 11 19 2l161 -142q11 -8 2 -19z" />
    <glyph glyph-name="aacute" unicode="&#xe1;" horiz-adv-x="580" 
d="M529 0h-87q-43 0 -43 42v51h-2q-73 -101 -195 -101q-72 0 -118 37.5t-46 101.5q0 82 71.5 120.5t196.5 38.5h84v12q0 125 -130 125q-30 0 -56 -4.5t-42.5 -11.5t-28 -14t-17.5 -11.5t-7 -4.5q-10 -4 -15 3l-28 35q-7 8 2 16q3 4 9 9.5t23 15.5t37.5 18t54 14.5t71.5 6.5
q210 0 210 -200v-232h56q12 0 12 -12v-43q0 -12 -12 -12zM390 149v81h-79q-58 0 -96 -6t-64.5 -26t-26.5 -56q0 -34 28.5 -56.5t74.5 -22.5q97 0 163 86zM406 706l-168 -134q-12 -7 -19 3l-25 29q-9 11 2 19l161 141q9 9 19 -1l31 -38q8 -10 -1 -19z" />
    <glyph glyph-name="acircumflex" unicode="&#xe2;" horiz-adv-x="580" 
d="M529 0h-87q-43 0 -43 42v51h-2q-73 -101 -195 -101q-72 0 -118 37.5t-46 101.5q0 82 71.5 120.5t196.5 38.5h84v12q0 125 -130 125q-30 0 -56 -4.5t-42.5 -11.5t-28 -14t-17.5 -11.5t-7 -4.5q-10 -4 -15 3l-28 35q-7 8 2 16q3 4 9 9.5t23 15.5t37.5 18t54 14.5t71.5 6.5
q210 0 210 -200v-232h56q12 0 12 -12v-43q0 -12 -12 -12zM390 149v81h-79q-58 0 -96 -6t-64.5 -26t-26.5 -56q0 -34 28.5 -56.5t74.5 -22.5q97 0 163 86zM448 604l-25 -29q-8 -10 -19 -2l-124 105l-122 -105q-10 -9 -19 2l-25 29q-7 11 2 19l155 136q4 4 10 4q5 0 10 -5
l155 -135q8 -10 2 -19z" />
    <glyph glyph-name="atilde" unicode="&#xe3;" horiz-adv-x="580" 
d="M529 0h-87q-43 0 -43 42v51h-2q-73 -101 -195 -101q-72 0 -118 37.5t-46 101.5q0 82 71.5 120.5t196.5 38.5h84v12q0 125 -130 125q-30 0 -56 -4.5t-42.5 -11.5t-28 -14t-17.5 -11.5t-7 -4.5q-10 -4 -15 3l-28 35q-7 8 2 16q3 4 9 9.5t23 15.5t37.5 18t54 14.5t71.5 6.5
q210 0 210 -200v-232h56q12 0 12 -12v-43q0 -12 -12 -12zM390 149v81h-79q-58 0 -96 -6t-64.5 -26t-26.5 -56q0 -34 28.5 -56.5t74.5 -22.5q97 0 163 86zM401 684h24q12 0 12 -12q0 -113 -87 -113q-32 0 -56.5 15.5t-44 31.5t-37.5 16q-21 0 -31 -12.5t-10 -44.5
q0 -12 -12 -12h-24q-12 0 -12 12q0 108 86 108q37 0 77 -33t61 -33q24 0 33 14t9 51q0 12 12 12z" />
    <glyph glyph-name="adieresis" unicode="&#xe4;" horiz-adv-x="580" 
d="M529 0h-87q-43 0 -43 42v51h-2q-73 -101 -195 -101q-72 0 -118 37.5t-46 101.5q0 82 71.5 120.5t196.5 38.5h84v12q0 125 -130 125q-30 0 -56 -4.5t-42.5 -11.5t-28 -14t-17.5 -11.5t-7 -4.5q-10 -4 -15 3l-28 35q-7 8 2 16q3 4 9 9.5t23 15.5t37.5 18t54 14.5t71.5 6.5
q210 0 210 -200v-232h56q12 0 12 -12v-43q0 -12 -12 -12zM390 149v81h-79q-58 0 -96 -6t-64.5 -26t-26.5 -56q0 -34 28.5 -56.5t74.5 -22.5q97 0 163 86zM254 598q0 -18 -12.5 -30t-30.5 -12t-30 12t-12 30t12 30.5t30 12.5t30.5 -12.5t12.5 -30.5zM412 598q0 -18 -12.5 -30
t-30.5 -12t-30 12t-12 30t12 30.5t30 12.5t30.5 -12.5t12.5 -30.5z" />
    <glyph glyph-name="aring" unicode="&#xe5;" horiz-adv-x="580" 
d="M529 0h-87q-43 0 -43 42v51h-2q-73 -101 -195 -101q-72 0 -118 37.5t-46 101.5q0 82 71.5 120.5t196.5 38.5h84v12q0 125 -130 125q-30 0 -56 -4.5t-42.5 -11.5t-28 -14t-17.5 -11.5t-7 -4.5q-10 -4 -15 3l-28 35q-7 8 2 16q3 4 9 9.5t23 15.5t37.5 18t54 14.5t71.5 6.5
q210 0 210 -200v-232h56q12 0 12 -12v-43q0 -12 -12 -12zM390 149v81h-79q-58 0 -96 -6t-64.5 -26t-26.5 -56q0 -34 28.5 -56.5t74.5 -22.5q97 0 163 86zM339 603q-12 -20 -35 -26.5t-43 5.5t-26.5 35.5t5.5 43.5t35 26.5t43 -5.5t26.5 -35.5t-5.5 -43.5zM316 623
q4 11 -1.5 21.5t-16.5 14.5t-21.5 -1t-14.5 -17q-4 -11 1.5 -21.5t17.5 -14.5q11 -4 21 1t14 17z" />
    <glyph glyph-name="ae" unicode="&#xe6;" horiz-adv-x="890" 
d="M636 -8q-69 0 -125 31t-87 88q-31 -46 -86 -82.5t-136 -36.5q-72 0 -118 37.5t-46 101.5q0 82 71.5 120.5t196.5 38.5h84v13q0 67 -34 95.5t-96 28.5q-30 0 -56 -4.5t-42.5 -11.5t-28 -14t-17.5 -11.5t-7 -4.5q-10 -4 -15 3l-28 35q-7 8 2 16q3 4 9 9.5t23 15.5t37.5 18
t54 14.5t71.5 6.5q142 0 183 -95q30 45 78 69.5t102 24.5q107 0 166 -66t57 -183q0 -14 -14 -14h-360q4 -83 52.5 -128t113.5 -45q57 0 100.5 26t58.5 51q8 11 18 3l27 -27q10 -9 4 -18q-7 -11 -21 -26t-39.5 -34t-66 -32t-86.5 -13zM397 167q-7 28 -7 69h-79
q-187 0 -187 -94q0 -34 28.5 -56.5t74.5 -22.5q27 0 52 7.5t42 18.5t32 24.5t23 24.5t14 20zM477 290h289q-3 64 -39 103t-99 39q-56 0 -99 -36.5t-52 -105.5z" />
    <glyph glyph-name="ccedilla" unicode="&#xe7;" horiz-adv-x="539" 
d="M287 -156q-38 0 -72 23q-11 7 -3 16l10 12q8 8 17 3q19 -13 44 -13q43 0 43 33q0 26 -49 26q-13 0 -17.5 4t-1.5 13l11 32q-99 5 -165 74t-66 181q0 116 70.5 183.5t167.5 67.5q107 0 159 -74h1l-1 55q0 13 13 13h38q12 0 12 -13v-170q0 -12 -12 -12h-46q-12 0 -12 12v17
q-1 36 -41 69t-101 33q-62 0 -113 -49t-51 -133q0 -85 50 -134.5t117 -49.5q57 0 100.5 26.5t58.5 51.5q7 12 17 3l29 -28q10 -8 3 -18q-14 -27 -63 -62t-122 -41l-7 -20q7 0 14 -1t22 -5.5t24.5 -17t9.5 -32.5q0 -35 -23.5 -55t-64.5 -20z" />
    <glyph glyph-name="egrave" unicode="&#xe8;" horiz-adv-x="538" 
d="M483 236h-360q4 -83 52.5 -128t113.5 -45q57 0 100.5 26t58.5 51q8 10 18 3l27 -27q10 -9 4 -18q-7 -11 -21 -26t-39.5 -34t-66 -32t-86.5 -13q-105 0 -175.5 69t-70.5 186q0 116 70 183.5t166 67.5q107 0 166 -66.5t57 -183.5q0 -13 -14 -13zM125 297h289q-3 62 -39 99
t-99 37q-57 0 -100 -34t-51 -102zM372 604l-25 -29q-9 -10 -19 -2l-168 134q-9 7 -2 19l32 37q9 11 19 2l161 -142q11 -8 2 -19z" />
    <glyph glyph-name="eacute" unicode="&#xe9;" horiz-adv-x="538" 
d="M416 706l-168 -134q-12 -7 -19 3l-25 29q-9 11 2 19l161 141q9 9 19 -1l31 -38q8 -10 -1 -19zM483 236h-360q4 -83 52.5 -128t113.5 -45q57 0 100.5 26t58.5 51q8 10 18 3l27 -27q10 -9 4 -18q-7 -11 -21 -26t-39.5 -34t-66 -32t-86.5 -13q-105 0 -175.5 69t-70.5 186
q0 116 70 183.5t166 67.5q107 0 166 -66.5t57 -183.5q0 -13 -14 -13zM125 297h289q-3 62 -39 99t-99 37q-57 0 -100 -34t-51 -102z" />
    <glyph glyph-name="ecircumflex" unicode="&#xea;" horiz-adv-x="538" 
d="M443 604l-25 -29q-8 -10 -19 -2l-124 105l-122 -105q-10 -9 -19 2l-25 29q-7 11 2 19l155 136q4 4 10 4q5 0 10 -5l155 -135q8 -10 2 -19zM483 236h-360q4 -83 52.5 -128t113.5 -45q57 0 100.5 26t58.5 51q8 10 18 3l27 -27q10 -9 4 -18q-7 -11 -21 -26t-39.5 -34
t-66 -32t-86.5 -13q-105 0 -175.5 69t-70.5 186q0 116 70 183.5t166 67.5q107 0 166 -66.5t57 -183.5q0 -13 -14 -13zM125 297h289q-3 62 -39 99t-99 37q-57 0 -100 -34t-51 -102z" />
    <glyph glyph-name="edieresis" unicode="&#xeb;" horiz-adv-x="538" 
d="M236 598q0 -18 -12.5 -30t-30.5 -12t-30 12t-12 30t12 30.5t30 12.5t30.5 -12.5t12.5 -30.5zM394 598q0 -18 -12.5 -30t-30.5 -12t-30 12t-12 30t12 30.5t30 12.5t30.5 -12.5t12.5 -30.5zM483 236h-360q4 -83 52.5 -128t113.5 -45q57 0 100.5 26t58.5 51q8 10 18 3
l27 -27q10 -9 4 -18q-7 -11 -21 -26t-39.5 -34t-66 -32t-86.5 -13q-105 0 -175.5 69t-70.5 186q0 116 70 183.5t166 67.5q107 0 166 -66.5t57 -183.5q0 -13 -14 -13zM125 297h289q-3 62 -39 99t-99 37q-57 0 -100 -34t-51 -102z" />
    <glyph glyph-name="igrave" unicode="&#xec;" horiz-adv-x="293" 
d="M242 0h-191q-13 0 -13 12v43q0 12 13 12h55v358h-55q-13 0 -13 12v43q0 12 13 12h126q12 0 12 -12v-413h53q13 0 13 -12v-43q0 -12 -13 -12zM175 599l-25 -29q-9 -10 -19 -2l-168 134q-9 7 -2 19l32 37q9 11 19 2l161 -142q11 -8 2 -19z" />
    <glyph glyph-name="iacute" unicode="&#xed;" horiz-adv-x="293" 
d="M242 0h-191q-13 0 -13 12v43q0 12 13 12h55v358h-55q-13 0 -13 12v43q0 12 13 12h126q12 0 12 -12v-413h53q13 0 13 -12v-43q0 -12 -13 -12zM309 706l-168 -134q-12 -7 -19 3l-25 29q-9 11 2 19l161 141q9 9 19 -1l31 -38q8 -10 -1 -19z" />
    <glyph glyph-name="icircumflex" unicode="&#xee;" horiz-adv-x="293" 
d="M242 0h-191q-13 0 -13 12v43q0 12 13 12h55v358h-55q-13 0 -13 12v43q0 12 13 12h126q12 0 12 -12v-413h53q13 0 13 -12v-43q0 -12 -13 -12zM310 604l-25 -29q-8 -10 -19 -2l-124 105l-122 -105q-10 -9 -19 2l-25 29q-7 11 2 19l155 136q4 4 10 4q5 0 10 -5l155 -135
q8 -10 2 -19z" />
    <glyph glyph-name="idieresis" unicode="&#xef;" horiz-adv-x="293" 
d="M242 0h-191q-13 0 -13 12v43q0 12 13 12h55v358h-55q-13 0 -13 12v43q0 12 13 12h126q12 0 12 -12v-413h53q13 0 13 -12v-43q0 -12 -13 -12zM117 598q0 -18 -12.5 -30t-30.5 -12t-30 12t-12 30t12 30.5t30 12.5t30.5 -12.5t12.5 -30.5zM275 598q0 -18 -12.5 -30
t-30.5 -12t-30 12t-12 30t12 30.5t30 12.5t30.5 -12.5t12.5 -30.5z" />
    <glyph glyph-name="eth" unicode="&#xf0;" horiz-adv-x="611" 
d="M397 602l-48 -49q-9 -9 -18 0l-20 21q-10 9 0 19l40 40q-33 12 -65 12q-67 0 -101.5 -35t-34.5 -75q0 -12 -12 -12h-61q-12 0 -12 12q0 85 60 137t160 52q72 0 128 -29l48 49q9 8 19 0l20 -21q9 -9 0 -19l-40 -40q113 -91 113 -311q0 -164 -71.5 -262t-202.5 -98
q-119 0 -189.5 67t-70.5 171q0 106 63.5 168.5t182.5 62.5q111 0 192 -51q-8 137 -80 191zM481 339q-81 55 -178 55q-81 0 -127.5 -43.5t-46.5 -115.5t45.5 -116.5t125.5 -44.5q85 0 132 69t49 196z" />
    <glyph glyph-name="ntilde" unicode="&#xf1;" horiz-adv-x="621" 
d="M570 0h-95q-43 0 -43 42v263q0 58 -28 90t-82 32q-16 0 -31 -3t-26.5 -8t-21.5 -11t-17.5 -13t-13.5 -14t-10.5 -13.5t-7 -11.5t-4.5 -8l-1 -3v-275h53q13 0 13 -12v-43q0 -12 -13 -12h-191q-13 0 -13 12v43q0 12 13 12h55v358h-55q-13 0 -13 12v43q0 12 13 12h117
q13 0 13 -12l-2 -68h3q52 87 161 87q80 0 125 -47t46 -127v-258h56q13 0 13 -12v-43q0 -12 -13 -12zM429 684h24q12 0 12 -12q0 -113 -87 -113q-32 0 -56.5 15.5t-44 31.5t-37.5 16q-21 0 -31 -12.5t-10 -44.5q0 -12 -12 -12h-24q-12 0 -12 12q0 108 86 108q37 0 77 -33
t61 -33q24 0 33 14t9 51q0 12 12 12z" />
    <glyph glyph-name="ograve" unicode="&#xf2;" horiz-adv-x="575" 
d="M287 -7q-109 0 -179 69.5t-70 185.5q0 115 71 183t179 68q107 0 177.5 -68.5t70.5 -182.5q0 -115 -70 -185t-179 -70zM287 63q70 0 118 51t48 133t-48.5 132t-116.5 50t-117 -50t-49 -132t48 -133t117 -51zM352 604l-25 -29q-9 -10 -19 -2l-168 134q-9 7 -2 19l32 37
q9 11 19 2l161 -142q11 -8 2 -19z" />
    <glyph glyph-name="oacute" unicode="&#xf3;" horiz-adv-x="575" 
d="M430 706l-168 -134q-12 -7 -19 3l-25 29q-9 11 2 19l161 141q9 9 19 -1l31 -38q8 -10 -1 -19zM287 -7q-109 0 -179 69.5t-70 185.5q0 115 71 183t179 68q107 0 177.5 -68.5t70.5 -182.5q0 -115 -70 -185t-179 -70zM287 63q70 0 118 51t48 133t-48.5 132t-116.5 50
t-117 -50t-49 -132t48 -133t117 -51z" />
    <glyph glyph-name="ocircumflex" unicode="&#xf4;" horiz-adv-x="575" 
d="M460 604l-25 -29q-8 -10 -19 -2l-124 105l-122 -105q-10 -9 -19 2l-25 29q-7 11 2 19l155 136q4 4 10 4q5 0 10 -5l155 -135q8 -10 2 -19zM287 -7q-109 0 -179 69.5t-70 185.5q0 115 71 183t179 68q107 0 177.5 -68.5t70.5 -182.5q0 -115 -70 -185t-179 -70zM287 63
q70 0 118 51t48 133t-48.5 132t-116.5 50t-117 -50t-49 -132t48 -133t117 -51z" />
    <glyph glyph-name="otilde" unicode="&#xf5;" horiz-adv-x="575" 
d="M287 -7q-109 0 -179 69.5t-70 185.5q0 115 71 183t179 68q107 0 177.5 -68.5t70.5 -182.5q0 -115 -70 -185t-179 -70zM287 63q70 0 118 51t48 133t-48.5 132t-116.5 50t-117 -50t-49 -132t48 -133t117 -51zM416 684h24q12 0 12 -12q0 -113 -87 -113q-32 0 -56.5 15.5
t-44 31.5t-37.5 16q-21 0 -31 -12.5t-10 -44.5q0 -12 -12 -12h-24q-12 0 -12 12q0 108 86 108q37 0 77 -33t61 -33q24 0 33 14t9 51q0 12 12 12z" />
    <glyph glyph-name="odieresis" unicode="&#xf6;" horiz-adv-x="575" 
d="M253 598q0 -18 -12.5 -30t-30.5 -12t-30 12t-12 30t12 30.5t30 12.5t30.5 -12.5t12.5 -30.5zM411 598q0 -18 -12.5 -30t-30.5 -12t-30 12t-12 30t12 30.5t30 12.5t30.5 -12.5t12.5 -30.5zM287 -7q-109 0 -179 69.5t-70 185.5q0 115 71 183t179 68q107 0 177.5 -68.5
t70.5 -182.5q0 -115 -70 -185t-179 -70zM287 63q70 0 118 51t48 133t-48.5 132t-116.5 50t-117 -50t-49 -132t48 -133t117 -51z" />
    <glyph glyph-name="divide" unicode="&#xf7;" horiz-adv-x="414" 
d="M363 221h-311q-14 0 -14 13v51q0 13 14 13h311q13 0 13 -13v-51q0 -13 -13 -13zM249 138q0 -17 -12 -29t-29 -12t-29.5 12t-12.5 29q0 18 12.5 30t29.5 12t29 -12t12 -30zM249 387q0 -17 -12 -29.5t-29 -12.5t-29.5 12.5t-12.5 29.5t12.5 29t29.5 12t29 -12t12 -29z" />
    <glyph glyph-name="oslash" unicode="&#xf8;" horiz-adv-x="575" 
d="M177 -29h-42q-14 0 -9 12l24 47q-52 32 -82 88.5t-30 129.5q0 115 71 183t179 68q48 0 91 -17l7 15q5 13 17 13h42q14 0 9 -13l-21 -40q103 -69 103 -209q0 -115 -70 -185t-179 -70q-41 0 -82 13l-12 -23q-6 -12 -16 -12zM186 103l159 313q-29 13 -57 13q-68 0 -117 -50
t-49 -132q0 -93 64 -144zM239 73q21 -10 50 -10q69 0 116.5 51t47.5 133q0 84 -57 136z" />
    <glyph glyph-name="ugrave" unicode="&#xf9;" horiz-adv-x="608" 
d="M557 0h-87q-43 0 -43 42v37h-3q-41 -86 -156 -86q-80 0 -126.5 47.5t-47.5 126.5v258h-57q-12 0 -12 12v43q0 12 12 12h96q43 0 43 -42v-263q0 -58 28 -90t82 -32q28 0 52 8.5t38.5 20.5t24.5 25t14 21t4 10v275h-54q-12 0 -12 12v43q0 12 12 12h124q12 0 12 -12v-413h56
q13 0 13 -12v-43q0 -12 -13 -12zM356 604l-25 -29q-9 -10 -19 -2l-168 134q-9 7 -2 19l32 37q9 11 19 2l161 -142q11 -8 2 -19z" />
    <glyph glyph-name="uacute" unicode="&#xfa;" horiz-adv-x="608" 
d="M396 706l-168 -134q-12 -7 -19 3l-25 29q-9 11 2 19l161 141q9 9 19 -1l31 -38q8 -10 -1 -19zM557 0h-87q-43 0 -43 42v37h-3q-41 -86 -156 -86q-80 0 -126.5 47.5t-47.5 126.5v258h-57q-12 0 -12 12v43q0 12 12 12h96q43 0 43 -42v-263q0 -58 28 -90t82 -32q28 0 52 8.5
t38.5 20.5t24.5 25t14 21t4 10v275h-54q-12 0 -12 12v43q0 12 12 12h124q12 0 12 -12v-413h56q13 0 13 -12v-43q0 -12 -13 -12z" />
    <glyph glyph-name="ucircumflex" unicode="&#xfb;" horiz-adv-x="608" 
d="M452 604l-25 -29q-8 -10 -19 -2l-124 105l-122 -105q-10 -9 -19 2l-25 29q-7 11 2 19l155 136q4 4 10 4q5 0 10 -5l155 -135q8 -10 2 -19zM557 0h-87q-43 0 -43 42v37h-3q-41 -86 -156 -86q-80 0 -126.5 47.5t-47.5 126.5v258h-57q-12 0 -12 12v43q0 12 12 12h96
q43 0 43 -42v-263q0 -58 28 -90t82 -32q28 0 52 8.5t38.5 20.5t24.5 25t14 21t4 10v275h-54q-12 0 -12 12v43q0 12 12 12h124q12 0 12 -12v-413h56q13 0 13 -12v-43q0 -12 -13 -12z" />
    <glyph glyph-name="udieresis" unicode="&#xfc;" horiz-adv-x="608" 
d="M250 598q0 -18 -12.5 -30t-30.5 -12t-30 12t-12 30t12 30.5t30 12.5t30.5 -12.5t12.5 -30.5zM408 598q0 -18 -12.5 -30t-30.5 -12t-30 12t-12 30t12 30.5t30 12.5t30.5 -12.5t12.5 -30.5zM557 0h-87q-43 0 -43 42v37h-3q-41 -86 -156 -86q-80 0 -126.5 47.5t-47.5 126.5
v258h-57q-12 0 -12 12v43q0 12 12 12h96q43 0 43 -42v-263q0 -58 28 -90t82 -32q28 0 52 8.5t38.5 20.5t24.5 25t14 21t4 10v275h-54q-12 0 -12 12v43q0 12 12 12h124q12 0 12 -12v-413h56q13 0 13 -12v-43q0 -12 -13 -12z" />
    <glyph glyph-name="yacute" unicode="&#xfd;" horiz-adv-x="590" 
d="M247 -63l27 74h-13q-16 0 -26 25l-153 389h-55q-12 0 -12 12v43q0 12 12 12h181q13 0 13 -12v-43q0 -12 -13 -12h-41l129 -339h2l120 339h-45q-12 0 -12 12v43q0 12 12 12h186q12 0 12 -12v-43q0 -12 -12 -12h-56l-178 -489q-33 -89 -68.5 -129.5t-101.5 -40.5
q-57 0 -101 39q-10 10 -3 18l25 32q9 7 18 1q24 -19 53 -19q37 0 58.5 22.5t41.5 77.5zM427 706l-168 -134q-12 -7 -19 3l-25 29q-9 11 2 19l161 141q9 9 19 -1l31 -38q8 -10 -1 -19z" />
    <glyph glyph-name="thorn" unicode="&#xfe;" 
d="M252 -226h-201q-13 0 -13 13v42q0 13 13 13h56v808h-54q-13 0 -13 12v43q0 12 13 12h124q13 0 13 -12v-298q47 92 159 92q101 0 163 -68.5t62 -183.5q0 -112 -61 -183t-163 -71q-62 0 -103.5 28.5t-59.5 69.5h-2q2 -22 2 -36v-213h65q13 0 13 -13v-42q0 -13 -13 -13z
M338 63q67 0 110.5 50.5t43.5 131.5q0 84 -43.5 134t-110.5 50q-66 0 -109.5 -49t-43.5 -134q0 -83 43.5 -133t109.5 -50z" />
    <glyph glyph-name="ydieresis" unicode="&#xff;" horiz-adv-x="590" 
d="M247 -63l27 74h-13q-16 0 -26 25l-153 389h-55q-12 0 -12 12v43q0 12 12 12h181q13 0 13 -12v-43q0 -12 -13 -12h-41l129 -339h2l120 339h-45q-12 0 -12 12v43q0 12 12 12h186q12 0 12 -12v-43q0 -12 -12 -12h-56l-178 -489q-33 -89 -68.5 -129.5t-101.5 -40.5
q-57 0 -101 39q-10 10 -3 18l25 32q9 7 18 1q24 -19 53 -19q37 0 58.5 22.5t41.5 77.5zM265 598q0 -18 -12.5 -30t-30.5 -12t-30 12t-12 30t12 30.5t30 12.5t30.5 -12.5t12.5 -30.5zM423 598q0 -18 -12.5 -30t-30.5 -12t-30 12t-12 30t12 30.5t30 12.5t30.5 -12.5
t12.5 -30.5z" />
    <glyph glyph-name="Amacron" unicode="&#x100;" horiz-adv-x="841" 
d="M768 0h-226q-12 0 -12 12v51q0 12 12 12h70l-65 173h-279l-65 -173h70q12 0 12 -12v-51q0 -12 -12 -12h-225q-12 0 -12 12v51q0 12 12 12h67l215 568h-54q-13 0 -13 12v51q0 12 13 12h136q24 0 36.5 -10t21.5 -33l230 -600h68q12 0 12 -12v-51q0 -12 -12 -12zM520 317
l-111 297h-3l-112 -297h226zM550 780h-296q-13 0 -13 13v42q0 14 13 14h296q13 0 13 -14v-42q0 -13 -13 -13z" />
    <glyph glyph-name="amacron" unicode="&#x101;" horiz-adv-x="580" 
d="M529 0h-87q-43 0 -43 42v51h-2q-73 -101 -195 -101q-72 0 -118 37.5t-46 101.5q0 82 71.5 120.5t196.5 38.5h84v12q0 125 -130 125q-30 0 -56 -4.5t-42.5 -11.5t-28 -14t-17.5 -11.5t-7 -4.5q-10 -4 -15 3l-28 35q-7 8 2 16q3 4 9 9.5t23 15.5t37.5 18t54 14.5t71.5 6.5
q210 0 210 -200v-232h56q12 0 12 -12v-43q0 -12 -12 -12zM390 149v81h-79q-58 0 -96 -6t-64.5 -26t-26.5 -56q0 -34 28.5 -56.5t74.5 -22.5q97 0 163 86zM423 554h-296q-13 0 -13 13v42q0 14 13 14h296q13 0 13 -14v-42q0 -13 -13 -13z" />
    <glyph glyph-name="Abreve" unicode="&#x102;" horiz-adv-x="841" 
d="M768 0h-226q-12 0 -12 12v51q0 12 12 12h70l-65 173h-279l-65 -173h70q12 0 12 -12v-51q0 -12 -12 -12h-225q-12 0 -12 12v51q0 12 12 12h67l215 568h-54q-13 0 -13 12v51q0 12 13 12h136q24 0 36.5 -10t21.5 -33l230 -600h68q12 0 12 -12v-51q0 -12 -12 -12zM520 317
l-111 297h-3l-112 -297h226zM498 941h32q13 0 13 -13q0 -67 -39 -103t-102 -36q-62 0 -100.5 36t-38.5 103q0 13 13 13h32q13 0 13 -13q0 -41 23 -64.5t58 -23.5t59 23.5t24 64.5q0 13 13 13z" />
    <glyph glyph-name="abreve" unicode="&#x103;" horiz-adv-x="580" 
d="M529 0h-87q-43 0 -43 42v51h-2q-73 -101 -195 -101q-72 0 -118 37.5t-46 101.5q0 82 71.5 120.5t196.5 38.5h84v12q0 125 -130 125q-30 0 -56 -4.5t-42.5 -11.5t-28 -14t-17.5 -11.5t-7 -4.5q-10 -4 -15 3l-28 35q-7 8 2 16q3 4 9 9.5t23 15.5t37.5 18t54 14.5t71.5 6.5
q210 0 210 -200v-232h56q12 0 12 -12v-43q0 -12 -12 -12zM390 149v81h-79q-58 0 -96 -6t-64.5 -26t-26.5 -56q0 -34 28.5 -56.5t74.5 -22.5q97 0 163 86zM377 715h32q13 0 13 -13q0 -67 -39 -103t-102 -36q-62 0 -100.5 36t-38.5 103q0 13 13 13h32q13 0 13 -13
q0 -41 23 -64.5t58 -23.5t59 23.5t24 64.5q0 13 13 13z" />
    <glyph glyph-name="Aogonek" unicode="&#x104;" horiz-adv-x="852" 
d="M778 -107l9 -13q8 -11 -4 -17q-34 -24 -73 -24q-36 0 -57.5 20.5t-21.5 52.5q0 33 21.5 55.5t47.5 32.5h-158q-12 0 -12 12v51q0 12 12 12h70l-65 173h-279l-65 -173h70q12 0 12 -12v-51q0 -12 -12 -12h-225q-12 0 -12 12v51q0 12 12 12h67l215 568h-54q-13 0 -13 12v51
q0 12 13 12h136q24 0 36.5 -10t21.5 -33l230 -600h68q12 0 12 -12v-51q0 -12 -12 -12h-15q-14 -7 -28 -16t-28 -27.5t-14 -38.5q0 -16 10.5 -25t27.5 -9q21 0 39 10q13 7 18 -1zM520 317l-111 297h-3l-112 -297h226z" />
    <glyph glyph-name="aogonek" unicode="&#x105;" horiz-adv-x="580" 
d="M542 -107l9 -13q8 -11 -4 -17q-34 -24 -73 -24q-36 0 -57.5 20.5t-21.5 52.5q0 33 21.5 55.5t47.5 32.5h-22q-43 0 -43 42v51h-2q-73 -101 -195 -101q-72 0 -118 37.5t-46 101.5q0 82 71.5 120.5t196.5 38.5h84v12q0 125 -130 125q-30 0 -56 -4.5t-42.5 -11.5t-28 -14
t-17.5 -11.5t-7 -4.5q-10 -4 -15 3l-28 35q-7 8 2 16q3 4 9 9.5t23 15.5t37.5 18t54 14.5t71.5 6.5q210 0 210 -200v-232h56q12 0 12 -12v-43q0 -12 -12 -12h-12q-14 -7 -28 -16t-28 -27.5t-14 -38.5q0 -16 10.5 -25t27.5 -9q21 0 39 10q13 7 18 -1zM390 149v81h-79
q-58 0 -96 -6t-64.5 -26t-26.5 -56q0 -34 28.5 -56.5t74.5 -22.5q97 0 163 86z" />
    <glyph glyph-name="Cacute" unicode="&#x106;" horiz-adv-x="752" 
d="M505 932l-168 -134q-12 -7 -19 3l-25 29q-9 11 2 19l161 141q9 9 19 -1l31 -38q8 -10 -1 -19zM655 209l42 -28q9 -7 3 -20q-7 -14 -17.5 -29.5t-37.5 -42.5t-59 -46.5t-84.5 -34.5t-112.5 -15q-146 0 -243.5 102t-97.5 268q0 165 98.5 263t237.5 98q155 0 225 -107l-1 89
q-2 12 12 12h56q13 0 13 -12v-218q0 -13 -13 -13h-63q-12 0 -12 13v9q0 46 -62.5 95.5t-149.5 49.5q-99 0 -173.5 -73.5t-74.5 -208.5q0 -134 75 -208.5t176 -74.5q54 0 99 13.5t73.5 35.5t44.5 40t27 37q8 15 19 6z" />
    <glyph glyph-name="cacute" unicode="&#x107;" horiz-adv-x="539" 
d="M445 706l-168 -134q-12 -7 -19 3l-25 29q-9 11 2 19l161 141q9 9 19 -1l31 -38q8 -10 -1 -19zM465 144l29 -28q10 -8 3 -18q-6 -11 -20.5 -26t-40 -34t-66 -32t-86.5 -13q-105 0 -175.5 69t-70.5 186q0 116 70.5 183.5t167.5 67.5q107 0 159 -74h1l-1 55q0 13 13 13h38
q12 0 12 -13v-170q0 -12 -12 -12h-46q-12 0 -12 12v17q-1 36 -41 69t-101 33q-62 0 -113 -49t-51 -133q0 -85 50 -134.5t117 -49.5q57 0 100.5 26.5t58.5 51.5q7 12 17 3z" />
    <glyph glyph-name="Ccircumflex" unicode="&#x108;" horiz-adv-x="752" 
d="M549 830l-25 -29q-8 -10 -19 -2l-124 105l-122 -105q-10 -9 -19 2l-25 29q-7 11 2 19l155 136q4 4 10 4q5 0 10 -5l155 -135q8 -10 2 -19zM655 209l42 -28q9 -7 3 -20q-7 -14 -17.5 -29.5t-37.5 -42.5t-59 -46.5t-84.5 -34.5t-112.5 -15q-146 0 -243.5 102t-97.5 268
q0 165 98.5 263t237.5 98q155 0 225 -107l-1 89q-2 12 12 12h56q13 0 13 -12v-218q0 -13 -13 -13h-63q-12 0 -12 13v9q0 46 -62.5 95.5t-149.5 49.5q-99 0 -173.5 -73.5t-74.5 -208.5q0 -134 75 -208.5t176 -74.5q54 0 99 13.5t73.5 35.5t44.5 40t27 37q8 15 19 6z" />
    <glyph glyph-name="ccircumflex" unicode="&#x109;" horiz-adv-x="539" 
d="M449 604l-25 -29q-8 -10 -19 -2l-124 105l-122 -105q-10 -9 -19 2l-25 29q-7 11 2 19l155 136q4 4 10 4q5 0 10 -5l155 -135q8 -10 2 -19zM465 144l29 -28q10 -8 3 -18q-6 -11 -20.5 -26t-40 -34t-66 -32t-86.5 -13q-105 0 -175.5 69t-70.5 186q0 116 70.5 183.5
t167.5 67.5q107 0 159 -74h1l-1 55q0 13 13 13h38q12 0 12 -13v-170q0 -12 -12 -12h-46q-12 0 -12 12v17q-1 36 -41 69t-101 33q-62 0 -113 -49t-51 -133q0 -85 50 -134.5t117 -49.5q57 0 100.5 26.5t58.5 51.5q7 12 17 3z" />
    <glyph glyph-name="Cdotaccent" unicode="&#x10a;" horiz-adv-x="752" 
d="M655 209l42 -28q9 -7 3 -20q-7 -14 -17.5 -29.5t-37.5 -42.5t-59 -46.5t-84.5 -34.5t-112.5 -15q-146 0 -243.5 102t-97.5 268q0 165 98.5 263t237.5 98q155 0 225 -107l-1 89q-2 12 12 12h56q13 0 13 -12v-218q0 -13 -13 -13h-63q-12 0 -12 13v9q0 46 -62.5 95.5
t-149.5 49.5q-99 0 -173.5 -73.5t-74.5 -208.5q0 -134 75 -208.5t176 -74.5q54 0 99 13.5t73.5 35.5t44.5 40t27 37q8 15 19 6zM450 844q0 -22 -15 -37t-37 -15t-37 15t-15 37t15 37.5t37 15.5t37 -15.5t15 -37.5z" />
    <glyph glyph-name="cdotaccent" unicode="&#x10b;" horiz-adv-x="539" 
d="M465 144l29 -28q10 -8 3 -18q-6 -11 -20.5 -26t-40 -34t-66 -32t-86.5 -13q-105 0 -175.5 69t-70.5 186q0 116 70.5 183.5t167.5 67.5q107 0 159 -74h1l-1 55q0 13 13 13h38q12 0 12 -13v-170q0 -12 -12 -12h-46q-12 0 -12 12v17q-1 36 -41 69t-101 33q-62 0 -113 -49
t-51 -133q0 -85 50 -134.5t117 -49.5q57 0 100.5 26.5t58.5 51.5q7 12 17 3zM334 618q0 -22 -15 -37t-37 -15t-37 15t-15 37t15 37.5t37 15.5t37 -15.5t15 -37.5z" />
    <glyph glyph-name="Ccaron" unicode="&#x10c;" horiz-adv-x="752" 
d="M548 939l-155 -135q-5 -5 -10 -5q-6 0 -10 4l-155 136q-9 8 -2 19l25 28q7 10 19 2l122 -105l124 105q12 8 19 -2l25 -28q6 -9 -2 -19zM655 209l42 -28q9 -7 3 -20q-7 -14 -17.5 -29.5t-37.5 -42.5t-59 -46.5t-84.5 -34.5t-112.5 -15q-146 0 -243.5 102t-97.5 268
q0 165 98.5 263t237.5 98q155 0 225 -107l-1 89q-2 12 12 12h56q13 0 13 -12v-218q0 -13 -13 -13h-63q-12 0 -12 13v9q0 46 -62.5 95.5t-149.5 49.5q-99 0 -173.5 -73.5t-74.5 -208.5q0 -134 75 -208.5t176 -74.5q54 0 99 13.5t73.5 35.5t44.5 40t27 37q8 15 19 6z" />
    <glyph glyph-name="ccaron" unicode="&#x10d;" horiz-adv-x="539" 
d="M456 713l-155 -135q-5 -5 -10 -5q-6 0 -10 4l-155 136q-9 8 -2 19l25 28q7 10 19 2l122 -105l124 105q12 8 19 -2l25 -28q6 -9 -2 -19zM465 144l29 -28q10 -8 3 -18q-6 -11 -20.5 -26t-40 -34t-66 -32t-86.5 -13q-105 0 -175.5 69t-70.5 186q0 116 70.5 183.5t167.5 67.5
q107 0 159 -74h1l-1 55q0 13 13 13h38q12 0 12 -13v-170q0 -12 -12 -12h-46q-12 0 -12 12v17q-1 36 -41 69t-101 33q-62 0 -113 -49t-51 -133q0 -85 50 -134.5t117 -49.5q57 0 100.5 26.5t58.5 51.5q7 12 17 3z" />
    <glyph glyph-name="Dcaron" unicode="&#x10e;" horiz-adv-x="740" 
d="M521 939l-155 -135q-5 -5 -10 -5q-6 0 -10 4l-155 136q-9 8 -2 19l25 28q7 10 19 2l122 -105l124 105q12 8 19 -2l25 -28q6 -9 -2 -19zM342 0h-287q-12 0 -12 12v51q0 12 12 12h77v568h-77q-12 0 -12 12v51q0 12 12 12h270q166 0 264 -95.5t98 -262.5t-93 -263.5
t-252 -96.5zM219 75h99q278 2 278 283q0 135 -71.5 210t-209.5 75h-96v-568z" />
    <glyph glyph-name="dcaron" unicode="&#x10f;" horiz-adv-x="640" 
d="M556 567v17q0 6 6 6q16 0 28.5 13.5t12.5 39.5l-2 12q-5 -5 -19 -5q-18 0 -30.5 13t-12.5 33t13.5 33.5t33.5 13.5q26 0 41 -19t15 -54q0 -56 -22.5 -82.5t-57.5 -26.5q-6 0 -6 6zM562 0h-87q-23 0 -33.5 9.5t-10.5 32.5v56h-1q-16 -42 -60 -73.5t-107 -31.5
q-100 0 -162.5 70t-62.5 186q0 111 62.5 180.5t163.5 69.5q62 0 103 -28.5t59 -69.5h1q-1 20 -1 33v217h-56q-13 0 -13 12v43q0 12 13 12h124q12 0 12 -12v-639h56q12 0 12 -12v-43q0 -12 -12 -12zM275 63q66 0 109 50.5t43 133.5q0 85 -44 133.5t-108 48.5
q-66 0 -110.5 -49t-44.5 -132t43.5 -134t111.5 -51z" />
    <glyph glyph-name="Dcroat" unicode="&#x110;" horiz-adv-x="741" 
d="M348 0h-287q-13 0 -13 12v51q0 12 13 12h76v249h-68q-14 0 -14 13v42q0 14 14 14h68v250h-76q-13 0 -13 12v51q0 12 13 12h269q166 0 264 -95.5t98 -262.5t-92.5 -263.5t-251.5 -96.5zM224 75h100q136 1 207 72t71 211q0 135 -71.5 210t-209.5 75h-97v-250h153
q13 0 13 -14v-42q0 -13 -13 -13h-153v-249z" />
    <glyph glyph-name="dcroat" unicode="&#x111;" horiz-adv-x="597" 
d="M562 0h-87q-23 0 -33.5 9.5t-10.5 32.5v56h-1q-16 -42 -60 -73.5t-107 -31.5q-100 0 -162.5 70t-62.5 186q0 111 62.5 180.5t163.5 69.5q62 0 103 -28.5t59 -69.5h1q-1 20 -1 33v121h-128q-11 0 -11 11v16q0 11 11 11h128v58h-56q-13 0 -13 12v43q0 12 13 12h124
q12 0 12 -12v-113h56q11 0 11 -11v-16q0 -11 -11 -11h-56v-488h56q12 0 12 -12v-43q0 -12 -12 -12zM275 63q66 0 109 50.5t43 133.5q0 85 -44 133.5t-108 48.5q-66 0 -110.5 -49t-44.5 -132t43.5 -134t111.5 -51z" />
    <glyph glyph-name="Emacron" unicode="&#x112;" horiz-adv-x="653" 
d="M592 0h-531q-13 0 -13 12v51q0 12 13 12h76v568h-76q-13 0 -13 12v51q0 12 13 12h531q13 0 13 -12v-161q0 -13 -13 -13h-54q-12 0 -12 13v98h-302v-248h253q13 0 13 -12v-51q0 -12 -13 -12h-253v-245h301v98q0 12 13 12h54q13 0 13 -12v-161q0 -12 -13 -12zM466 780h-296
q-13 0 -13 13v42q0 14 13 14h296q13 0 13 -14v-42q0 -13 -13 -13z" />
    <glyph glyph-name="emacron" unicode="&#x113;" horiz-adv-x="538" 
d="M483 236h-360q4 -83 52.5 -128t113.5 -45q57 0 100.5 26t58.5 51q8 10 18 3l27 -27q10 -9 4 -18q-7 -11 -21 -26t-39.5 -34t-66 -32t-86.5 -13q-105 0 -175.5 69t-70.5 186q0 116 70 183.5t166 67.5q107 0 166 -66.5t57 -183.5q0 -13 -14 -13zM125 297h289q-3 62 -39 99
t-99 37q-57 0 -100 -34t-51 -102zM417 554h-296q-13 0 -13 13v42q0 14 13 14h296q13 0 13 -14v-42q0 -13 -13 -13z" />
    <glyph glyph-name="Ebreve" unicode="&#x114;" horiz-adv-x="653" 
d="M592 0h-531q-13 0 -13 12v51q0 12 13 12h76v568h-76q-13 0 -13 12v51q0 12 13 12h531q13 0 13 -12v-161q0 -13 -13 -13h-54q-12 0 -12 13v98h-302v-248h253q13 0 13 -12v-51q0 -12 -13 -12h-253v-245h301v98q0 12 13 12h54q13 0 13 -12v-161q0 -12 -13 -12zM412 941h32
q13 0 13 -13q0 -67 -39 -103t-102 -36q-62 0 -100.5 36t-38.5 103q0 13 13 13h32q13 0 13 -13q0 -41 23 -64.5t58 -23.5t59 23.5t24 64.5q0 13 13 13z" />
    <glyph glyph-name="ebreve" unicode="&#x115;" horiz-adv-x="538" 
d="M483 236h-360q4 -83 52.5 -128t113.5 -45q57 0 100.5 26t58.5 51q8 10 18 3l27 -27q10 -9 4 -18q-7 -11 -21 -26t-39.5 -34t-66 -32t-86.5 -13q-105 0 -175.5 69t-70.5 186q0 116 70 183.5t166 67.5q107 0 166 -66.5t57 -183.5q0 -13 -14 -13zM125 297h289q-3 62 -39 99
t-99 37q-57 0 -100 -34t-51 -102zM381 715h32q13 0 13 -13q0 -67 -39 -103t-102 -36q-62 0 -100.5 36t-38.5 103q0 13 13 13h32q13 0 13 -13q0 -41 23 -64.5t58 -23.5t59 23.5t24 64.5q0 13 13 13z" />
    <glyph glyph-name="Edotaccent" unicode="&#x116;" horiz-adv-x="653" 
d="M592 0h-531q-13 0 -13 12v51q0 12 13 12h76v568h-76q-13 0 -13 12v51q0 12 13 12h531q13 0 13 -12v-161q0 -13 -13 -13h-54q-12 0 -12 13v98h-302v-248h253q13 0 13 -12v-51q0 -12 -13 -12h-253v-245h301v98q0 12 13 12h54q13 0 13 -12v-161q0 -12 -13 -12zM376 844
q0 -22 -15 -37t-37 -15t-37 15t-15 37t15 37.5t37 15.5t37 -15.5t15 -37.5z" />
    <glyph glyph-name="edotaccent" unicode="&#x117;" horiz-adv-x="538" 
d="M483 236h-360q4 -83 52.5 -128t113.5 -45q57 0 100.5 26t58.5 51q8 10 18 3l27 -27q10 -9 4 -18q-7 -11 -21 -26t-39.5 -34t-66 -32t-86.5 -13q-105 0 -175.5 69t-70.5 186q0 116 70 183.5t166 67.5q107 0 166 -66.5t57 -183.5q0 -13 -14 -13zM125 297h289q-3 62 -39 99
t-99 37q-57 0 -100 -34t-51 -102zM327 618q0 -22 -15 -37t-37 -15t-37 15t-15 37t15 37.5t37 15.5t37 -15.5t15 -37.5z" />
    <glyph glyph-name="Eogonek" unicode="&#x118;" horiz-adv-x="659" 
d="M592 0h-53q-14 -7 -28 -16t-28 -27.5t-14 -38.5q0 -16 10.5 -25t27.5 -9q21 0 39 10q13 7 18 -1l9 -13q8 -11 -4 -17q-34 -24 -73 -24q-36 0 -57.5 20.5t-21.5 52.5q0 33 21.5 55.5t47.5 32.5h-425q-13 0 -13 12v51q0 12 13 12h76v568h-76q-13 0 -13 12v51q0 12 13 12
h531q13 0 13 -12v-161q0 -13 -13 -13h-54q-12 0 -12 13v98h-302v-248h253q13 0 13 -12v-51q0 -12 -13 -12h-253v-245h301v98q0 12 13 12h54q13 0 13 -12v-161q0 -12 -13 -12z" />
    <glyph glyph-name="eogonek" unicode="&#x119;" horiz-adv-x="538" 
d="M483 236h-360q4 -83 52.5 -128t113.5 -45q57 0 100.5 26t58.5 51q8 10 18 3l27 -27q10 -9 4 -18q-12 -22 -48 -51.5t-90 -43.5q-78 -39 -78 -86q0 -16 10.5 -25t27.5 -9q21 0 39 10q13 7 18 -1l9 -13q8 -11 -4 -17q-34 -24 -73 -24q-36 0 -57.5 20.5t-21.5 52.5
q0 54 56 82h-1q-105 0 -175.5 69t-70.5 186q0 116 70 183.5t166 67.5q107 0 166 -66.5t57 -183.5q0 -13 -14 -13zM125 297h289q-3 62 -39 99t-99 37q-57 0 -100 -34t-51 -102z" />
    <glyph glyph-name="Ecaron" unicode="&#x11a;" horiz-adv-x="653" 
d="M488 939l-155 -135q-5 -5 -10 -5q-6 0 -10 4l-155 136q-9 8 -2 19l25 28q7 10 19 2l122 -105l124 105q12 8 19 -2l25 -28q6 -9 -2 -19zM592 0h-531q-13 0 -13 12v51q0 12 13 12h76v568h-76q-13 0 -13 12v51q0 12 13 12h531q13 0 13 -12v-161q0 -13 -13 -13h-54
q-12 0 -12 13v98h-302v-248h253q13 0 13 -12v-51q0 -12 -13 -12h-253v-245h301v98q0 12 13 12h54q13 0 13 -12v-161q0 -12 -13 -12z" />
    <glyph glyph-name="ecaron" unicode="&#x11b;" horiz-adv-x="538" 
d="M439 713l-155 -135q-5 -5 -10 -5q-6 0 -10 4l-155 136q-9 8 -2 19l25 28q7 10 19 2l122 -105l124 105q12 8 19 -2l25 -28q6 -9 -2 -19zM483 236h-360q4 -83 52.5 -128t113.5 -45q57 0 100.5 26t58.5 51q8 10 18 3l27 -27q10 -9 4 -18q-7 -11 -21 -26t-39.5 -34t-66 -32
t-86.5 -13q-105 0 -175.5 69t-70.5 186q0 116 70 183.5t166 67.5q107 0 166 -66.5t57 -183.5q0 -13 -14 -13zM125 297h289q-3 62 -39 99t-99 37q-57 0 -100 -34t-51 -102z" />
    <glyph glyph-name="Gcircumflex" unicode="&#x11c;" horiz-adv-x="750" 
d="M558 830l-25 -29q-8 -10 -19 -2l-124 105l-122 -105q-10 -9 -19 2l-25 29q-7 11 2 19l155 136q4 4 10 4q5 0 10 -5l155 -135q8 -10 2 -19zM690 0h-53q-13 0 -13 12l1 69q-88 -88 -233 -88q-148 0 -246 102t-98 268q0 111 49.5 195t126 125t165.5 41q153 0 220 -95l-1 77
q-2 12 12 12h56q13 0 13 -12v-206q0 -12 -13 -12h-63q-12 0 -12 12v12q0 44 -60.5 87t-147.5 43q-101 0 -176.5 -77.5t-75.5 -204.5q0 -132 76 -207.5t178 -75.5q86 0 140.5 30t81.5 71v78h-186q-12 0 -12 13v46q0 12 12 12h259q12 0 12 -12v-303q0 -12 -12 -12z" />
    <glyph glyph-name="gcircumflex" unicode="&#x11d;" horiz-adv-x="611" 
d="M464 604l-25 -29q-8 -10 -19 -2l-124 105l-122 -105q-10 -9 -19 2l-25 29q-7 11 2 19l155 136q4 4 10 4q5 0 10 -5l155 -135q8 -10 2 -19zM268 -234q-24 0 -46 2.5t-38.5 7t-32 10t-26.5 11t-21 12t-15 10.5t-10 9l-5 4q-10 10 -3 18l26 37q6 9 17 1q1 0 6.5 -4.5
t11 -8.5t15 -9.5t21.5 -10t26.5 -8.5t33.5 -6.5t39 -2.5q72 0 115.5 34.5t43.5 108.5v114q-18 -42 -59.5 -72t-103.5 -30q-102 0 -163.5 71t-61.5 183q0 114 62.5 183t162.5 69q62 0 104.5 -28.5t61.5 -69.5h2l-1 79q0 12 12 12h118q12 0 12 -12v-43q0 -12 -12 -12h-54v-444
q0 -107 -65.5 -161t-172.5 -54zM275 63q65 0 108.5 50t43.5 133q0 85 -43.5 134t-108.5 49q-67 0 -111 -50t-44 -134q0 -81 44 -131.5t111 -50.5z" />
    <glyph glyph-name="Gbreve" unicode="&#x11e;" horiz-adv-x="750" 
d="M690 0h-53q-13 0 -13 12l1 69q-88 -88 -233 -88q-148 0 -246 102t-98 268q0 111 49.5 195t126 125t165.5 41q153 0 220 -95l-1 77q-2 12 12 12h56q13 0 13 -12v-206q0 -12 -13 -12h-63q-12 0 -12 12v12q0 44 -60.5 87t-147.5 43q-101 0 -176.5 -77.5t-75.5 -204.5
q0 -132 76 -207.5t178 -75.5q86 0 140.5 30t81.5 71v78h-186q-12 0 -12 13v46q0 12 12 12h259q12 0 12 -12v-303q0 -12 -12 -12zM493 941h32q13 0 13 -13q0 -67 -39 -103t-102 -36q-62 0 -100.5 36t-38.5 103q0 13 13 13h32q13 0 13 -13q0 -41 23 -64.5t58 -23.5t59 23.5
t24 64.5q0 13 13 13z" />
    <glyph glyph-name="gbreve" unicode="&#x11f;" horiz-adv-x="611" 
d="M268 -234q-24 0 -46 2.5t-38.5 7t-32 10t-26.5 11t-21 12t-15 10.5t-10 9l-5 4q-10 10 -3 18l26 37q6 9 17 1q1 0 6.5 -4.5t11 -8.5t15 -9.5t21.5 -10t26.5 -8.5t33.5 -6.5t39 -2.5q72 0 115.5 34.5t43.5 108.5v114q-18 -42 -59.5 -72t-103.5 -30q-102 0 -163.5 71
t-61.5 183q0 114 62.5 183t162.5 69q62 0 104.5 -28.5t61.5 -69.5h2l-1 79q0 12 12 12h118q12 0 12 -12v-43q0 -12 -12 -12h-54v-444q0 -107 -65.5 -161t-172.5 -54zM275 63q65 0 108.5 50t43.5 133q0 85 -43.5 134t-108.5 49q-67 0 -111 -50t-44 -134q0 -81 44 -131.5
t111 -50.5zM393 715h32q13 0 13 -13q0 -67 -39 -103t-102 -36q-62 0 -100.5 36t-38.5 103q0 13 13 13h32q13 0 13 -13q0 -41 23 -64.5t58 -23.5t59 23.5t24 64.5q0 13 13 13z" />
    <glyph glyph-name="Gdotaccent" unicode="&#x120;" horiz-adv-x="750" 
d="M690 0h-53q-13 0 -13 12l1 69q-88 -88 -233 -88q-148 0 -246 102t-98 268q0 111 49.5 195t126 125t165.5 41q153 0 220 -95l-1 77q-2 12 12 12h56q13 0 13 -12v-206q0 -12 -13 -12h-63q-12 0 -12 12v12q0 44 -60.5 87t-147.5 43q-101 0 -176.5 -77.5t-75.5 -204.5
q0 -132 76 -207.5t178 -75.5q86 0 140.5 30t81.5 71v78h-186q-12 0 -12 13v46q0 12 12 12h259q12 0 12 -12v-303q0 -12 -12 -12zM442 844q0 -22 -15 -37t-37 -15t-37 15t-15 37t15 37.5t37 15.5t37 -15.5t15 -37.5z" />
    <glyph glyph-name="gdotaccent" unicode="&#x121;" horiz-adv-x="611" 
d="M268 -234q-24 0 -46 2.5t-38.5 7t-32 10t-26.5 11t-21 12t-15 10.5t-10 9l-5 4q-10 10 -3 18l26 37q6 9 17 1q1 0 6.5 -4.5t11 -8.5t15 -9.5t21.5 -10t26.5 -8.5t33.5 -6.5t39 -2.5q72 0 115.5 34.5t43.5 108.5v114q-18 -42 -59.5 -72t-103.5 -30q-102 0 -163.5 71
t-61.5 183q0 114 62.5 183t162.5 69q62 0 104.5 -28.5t61.5 -69.5h2l-1 79q0 12 12 12h118q12 0 12 -12v-43q0 -12 -12 -12h-54v-444q0 -107 -65.5 -161t-172.5 -54zM275 63q65 0 108.5 50t43.5 133q0 85 -43.5 134t-108.5 49q-67 0 -111 -50t-44 -134q0 -81 44 -131.5
t111 -50.5zM353 618q0 -22 -15 -37t-37 -15t-37 15t-15 37t15 37.5t37 15.5t37 -15.5t15 -37.5z" />
    <glyph glyph-name="Gcommaaccent" unicode="&#x122;" horiz-adv-x="750" 
d="M359 -222v17q0 6 7 6q16 0 28.5 13.5t12.5 39.5l-2 11q-5 -5 -19 -5q-18 0 -30.5 13t-12.5 34q0 19 13.5 33t33.5 14q26 0 40.5 -19.5t14.5 -53.5q0 -56 -22 -82.5t-57 -26.5q-7 0 -7 6zM690 0h-53q-13 0 -13 12l1 69q-88 -88 -233 -88q-148 0 -246 102t-98 268
q0 111 49.5 195t126 125t165.5 41q153 0 220 -95l-1 77q-2 12 12 12h56q13 0 13 -12v-206q0 -12 -13 -12h-63q-12 0 -12 12v12q0 44 -60.5 87t-147.5 43q-101 0 -176.5 -77.5t-75.5 -204.5q0 -132 76 -207.5t178 -75.5q86 0 140.5 30t81.5 71v78h-186q-12 0 -12 13v46
q0 12 12 12h259q12 0 12 -12v-303q0 -12 -12 -12z" />
    <glyph glyph-name="gcommaaccent" unicode="&#x123;" horiz-adv-x="611" 
d="M268 -234q-24 0 -46 2.5t-38.5 7t-32 10t-26.5 11t-21 12t-15 10.5t-10 9l-5 4q-10 10 -3 18l26 37q6 9 17 1q1 0 6.5 -4.5t11 -8.5t15 -9.5t21.5 -10t26.5 -8.5t33.5 -6.5t39 -2.5q72 0 115.5 34.5t43.5 108.5v114q-18 -42 -59.5 -72t-103.5 -30q-102 0 -163.5 71
t-61.5 183q0 114 62.5 183t162.5 69q62 0 104.5 -28.5t61.5 -69.5h2l-1 79q0 12 12 12h118q12 0 12 -12v-43q0 -12 -12 -12h-54v-444q0 -107 -65.5 -161t-172.5 -54zM275 63q65 0 108.5 50t43.5 133q0 85 -43.5 134t-108.5 49q-67 0 -111 -50t-44 -134q0 -81 44 -131.5
t111 -50.5zM321 709v-17q0 -6 -7 -6q-16 0 -28.5 -13.5t-12.5 -39.5l2 -12q6 5 19 5q18 0 31 -13t13 -33t-14 -33.5t-34 -13.5q-26 0 -40.5 19t-14.5 54q0 56 22.5 82.5t56.5 26.5q7 0 7 -6z" />
    <glyph glyph-name="Hcircumflex" unicode="&#x124;" horiz-adv-x="820" 
d="M585 830l-25 -29q-8 -10 -19 -2l-124 105l-122 -105q-10 -9 -19 2l-25 29q-7 11 2 19l155 136q4 4 10 4q5 0 10 -5l155 -135q8 -10 2 -19zM760 0h-241q-12 0 -12 12v51q0 12 12 12h77v245h-372v-245h77q13 0 13 -12v-51q0 -12 -13 -12h-240q-13 0 -13 12v51q0 12 13 12
h76v568h-76q-13 0 -13 12v51q0 12 13 12h240q13 0 13 -12v-51q0 -12 -13 -12h-77v-250h372v250h-77q-12 0 -12 12v51q0 12 12 12h241q12 0 12 -12v-51q0 -12 -12 -12h-77v-568h77q12 0 12 -12v-51q0 -12 -12 -12z" />
    <glyph glyph-name="hcircumflex" unicode="&#x125;" horiz-adv-x="621" 
d="M472 795l-25 -29q-8 -10 -19 -2l-124 105l-122 -105q-10 -9 -19 2l-25 29q-7 11 2 19l155 136q4 4 10 4q5 0 10 -5l155 -135q8 -10 2 -19zM570 0h-95q-43 0 -43 42v263q0 58 -28 90t-82 32q-21 0 -39.5 -5t-31.5 -12.5t-24 -17t-18 -18.5t-11.5 -16.5t-6.5 -11.5l-2 -5
v-274h53q13 0 13 -12v-43q0 -12 -13 -12h-191q-13 0 -13 12v43q0 12 13 12h55v584h-55q-13 0 -13 12v43q0 12 13 12h126q12 0 12 -12v-223q0 -33 -4 -61h2q49 77 156 77q80 0 125 -47t46 -127v-258h56q13 0 13 -12v-43q0 -12 -13 -12z" />
    <glyph glyph-name="Hbar" unicode="&#x126;" horiz-adv-x="820" 
d="M760 0h-241q-12 0 -12 12v51q0 12 12 12h77v245h-372v-245h77q13 0 13 -12v-51q0 -12 -13 -12h-240q-13 0 -13 12v51q0 12 13 12h76v414h-60q-11 0 -11 11v29q0 11 11 11h60v103h-76q-13 0 -13 12v51q0 12 13 12h240q13 0 13 -12v-51q0 -12 -13 -12h-77v-103h372v103h-77
q-12 0 -12 12v51q0 12 12 12h241q12 0 12 -12v-51q0 -12 -12 -12h-77v-103h47q11 0 11 -11v-29q0 -11 -11 -11h-47v-414h77q12 0 12 -12v-51q0 -12 -12 -12zM596 393v96h-372v-96h372z" />
    <glyph glyph-name="hbar" unicode="&#x127;" horiz-adv-x="621" 
d="M570 0h-95q-43 0 -43 42v263q0 58 -28 90t-82 32q-21 0 -39.5 -5t-31.5 -12.5t-24 -17t-18 -18.5t-11.5 -16.5t-6.5 -11.5l-2 -5v-274h53q13 0 13 -12v-43q0 -12 -13 -12h-191q-13 0 -13 12v43q0 12 13 12h55v492h-58q-11 0 -11 11v16q0 11 11 11h58v54h-55q-13 0 -13 12
v43q0 12 13 12h126q12 0 12 -12v-109h123q11 0 11 -11v-16q0 -11 -11 -11h-123v-76q0 -33 -4 -61h2q49 77 156 77q80 0 125 -47t46 -127v-258h56q13 0 13 -12v-43q0 -12 -13 -12z" />
    <glyph glyph-name="Itilde" unicode="&#x128;" horiz-adv-x="383" 
d="M311 0h-240q-13 0 -13 12v51q0 12 13 12h76v568h-76q-13 0 -13 12v51q0 12 13 12h240q13 0 13 -12v-51q0 -12 -13 -12h-77v-568h77q13 0 13 -12v-51q0 -12 -13 -12zM312 910h24q12 0 12 -12q0 -113 -87 -113q-32 0 -56.5 15.5t-44 31.5t-37.5 16q-21 0 -31 -12.5
t-10 -44.5q0 -12 -12 -12h-24q-12 0 -12 12q0 108 86 108q37 0 77 -33t61 -33q24 0 33 14t9 51q0 12 12 12z" />
    <glyph glyph-name="itilde" unicode="&#x129;" horiz-adv-x="333" 
d="M269 0h-192q-12 0 -12 12v43q0 12 12 12h56v358h-56q-12 0 -12 12v43q0 12 12 12h127q12 0 12 -12v-413h53q12 0 12 -12v-43q0 -12 -12 -12zM279 684h24q12 0 12 -12q0 -113 -87 -113q-32 0 -56.5 15.5t-44 31.5t-37.5 16q-21 0 -31 -12.5t-10 -44.5q0 -12 -12 -12h-24
q-12 0 -12 12q0 108 86 108q37 0 77 -33t61 -33q24 0 33 14t9 51q0 12 12 12z" />
    <glyph glyph-name="imacron" unicode="&#x12b;" horiz-adv-x="293" 
d="M242 0h-191q-13 0 -13 12v43q0 12 13 12h55v358h-55q-13 0 -13 12v43q0 12 13 12h126q12 0 12 -12v-413h53q13 0 13 -12v-43q0 -12 -13 -12zM282 554h-296q-13 0 -13 13v42q0 14 13 14h296q13 0 13 -14v-42q0 -13 -13 -13z" />
    <glyph glyph-name="Ibreve" unicode="&#x12c;" horiz-adv-x="362" 
d="M301 0h-240q-13 0 -13 12v51q0 12 13 12h76v568h-76q-13 0 -13 12v51q0 12 13 12h240q13 0 13 -12v-51q0 -12 -13 -12h-77v-568h77q13 0 13 -12v-51q0 -12 -13 -12zM278 941h32q13 0 13 -13q0 -67 -39 -103t-102 -36q-62 0 -100.5 36t-38.5 103q0 13 13 13h32
q13 0 13 -13q0 -41 23 -64.5t58 -23.5t59 23.5t24 64.5q0 13 13 13z" />
    <glyph glyph-name="Iogonek" unicode="&#x12e;" horiz-adv-x="368" 
d="M306 -107l9 -13q8 -11 -4 -17q-34 -24 -73 -24q-36 0 -57.5 20.5t-21.5 52.5q0 33 21.5 55.5t47.5 32.5h-167q-13 0 -13 12v51q0 12 13 12h76v568h-76q-13 0 -13 12v51q0 12 13 12h240q13 0 13 -12v-51q0 -12 -13 -12h-77v-568h77q13 0 13 -12v-51q0 -12 -13 -12h-20
q-14 -7 -28 -16t-28 -27.5t-14 -38.5q0 -16 10.5 -25t27.5 -9q21 0 39 10q13 7 18 -1z" />
    <glyph glyph-name="iogonek" unicode="&#x12f;" horiz-adv-x="302" 
d="M238 -107l9 -13q8 -11 -4 -17q-34 -24 -73 -24q-36 0 -57.5 20.5t-21.5 52.5q0 33 21.5 55.5t47.5 32.5h-109q-13 0 -13 12v43q0 12 13 12h55v358h-55q-13 0 -13 12v43q0 12 13 12h126q12 0 12 -12v-413h53q13 0 13 -12v-43q0 -12 -13 -12h-29q-14 -7 -28 -16t-28 -27.5
t-14 -38.5q0 -16 10.5 -25t27.5 -9q21 0 39 10q13 7 18 -1zM202 600q0 -23 -16.5 -39t-39.5 -16t-39.5 16t-16.5 39t16.5 40t39.5 17t39.5 -17t16.5 -40z" />
    <glyph glyph-name="Idotaccent" unicode="&#x130;" horiz-adv-x="362" 
d="M301 0h-240q-13 0 -13 12v51q0 12 13 12h76v568h-76q-13 0 -13 12v51q0 12 13 12h240q13 0 13 -12v-51q0 -12 -13 -12h-77v-568h77q13 0 13 -12v-51q0 -12 -13 -12zM234 844q0 -22 -15 -37t-37 -15t-37 15t-15 37t15 37.5t37 15.5t37 -15.5t15 -37.5z" />
    <glyph glyph-name="dotlessi" unicode="&#x131;" horiz-adv-x="293" 
d="M242 0h-191q-13 0 -13 12v43q0 12 13 12h55v358h-55q-13 0 -13 12v43q0 12 13 12h126q12 0 12 -12v-413h53q13 0 13 -12v-43q0 -12 -13 -12z" />
    <glyph glyph-name="Jcircumflex" unicode="&#x134;" horiz-adv-x="513" 
d="M449 830l-25 -29q-8 -10 -19 -2l-124 105l-122 -105q-10 -9 -19 2l-25 29q-7 11 2 19l155 136q4 4 10 4q5 0 10 -5l155 -135q8 -10 2 -19zM288 262v381h-76q-13 0 -13 12v51q0 12 13 12h240q13 0 13 -12v-51q0 -12 -13 -12h-77v-372q0 -147 -69 -209t-216 -62
q-13 0 -13 12v51q0 12 13 12q110 0 154 45.5t44 141.5z" />
    <glyph glyph-name="jcircumflex" unicode="&#x135;" horiz-adv-x="343" 
d="M189 -63v488h-56q-12 0 -12 12v43q0 12 12 12h127q12 0 12 -12v-544q0 -83 -42.5 -126.5t-118.5 -43.5q-56 0 -100 39q-10 9 -2 19l23 30q9 9 18 2q24 -19 54 -19q85 0 85 100zM389 604l-25 -29q-8 -10 -19 -2l-124 105l-122 -105q-10 -9 -19 2l-25 29q-7 11 2 19
l155 136q4 4 10 4q5 0 10 -5l155 -135q8 -10 2 -19z" />
    <glyph glyph-name="Kcommaaccent" unicode="&#x136;" horiz-adv-x="763" 
d="M314 -222v17q0 6 7 6q16 0 28.5 13.5t12.5 39.5l-2 11q-5 -5 -19 -5q-18 0 -30.5 13t-12.5 34q0 19 14 33t33 14q26 0 40.5 -19.5t14.5 -53.5q0 -56 -22 -82.5t-57 -26.5q-7 0 -7 6zM702 0h-87q-36 0 -60 48l-94 191q-8 16 -14.5 25t-28 18t-53.5 9h-141v-216h92
q13 0 13 -12v-51q0 -12 -13 -12h-255q-13 0 -13 12v51q0 12 13 12h76v568h-76q-13 0 -13 12v51q0 12 13 12h224q12 0 12 -12v-51q0 -12 -12 -12h-61v-281h105q106 0 157.5 62.5t51.5 218.5h-68q-12 0 -12 12v51q0 12 12 12h223q12 0 12 -12v-51q0 -12 -12 -12h-69
q0 -241 -136 -315q23 -11 36 -28.5t30 -51.5l87 -173h61q12 0 12 -12v-51q0 -12 -12 -12z" />
    <glyph glyph-name="kcommaaccent" unicode="&#x137;" horiz-adv-x="614" 
d="M273 -222v17q0 6 7 6q16 0 28.5 13.5t12.5 39.5l-2 11q-5 -5 -19 -5q-18 0 -30.5 13t-12.5 34q0 19 13.5 33t33.5 14q26 0 40.5 -19.5t14.5 -53.5q0 -56 -22 -82.5t-57 -26.5q-7 0 -7 6zM570 0h-54q-31 0 -53 31l-177 240l-97 -90v-114h53q13 0 13 -12v-43q0 -12 -13 -12
h-191q-13 0 -13 12v43q0 12 13 12h55v584h-55q-13 0 -13 12v43q0 12 13 12h126q12 0 12 -12v-448l182 167h-36q-12 0 -12 12v43q0 12 12 12h192q12 0 12 -12v-43q0 -12 -12 -12h-65l-122 -107l187 -251h43q12 0 12 -12v-43q0 -12 -12 -12z" />
    <glyph glyph-name="Lacute" unicode="&#x139;" horiz-adv-x="670" 
d="M425 932l-168 -134q-12 -7 -19 3l-25 29q-9 11 2 19l161 141q9 9 19 -1l31 -38q8 -10 -1 -19zM608 0h-547q-13 0 -13 12v51q0 12 13 12h76v568h-76q-13 0 -13 12v51q0 12 13 12h239q13 0 13 -13v-49q0 -13 -13 -13h-76v-568h318v98q0 12 13 12h54q12 0 12 -12v-160
q0 -13 -13 -13z" />
    <glyph glyph-name="lacute" unicode="&#x13a;" horiz-adv-x="293" 
d="M297 895l-168 -134q-12 -7 -19 3l-25 29q-9 11 2 19l161 141q9 9 19 -1l31 -38q8 -10 -1 -19zM242 0h-191q-13 0 -13 12v43q0 12 13 12h55v584h-55q-13 0 -13 12v43q0 12 13 12h111q27 0 27 -25v-626h53q13 0 13 -12v-43q0 -12 -13 -12z" />
    <glyph glyph-name="Lcommaaccent" unicode="&#x13b;" horiz-adv-x="670" 
d="M282 -222v17q0 6 7 6q16 0 28.5 13.5t12.5 39.5l-2 11q-5 -5 -19 -5q-18 0 -30.5 13t-12.5 34q0 19 14 33t33 14q26 0 40.5 -19.5t14.5 -53.5q0 -56 -22 -82.5t-57 -26.5q-7 0 -7 6zM608 0h-547q-13 0 -13 12v51q0 12 13 12h76v568h-76q-13 0 -13 12v51q0 12 13 12h239
q13 0 13 -13v-49q0 -13 -13 -13h-76v-568h318v98q0 12 13 12h54q12 0 12 -12v-160q0 -13 -13 -13z" />
    <glyph glyph-name="lcommaaccent" unicode="&#x13c;" horiz-adv-x="293" 
d="M116 -222v17q0 6 7 6q16 0 28.5 13.5t12.5 39.5l-2 11q-5 -5 -19 -5q-18 0 -30.5 13t-12.5 34q0 19 14 33t33 14q26 0 40.5 -19.5t14.5 -53.5q0 -56 -22 -82.5t-57 -26.5q-7 0 -7 6zM242 0h-191q-13 0 -13 12v43q0 12 13 12h55v584h-55q-13 0 -13 12v43q0 12 13 12h111
q27 0 27 -25v-626h53q13 0 13 -12v-43q0 -12 -13 -12z" />
    <glyph glyph-name="Lcaron" unicode="&#x13d;" horiz-adv-x="670" 
d="M347 540v17q0 6 6 6q16 0 28.5 13.5t12.5 39.5l-2 12q-5 -5 -19 -5q-18 0 -30.5 13t-12.5 33t13.5 33.5t33.5 13.5q26 0 41 -19t15 -54q0 -56 -22.5 -82.5t-57.5 -26.5q-6 0 -6 6zM608 0h-547q-13 0 -13 12v51q0 12 13 12h76v568h-76q-13 0 -13 12v51q0 12 13 12h239
q13 0 13 -13v-49q0 -13 -13 -13h-76v-568h318v98q0 12 13 12h54q12 0 12 -12v-160q0 -13 -13 -13z" />
    <glyph glyph-name="lcaron" unicode="&#x13e;" horiz-adv-x="293" 
d="M251 567v17q0 6 6 6q16 0 28.5 13.5t12.5 39.5l-2 12q-5 -5 -19 -5q-18 0 -30.5 13t-12.5 33t13.5 33.5t33.5 13.5q26 0 41 -19t15 -54q0 -56 -22.5 -82.5t-57.5 -26.5q-6 0 -6 6zM242 0h-191q-13 0 -13 12v43q0 12 13 12h55v584h-55q-13 0 -13 12v43q0 12 13 12h111
q27 0 27 -25v-626h53q13 0 13 -12v-43q0 -12 -13 -12z" />
    <glyph glyph-name="Ldot" unicode="&#x13f;" horiz-adv-x="670" 
d="M309 199q-19 0 -32 12.5t-13 32.5q0 19 13 32.5t32 13.5t32 -13.5t13 -32.5t-13 -32t-32 -13zM608 0h-547q-13 0 -13 12v51q0 12 13 12h76v568h-76q-13 0 -13 12v51q0 12 13 12h239q13 0 13 -13v-49q0 -13 -13 -13h-76v-568h318v98q0 12 13 12h54q12 0 12 -12v-160
q0 -13 -13 -13z" />
    <glyph glyph-name="ldot" unicode="&#x140;" horiz-adv-x="293" 
d="M242 0h-191q-13 0 -13 12v43q0 12 13 12h55v584h-55q-13 0 -13 12v43q0 12 13 12h111q27 0 27 -25v-626h53q13 0 13 -12v-43q0 -12 -13 -12z" />
    <glyph glyph-name="Lslash" unicode="&#x141;" horiz-adv-x="677" 
d="M616 0h-548q-12 0 -12 12v51q0 12 12 12h77v189l-66 -66q-9 -10 -19 0l-20 21q-10 9 0 19l105 104v301h-77q-12 0 -12 12v51q0 12 12 12h239q14 0 14 -13v-49q0 -13 -14 -13h-75v-214l111 112q9 8 19 0l20 -21q10 -10 0 -19l-150 -151v-275h318v98q0 12 12 12h55
q12 0 12 -12v-160q0 -13 -13 -13z" />
    <glyph glyph-name="lslash" unicode="&#x142;" horiz-adv-x="293" 
d="M242 0h-191q-13 0 -13 12v43q0 12 13 12h55v189l-88 -88q-9 -11 -18 0l-20 20q-10 10 0 19l126 127v317h-55q-13 0 -13 12v43q0 12 13 12h111q27 0 27 -25v-277l94 94q9 10 19 0l20 -20q8 -10 0 -19l-133 -132v-272h53q13 0 13 -12v-43q0 -12 -13 -12z" />
    <glyph glyph-name="Nacute" unicode="&#x143;" horiz-adv-x="820" 
d="M520 932l-168 -134q-12 -7 -19 3l-25 29q-9 11 2 19l161 141q9 9 19 -1l31 -38q8 -10 -1 -19zM670 0h-54q-19 0 -30 7.5t-21 23.5l-289 452l-50 84h-2v-492h77q13 0 13 -12v-51q0 -12 -13 -12h-240q-13 0 -13 12v51q0 12 13 12h76v568h-76q-13 0 -13 12v51q0 12 13 12
h140q29 0 51 -34l285 -446l57 -97h2v502h-77q-12 0 -12 12v51q0 12 12 12h241q12 0 12 -12v-51q0 -12 -12 -12h-77v-631q0 -12 -13 -12z" />
    <glyph glyph-name="nacute" unicode="&#x144;" horiz-adv-x="621" 
d="M425 706l-168 -134q-12 -7 -19 3l-25 29q-9 11 2 19l161 141q9 9 19 -1l31 -38q8 -10 -1 -19zM570 0h-95q-43 0 -43 42v263q0 58 -28 90t-82 32q-16 0 -31 -3t-26.5 -8t-21.5 -11t-17.5 -13t-13.5 -14t-10.5 -13.5t-7 -11.5t-4.5 -8l-1 -3v-275h53q13 0 13 -12v-43
q0 -12 -13 -12h-191q-13 0 -13 12v43q0 12 13 12h55v358h-55q-13 0 -13 12v43q0 12 13 12h117q13 0 13 -12l-2 -68h3q52 87 161 87q80 0 125 -47t46 -127v-258h56q13 0 13 -12v-43q0 -12 -13 -12z" />
    <glyph glyph-name="Ncommaaccent" unicode="&#x145;" horiz-adv-x="820" 
d="M379 -222v17q0 6 7 6q16 0 28.5 13.5t12.5 39.5l-2 11q-5 -5 -19 -5q-18 0 -30.5 13t-12.5 34q0 19 13.5 33t33.5 14q26 0 40.5 -19.5t14.5 -53.5q0 -56 -22 -82.5t-57 -26.5q-7 0 -7 6zM670 0h-54q-19 0 -30 7.5t-21 23.5l-289 452l-50 84h-2v-492h77q13 0 13 -12v-51
q0 -12 -13 -12h-240q-13 0 -13 12v51q0 12 13 12h76v568h-76q-13 0 -13 12v51q0 12 13 12h140q29 0 51 -34l285 -446l57 -97h2v502h-77q-12 0 -12 12v51q0 12 12 12h241q12 0 12 -12v-51q0 -12 -12 -12h-77v-631q0 -12 -13 -12z" />
    <glyph glyph-name="ncommaaccent" unicode="&#x146;" horiz-adv-x="621" 
d="M272 -222v17q0 6 7 6q16 0 28.5 13.5t12.5 39.5l-2 11q-5 -5 -19 -5q-18 0 -30.5 13t-12.5 34q0 19 14 33t33 14q26 0 40.5 -19.5t14.5 -53.5q0 -56 -22 -82.5t-57 -26.5q-7 0 -7 6zM570 0h-95q-43 0 -43 42v263q0 58 -28 90t-82 32q-16 0 -31 -3t-26.5 -8t-21.5 -11
t-17.5 -13t-13.5 -14t-10.5 -13.5t-7 -11.5t-4.5 -8l-1 -3v-275h53q13 0 13 -12v-43q0 -12 -13 -12h-191q-13 0 -13 12v43q0 12 13 12h55v358h-55q-13 0 -13 12v43q0 12 13 12h117q13 0 13 -12l-2 -68h3q52 87 161 87q80 0 125 -47t46 -127v-258h56q13 0 13 -12v-43
q0 -12 -13 -12z" />
    <glyph glyph-name="Ncaron" unicode="&#x147;" horiz-adv-x="820" 
d="M578 939l-155 -135q-5 -5 -10 -5q-6 0 -10 4l-155 136q-9 8 -2 19l25 28q7 10 19 2l122 -105l124 105q12 8 19 -2l25 -28q6 -9 -2 -19zM670 0h-54q-19 0 -30 7.5t-21 23.5l-289 452l-50 84h-2v-492h77q13 0 13 -12v-51q0 -12 -13 -12h-240q-13 0 -13 12v51q0 12 13 12h76
v568h-76q-13 0 -13 12v51q0 12 13 12h140q29 0 51 -34l285 -446l57 -97h2v502h-77q-12 0 -12 12v51q0 12 12 12h241q12 0 12 -12v-51q0 -12 -12 -12h-77v-631q0 -12 -13 -12z" />
    <glyph glyph-name="ncaron" unicode="&#x148;" horiz-adv-x="621" 
d="M472 713l-155 -135q-5 -5 -10 -5q-6 0 -10 4l-155 136q-9 8 -2 19l25 28q7 10 19 2l122 -105l124 105q12 8 19 -2l25 -28q6 -9 -2 -19zM570 0h-95q-43 0 -43 42v263q0 58 -28 90t-82 32q-16 0 -31 -3t-26.5 -8t-21.5 -11t-17.5 -13t-13.5 -14t-10.5 -13.5t-7 -11.5
t-4.5 -8l-1 -3v-275h53q13 0 13 -12v-43q0 -12 -13 -12h-191q-13 0 -13 12v43q0 12 13 12h55v358h-55q-13 0 -13 12v43q0 12 13 12h117q13 0 13 -12l-2 -68h3q52 87 161 87q80 0 125 -47t46 -127v-258h56q13 0 13 -12v-43q0 -12 -13 -12z" />
    <glyph glyph-name="Eng" unicode="&#x14a;" horiz-adv-x="801" 
d="M375 -219v50q0 13 12 13q110 0 154.5 37t44.5 118v4q-19 6 -31 28l-289 452l-50 84h-2v-492h77q13 0 13 -12v-51q0 -12 -13 -12h-240q-13 0 -13 12v51q0 12 13 12h76v568h-76q-13 0 -13 12v51q0 12 13 12h140q31 0 51 -34l285 -446l57 -97h2v502h-77q-12 0 -12 12v51
q0 12 12 12h241q12 0 12 -12v-51q0 -12 -12 -12h-77v-629q-1 -125 -68 -185.5t-218 -60.5q-12 0 -12 13z" />
    <glyph glyph-name="eng" unicode="&#x14b;" horiz-adv-x="552" 
d="M432 -63v368q0 58 -28 90t-82 32q-16 0 -31 -3t-26.5 -8t-21.5 -11t-17.5 -13t-13.5 -14t-10.5 -13.5t-7 -11.5t-4.5 -8l-1 -3v-275h53q13 0 13 -12v-43q0 -12 -13 -12h-191q-13 0 -13 12v43q0 12 13 12h55v358h-55q-13 0 -13 12v43q0 12 13 12h98q17 0 24.5 -6.5
t7.5 -23.5l-2 -50h3q52 87 161 87q80 0 125 -47t46 -127v-389q1 -83 -41.5 -126.5t-118.5 -43.5q-57 0 -101 39q-10 9 -2 19l23 30q9 9 18 2q24 -19 54 -19q41 0 63.5 25.5t22.5 74.5z" />
    <glyph glyph-name="Omacron" unicode="&#x14c;" horiz-adv-x="793" 
d="M546 780h-296q-13 0 -13 13v42q0 14 13 14h296q13 0 13 -14v-42q0 -13 -13 -13zM397 -7q-149 0 -249 103.5t-100 266.5q0 164 103 262.5t246 98.5t245 -98.5t102 -262.5q0 -165 -98.5 -267.5t-248.5 -102.5zM397 74q102 0 178 76.5t76 209.5q0 134 -77.5 209.5
t-176.5 75.5t-177 -75.5t-78 -209.5q0 -133 76.5 -209.5t178.5 -76.5z" />
    <glyph glyph-name="omacron" unicode="&#x14d;" horiz-adv-x="575" 
d="M436 554h-296q-13 0 -13 13v42q0 14 13 14h296q13 0 13 -14v-42q0 -13 -13 -13zM287 -7q-109 0 -179 69.5t-70 185.5q0 115 71 183t179 68q107 0 177.5 -68.5t70.5 -182.5q0 -115 -70 -185t-179 -70zM287 63q70 0 118 51t48 133t-48.5 132t-116.5 50t-117 -50t-49 -132
t48 -133t117 -51z" />
    <glyph glyph-name="Obreve" unicode="&#x14e;" horiz-adv-x="793" 
d="M397 -7q-149 0 -249 103.5t-100 266.5q0 164 103 262.5t246 98.5t245 -98.5t102 -262.5q0 -165 -98.5 -267.5t-248.5 -102.5zM397 74q102 0 178 76.5t76 209.5q0 134 -77.5 209.5t-176.5 75.5t-177 -75.5t-78 -209.5q0 -133 76.5 -209.5t178.5 -76.5zM493 941h32
q13 0 13 -13q0 -67 -39 -103t-102 -36q-62 0 -100.5 36t-38.5 103q0 13 13 13h32q13 0 13 -13q0 -41 23 -64.5t58 -23.5t59 23.5t24 64.5q0 13 13 13z" />
    <glyph glyph-name="obreve" unicode="&#x14f;" horiz-adv-x="575" 
d="M287 -7q-109 0 -179 69.5t-70 185.5q0 115 71 183t179 68q107 0 177.5 -68.5t70.5 -182.5q0 -115 -70 -185t-179 -70zM287 63q70 0 118 51t48 133t-48.5 132t-116.5 50t-117 -50t-49 -132t48 -133t117 -51zM386 715h32q13 0 13 -13q0 -67 -39 -103t-102 -36
q-62 0 -100.5 36t-38.5 103q0 13 13 13h32q13 0 13 -13q0 -41 23 -64.5t58 -23.5t59 23.5t24 64.5q0 13 13 13z" />
    <glyph glyph-name="Ohungarumlaut" unicode="&#x150;" horiz-adv-x="793" 
d="M478 941l-168 -134q-12 -7 -19 3l-25 29q-9 11 2 19l161 141q8 10 19 -1l31 -38q8 -11 -1 -19zM650 941l-168 -134q-10 -7 -19 3l-25 29q-9 11 2 19l161 141q10 10 19 -1l32 -38q7 -12 -2 -19zM397 -7q-149 0 -249 103.5t-100 266.5q0 164 103 262.5t246 98.5t245 -98.5
t102 -262.5q0 -165 -98.5 -267.5t-248.5 -102.5zM397 74q102 0 178 76.5t76 209.5q0 134 -77.5 209.5t-176.5 75.5t-177 -75.5t-78 -209.5q0 -133 76.5 -209.5t178.5 -76.5z" />
    <glyph glyph-name="ohungarumlaut" unicode="&#x151;" horiz-adv-x="575" 
d="M322 715l-168 -134q-12 -7 -19 3l-25 29q-9 11 2 19l161 141q8 10 19 -1l31 -38q8 -11 -1 -19zM494 715l-168 -134q-10 -7 -19 3l-25 29q-9 11 2 19l161 141q10 10 19 -1l32 -38q7 -12 -2 -19zM287 -7q-109 0 -179 69.5t-70 185.5q0 115 71 183t179 68q107 0 177.5 -68.5
t70.5 -182.5q0 -115 -70 -185t-179 -70zM287 63q70 0 118 51t48 133t-48.5 132t-116.5 50t-117 -50t-49 -132t48 -133t117 -51z" />
    <glyph glyph-name="OE" unicode="&#x152;" horiz-adv-x="907" 
d="M847 0h-454q-148 0 -246.5 101t-98.5 262q0 163 101 258.5t243 96.5h455q12 0 12 -12v-161q0 -13 -12 -13h-55q-12 0 -12 13v98h-301v-248h253q12 0 12 -12v-51q0 -12 -12 -12h-253v-245h301v98q0 12 12 12h55q12 0 12 -12v-161q0 -12 -12 -12zM392 79v560
q-99 -3 -174.5 -75t-75.5 -204t74 -205.5t176 -75.5z" />
    <glyph glyph-name="oe" unicode="&#x153;" horiz-adv-x="954" 
d="M700 -7q-67 0 -121 31t-83 88q-30 -57 -85 -88t-124 -31q-109 0 -179 69.5t-70 185.5q0 115 71 183t179 68q67 0 122 -30.5t85 -85.5q29 55 81.5 85.5t113.5 30.5q107 0 166 -66.5t57 -182.5q0 -14 -14 -14h-360q4 -83 52.5 -128t113.5 -45q57 0 100.5 26t58.5 51
q8 10 18 3l27 -27q10 -8 3 -18q-6 -11 -20.5 -26t-40 -34t-65.5 -32t-86 -13zM287 63q70 0 118 50.5t48 132.5q0 83 -48.5 133t-116.5 50t-117 -50t-49 -132t48 -133t117 -51zM541 296h289q-3 63 -39 100t-99 37q-57 0 -99.5 -34.5t-51.5 -102.5z" />
    <glyph glyph-name="Racute" unicode="&#x154;" horiz-adv-x="715" 
d="M442 932l-168 -134q-12 -7 -19 3l-25 29q-9 11 2 19l161 141q9 9 19 -1l31 -38q8 -10 -1 -19zM655 0h-87q-36 0 -60 48l-94 191q-12 25 -25.5 37t-37.5 13h-127v-214h90q12 0 12 -12v-51q0 -12 -12 -12h-253q-13 0 -13 12v51q0 12 13 12h76v568h-76q-13 0 -13 12v51
q0 12 13 12h308q107 0 174 -56.5t67 -159.5q0 -157 -147 -196q19 -15 47 -67l84 -164h61q12 0 12 -12v-51q0 -12 -12 -12zM224 360h128q170 0 170 139q0 144 -170 144h-128v-283z" />
    <glyph glyph-name="racute" unicode="&#x155;" horiz-adv-x="421" 
d="M364 706l-168 -134q-12 -7 -19 3l-25 29q-9 11 2 19l161 141q9 9 19 -1l31 -38q8 -10 -1 -19zM242 0h-191q-13 0 -13 12v43q0 12 13 12h55v358h-55q-13 0 -13 12v43q0 12 13 12h117q13 0 13 -12v-125h3q1 6 4.5 15t19 33t37 42.5t62 33.5t91.5 15q13 0 13 -13v-53
q0 -13 -13 -13h-21q-86 0 -137 -55t-51 -125v-168h53q13 0 13 -12v-43q0 -12 -13 -12z" />
    <glyph glyph-name="Rcommaaccent" unicode="&#x156;" horiz-adv-x="715" 
d="M310 -222v17q0 6 7 6q16 0 28.5 13.5t12.5 39.5l-2 11q-5 -5 -19 -5q-18 0 -30.5 13t-12.5 34q0 19 14 33t33 14q26 0 40.5 -19.5t14.5 -53.5q0 -56 -22 -82.5t-57 -26.5q-7 0 -7 6zM655 0h-87q-36 0 -60 48l-94 191q-12 25 -25.5 37t-37.5 13h-127v-214h90q12 0 12 -12
v-51q0 -12 -12 -12h-253q-13 0 -13 12v51q0 12 13 12h76v568h-76q-13 0 -13 12v51q0 12 13 12h308q107 0 174 -56.5t67 -159.5q0 -157 -147 -196q19 -15 47 -67l84 -164h61q12 0 12 -12v-51q0 -12 -12 -12zM224 360h128q170 0 170 139q0 144 -170 144h-128v-283z" />
    <glyph glyph-name="rcommaaccent" unicode="&#x157;" horiz-adv-x="421" 
d="M118 -222v17q0 6 7 6q16 0 28.5 13.5t12.5 39.5l-2 11q-5 -5 -19 -5q-18 0 -30.5 13t-12.5 34q0 19 14 33t33 14q26 0 40.5 -19.5t14.5 -53.5q0 -56 -22 -82.5t-57 -26.5q-7 0 -7 6zM242 0h-191q-13 0 -13 12v43q0 12 13 12h55v358h-55q-13 0 -13 12v43q0 12 13 12h117
q13 0 13 -12v-125h3q1 6 4.5 15t19 33t37 42.5t62 33.5t91.5 15q13 0 13 -13v-53q0 -13 -13 -13h-21q-86 0 -137 -55t-51 -125v-168h53q13 0 13 -12v-43q0 -12 -13 -12z" />
    <glyph glyph-name="Rcaron" unicode="&#x158;" horiz-adv-x="715" 
d="M497 939l-155 -135q-5 -5 -10 -5q-6 0 -10 4l-155 136q-9 8 -2 19l25 28q7 10 19 2l122 -105l124 105q12 8 19 -2l25 -28q6 -9 -2 -19zM655 0h-87q-36 0 -60 48l-94 191q-12 25 -25.5 37t-37.5 13h-127v-214h90q12 0 12 -12v-51q0 -12 -12 -12h-253q-13 0 -13 12v51
q0 12 13 12h76v568h-76q-13 0 -13 12v51q0 12 13 12h308q107 0 174 -56.5t67 -159.5q0 -157 -147 -196q19 -15 47 -67l84 -164h61q12 0 12 -12v-51q0 -12 -12 -12zM224 360h128q170 0 170 139q0 144 -170 144h-128v-283z" />
    <glyph glyph-name="rcaron" unicode="&#x159;" horiz-adv-x="435" 
d="M377 713l-155 -135q-5 -5 -10 -5q-6 0 -10 4l-155 136q-9 8 -2 19l25 28q7 10 19 2l122 -105l124 105q12 8 19 -2l25 -28q6 -9 -2 -19zM256 0h-191q-13 0 -13 12v43q0 12 13 12h55v358h-55q-13 0 -13 12v43q0 12 13 12h117q13 0 13 -12v-125h3q1 6 4.5 15t19 33t37 42.5
t62 33.5t91.5 15q13 0 13 -13v-53q0 -13 -13 -13h-21q-86 0 -137 -55t-51 -125v-168h53q13 0 13 -12v-43q0 -12 -13 -12z" />
    <glyph glyph-name="Sacute" unicode="&#x15a;" horiz-adv-x="666" 
d="M460 932l-168 -134q-12 -7 -19 3l-25 29q-9 11 2 19l161 141q9 9 19 -1l31 -38q8 -10 -1 -19zM117 0h-56q-13 0 -13 12v234q0 13 13 13h63q12 0 12 -13v-21q0 -6 6.5 -21.5t23 -38t39.5 -42.5t61.5 -34.5t83.5 -14.5q77 0 120.5 32t43.5 89q0 33 -24.5 56.5t-63.5 37.5
t-86.5 26t-95 27.5t-86.5 37t-63.5 60t-24.5 90.5q0 84 63.5 139t170.5 55q135 0 198 -79l-2 62q0 12 13 12h56q12 0 12 -12v-218q0 -12 -12 -12h-63q-12 0 -12 12v28q0 41 -46 83t-135 42q-66 0 -106.5 -31.5t-40.5 -80.5q0 -35 25 -60t65 -40t88 -27.5t96 -27.5t88 -36
t65 -57.5t25 -86.5q0 -88 -63 -145t-188 -57q-92 0 -152 37t-87 80l1 -98q0 -12 -12 -12z" />
    <glyph glyph-name="sacute" unicode="&#x15b;" horiz-adv-x="486" 
d="M366 706l-168 -134q-12 -7 -19 3l-25 29q-9 11 2 19l161 141q9 9 19 -1l31 -38q8 -10 -1 -19zM260 -7q-67 0 -107 25t-50 47h-2q2 -49 2 -52q0 -13 -14 -13h-34q-13 0 -13 13v150q0 13 13 13h39q14 0 14 -13v-20q1 -3 3.5 -9t13.5 -20.5t25.5 -26t40.5 -20.5t58 -9
q53 0 80.5 20.5t27.5 57.5q0 27 -31 43.5t-75.5 27.5t-88.5 25t-75 45.5t-31 79.5q0 65 47 103.5t120 38.5q99 0 142 -58h2q-2 36 -2 37q0 13 13 13h32q13 0 13 -13v-139q0 -13 -13 -13h-39q-14 0 -14 13v14q0 27 -31.5 53.5t-92.5 26.5q-39 0 -67 -21t-28 -57
q0 -31 31.5 -49.5t76.5 -29t90 -23.5t76.5 -43t31.5 -76q0 -60 -45.5 -100.5t-138.5 -40.5z" />
    <glyph glyph-name="Scircumflex" unicode="&#x15c;" horiz-adv-x="666" 
d="M499 830l-25 -29q-8 -10 -19 -2l-124 105l-122 -105q-10 -9 -19 2l-25 29q-7 11 2 19l155 136q4 4 10 4q5 0 10 -5l155 -135q8 -10 2 -19zM117 0h-56q-13 0 -13 12v234q0 13 13 13h63q12 0 12 -13v-21q0 -6 6.5 -21.5t23 -38t39.5 -42.5t61.5 -34.5t83.5 -14.5
q77 0 120.5 32t43.5 89q0 33 -24.5 56.5t-63.5 37.5t-86.5 26t-95 27.5t-86.5 37t-63.5 60t-24.5 90.5q0 84 63.5 139t170.5 55q135 0 198 -79l-2 62q0 12 13 12h56q12 0 12 -12v-218q0 -12 -12 -12h-63q-12 0 -12 12v28q0 41 -46 83t-135 42q-66 0 -106.5 -31.5
t-40.5 -80.5q0 -35 25 -60t65 -40t88 -27.5t96 -27.5t88 -36t65 -57.5t25 -86.5q0 -88 -63 -145t-188 -57q-92 0 -152 37t-87 80l1 -98q0 -12 -12 -12z" />
    <glyph glyph-name="scircumflex" unicode="&#x15d;" horiz-adv-x="486" 
d="M400 604l-25 -29q-8 -10 -19 -2l-124 105l-122 -105q-10 -9 -19 2l-25 29q-7 11 2 19l155 136q4 4 10 4q5 0 10 -5l155 -135q8 -10 2 -19zM260 -7q-67 0 -107 25t-50 47h-2q2 -49 2 -52q0 -13 -14 -13h-34q-13 0 -13 13v150q0 13 13 13h39q14 0 14 -13v-20q1 -3 3.5 -9
t13.5 -20.5t25.5 -26t40.5 -20.5t58 -9q53 0 80.5 20.5t27.5 57.5q0 27 -31 43.5t-75.5 27.5t-88.5 25t-75 45.5t-31 79.5q0 65 47 103.5t120 38.5q99 0 142 -58h2q-2 36 -2 37q0 13 13 13h32q13 0 13 -13v-139q0 -13 -13 -13h-39q-14 0 -14 13v14q0 27 -31.5 53.5
t-92.5 26.5q-39 0 -67 -21t-28 -57q0 -31 31.5 -49.5t76.5 -29t90 -23.5t76.5 -43t31.5 -76q0 -60 -45.5 -100.5t-138.5 -40.5z" />
    <glyph glyph-name="Scedilla" unicode="&#x15e;" horiz-adv-x="666" 
d="M336 -156q-38 0 -72 23q-11 7 -3 16l10 12q8 8 17 3q20 -13 44 -13q43 0 43 33q0 26 -49 26q-13 0 -17.5 4t-1.5 13l12 35q-72 9 -120 43t-71 71l1 -98q0 -12 -12 -12h-56q-13 0 -13 12v234q0 13 13 13h63q12 0 12 -13v-21q0 -6 6.5 -21.5t23 -38t39.5 -42.5t61.5 -34.5
t83.5 -14.5q77 0 120.5 32t43.5 89q0 33 -24.5 56.5t-63.5 37.5t-86.5 26t-95 27.5t-86.5 37t-63.5 60t-24.5 90.5q0 84 63.5 139t170.5 55q135 0 198 -79l-2 62q0 12 13 12h56q12 0 12 -12v-218q0 -12 -12 -12h-63q-12 0 -12 12v28q0 41 -46 83t-135 42q-66 0 -106.5 -31.5
t-40.5 -80.5q0 -35 25 -60t65 -40t88 -27.5t96 -27.5t88 -36t65 -57.5t25 -86.5q0 -88 -63 -145t-188 -57h-7l-6 -18q7 0 14 -1t22 -5.5t24.5 -17t9.5 -32.5q0 -35 -23.5 -55t-64.5 -20z" />
    <glyph glyph-name="scedilla" unicode="&#x15f;" horiz-adv-x="486" 
d="M238 -156q-38 0 -72 23q-11 7 -3 16l10 12q8 8 17 3q20 -13 44 -13q43 0 43 33q0 26 -49 26q-13 0 -17.5 4t-1.5 13l12 35q-50 7 -80 29t-38 40h-2q2 -49 2 -52q0 -13 -14 -13h-34q-13 0 -13 13v150q0 13 13 13h39q14 0 14 -13v-20q1 -3 3.5 -9t13.5 -20.5t25.5 -26
t40.5 -20.5t58 -9q53 0 80.5 20.5t27.5 57.5q0 27 -31 43.5t-75.5 27.5t-88.5 25t-75 45.5t-31 79.5q0 65 47 103.5t120 38.5q99 0 142 -58h2q-2 36 -2 37q0 13 13 13h32q13 0 13 -13v-139q0 -13 -13 -13h-39q-14 0 -14 13v14q0 27 -31.5 53.5t-92.5 26.5q-39 0 -67 -21
t-28 -57q0 -31 31.5 -49.5t76.5 -29t90 -23.5t76.5 -43t31.5 -76q0 -60 -45 -100t-137 -41l-6 -18q7 0 14 -1t22 -5.5t24.5 -17t9.5 -32.5q0 -35 -23.5 -55t-64.5 -20z" />
    <glyph glyph-name="Scaron" unicode="&#x160;" horiz-adv-x="666" 
d="M500 939l-155 -135q-5 -5 -10 -5q-6 0 -10 4l-155 136q-9 8 -2 19l25 28q7 10 19 2l122 -105l124 105q12 8 19 -2l25 -28q6 -9 -2 -19zM117 0h-56q-13 0 -13 12v234q0 13 13 13h63q12 0 12 -13v-21q0 -6 6.5 -21.5t23 -38t39.5 -42.5t61.5 -34.5t83.5 -14.5
q77 0 120.5 32t43.5 89q0 33 -24.5 56.5t-63.5 37.5t-86.5 26t-95 27.5t-86.5 37t-63.5 60t-24.5 90.5q0 84 63.5 139t170.5 55q135 0 198 -79l-2 62q0 12 13 12h56q12 0 12 -12v-218q0 -12 -12 -12h-63q-12 0 -12 12v28q0 41 -46 83t-135 42q-66 0 -106.5 -31.5
t-40.5 -80.5q0 -35 25 -60t65 -40t88 -27.5t96 -27.5t88 -36t65 -57.5t25 -86.5q0 -88 -63 -145t-188 -57q-92 0 -152 37t-87 80l1 -98q0 -12 -12 -12z" />
    <glyph glyph-name="scaron" unicode="&#x161;" horiz-adv-x="486" 
d="M403 713l-155 -135q-5 -5 -10 -5q-6 0 -10 4l-155 136q-9 8 -2 19l25 28q7 10 19 2l122 -105l124 105q12 8 19 -2l25 -28q6 -9 -2 -19zM260 -7q-67 0 -107 25t-50 47h-2q2 -49 2 -52q0 -13 -14 -13h-34q-13 0 -13 13v150q0 13 13 13h39q14 0 14 -13v-20q1 -3 3.5 -9
t13.5 -20.5t25.5 -26t40.5 -20.5t58 -9q53 0 80.5 20.5t27.5 57.5q0 27 -31 43.5t-75.5 27.5t-88.5 25t-75 45.5t-31 79.5q0 65 47 103.5t120 38.5q99 0 142 -58h2q-2 36 -2 37q0 13 13 13h32q13 0 13 -13v-139q0 -13 -13 -13h-39q-14 0 -14 13v14q0 27 -31.5 53.5
t-92.5 26.5q-39 0 -67 -21t-28 -57q0 -31 31.5 -49.5t76.5 -29t90 -23.5t76.5 -43t31.5 -76q0 -60 -45.5 -100.5t-138.5 -40.5z" />
    <glyph glyph-name="Tcommaaccent" unicode="&#x162;" horiz-adv-x="727" 
d="M330 -222v17q0 6 7 6q16 0 28.5 13.5t12.5 39.5l-2 11q-5 -5 -19 -5q-18 0 -30.5 13t-12.5 34q0 19 14 33t33 14q26 0 40.5 -19.5t14.5 -53.5q0 -56 -22 -82.5t-57 -26.5q-7 0 -7 6zM478 0h-233q-13 0 -13 13v49q0 13 13 13h76v568h-189v-106q0 -14 -14 -14h-56
q-14 0 -14 14v168q0 13 14 13h603q14 0 14 -13v-168q0 -14 -14 -14h-57q-13 0 -13 14v106h-187v-568h70q14 0 14 -13v-49q0 -13 -14 -13z" />
    <glyph glyph-name="tcommaaccent" unicode="&#x163;" horiz-adv-x="401" 
d="M176 -222v17q0 6 7 6q16 0 28.5 13.5t12.5 39.5l-2 11q-5 -5 -19 -5q-18 0 -30.5 13t-12.5 34q0 19 14 33t33 14q26 0 40.5 -19.5t14.5 -53.5q0 -56 -22 -82.5t-57 -26.5q-7 0 -7 6zM348 82l24 -31q8 -9 -2 -19q-44 -39 -101 -39q-76 0 -118.5 43.5t-42.5 126.5v262h-56
q-14 0 -14 13v41q0 13 14 13h56v101q0 14 14 14h56q13 0 13 -14v-101h127q14 0 14 -13v-41q0 -13 -14 -13h-127v-260q0 -50 22.5 -75.5t63.5 -25.5q34 0 53 19q10 9 18 -1z" />
    <glyph glyph-name="Tcaron" unicode="&#x164;" horiz-adv-x="727" 
d="M507 939l-155 -135q-5 -5 -10 -5q-6 0 -10 4l-155 136q-9 8 -2 19l25 28q7 10 19 2l122 -105l124 105q12 8 19 -2l25 -28q6 -9 -2 -19zM478 0h-233q-13 0 -13 13v49q0 13 13 13h76v568h-189v-106q0 -14 -14 -14h-56q-14 0 -14 14v168q0 13 14 13h603q14 0 14 -13v-168
q0 -14 -14 -14h-57q-13 0 -13 14v106h-187v-568h70q14 0 14 -13v-49q0 -13 -14 -13z" />
    <glyph glyph-name="tcaron" unicode="&#x165;" horiz-adv-x="401" 
d="M240 547v17q0 6 6 6q16 0 28.5 13.5t12.5 39.5l-2 12q-5 -5 -19 -5q-18 0 -30.5 13t-12.5 33t13.5 33.5t33.5 13.5q26 0 41 -19t15 -54q0 -56 -22.5 -82.5t-57.5 -26.5q-6 0 -6 6zM372 51l-24 31q-8 10 -18 1q-19 -19 -53 -19q-41 0 -63.5 25.5t-22.5 75.5v260h127
q14 0 14 13v41q0 13 -14 13h-127v101q0 14 -13 14h-56q-14 0 -14 -14v-101h-56q-14 0 -14 -13v-41q0 -13 14 -13h56v-262q0 -83 42.5 -126.5t118.5 -43.5q57 0 101 39q10 10 2 19z" />
    <glyph glyph-name="Tbar" unicode="&#x166;" horiz-adv-x="727" 
d="M478 0h-233q-13 0 -13 13v49q0 13 13 13h76v325h-103q-14 0 -14 14v42q0 13 14 13h103v174h-189v-106q0 -14 -14 -14h-56q-14 0 -14 14v168q0 13 14 13h603q14 0 14 -13v-168q0 -14 -14 -14h-57q-13 0 -13 14v106h-187v-174h105q13 0 13 -13v-42q0 -14 -13 -14h-105v-325
h70q14 0 14 -13v-49q0 -13 -14 -13z" />
    <glyph glyph-name="tbar" unicode="&#x167;" horiz-adv-x="428" 
d="M375 82l24 -31q9 -9 -2 -19q-44 -39 -101 -39q-76 0 -118 43t-42 127v262h-57q-14 0 -14 13v41q0 13 14 13h57v29h-54q-11 0 -11 11v16q0 11 11 11h54v34q0 14 13 14h56q14 0 14 -14v-34h73q11 0 11 -11v-16q0 -11 -11 -11h-73v-29h126q14 0 14 -13v-41q0 -13 -14 -13
h-126v-260q0 -101 85 -101q34 0 53 19q10 9 18 -1z" />
    <glyph glyph-name="Utilde" unicode="&#x168;" horiz-adv-x="814" 
d="M590 260v383h-77q-12 0 -12 12v51q0 12 12 12h241q12 0 12 -12v-51q0 -12 -12 -12h-77v-374q0 -135 -70.5 -205.5t-198.5 -70.5q-129 0 -200 70.5t-71 205.5v374h-76q-13 0 -13 12v51q0 12 13 12h240q13 0 13 -12v-51q0 -12 -13 -12h-77v-377q0 -192 184 -192
q94 0 138 49.5t44 136.5zM540 910h24q12 0 12 -12q0 -113 -87 -113q-32 0 -56.5 15.5t-44 31.5t-37.5 16q-21 0 -31 -12.5t-10 -44.5q0 -12 -12 -12h-24q-12 0 -12 12q0 108 86 108q37 0 77 -33t61 -33q24 0 33 14t9 51q0 12 12 12z" />
    <glyph glyph-name="utilde" unicode="&#x169;" horiz-adv-x="608" 
d="M557 0h-87q-43 0 -43 42v37h-3q-41 -86 -156 -86q-80 0 -126.5 47.5t-47.5 126.5v258h-57q-12 0 -12 12v43q0 12 12 12h96q43 0 43 -42v-263q0 -58 28 -90t82 -32q28 0 52 8.5t38.5 20.5t24.5 25t14 21t4 10v275h-54q-12 0 -12 12v43q0 12 12 12h124q12 0 12 -12v-413h56
q13 0 13 -12v-43q0 -12 -13 -12zM411 684h24q12 0 12 -12q0 -113 -87 -113q-32 0 -56.5 15.5t-44 31.5t-37.5 16q-21 0 -31 -12.5t-10 -44.5q0 -12 -12 -12h-24q-12 0 -12 12q0 108 86 108q37 0 77 -33t61 -33q24 0 33 14t9 51q0 12 12 12z" />
    <glyph glyph-name="Umacron" unicode="&#x16a;" horiz-adv-x="814" 
d="M590 260v383h-77q-12 0 -12 12v51q0 12 12 12h241q12 0 12 -12v-51q0 -12 -12 -12h-77v-374q0 -135 -70.5 -205.5t-198.5 -70.5q-129 0 -200 70.5t-71 205.5v374h-76q-13 0 -13 12v51q0 12 13 12h240q13 0 13 -12v-51q0 -12 -13 -12h-77v-377q0 -192 184 -192
q94 0 138 49.5t44 136.5zM550 780h-296q-13 0 -13 13v42q0 14 13 14h296q13 0 13 -14v-42q0 -13 -13 -13z" />
    <glyph glyph-name="umacron" unicode="&#x16b;" horiz-adv-x="608" 
d="M557 0h-87q-43 0 -43 42v37h-3q-41 -86 -156 -86q-80 0 -126.5 47.5t-47.5 126.5v258h-57q-12 0 -12 12v43q0 12 12 12h96q43 0 43 -42v-263q0 -58 28 -90t82 -32q28 0 52 8.5t38.5 20.5t24.5 25t14 21t4 10v275h-54q-12 0 -12 12v43q0 12 12 12h124q12 0 12 -12v-413h56
q13 0 13 -12v-43q0 -12 -13 -12zM435 554h-296q-13 0 -13 13v42q0 14 13 14h296q13 0 13 -14v-42q0 -13 -13 -13z" />
    <glyph glyph-name="Ubreve" unicode="&#x16c;" horiz-adv-x="814" 
d="M590 260v383h-77q-12 0 -12 12v51q0 12 12 12h241q12 0 12 -12v-51q0 -12 -12 -12h-77v-374q0 -135 -70.5 -205.5t-198.5 -70.5q-129 0 -200 70.5t-71 205.5v374h-76q-13 0 -13 12v51q0 12 13 12h240q13 0 13 -12v-51q0 -12 -13 -12h-77v-377q0 -192 184 -192
q94 0 138 49.5t44 136.5zM508 941h32q13 0 13 -13q0 -67 -39 -103t-102 -36q-62 0 -100.5 36t-38.5 103q0 13 13 13h32q13 0 13 -13q0 -41 23 -64.5t58 -23.5t59 23.5t24 64.5q0 13 13 13z" />
    <glyph glyph-name="ubreve" unicode="&#x16d;" horiz-adv-x="608" 
d="M557 0h-87q-43 0 -43 42v37h-3q-41 -86 -156 -86q-80 0 -126.5 47.5t-47.5 126.5v258h-57q-12 0 -12 12v43q0 12 12 12h96q43 0 43 -42v-263q0 -58 28 -90t82 -32q28 0 52 8.5t38.5 20.5t24.5 25t14 21t4 10v275h-54q-12 0 -12 12v43q0 12 12 12h124q12 0 12 -12v-413h56
q13 0 13 -12v-43q0 -12 -13 -12zM380 715h32q13 0 13 -13q0 -67 -39 -103t-102 -36q-62 0 -100.5 36t-38.5 103q0 13 13 13h32q13 0 13 -13q0 -41 23 -64.5t58 -23.5t59 23.5t24 64.5q0 13 13 13z" />
    <glyph glyph-name="Uring" unicode="&#x16e;" horiz-adv-x="814" 
d="M459 829q-12 -20 -35 -26.5t-43 5.5t-26.5 35.5t5.5 43.5t35 26.5t43 -5.5t26.5 -35.5t-5.5 -43.5zM436 849q4 11 -1.5 21.5t-16.5 14.5t-21.5 -1t-14.5 -17q-4 -11 1.5 -21.5t17.5 -14.5q11 -4 21 1t14 17zM590 260v383h-77q-12 0 -12 12v51q0 12 12 12h241q12 0 12 -12
v-51q0 -12 -12 -12h-77v-374q0 -135 -70.5 -205.5t-198.5 -70.5q-129 0 -200 70.5t-71 205.5v374h-76q-13 0 -13 12v51q0 12 13 12h240q13 0 13 -12v-51q0 -12 -13 -12h-77v-377q0 -192 184 -192q94 0 138 49.5t44 136.5z" />
    <glyph glyph-name="uring" unicode="&#x16f;" horiz-adv-x="608" 
d="M340 603q-12 -20 -35 -26.5t-43 5.5t-26.5 35.5t5.5 43.5t35 26.5t43 -5.5t26.5 -35.5t-5.5 -43.5zM317 623q4 11 -1.5 21.5t-16.5 14.5t-21.5 -1t-14.5 -17q-4 -11 1.5 -21.5t17.5 -14.5q11 -4 21 1t14 17zM557 0h-87q-43 0 -43 42v37h-3q-41 -86 -156 -86
q-80 0 -126.5 47.5t-47.5 126.5v258h-57q-12 0 -12 12v43q0 12 12 12h96q43 0 43 -42v-263q0 -58 28 -90t82 -32q28 0 52 8.5t38.5 20.5t24.5 25t14 21t4 10v275h-54q-12 0 -12 12v43q0 12 12 12h124q12 0 12 -12v-413h56q13 0 13 -12v-43q0 -12 -13 -12z" />
    <glyph glyph-name="Uhungarumlaut" unicode="&#x170;" horiz-adv-x="814" 
d="M590 260v383h-77q-12 0 -12 12v51q0 12 12 12h241q12 0 12 -12v-51q0 -12 -12 -12h-77v-374q0 -135 -70.5 -205.5t-198.5 -70.5q-129 0 -200 70.5t-71 205.5v374h-76q-13 0 -13 12v51q0 12 13 12h240q13 0 13 -12v-51q0 -12 -13 -12h-77v-377q0 -192 184 -192
q94 0 138 49.5t44 136.5zM465 941l-168 -134q-12 -7 -19 3l-25 29q-9 11 2 19l161 141q8 10 19 -1l31 -38q8 -11 -1 -19zM637 941l-168 -134q-10 -7 -19 3l-25 29q-9 11 2 19l161 141q10 10 19 -1l32 -38q7 -12 -2 -19z" />
    <glyph glyph-name="uhungarumlaut" unicode="&#x171;" horiz-adv-x="608" 
d="M557 0h-87q-43 0 -43 42v37h-3q-41 -86 -156 -86q-80 0 -126.5 47.5t-47.5 126.5v258h-57q-12 0 -12 12v43q0 12 12 12h96q43 0 43 -42v-263q0 -58 28 -90t82 -32q28 0 52 8.5t38.5 20.5t24.5 25t14 21t4 10v275h-54q-12 0 -12 12v43q0 12 12 12h124q12 0 12 -12v-413h56
q13 0 13 -12v-43q0 -12 -13 -12zM327 715l-168 -134q-12 -7 -19 3l-25 29q-9 11 2 19l161 141q8 10 19 -1l31 -38q8 -11 -1 -19zM499 715l-168 -134q-10 -7 -19 3l-25 29q-9 11 2 19l161 141q10 10 19 -1l32 -38q7 -12 -2 -19z" />
    <glyph glyph-name="Uogonek" unicode="&#x172;" horiz-adv-x="814" 
d="M590 260v383h-77q-12 0 -12 12v51q0 12 12 12h241q12 0 12 -12v-51q0 -12 -12 -12h-77v-374q0 -130 -64.5 -200t-183.5 -75q-58 -34 -58 -76q0 -16 10.5 -25t27.5 -9q21 0 39 10q13 7 18 -1l9 -13q8 -11 -4 -17q-34 -24 -73 -24q-36 0 -57.5 20.5t-21.5 52.5q0 54 56 82
q-114 8 -176 78t-62 197v374h-76q-13 0 -13 12v51q0 12 13 12h240q13 0 13 -12v-51q0 -12 -13 -12h-77v-377q0 -192 184 -192q94 0 138 49.5t44 136.5z" />
    <glyph glyph-name="uogonek" unicode="&#x173;" horiz-adv-x="608" 
d="M557 0h-14q-14 -7 -28 -16t-28 -27.5t-14 -38.5q0 -16 10.5 -25t27.5 -9q21 0 39 10q13 7 18 -1l9 -13q8 -11 -4 -17q-34 -24 -73 -24q-36 0 -57.5 20.5t-21.5 52.5q0 33 21.5 55.5t47.5 32.5h-20q-43 0 -43 42v37h-3q-41 -86 -156 -86q-80 0 -126.5 47.5t-47.5 126.5
v258h-57q-12 0 -12 12v43q0 12 12 12h96q43 0 43 -42v-263q0 -58 28 -90t82 -32q28 0 52 8.5t38.5 20.5t24.5 25t14 21t4 10v275h-54q-12 0 -12 12v43q0 12 12 12h124q12 0 12 -12v-413h56q13 0 13 -12v-43q0 -12 -13 -12z" />
    <glyph glyph-name="Wcircumflex" unicode="&#x174;" horiz-adv-x="1093" 
d="M695 830l-25 -29q-8 -10 -19 -2l-124 105l-122 -105q-10 -9 -19 2l-25 29q-7 11 2 19l155 136q4 4 10 4q5 0 10 -5l155 -135q8 -10 2 -19zM748 0h-38q-37 0 -47 40l-116 508h-3l-114 -508q-10 -40 -48 -40h-37q-35 0 -48 40l-183 603h-63q-13 0 -13 12v51q0 12 13 12h225
q13 0 13 -12v-51q0 -12 -13 -12h-70l155 -537h6l139 612h80l140 -612h6l155 537h-71q-12 0 -12 12v51q0 12 12 12h226q12 0 12 -12v-51q0 -12 -12 -12h-64l-183 -603q-12 -40 -47 -40z" />
    <glyph glyph-name="wcircumflex" unicode="&#x175;" horiz-adv-x="812" 
d="M577 604l-25 -29q-8 -10 -19 -2l-124 105l-122 -105q-10 -9 -19 2l-25 29q-7 11 2 19l155 136q4 4 10 4q5 0 10 -5l155 -135q8 -10 2 -19zM576 0h-59q-21 0 -24 21l-85 335h-2l-85 -335q-4 -21 -25 -21h-58q-18 0 -24 21l-132 404h-56q-12 0 -12 12v43q0 12 12 12h187
q12 0 12 -12v-43q0 -12 -12 -12h-46l101 -337h2l88 337h-39q-12 0 -12 12v43q0 12 12 12h176q12 0 12 -12v-43q0 -12 -12 -12h-39l88 -337h2l100 337h-45q-13 0 -13 12v43q0 12 13 12h186q12 0 12 -12v-43q0 -12 -12 -12h-55l-132 -404q-8 -21 -24 -21z" />
    <glyph glyph-name="Ycircumflex" unicode="&#x176;" horiz-adv-x="759" 
d="M500 0h-241q-12 0 -12 12v51q0 12 12 12h77v214l-40 69q-39 70 -89.5 157.5t-77.5 127.5h-68q-13 0 -13 12v51q0 12 13 12h225q12 0 12 -12v-51q0 -12 -12 -12h-66l157 -278h6l156 278h-66q-12 0 -12 12v51q0 12 12 12h226q12 0 12 -12v-51q0 -12 -12 -12h-69
q-27 -40 -78 -127.5t-89.5 -156t-39.5 -69.5v-215h77q12 0 12 -12v-51q0 -12 -12 -12zM530 830l-25 -29q-8 -10 -19 -2l-124 105l-122 -105q-10 -9 -19 2l-25 29q-7 11 2 19l155 136q4 4 10 4q5 0 10 -5l155 -135q8 -10 2 -19z" />
    <glyph glyph-name="ycircumflex" unicode="&#x177;" horiz-adv-x="590" 
d="M247 -63l27 74h-13q-16 0 -26 25l-153 389h-55q-12 0 -12 12v43q0 12 12 12h181q13 0 13 -12v-43q0 -12 -13 -12h-41l129 -339h2l120 339h-45q-12 0 -12 12v43q0 12 12 12h186q12 0 12 -12v-43q0 -12 -12 -12h-56l-178 -489q-33 -89 -68.5 -129.5t-101.5 -40.5
q-57 0 -101 39q-10 10 -3 18l25 32q9 7 18 1q24 -19 53 -19q37 0 58.5 22.5t41.5 77.5zM467 604l-25 -29q-8 -10 -19 -2l-124 105l-122 -105q-10 -9 -19 2l-25 29q-7 11 2 19l155 136q4 4 10 4q5 0 10 -5l155 -135q8 -10 2 -19z" />
    <glyph glyph-name="Ydieresis" unicode="&#x178;" horiz-adv-x="759" 
d="M500 0h-241q-12 0 -12 12v51q0 12 12 12h77v214l-40 69q-39 70 -89.5 157.5t-77.5 127.5h-68q-13 0 -13 12v51q0 12 13 12h225q12 0 12 -12v-51q0 -12 -12 -12h-66l157 -278h6l156 278h-66q-12 0 -12 12v51q0 12 12 12h226q12 0 12 -12v-51q0 -12 -12 -12h-69
q-27 -40 -78 -127.5t-89.5 -156t-39.5 -69.5v-215h77q12 0 12 -12v-51q0 -12 -12 -12zM342 824q0 -18 -12.5 -30t-30.5 -12t-30 12t-12 30t12 30.5t30 12.5t30.5 -12.5t12.5 -30.5zM500 824q0 -18 -12.5 -30t-30.5 -12t-30 12t-12 30t12 30.5t30 12.5t30.5 -12.5t12.5 -30.5
z" />
    <glyph glyph-name="Zacute" unicode="&#x179;" horiz-adv-x="641" 
d="M442 932l-168 -134q-12 -7 -19 3l-25 29q-9 11 2 19l161 141q9 9 19 -1l31 -38q8 -10 -1 -19zM580 0h-518q-14 0 -14 13v43q0 10 20 34l406 553h-342v-81q0 -14 -14 -14h-56q-14 0 -14 14v143q0 13 14 13h518q13 0 13 -13v-37q0 -17 -20 -41l-406 -552h343v81q0 14 13 14
h57q13 0 13 -14v-143q0 -13 -13 -13z" />
    <glyph glyph-name="zacute" unicode="&#x17a;" horiz-adv-x="519" 
d="M393 706l-168 -134q-12 -7 -19 3l-25 29q-9 11 2 19l161 141q9 9 19 -1l31 -38q8 -10 -1 -19zM468 0h-417q-13 0 -13 12v41q0 19 15 34l324 338h-271v-77q0 -12 -12 -12h-43q-13 0 -13 12v132q0 12 13 12h417q13 0 13 -12v-35q0 -18 -16 -32l-328 -346h275v79q0 12 13 12
h43q13 0 13 -12v-134q0 -12 -13 -12z" />
    <glyph glyph-name="Zdotaccent" unicode="&#x17b;" horiz-adv-x="641" 
d="M580 0h-518q-14 0 -14 13v43q0 10 20 34l406 553h-342v-81q0 -14 -14 -14h-56q-14 0 -14 14v143q0 13 14 13h518q13 0 13 -13v-37q0 -17 -20 -41l-406 -552h343v81q0 14 13 14h57q13 0 13 -14v-143q0 -13 -13 -13zM387 844q0 -22 -15 -37t-37 -15t-37 15t-15 37t15 37.5
t37 15.5t37 -15.5t15 -37.5z" />
    <glyph glyph-name="zdotaccent" unicode="&#x17c;" horiz-adv-x="519" 
d="M468 0h-417q-13 0 -13 12v41q0 19 15 34l324 338h-271v-77q0 -12 -12 -12h-43q-13 0 -13 12v132q0 12 13 12h417q13 0 13 -12v-35q0 -18 -16 -32l-328 -346h275v79q0 12 13 12h43q13 0 13 -12v-134q0 -12 -13 -12zM319 618q0 -22 -15 -37t-37 -15t-37 15t-15 37t15 37.5
t37 15.5t37 -15.5t15 -37.5z" />
    <glyph glyph-name="Zcaron" unicode="&#x17d;" horiz-adv-x="641" 
d="M500 939l-155 -135q-5 -5 -10 -5q-6 0 -10 4l-155 136q-9 8 -2 19l25 28q7 10 19 2l122 -105l124 105q12 8 19 -2l25 -28q6 -9 -2 -19zM580 0h-518q-14 0 -14 13v43q0 10 20 34l406 553h-342v-81q0 -14 -14 -14h-56q-14 0 -14 14v143q0 13 14 13h518q13 0 13 -13v-37
q0 -17 -20 -41l-406 -552h343v81q0 14 13 14h57q13 0 13 -14v-143q0 -13 -13 -13z" />
    <glyph glyph-name="zcaron" unicode="&#x17e;" horiz-adv-x="519" 
d="M430 713l-155 -135q-5 -5 -10 -5q-6 0 -10 4l-155 136q-9 8 -2 19l25 28q7 10 19 2l122 -105l124 105q12 8 19 -2l25 -28q6 -9 -2 -19zM468 0h-417q-13 0 -13 12v41q0 19 15 34l324 338h-271v-77q0 -12 -12 -12h-43q-13 0 -13 12v132q0 12 13 12h417q13 0 13 -12v-35
q0 -18 -16 -32l-328 -346h275v79q0 12 13 12h43q13 0 13 -12v-134q0 -12 -13 -12z" />
    <glyph glyph-name="florin" unicode="&#x192;" horiz-adv-x="507" 
d="M223 -62v488h-58q-12 0 -12 12v43q0 12 12 12h58v61q0 83 42.5 126.5t118.5 43.5q56 0 101 -40q10 -9 3 -17l-24 -31q-9 -9 -17 -2q-24 19 -55 19q-41 0 -63.5 -25.5t-22.5 -74.5v-60h128q12 0 12 -12v-43q0 -12 -12 -12h-128v-489q0 -84 -42 -127.5t-118 -43.5
q-61 0 -101 40q-11 9 -3 18l24 30q9 10 17 2q23 -18 55 -18q85 0 85 100z" />
    <glyph glyph-name="AEacute" unicode="&#x1fc;" horiz-adv-x="1044" 
d="M764 932l-168 -134q-12 -7 -19 3l-25 29q-9 11 2 19l161 141q9 9 19 -1l31 -38q8 -10 -1 -19zM984 0h-532q-12 0 -12 12v51q0 12 12 12h77v245h-209l-104 -245h69q13 0 13 -12v-51q0 -12 -13 -12h-224q-13 0 -13 12v51q0 12 13 12h67l242 568h-55q-12 0 -12 12v51
q0 12 12 12h669q12 0 12 -12v-161q0 -13 -12 -13h-54q-13 0 -13 13v98h-301v-248h253q12 0 12 -12v-51q0 -12 -12 -12h-253v-245h301v98q0 12 12 12h55q12 0 12 -12v-161q0 -12 -12 -12zM529 395v248h-71l-108 -248h179z" />
    <glyph glyph-name="aeacute" unicode="&#x1fd;" horiz-adv-x="890" 
d="M604 706l-168 -134q-12 -7 -19 3l-25 29q-9 11 2 19l161 141q9 9 19 -1l31 -38q8 -10 -1 -19zM636 -8q-69 0 -125 31t-87 88q-31 -46 -86 -82.5t-136 -36.5q-72 0 -118 37.5t-46 101.5q0 82 71.5 120.5t196.5 38.5h84v13q0 67 -34 95.5t-96 28.5q-30 0 -56 -4.5
t-42.5 -11.5t-28 -14t-17.5 -11.5t-7 -4.5q-10 -4 -15 3l-28 35q-7 8 2 16q3 4 9 9.5t23 15.5t37.5 18t54 14.5t71.5 6.5q142 0 183 -95q30 45 78 69.5t102 24.5q107 0 166 -66t57 -183q0 -14 -14 -14h-360q4 -83 52.5 -128t113.5 -45q57 0 100.5 26t58.5 51q8 11 18 3
l27 -27q10 -9 4 -18q-7 -11 -21 -26t-39.5 -34t-66 -32t-86.5 -13zM397 167q-7 28 -7 69h-79q-187 0 -187 -94q0 -34 28.5 -56.5t74.5 -22.5q27 0 52 7.5t42 18.5t32 24.5t23 24.5t14 20zM477 290h289q-3 64 -39 103t-99 39q-56 0 -99 -36.5t-52 -105.5z" />
    <glyph glyph-name="Oslashacute" unicode="&#x1fe;" horiz-adv-x="793" 
d="M308 -51h-60q-12 0 -9 12l18 60q-96 41 -152.5 131t-56.5 211q0 164 103 262.5t246 98.5q33 0 68 -8l17 55q3 12 16 12h59q12 0 9 -12l-23 -78q91 -40 146 -125.5t55 -204.5q0 -165 -98.5 -267.5t-248.5 -102.5q-30 0 -62 8l-12 -40q-3 -12 -15 -12zM282 107l160 529
q-25 8 -54 8q-96 -3 -171 -78t-75 -206q0 -92 39 -156.5t101 -96.5zM359 81q24 -6 50 -6q98 5 170 80t72 205q0 89 -37.5 151.5t-96.5 94.5zM566 936l-168 -134q-12 -7 -19 3l-25 29q-9 11 2 19l161 141q9 9 19 -1l31 -38q8 -10 -1 -19z" />
    <glyph glyph-name="oslashacute" unicode="&#x1ff;" horiz-adv-x="575" 
d="M177 -29h-42q-14 0 -9 12l24 47q-52 32 -82 88.5t-30 129.5q0 115 71 183t179 68q48 0 91 -17l7 15q5 13 17 13h42q14 0 9 -13l-21 -40q103 -69 103 -209q0 -115 -70 -185t-179 -70q-41 0 -82 13l-12 -23q-6 -12 -16 -12zM186 103l159 313q-29 13 -57 13q-68 0 -117 -50
t-49 -132q0 -93 64 -144zM239 73q21 -10 50 -10q69 0 116.5 51t47.5 133q0 84 -57 136zM418 706l-168 -134q-12 -7 -19 3l-25 29q-9 11 2 19l161 141q9 9 19 -1l31 -38q8 -10 -1 -19z" />
    <glyph glyph-name="Scommaaccent" unicode="&#x218;" horiz-adv-x="666" 
d="M310 -222v17q0 6 7 6q16 0 28.5 13.5t12.5 39.5l-2 11q-5 -5 -19 -5q-18 0 -30.5 13t-12.5 34q0 19 14 33t33 14q26 0 40.5 -19.5t14.5 -53.5q0 -56 -22 -82.5t-57 -26.5q-7 0 -7 6zM117 0h-56q-13 0 -13 12v234q0 13 13 13h63q12 0 12 -13v-21q0 -6 6.5 -21.5t23 -38
t39.5 -42.5t61.5 -34.5t83.5 -14.5q77 0 120.5 32t43.5 89q0 33 -24.5 56.5t-63.5 37.5t-86.5 26t-95 27.5t-86.5 37t-63.5 60t-24.5 90.5q0 84 63.5 139t170.5 55q135 0 198 -79l-2 62q0 12 13 12h56q12 0 12 -12v-218q0 -12 -12 -12h-63q-12 0 -12 12v28q0 41 -46 83
t-135 42q-66 0 -106.5 -31.5t-40.5 -80.5q0 -35 25 -60t65 -40t88 -27.5t96 -27.5t88 -36t65 -57.5t25 -86.5q0 -88 -63 -145t-188 -57q-92 0 -152 37t-87 80l1 -98q0 -12 -12 -12z" />
    <glyph glyph-name="scommaaccent" unicode="&#x219;" horiz-adv-x="486" 
d="M216 -222v17q0 6 7 6q16 0 28.5 13.5t12.5 39.5l-2 11q-5 -5 -19 -5q-18 0 -30.5 13t-12.5 34q0 19 14 33t33 14q26 0 40.5 -19.5t14.5 -53.5q0 -56 -22 -82.5t-57 -26.5q-7 0 -7 6zM260 -7q-67 0 -107 25t-50 47h-2q2 -49 2 -52q0 -13 -14 -13h-34q-13 0 -13 13v150
q0 13 13 13h39q14 0 14 -13v-20q1 -3 3.5 -9t13.5 -20.5t25.5 -26t40.5 -20.5t58 -9q53 0 80.5 20.5t27.5 57.5q0 27 -31 43.5t-75.5 27.5t-88.5 25t-75 45.5t-31 79.5q0 65 47 103.5t120 38.5q99 0 142 -58h2q-2 36 -2 37q0 13 13 13h32q13 0 13 -13v-139q0 -13 -13 -13
h-39q-14 0 -14 13v14q0 27 -31.5 53.5t-92.5 26.5q-39 0 -67 -21t-28 -57q0 -31 31.5 -49.5t76.5 -29t90 -23.5t76.5 -43t31.5 -76q0 -60 -45.5 -100.5t-138.5 -40.5z" />
    <glyph glyph-name="circumflex" unicode="&#x2c6;" horiz-adv-x="410" 
d="M372 604l-25 -29q-8 -10 -19 -2l-124 105l-122 -105q-10 -9 -19 2l-25 29q-7 11 2 19l155 136q4 4 10 4q5 0 10 -5l155 -135q8 -10 2 -19z" />
    <glyph glyph-name="caron" unicode="&#x2c7;" horiz-adv-x="410" 
d="M370 713l-155 -135q-5 -5 -10 -5q-6 0 -10 4l-155 136q-9 8 -2 19l25 28q7 10 19 2l122 -105l124 105q12 8 19 -2l25 -28q6 -9 -2 -19z" />
    <glyph glyph-name="breve" unicode="&#x2d8;" horiz-adv-x="350" 
d="M270 715h32q13 0 13 -13q0 -67 -39 -103t-102 -36q-62 0 -100.5 36t-38.5 103q0 13 13 13h32q13 0 13 -13q0 -41 23 -64.5t58 -23.5t59 23.5t24 64.5q0 13 13 13z" />
    <glyph glyph-name="dotaccent" unicode="&#x2d9;" horiz-adv-x="173" 
d="M139 618q0 -22 -15 -37t-37 -15t-37 15t-15 37t15 37.5t37 15.5t37 -15.5t15 -37.5z" />
    <glyph glyph-name="ring" unicode="&#x2da;" horiz-adv-x="225" 
d="M162 603q-12 -20 -35 -26.5t-43 5.5t-26.5 35.5t5.5 43.5t35 26.5t43 -5.5t26.5 -35.5t-5.5 -43.5zM139 623q4 11 -1.5 21.5t-16.5 14.5t-21.5 -1t-14.5 -17q-4 -11 1.5 -21.5t17.5 -14.5q11 -4 21 1t14 17z" />
    <glyph glyph-name="ogonek" unicode="&#x2db;" horiz-adv-x="229" 
d="M182 -107l9 -13q8 -11 -4 -17q-34 -24 -73 -24q-36 0 -57.5 20.5t-21.5 52.5q0 41 32.5 66.5t54.5 25.5h43q-78 -39 -78 -86q0 -16 10.5 -25t27.5 -9q21 0 39 10q13 7 18 -1z" />
    <glyph glyph-name="tilde" unicode="&#x2dc;" horiz-adv-x="384" 
d="M313 684h24q12 0 12 -12q0 -113 -87 -113q-32 0 -56.5 15.5t-44 31.5t-37.5 16q-21 0 -31 -12.5t-10 -44.5q0 -12 -12 -12h-24q-12 0 -12 12q0 108 86 108q37 0 77 -33t61 -33q24 0 33 14t9 51q0 12 12 12z" />
    <glyph glyph-name="hungarumlaut" unicode="&#x2dd;" horiz-adv-x="463" 
d="M251 715l-168 -134q-12 -7 -19 3l-25 29q-9 11 2 19l161 141q8 10 19 -1l31 -38q8 -11 -1 -19zM423 715l-168 -134q-10 -7 -19 3l-25 29q-9 11 2 19l161 141q10 10 19 -1l32 -38q7 -12 -2 -19z" />
    <glyph glyph-name="Wgrave" unicode="&#x1e80;" horiz-adv-x="1093" 
d="M748 0h-38q-37 0 -47 40l-116 508h-3l-114 -508q-10 -40 -48 -40h-37q-35 0 -48 40l-183 603h-63q-13 0 -13 12v51q0 12 13 12h225q13 0 13 -12v-51q0 -12 -13 -12h-70l155 -537h6l139 612h80l140 -612h6l155 537h-71q-12 0 -12 12v51q0 12 12 12h226q12 0 12 -12v-51
q0 -12 -12 -12h-64l-183 -603q-12 -40 -47 -40zM617 830l-25 -29q-9 -10 -19 -2l-168 134q-9 7 -2 19l32 37q9 11 19 2l161 -142q11 -8 2 -19z" />
    <glyph glyph-name="wgrave" unicode="&#x1e81;" horiz-adv-x="812" 
d="M576 0h-59q-21 0 -24 21l-85 335h-2l-85 -335q-4 -21 -25 -21h-58q-18 0 -24 21l-132 404h-56q-12 0 -12 12v43q0 12 12 12h187q12 0 12 -12v-43q0 -12 -12 -12h-46l101 -337h2l88 337h-39q-12 0 -12 12v43q0 12 12 12h176q12 0 12 -12v-43q0 -12 -12 -12h-39l88 -337h2
l100 337h-45q-13 0 -13 12v43q0 12 13 12h186q12 0 12 -12v-43q0 -12 -12 -12h-55l-132 -404q-8 -21 -24 -21zM484 604l-25 -29q-9 -10 -19 -2l-168 134q-9 7 -2 19l32 37q9 11 19 2l161 -142q11 -8 2 -19z" />
    <glyph glyph-name="Wacute" unicode="&#x1e82;" horiz-adv-x="1093" 
d="M710 932l-168 -134q-12 -7 -19 3l-25 29q-9 11 2 19l161 141q9 9 19 -1l31 -38q8 -10 -1 -19zM748 0h-38q-37 0 -47 40l-116 508h-3l-114 -508q-10 -40 -48 -40h-37q-35 0 -48 40l-183 603h-63q-13 0 -13 12v51q0 12 13 12h225q13 0 13 -12v-51q0 -12 -13 -12h-70
l155 -537h6l139 612h80l140 -612h6l155 537h-71q-12 0 -12 12v51q0 12 12 12h226q12 0 12 -12v-51q0 -12 -12 -12h-64l-183 -603q-12 -40 -47 -40z" />
    <glyph glyph-name="wacute" unicode="&#x1e83;" horiz-adv-x="812" 
d="M536 706l-168 -134q-12 -7 -19 3l-25 29q-9 11 2 19l161 141q9 9 19 -1l31 -38q8 -10 -1 -19zM576 0h-59q-21 0 -24 21l-85 335h-2l-85 -335q-4 -21 -25 -21h-58q-18 0 -24 21l-132 404h-56q-12 0 -12 12v43q0 12 12 12h187q12 0 12 -12v-43q0 -12 -12 -12h-46l101 -337
h2l88 337h-39q-12 0 -12 12v43q0 12 12 12h176q12 0 12 -12v-43q0 -12 -12 -12h-39l88 -337h2l100 337h-45q-13 0 -13 12v43q0 12 13 12h186q12 0 12 -12v-43q0 -12 -12 -12h-55l-132 -404q-8 -21 -24 -21z" />
    <glyph glyph-name="Wdieresis" unicode="&#x1e84;" horiz-adv-x="1093" 
d="M508 824q0 -18 -12.5 -30t-30.5 -12t-30 12t-12 30t12 30.5t30 12.5t30.5 -12.5t12.5 -30.5zM666 824q0 -18 -12.5 -30t-30.5 -12t-30 12t-12 30t12 30.5t30 12.5t30.5 -12.5t12.5 -30.5zM748 0h-38q-37 0 -47 40l-116 508h-3l-114 -508q-10 -40 -48 -40h-37
q-35 0 -48 40l-183 603h-63q-13 0 -13 12v51q0 12 13 12h225q13 0 13 -12v-51q0 -12 -13 -12h-70l155 -537h6l139 612h80l140 -612h6l155 537h-71q-12 0 -12 12v51q0 12 12 12h226q12 0 12 -12v-51q0 -12 -12 -12h-64l-183 -603q-12 -40 -47 -40z" />
    <glyph glyph-name="wdieresis" unicode="&#x1e85;" horiz-adv-x="812" 
d="M375 598q0 -18 -12.5 -30t-30.5 -12t-30 12t-12 30t12 30.5t30 12.5t30.5 -12.5t12.5 -30.5zM533 598q0 -18 -12.5 -30t-30.5 -12t-30 12t-12 30t12 30.5t30 12.5t30.5 -12.5t12.5 -30.5zM576 0h-59q-21 0 -24 21l-85 335h-2l-85 -335q-4 -21 -25 -21h-58q-18 0 -24 21
l-132 404h-56q-12 0 -12 12v43q0 12 12 12h187q12 0 12 -12v-43q0 -12 -12 -12h-46l101 -337h2l88 337h-39q-12 0 -12 12v43q0 12 12 12h176q12 0 12 -12v-43q0 -12 -12 -12h-39l88 -337h2l100 337h-45q-13 0 -13 12v43q0 12 13 12h186q12 0 12 -12v-43q0 -12 -12 -12h-55
l-132 -404q-8 -21 -24 -21z" />
    <glyph glyph-name="Ygrave" unicode="&#x1ef2;" horiz-adv-x="759" 
d="M500 0h-241q-12 0 -12 12v51q0 12 12 12h77v214l-40 69q-39 70 -89.5 157.5t-77.5 127.5h-68q-13 0 -13 12v51q0 12 13 12h225q12 0 12 -12v-51q0 -12 -12 -12h-66l157 -278h6l156 278h-66q-12 0 -12 12v51q0 12 12 12h226q12 0 12 -12v-51q0 -12 -12 -12h-69
q-27 -40 -78 -127.5t-89.5 -156t-39.5 -69.5v-215h77q12 0 12 -12v-51q0 -12 -12 -12zM489 830l-25 -29q-9 -10 -19 -2l-168 134q-9 7 -2 19l32 37q9 11 19 2l161 -142q11 -8 2 -19z" />
    <glyph glyph-name="ygrave" unicode="&#x1ef3;" horiz-adv-x="590" 
d="M247 -63l27 74h-13q-16 0 -26 25l-153 389h-55q-12 0 -12 12v43q0 12 12 12h181q13 0 13 -12v-43q0 -12 -13 -12h-41l129 -339h2l120 339h-45q-12 0 -12 12v43q0 12 12 12h186q12 0 12 -12v-43q0 -12 -12 -12h-56l-178 -489q-33 -89 -68.5 -129.5t-101.5 -40.5
q-57 0 -101 39q-10 10 -3 18l25 32q9 7 18 1q24 -19 53 -19q37 0 58.5 22.5t41.5 77.5zM389 604l-25 -29q-9 -10 -19 -2l-168 134q-9 7 -2 19l32 37q9 11 19 2l161 -142q11 -8 2 -19z" />
    <glyph glyph-name="endash" unicode="&#x2013;" horiz-adv-x="554" 
d="M503 222h-451q-14 0 -14 13v51q0 13 14 13h451q13 0 13 -13v-51q0 -13 -13 -13z" />
    <glyph glyph-name="emdash" unicode="&#x2014;" horiz-adv-x="879" 
d="M828 222h-776q-14 0 -14 13v51q0 13 14 13h776q13 0 13 -13v-51q0 -13 -13 -13z" />
    <glyph glyph-name="quoteleft" unicode="&#x2018;" horiz-adv-x="179" 
d="M124 770v-17q0 -6 -7 -6q-16 0 -28.5 -13.5t-12.5 -39.5l2 -12q6 5 19 5q19 0 31.5 -12.5t12.5 -33.5q0 -20 -14 -33.5t-34 -13.5q-26 0 -40.5 19t-14.5 54q0 56 22.5 82.5t56.5 26.5q7 0 7 -6z" />
    <glyph glyph-name="quoteright" unicode="&#x2019;" horiz-adv-x="179" 
d="M55 567v17q0 6 6 6q16 0 28.5 13.5t12.5 39.5l-2 12q-5 -5 -19 -5q-18 0 -30.5 13t-12.5 33t13.5 33.5t33.5 13.5q26 0 41 -19t15 -54q0 -56 -22.5 -82.5t-57.5 -26.5q-6 0 -6 6z" />
    <glyph glyph-name="quotesinglbase" unicode="&#x201a;" horiz-adv-x="179" 
d="M55 -90v17q0 6 6 6q16 0 28.5 13.5t12.5 39.5l-2 12q-5 -5 -19 -5q-18 0 -30.5 13t-12.5 33t13.5 33.5t33.5 13.5q26 0 41 -19t15 -54q0 -56 -22.5 -82t-57.5 -26q-6 0 -6 5z" />
    <glyph glyph-name="quotedblleft" unicode="&#x201c;" horiz-adv-x="341" 
d="M287 770v-17q0 -6 -7 -6q-16 0 -28.5 -13.5t-12.5 -39.5l2 -12q5 5 19 5q18 0 30.5 -13t12.5 -33t-13.5 -33.5t-33.5 -13.5q-26 0 -40.5 19t-14.5 54q0 56 22 82.5t57 26.5q7 0 7 -6zM124 770v-17q0 -6 -7 -6q-16 0 -28.5 -13.5t-12.5 -39.5l2 -12q6 5 19 5
q19 0 31.5 -12.5t12.5 -33.5q0 -20 -14 -33.5t-34 -13.5q-26 0 -40.5 19t-14.5 54q0 56 22.5 82.5t56.5 26.5q7 0 7 -6z" />
    <glyph glyph-name="quotedblright" unicode="&#x201d;" horiz-adv-x="341" 
d="M55 567v17q0 6 6 6q16 0 28.5 13.5t12.5 39.5l-2 12q-5 -5 -19 -5q-18 0 -30.5 13t-12.5 33t13.5 33.5t33.5 13.5q26 0 41 -19t15 -54q0 -56 -22.5 -82.5t-57.5 -26.5q-6 0 -6 6zM217 567v17q0 6 7 6q16 0 28.5 13.5t12.5 39.5l-2 12q-5 -5 -19 -5q-18 0 -30.5 13
t-12.5 33t13.5 33.5t33.5 13.5q26 0 40.5 -19t14.5 -54q0 -56 -22 -82.5t-57 -26.5q-7 0 -7 6z" />
    <glyph glyph-name="quotedblbase" unicode="&#x201e;" horiz-adv-x="330" 
d="M55 -90v17q0 6 6 6q16 0 28.5 13.5t12.5 39.5l-2 12q-5 -5 -19 -5q-18 0 -30.5 13t-12.5 33t13.5 33.5t33.5 13.5q26 0 41 -19t15 -54q0 -56 -22.5 -82t-57.5 -26q-6 0 -6 5zM205 -90v17q0 6 7 6q16 0 28.5 13.5t12.5 39.5l-2 12q-5 -5 -19 -5q-18 0 -30.5 13t-12.5 33
t13.5 33.5t33.5 13.5q26 0 40.5 -19t14.5 -54q0 -56 -22 -82t-57 -26q-7 0 -7 5z" />
    <glyph glyph-name="dagger" unicode="&#x2020;" horiz-adv-x="425" 
d="M245 -131h-59q-13 0 -13 12v615h-121q-14 0 -14 13v51q0 13 14 13h121v175q0 12 13 12h59q12 0 12 -12v-175h116q13 0 13 -13v-51q0 -13 -13 -13h-116v-615q0 -12 -12 -12z" />
    <glyph glyph-name="daggerdbl" unicode="&#x2021;" horiz-adv-x="425" 
d="M245 -131h-59q-13 0 -13 12v190h-121q-14 0 -14 14v50q0 14 14 14h121v347h-121q-14 0 -14 13v51q0 13 14 13h121v175q0 12 13 12h59q12 0 12 -12v-175h116q13 0 13 -13v-51q0 -13 -13 -13h-116v-347h116q13 0 13 -14v-50q0 -14 -13 -14h-116v-190q0 -12 -12 -12z" />
    <glyph glyph-name="bullet" unicode="&#x2022;" horiz-adv-x="263" 
d="M131 239q-44 0 -68.5 25.5t-24.5 70.5q0 44 24.5 70.5t68.5 26.5q42 0 68 -27t26 -70q0 -44 -25.5 -70t-68.5 -26z" />
    <glyph glyph-name="ellipsis" unicode="&#x2026;" horiz-adv-x="397" 
d="M123 40q0 -20 -13.5 -33.5t-33.5 -13.5t-34 13.5t-14 33.5t14 33.5t34 13.5t33.5 -13.5t13.5 -33.5zM247 40q0 -20 -14 -33.5t-34 -13.5t-33.5 13.5t-13.5 33.5t14 33.5t33 13.5q20 0 34 -13.5t14 -33.5zM369 40q0 -20 -14 -33.5t-34 -13.5t-33.5 13.5t-13.5 33.5
t14 33.5t33 13.5q20 0 34 -13.5t14 -33.5z" />
    <glyph glyph-name="perthousand" unicode="&#x2030;" horiz-adv-x="1085" 
d="M183 359q-68 0 -106.5 50.5t-38.5 134.5q0 79 39.5 129.5t105.5 50.5q67 0 105.5 -50t38.5 -130q0 -84 -38 -134.5t-106 -50.5zM183 414q40 0 62.5 33.5t22.5 94.5t-22 94t-63 33t-63 -33t-22 -94t22.5 -94.5t62.5 -33.5zM571 -7q-68 0 -106.5 50.5t-38.5 134.5
q0 80 39 130t106 50q66 0 105 -50t39 -130q0 -84 -38 -134.5t-106 -50.5zM571 48q40 0 62 33.5t22 94.5t-22 94t-62 33q-41 0 -63 -33t-22 -94t22.5 -94.5t62.5 -33.5zM903 -7q-68 0 -106.5 50.5t-38.5 134.5q0 80 39 130t106 50q66 0 105 -50t39 -130q0 -84 -38 -134.5
t-106 -50.5zM903 48q40 0 62 33.5t22 94.5t-22 94t-62 33q-41 0 -63.5 -33t-22.5 -94t22.5 -94.5t63.5 -33.5zM276 -74h-60q-12 0 -9 12l242 810q5 12 17 12h59q13 0 8 -12l-242 -810q-3 -12 -15 -12z" />
    <glyph glyph-name="fraction" unicode="&#x2044;" horiz-adv-x="405" 
d="M108 -74h-60q-12 0 -9 12l242 810q5 12 17 12h59q13 0 8 -12l-242 -810q-3 -12 -15 -12z" />
    <glyph glyph-name="Euro" unicode="&#x20ac;" horiz-adv-x="716" 
d="M637 121l36 -43q9 -11 0 -18q-83 -67 -218 -67q-117 0 -205 68t-119 186h-80q-13 0 -13 12v37q0 12 13 12h68q-3 21 -3 53q0 18 2 40h-67q-13 0 -13 12v36q0 13 13 13h76q27 122 116.5 192t205.5 70q99 0 199 -63q9 -7 2 -17l-34 -42q-8 -10 -17 -2q-58 42 -146 42
q-76 0 -141 -46.5t-88 -133.5h264q13 0 13 -13v-36q0 -12 -13 -12h-277q-2 -12 -2 -41q0 -28 3 -52h218q13 0 13 -12v-37q0 -12 -13 -12h-199q26 -83 89 -126.5t138 -43.5q99 0 162 44q11 7 17 0z" />
    <glyph glyph-name="trademark" unicode="&#x2122;" horiz-adv-x="1035" 
d="M313 288h-155q-8 0 -8 8v38q0 8 8 8h46v322h-111v-54q0 -8 -8 -8h-38q-9 0 -9 8v101q0 7 9 7h376q8 0 8 -7v-101q0 -8 -8 -8h-39q-8 0 -8 8v54h-108v-322h45q8 0 8 -8v-38q0 -8 -8 -8zM989 288h-145q-7 0 -7 7v40q0 7 7 7h39v287h-1l-112 -280q-7 -19 -27 -19
q-19 0 -25 19l-112 280h-2v-287h39q7 0 7 -7v-40q0 -7 -7 -7h-144q-7 0 -7 7v40q0 7 7 7h44v322h-44q-7 0 -7 7v40q0 7 7 7h103q21 0 29 -20l87 -214l25 -72h2q14 44 25 72l86 214q8 20 29 20h104q8 0 8 -7v-40q0 -7 -8 -7h-44v-322h44q8 0 8 -7v-40q0 -7 -8 -7z" />
    <glyph glyph-name="onethird" unicode="&#x2153;" horiz-adv-x="698" 
d="M238 -74h-59q-12 0 -9 12l242 810q4 12 17 12h59q12 0 8 -12l-242 -810q-3 -12 -16 -12zM527 -4q-15 0 -29 2.5t-24 5.5t-20 8t-16.5 9.5t-13 10.5t-9.5 9.5t-7 8.5l-3 4q-5 5 0 8l26 24q4 4 8 0q12 -12 18.5 -18t26.5 -14t43 -8q76 0 76 58q0 29 -19.5 44.5t-55.5 15.5
h-18q-8 0 -8 7v29q0 7 8 7h14q26 0 47 13t21 41q0 22 -16 35.5t-47 13.5q-26 0 -42.5 -13t-16.5 -32q0 -8 -6 -8h-39q-6 0 -6 8q0 43 30 69.5t80 26.5q59 0 89 -29t30 -66q0 -33 -21 -54.5t-37 -23.5q9 -1 19 -6t22 -14.5t20 -28t8 -41.5q0 -46 -36.5 -74t-95.5 -28z
M262 362h-191q-9 0 -9 10v29q0 9 9 9h73v250l-73 -55q-6 -4 -10 1l-21 28q-3 5 3 10l97 74q5 3 13 3h39q8 0 8 -9v-302h62q10 0 10 -9v-29q0 -10 -10 -10z" />
    <glyph glyph-name="minus" unicode="&#x2212;" horiz-adv-x="414" 
d="M363 222h-311q-14 0 -14 13v51q0 13 14 13h311q13 0 13 -13v-51q0 -13 -13 -13z" />
    <glyph glyph-name="approxequal" unicode="&#x2248;" horiz-adv-x="391" 
d="M317 441h23q13 0 13 -12q0 -113 -88 -113q-25 0 -46 10.5t-33 22.5t-27.5 22.5t-30.5 10.5q-41 0 -41 -60q0 -12 -13 -12h-23q-13 0 -13 12q0 108 86 108q38 0 77.5 -33.5t60.5 -33.5q23 0 32.5 14.5t9.5 51.5q0 12 13 12zM317 285h23q13 0 13 -12q0 -113 -88 -113
q-25 0 -46 10.5t-33 22.5t-27.5 22.5t-30.5 10.5q-41 0 -41 -60q0 -12 -13 -12h-23q-13 0 -13 12q0 108 86 108q30 0 54 -17t44.5 -33.5t39.5 -16.5q23 0 32.5 14.5t9.5 51.5q0 12 13 12z" />
    <glyph glyph-name="notequal" unicode="&#x2260;" horiz-adv-x="423" 
d="M372 100h-181l-14 -47q-3 -12 -15 -12h-41q-12 0 -9 12l14 47h-74q-14 0 -14 13v51q0 13 14 13h97l48 158h-145q-14 0 -14 14v50q0 14 14 14h168l20 66q4 12 17 12h40q13 0 8 -12l-20 -66h87q13 0 13 -14v-50q0 -14 -13 -14h-110l-48 -158h158q13 0 13 -13v-51
q0 -13 -13 -13z" />
    <glyph glyph-name="commaaccent" horiz-adv-x="172" 
d="M51 -222v17q0 6 7 6q16 0 28.5 13.5t12.5 39.5l-2 11q-5 -5 -19 -5q-18 0 -30.5 13t-12.5 34q0 19 13.5 33t33.5 14q26 0 40.5 -19.5t14.5 -53.5q0 -56 -22 -82.5t-57 -26.5q-7 0 -7 6z" />
    <glyph glyph-name="a.alt" 
d="M562 0h-87q-43 0 -43 42v58h-2q-47 -107 -167 -107q-102 0 -163.5 71t-61.5 183q0 114 62.5 183t162.5 69q66 0 107.5 -26.5t58.5 -64.5h1v71q0 13 12 13h52q12 0 12 -13v-412h56q12 0 12 -12v-43q0 -12 -12 -12zM275 63q65 0 108.5 50t43.5 133q0 85 -43.5 134
t-108.5 49q-67 0 -111 -50t-44 -134q0 -81 44 -131.5t111 -50.5z" />
    <glyph glyph-name="Imacron" horiz-adv-x="350" 
d="M301 0h-240q-13 0 -13 12v51q0 12 13 12h76v568h-76q-13 0 -13 12v51q0 12 13 12h240q13 0 13 -12v-51q0 -12 -13 -12h-77v-568h77q13 0 13 -12v-51q0 -12 -13 -12zM329 780h-296q-13 0 -13 13v42q0 14 13 14h296q13 0 13 -14v-42q0 -13 -13 -13z" />
    <glyph glyph-name="aacute.alt" 
d="M562 0h-87q-43 0 -43 42v58h-2q-47 -107 -167 -107q-102 0 -163.5 71t-61.5 183q0 114 62.5 183t162.5 69q66 0 107.5 -26.5t58.5 -64.5h1v71q0 13 12 13h52q12 0 12 -13v-412h56q12 0 12 -12v-43q0 -12 -12 -12zM275 63q65 0 108.5 50t43.5 133q0 85 -43.5 134
t-108.5 49q-67 0 -111 -50t-44 -134q0 -81 44 -131.5t111 -50.5zM421 706l-168 -134q-12 -7 -19 3l-25 29q-9 11 2 19l161 141q9 9 19 -1l31 -38q8 -10 -1 -19z" />
    <glyph glyph-name="abreve.alt" 
d="M562 0h-87q-43 0 -43 42v58h-2q-47 -107 -167 -107q-102 0 -163.5 71t-61.5 183q0 114 62.5 183t162.5 69q66 0 107.5 -26.5t58.5 -64.5h1v71q0 13 12 13h52q12 0 12 -13v-412h56q12 0 12 -12v-43q0 -12 -12 -12zM275 63q65 0 108.5 50t43.5 133q0 85 -43.5 134
t-108.5 49q-67 0 -111 -50t-44 -134q0 -81 44 -131.5t111 -50.5zM387 715h32q13 0 13 -13q0 -67 -39 -103t-102 -36q-62 0 -100.5 36t-38.5 103q0 13 13 13h32q13 0 13 -13q0 -41 23 -64.5t58 -23.5t59 23.5t24 64.5q0 13 13 13z" />
    <glyph glyph-name="acircumflex.alt" 
d="M562 0h-87q-43 0 -43 42v58h-2q-47 -107 -167 -107q-102 0 -163.5 71t-61.5 183q0 114 62.5 183t162.5 69q66 0 107.5 -26.5t58.5 -64.5h1v71q0 13 12 13h52q12 0 12 -13v-412h56q12 0 12 -12v-43q0 -12 -12 -12zM275 63q65 0 108.5 50t43.5 133q0 85 -43.5 134
t-108.5 49q-67 0 -111 -50t-44 -134q0 -81 44 -131.5t111 -50.5zM469 604l-25 -29q-8 -10 -19 -2l-124 105l-122 -105q-10 -9 -19 2l-25 29q-7 11 2 19l155 136q4 4 10 4q5 0 10 -5l155 -135q8 -10 2 -19z" />
    <glyph glyph-name="adieresis.alt" 
d="M562 0h-87q-43 0 -43 42v58h-2q-47 -107 -167 -107q-102 0 -163.5 71t-61.5 183q0 114 62.5 183t162.5 69q66 0 107.5 -26.5t58.5 -64.5h1v71q0 13 12 13h52q12 0 12 -13v-412h56q12 0 12 -12v-43q0 -12 -12 -12zM275 63q65 0 108.5 50t43.5 133q0 85 -43.5 134
t-108.5 49q-67 0 -111 -50t-44 -134q0 -81 44 -131.5t111 -50.5zM261 598q0 -18 -12.5 -30t-30.5 -12t-30 12t-12 30t12 30.5t30 12.5t30.5 -12.5t12.5 -30.5zM419 598q0 -18 -12.5 -30t-30.5 -12t-30 12t-12 30t12 30.5t30 12.5t30.5 -12.5t12.5 -30.5z" />
    <glyph glyph-name="agrave.alt" 
d="M562 0h-87q-43 0 -43 42v58h-2q-47 -107 -167 -107q-102 0 -163.5 71t-61.5 183q0 114 62.5 183t162.5 69q66 0 107.5 -26.5t58.5 -64.5h1v71q0 13 12 13h52q12 0 12 -13v-412h56q12 0 12 -12v-43q0 -12 -12 -12zM275 63q65 0 108.5 50t43.5 133q0 85 -43.5 134
t-108.5 49q-67 0 -111 -50t-44 -134q0 -81 44 -131.5t111 -50.5zM373 604l-25 -29q-9 -10 -19 -2l-168 134q-9 7 -2 19l32 37q9 11 19 2l161 -142q11 -8 2 -19z" />
    <glyph glyph-name="amacron.alt" 
d="M562 0h-87q-43 0 -43 42v58h-2q-47 -107 -167 -107q-102 0 -163.5 71t-61.5 183q0 114 62.5 183t162.5 69q66 0 107.5 -26.5t58.5 -64.5h1v71q0 13 12 13h52q12 0 12 -13v-412h56q12 0 12 -12v-43q0 -12 -12 -12zM275 63q65 0 108.5 50t43.5 133q0 85 -43.5 134
t-108.5 49q-67 0 -111 -50t-44 -134q0 -81 44 -131.5t111 -50.5zM432 554h-296q-13 0 -13 13v42q0 14 13 14h296q13 0 13 -14v-42q0 -13 -13 -13z" />
    <glyph glyph-name="aogonek.alt" 
d="M571 -107l9 -13q8 -11 -4 -17q-34 -24 -73 -24q-36 0 -57.5 20.5t-21.5 52.5q0 33 21.5 55.5t47.5 32.5h-18q-43 0 -43 42v58h-2q-47 -107 -167 -107q-102 0 -163.5 71t-61.5 183q0 114 62.5 183t162.5 69q66 0 107.5 -26.5t58.5 -64.5h1v71q0 13 12 13h52q12 0 12 -13
v-412h56q12 0 12 -12v-43q0 -12 -12 -12h-16q-14 -7 -28 -16t-28 -27.5t-14 -38.5q0 -16 10.5 -25t27.5 -9q21 0 39 10q13 7 18 -1zM275 63q65 0 108.5 50t43.5 133q0 85 -43.5 134t-108.5 49q-67 0 -111 -50t-44 -134q0 -81 44 -131.5t111 -50.5z" />
    <glyph glyph-name="aring.alt" 
d="M562 0h-87q-43 0 -43 42v58h-2q-47 -107 -167 -107q-102 0 -163.5 71t-61.5 183q0 114 62.5 183t162.5 69q66 0 107.5 -26.5t58.5 -64.5h1v71q0 13 12 13h52q12 0 12 -13v-412h56q12 0 12 -12v-43q0 -12 -12 -12zM275 63q65 0 108.5 50t43.5 133q0 85 -43.5 134
t-108.5 49q-67 0 -111 -50t-44 -134q0 -81 44 -131.5t111 -50.5zM339 603q-12 -20 -35 -26.5t-43 5.5t-26.5 35.5t5.5 43.5t35 26.5t43 -5.5t26.5 -35.5t-5.5 -43.5zM316 623q4 11 -1.5 21.5t-16.5 14.5t-21.5 -1t-14.5 -17q-4 -11 1.5 -21.5t17.5 -14.5q11 -4 21 1t14 17z
" />
    <glyph glyph-name="atilde.alt" 
d="M562 0h-87q-43 0 -43 42v58h-2q-47 -107 -167 -107q-102 0 -163.5 71t-61.5 183q0 114 62.5 183t162.5 69q66 0 107.5 -26.5t58.5 -64.5h1v71q0 13 12 13h52q12 0 12 -13v-412h56q12 0 12 -12v-43q0 -12 -12 -12zM275 63q65 0 108.5 50t43.5 133q0 85 -43.5 134
t-108.5 49q-67 0 -111 -50t-44 -134q0 -81 44 -131.5t111 -50.5zM412 684h24q12 0 12 -12q0 -113 -87 -113q-32 0 -56.5 15.5t-44 31.5t-37.5 16q-21 0 -31 -12.5t-10 -44.5q0 -12 -12 -12h-24q-12 0 -12 12q0 108 86 108q37 0 77 -33t61 -33q24 0 33 14t9 51q0 12 12 12z
" />
    <glyph glyph-name="y.alt" horiz-adv-x="557" 
d="M501 480l1 -499q0 -107 -66 -161t-173 -54q-27 0 -51.5 3t-43 9t-33.5 12t-27 13.5t-19 12.5t-13 10l-6 6q-11 10 -3 18l25 37q7 8 18 1l4 -4q4 -3 7.5 -5.5t9.5 -6.5t13 -7.5t16.5 -8t20 -7.5t23 -5.5t27.5 -4t31 -1.5q73 0 119 35t46 108v98h-3q-41 -86 -156 -86
q-80 0 -126.5 47.5t-47.5 126.5v258h-57q-12 0 -12 12v43q0 12 12 12h96q43 0 43 -42v-263q0 -58 28 -90t82 -32q28 0 52 8.5t38.5 20.5t24.5 25t14 21t4 10v275h-54q-12 0 -12 12v43q0 12 12 12h124q12 0 12 -12z" />
    <glyph glyph-name="yacute.alt" horiz-adv-x="557" 
d="M501 480l1 -499q0 -107 -66 -161t-173 -54q-27 0 -51.5 3t-43 9t-33.5 12t-27 13.5t-19 12.5t-13 10l-6 6q-11 10 -3 18l25 37q7 8 18 1l4 -4q4 -3 7.5 -5.5t9.5 -6.5t13 -7.5t16.5 -8t20 -7.5t23 -5.5t27.5 -4t31 -1.5q73 0 119 35t46 108v98h-3q-41 -86 -156 -86
q-80 0 -126.5 47.5t-47.5 126.5v258h-57q-12 0 -12 12v43q0 12 12 12h96q43 0 43 -42v-263q0 -58 28 -90t82 -32q28 0 52 8.5t38.5 20.5t24.5 25t14 21t4 10v275h-54q-12 0 -12 12v43q0 12 12 12h124q12 0 12 -12zM396 706l-168 -134q-12 -7 -19 3l-25 29q-9 11 2 19
l161 141q9 9 19 -1l31 -38q8 -10 -1 -19z" />
    <glyph glyph-name="ycircumflex.alt" horiz-adv-x="557" 
d="M501 480l1 -499q0 -107 -66 -161t-173 -54q-27 0 -51.5 3t-43 9t-33.5 12t-27 13.5t-19 12.5t-13 10l-6 6q-11 10 -3 18l25 37q7 8 18 1l4 -4q4 -3 7.5 -5.5t9.5 -6.5t13 -7.5t16.5 -8t20 -7.5t23 -5.5t27.5 -4t31 -1.5q73 0 119 35t46 108v98h-3q-41 -86 -156 -86
q-80 0 -126.5 47.5t-47.5 126.5v258h-57q-12 0 -12 12v43q0 12 12 12h96q43 0 43 -42v-263q0 -58 28 -90t82 -32q28 0 52 8.5t38.5 20.5t24.5 25t14 21t4 10v275h-54q-12 0 -12 12v43q0 12 12 12h124q12 0 12 -12zM452 604l-25 -29q-8 -10 -19 -2l-124 105l-122 -105
q-10 -9 -19 2l-25 29q-7 11 2 19l155 136q4 4 10 4q5 0 10 -5l155 -135q8 -10 2 -19z" />
    <glyph glyph-name="ydieresis.alt" horiz-adv-x="557" 
d="M501 480l1 -499q0 -107 -66 -161t-173 -54q-27 0 -51.5 3t-43 9t-33.5 12t-27 13.5t-19 12.5t-13 10l-6 6q-11 10 -3 18l25 37q7 8 18 1l4 -4q4 -3 7.5 -5.5t9.5 -6.5t13 -7.5t16.5 -8t20 -7.5t23 -5.5t27.5 -4t31 -1.5q73 0 119 35t46 108v98h-3q-41 -86 -156 -86
q-80 0 -126.5 47.5t-47.5 126.5v258h-57q-12 0 -12 12v43q0 12 12 12h96q43 0 43 -42v-263q0 -58 28 -90t82 -32q28 0 52 8.5t38.5 20.5t24.5 25t14 21t4 10v275h-54q-12 0 -12 12v43q0 12 12 12h124q12 0 12 -12zM250 598q0 -18 -12.5 -30t-30.5 -12t-30 12t-12 30t12 30.5
t30 12.5t30.5 -12.5t12.5 -30.5zM408 598q0 -18 -12.5 -30t-30.5 -12t-30 12t-12 30t12 30.5t30 12.5t30.5 -12.5t12.5 -30.5z" />
    <glyph glyph-name="ygrave.alt" horiz-adv-x="557" 
d="M501 480l1 -499q0 -107 -66 -161t-173 -54q-27 0 -51.5 3t-43 9t-33.5 12t-27 13.5t-19 12.5t-13 10l-6 6q-11 10 -3 18l25 37q7 8 18 1l4 -4q4 -3 7.5 -5.5t9.5 -6.5t13 -7.5t16.5 -8t20 -7.5t23 -5.5t27.5 -4t31 -1.5q73 0 119 35t46 108v98h-3q-41 -86 -156 -86
q-80 0 -126.5 47.5t-47.5 126.5v258h-57q-12 0 -12 12v43q0 12 12 12h96q43 0 43 -42v-263q0 -58 28 -90t82 -32q28 0 52 8.5t38.5 20.5t24.5 25t14 21t4 10v275h-54q-12 0 -12 12v43q0 12 12 12h124q12 0 12 -12zM356 604l-25 -29q-9 -10 -19 -2l-168 134q-9 7 -2 19l32 37
q9 11 19 2l161 -142q11 -8 2 -19z" />
    <glyph glyph-name="k.alt" horiz-adv-x="633" 
d="M288 233h37q48 0 90.5 29t42.5 76q0 38 -29.5 66.5t-71.5 28.5q-51 0 -90.5 -35t-56.5 -76t-20 -77l-1 -178h53q13 0 13 -12v-43q0 -12 -13 -12h-191q-13 0 -13 12l1 43q0 12 12 12h55l1 584h-56q-13 0 -12 12l-1 43q2 12 13 12h126q12 0 12 -12v-322q57 115 173 115
q84 0 131 -46.5t47 -115.5q0 -64 -51 -103t-113 -45l151 -122h43q13 0 13 -12l-1 -43q0 -12 -12 -12h-54q-26 0 -55 31l-180 153q-6 4 -6 10l1 27q0 12 12 12z" />
    <glyph glyph-name="kcommaaccent.alt" horiz-adv-x="633" 
d="M288 233h37q48 0 90.5 29t42.5 76q0 38 -29.5 66.5t-71.5 28.5q-51 0 -90.5 -35t-56.5 -76t-20 -77l-1 -178h53q13 0 13 -12v-43q0 -12 -13 -12h-191q-13 0 -13 12l1 43q0 12 12 12h55l1 584h-56q-13 0 -12 12l-1 43q2 12 13 12h126q12 0 12 -12v-322q57 115 173 115
q84 0 131 -46.5t47 -115.5q0 -64 -51 -103t-113 -45l151 -122h43q13 0 13 -12l-1 -43q0 -12 -12 -12h-54q-26 0 -55 31l-180 153q-6 4 -6 10l1 27q0 12 12 12zM285 -222v17q0 6 7 6q16 0 28.5 13.5t12.5 39.5l-2 11q-5 -5 -19 -5q-18 0 -30.5 13t-12.5 34q0 19 13.5 33
t33.5 14q26 0 40.5 -19.5t14.5 -53.5q0 -56 -22 -82.5t-57 -26.5q-7 0 -7 6z" />
    </font>
</defs>
</svg>
