<?xml version="1.0" standalone="no"?>
<!DOCTYPE svg PUBLIC "-//W3C//DTD SVG 1.1//EN" "http://www.w3.org/Graphics/SVG/1.1/DTD/svg11.dtd" >
<svg xmlns="http://www.w3.org/2000/svg" xmlns:xlink="http://www.w3.org/1999/xlink" version="1.1">
<metadata>
Created by FontForge 20161116 at Thu Jun  6 17:00:58 2002
 By Jimmy Wärting
 The digitally encoded machine readable software for producing the
 Typefaces licensed to you is copyrighted (c) 1989, 1995, 2002 Adobe Systems.
 All Rights Reserved. This software is the property of Adobe Systems
 Incorporated and its licensors, and may not be reproduced, used,
 displayed, modified, disclosed or transferred without the express
 written approval of Adobe.

 The digitally encoded machine readable outline data for producing the Typefaces
 provided as part of your laser printer is copyrighted (c) 1981, 1995, 2002 Heidelberger Druckmaschinen AG.
 All rights reserved. This data is the property of Heidelberger Druckmaschinen AG,
 and may not be reproduced, used, displayed, modified, disclosed or transferred
 without the express written approval of Heidelberger Druckmaschinen AG. 
</metadata>
<defs>
<font id="AvenirLTStd-BookOblique" horiz-adv-x="556" >
  <font-face 
    font-family="Avenir LT Std"
    font-weight="350"
    font-style="oblique"
    font-stretch="normal"
    units-per-em="1000"
    panose-1="2 11 5 2 2 2 3 2 2 4"
    ascent="756"
    descent="-244"
    x-height="468"
    cap-height="708"
    bbox="-167 -288 1044 920"
    underline-thickness="50"
    underline-position="-100"
    slope="-8"
    stemh="60"
    stemv="72"
    unicode-range="U+0020-FB02"
  />
<missing-glyph horiz-adv-x="598" 
d="M98 0v700h500v-700h-500zM348 395l170 255h-340zM378 350l170 -255v510zM178 50h340l-170 255zM148 605v-510l170 255z" />
    <glyph glyph-name="fi" unicode="fi" horiz-adv-x="537" 
d="M356 468l-9 -60h-111l-57 -408h-66l57 408h-99l9 60h99l18 128c17 124 86 172 181 172c19 0 38 -3 56 -7l-20 -60c-16 4 -33 7 -50 7c-73 0 -93 -52 -102 -120l-17 -120h111zM516 468l-66 -468h-66l66 468h66zM556 648c-4 -28 -31 -48 -55 -48s-45 20 -41 48s31 48 55 48
s45 -20 41 -48z" />
    <glyph glyph-name="fl" unicode="fl" horiz-adv-x="537" 
d="M356 468l-9 -60h-111l-57 -408h-66l57 408h-99l9 60h99l18 128c17 124 86 172 181 172c19 0 38 -3 56 -7l-20 -60c-16 4 -33 7 -50 7c-73 0 -93 -52 -102 -120l-17 -120h111zM556 756l-106 -756h-66l106 756h66z" />
    <glyph glyph-name=".notdef" horiz-adv-x="598" 
d="M98 0v700h500v-700h-500zM348 395l170 255h-340zM378 350l170 -255v510zM178 50h340l-170 255zM148 605v-510l170 255z" />
    <glyph glyph-name="space" unicode=" " horiz-adv-x="278" 
 />
    <glyph glyph-name="exclam" unicode="!" horiz-adv-x="278" 
d="M275 708l-73 -516h-72l73 516h72zM200 48c-4 -28 -30 -54 -62 -54s-50 26 -46 54s29 54 61 54s51 -26 47 -54z" />
    <glyph glyph-name="quotedbl" unicode="&#x22;" horiz-adv-x="519" 
d="M223 473l34 235h60l-34 -235h-60zM368 473l34 235h60l-34 -235h-60z" />
    <glyph glyph-name="numbersign" unicode="#" 
d="M107 0l60 214h-102l9 60h110l44 162h-108l9 60h117l59 212h61l-59 -212h133l59 212h61l-59 -212h90l-9 -60h-99l-44 -162h95l-9 -60h-103l-60 -214h-61l60 214h-133l-60 -214h-61zM289 436l-44 -162h133l44 162h-133z" />
    <glyph glyph-name="dollar" unicode="$" 
d="M311 405l35 252c-71 -5 -129 -59 -139 -128c-9 -68 41 -100 104 -124zM346 314l-37 -264c52 0 134 29 149 128c11 68 -39 112 -112 136zM261 49l39 279c-87 28 -182 77 -165 199c16 116 121 188 220 195l10 70h48l-9 -68c95 0 141 -41 173 -85l-63 -48
c-21 47 -71 68 -120 67l-37 -267c93 -35 191 -83 173 -213c-16 -111 -114 -187 -230 -194l-10 -68h-48l9 66c-92 5 -163 53 -195 110l66 43c36 -55 97 -87 139 -86z" />
    <glyph glyph-name="percent" unicode="%" horiz-adv-x="833" 
d="M467 545c-14 -98 -102 -175 -201 -175s-165 77 -151 175c13 98 101 175 200 175s165 -77 152 -175zM407 545c9 66 -37 115 -100 115s-123 -49 -132 -115c-10 -66 36 -115 99 -115s123 49 133 115zM818 163c-14 -98 -102 -175 -201 -175s-165 77 -151 175s102 175 201 175
s165 -77 151 -175zM758 163c9 66 -37 115 -100 115s-123 -49 -132 -115s37 -115 100 -115s123 49 132 115zM767 712l-554 -743l-49 27l556 743z" />
    <glyph glyph-name="ampersand" unicode="&#x26;" horiz-adv-x="704" 
d="M713 383l-161 -219l136 -164h-102l-85 104c-69 -76 -138 -122 -234 -122c-118 0 -211 75 -193 202c14 104 100 169 190 209c-35 45 -69 101 -59 166c14 106 100 167 200 167c94 0 163 -56 149 -159c-13 -93 -104 -146 -182 -184l139 -168l121 168h81zM482 567
c8 56 -31 93 -85 93c-59 0 -112 -40 -121 -104c-7 -48 36 -107 56 -127c59 31 139 65 150 138zM462 152l-159 196c-100 -52 -141 -92 -151 -165c-12 -80 49 -135 126 -135s130 46 184 104z" />
    <glyph glyph-name="quoteright" unicode="&#x2019;" horiz-adv-x="260" 
d="M304 708l-115 -235h-67l101 235h81z" />
    <glyph glyph-name="parenleft" unicode="(" horiz-adv-x="260" 
d="M302 736l49 -34c-105 -137 -167 -249 -191 -414c-23 -165 8 -270 71 -408l-58 -40c-72 124 -101 286 -79 448c22 154 95 318 208 448z" />
    <glyph glyph-name="parenright" unicode=")" horiz-adv-x="260" 
d="M39 -160l-49 34c105 137 167 249 190 414c24 165 -7 270 -70 408l58 40c72 -124 101 -286 78 -448c-21 -154 -94 -318 -207 -448z" />
    <glyph glyph-name="asterisk" unicode="*" horiz-adv-x="444" 
d="M352 708l-21 -143l147 45l13 -56l-147 -45l73 -121l-54 -36l-74 124l-110 -124l-42 36l107 121l-135 45l29 56l133 -45l21 143h60z" />
    <glyph glyph-name="plus" unicode="+" horiz-adv-x="666" 
d="M441 558l-31 -225h225l-9 -60h-225l-31 -225h-60l31 225h-225l9 60h225l31 225h60z" />
    <glyph glyph-name="comma" unicode="," horiz-adv-x="278" 
d="M226 95l-114 -235h-67l100 235h81z" />
    <glyph glyph-name="hyphen" unicode="-" horiz-adv-x="333" 
d="M333 273l-9 -66h-257l9 66h257z" />
    <glyph glyph-name="period" unicode="." horiz-adv-x="278" 
d="M200 48c-4 -28 -30 -54 -62 -54s-50 26 -46 54s29 54 61 54s51 -26 47 -54z" />
    <glyph glyph-name="slash" unicode="/" horiz-adv-x="370" 
d="M464 706l-404 -724l-55 19l405 725z" />
    <glyph glyph-name="zero" unicode="0" 
d="M379 720c203 0 211 -209 189 -366s-89 -366 -292 -366s-210 209 -188 366s88 366 291 366zM370 654c-154 0 -195 -188 -210 -300c-16 -112 -28 -300 126 -300s194 188 210 300c15 112 28 300 -126 300z" />
    <glyph glyph-name="one" unicode="1" 
d="M448 708l-100 -708h-72l87 618l-143 -112l-37 54l201 148h64z" />
    <glyph glyph-name="two" unicode="2" 
d="M507 66l-9 -66h-450l12 83l322 287c49 44 103 95 112 160c11 78 -43 124 -119 124c-71 0 -132 -43 -157 -111l-75 8c35 105 127 169 236 169c114 0 205 -62 188 -184c-15 -108 -97 -179 -178 -249l-254 -221h372z" />
    <glyph glyph-name="three" unicode="3" 
d="M252 338l9 66h37c84 0 160 36 173 130c11 76 -32 120 -114 120c-59 0 -110 -28 -146 -78l-59 32c53 76 126 112 212 112c111 0 196 -66 179 -184c-10 -77 -74 -141 -142 -162l2 -2c79 -17 123 -91 111 -180c-18 -131 -132 -204 -255 -204c-104 0 -178 43 -203 143l80 23
c14 -67 54 -100 139 -100c81 0 156 57 167 140c15 107 -66 144 -159 144h-31z" />
    <glyph glyph-name="four" unicode="4" 
d="M516 708l-67 -474h102l-9 -66h-102l-24 -168h-72l24 168h-306l11 82l351 458h92zM377 234l56 402h-2l-300 -402h246z" />
    <glyph glyph-name="five" unicode="5" 
d="M565 708l-10 -66h-290l-34 -213c32 12 66 17 98 17c133 0 210 -97 192 -227c-19 -137 -135 -231 -271 -231c-89 0 -160 44 -186 126l75 31c20 -55 65 -91 127 -91c90 0 169 70 182 158c14 100 -50 168 -151 168c-51 0 -104 -15 -152 -39l59 367h361z" />
    <glyph glyph-name="six" unicode="6" 
d="M485 708l-236 -304l2 -2c25 16 69 24 101 24c123 0 203 -92 185 -219c-18 -130 -128 -219 -261 -219s-217 89 -199 219c11 78 45 133 88 190l235 311h85zM149 207c-13 -90 44 -153 137 -153s166 63 179 153s-43 153 -136 153s-167 -63 -180 -153z" />
    <glyph glyph-name="seven" unicode="7" 
d="M574 708l-10 -66l-375 -642h-81l381 642h-345l10 66h420z" />
    <glyph glyph-name="eight" unicode="8" 
d="M239 375v2c-59 21 -94 86 -84 158c16 113 118 185 224 185s188 -72 172 -185c-10 -72 -63 -137 -128 -158v-2c76 -21 119 -93 106 -186c-18 -123 -134 -201 -253 -201s-213 78 -195 201c13 93 76 165 158 186zM478 529c11 73 -37 125 -108 125s-133 -52 -144 -125
c-10 -73 38 -125 109 -125s133 52 143 125zM458 199c12 83 -40 145 -132 145s-160 -62 -172 -145s40 -145 132 -145s160 62 172 145z" />
    <glyph glyph-name="nine" unicode="9" 
d="M171 0l236 304l-2 2c-25 -16 -69 -24 -101 -24c-123 0 -203 92 -186 219c19 130 128 219 261 219s218 -89 199 -219c-11 -78 -44 -133 -87 -190l-235 -311h-85zM506 501c13 90 -43 153 -136 153s-167 -63 -180 -153c-12 -90 44 -153 137 -153s167 63 179 153z" />
    <glyph glyph-name="colon" unicode=":" horiz-adv-x="278" 
d="M252 419c-4 -28 -30 -54 -62 -54s-50 26 -46 54s29 54 61 54s51 -26 47 -54zM200 48c-4 -28 -30 -54 -62 -54s-50 26 -46 54s29 54 61 54s51 -26 47 -54z" />
    <glyph glyph-name="semicolon" unicode=";" horiz-adv-x="278" 
d="M226 95l-114 -235h-67l100 235h81zM261 419c-4 -28 -30 -54 -62 -54s-50 26 -46 54s29 54 61 54s51 -26 47 -54z" />
    <glyph glyph-name="less" unicode="&#x3c;" horiz-adv-x="666" 
d="M667 564l-8 -60l-457 -201l400 -201l-8 -60l-477 238l7 46z" />
    <glyph glyph-name="equal" unicode="=" horiz-adv-x="666" 
d="M135 408h510l-8 -60h-510zM114 258h510l-8 -60h-510z" />
    <glyph glyph-name="greater" unicode="&#x3e;" horiz-adv-x="666" 
d="M149 504l8 60l477 -238l-7 -46l-543 -238l8 60l458 201z" />
    <glyph glyph-name="question" unicode="?" horiz-adv-x="482" 
d="M310 243l-7 -51h-72l12 83c17 110 182 146 199 264c9 68 -32 115 -101 115c-67 0 -121 -44 -142 -109l-74 9c30 105 121 166 224 166c107 0 181 -62 166 -175c-24 -170 -184 -156 -205 -302zM307 48c-4 -28 -30 -54 -62 -54s-50 26 -46 54s29 54 61 54s51 -26 47 -54z
" />
    <glyph glyph-name="at" unicode="@" horiz-adv-x="800" 
d="M560 409c8 57 -24 100 -66 100c-98 -4 -186 -123 -199 -216c-8 -56 27 -96 81 -96c87 0 173 130 184 212zM606 487l31 63h56l-123 -282c-8 -17 -14 -36 -17 -51c-1 -10 7 -20 21 -20c69 0 166 107 181 218c22 151 -104 257 -244 257c-172 0 -335 -152 -358 -318
c-24 -166 97 -318 269 -318c99 0 205 45 270 121h63c-79 -110 -211 -175 -341 -175c-204 0 -351 163 -321 372c29 209 222 372 426 372c185 0 322 -127 297 -307c-24 -173 -180 -282 -270 -282c-40 0 -62 18 -61 59h-2c-36 -32 -75 -59 -134 -59c-85 0 -133 61 -121 150
c20 138 133 282 274 282c49 0 90 -21 102 -82h2z" />
    <glyph glyph-name="A" unicode="A" horiz-adv-x="686" 
d="M188 186l-104 -186h-84l408 708h70l208 -708h-84l-52 186h-362zM431 624l-207 -372h307z" />
    <glyph glyph-name="B" unicode="B" horiz-adv-x="630" 
d="M96 0l100 708h211c117 0 221 -44 202 -178c-10 -77 -65 -137 -146 -155l-1 -2c98 -8 150 -74 136 -177c-7 -46 -58 -196 -286 -196h-216zM258 642l-34 -244h145c69 0 149 33 161 124c4 29 2 120 -134 120h-138zM216 338l-39 -272h138c104 0 192 41 205 134
s-42 138 -157 138h-147z" />
    <glyph glyph-name="C" unicode="C" horiz-adv-x="704" 
d="M642 154l53 -42c-58 -73 -164 -130 -281 -130c-211 0 -346 157 -316 372s210 372 421 372c88 0 178 -33 229 -112l-69 -47c-22 46 -94 93 -169 93c-182 0 -311 -143 -334 -306s66 -306 248 -306c74 0 153 24 218 106z" />
    <glyph glyph-name="D" unicode="D" horiz-adv-x="741" 
d="M86 0l100 708h235c177 0 355 -118 322 -354s-245 -354 -422 -354h-235zM248 642l-81 -576h140c216 0 337 142 358 288c20 146 -61 288 -277 288h-140z" />
    <glyph glyph-name="E" unicode="E" horiz-adv-x="593" 
d="M215 335l-38 -269h379l-9 -66h-451l100 708h439l-10 -66h-367l-34 -241h343l-9 -66h-343z" />
    <glyph glyph-name="F" unicode="F" 
d="M215 335l-47 -335h-72l100 708h427l-10 -66h-355l-34 -241h330l-9 -66h-330z" />
    <glyph glyph-name="G" unicode="G" horiz-adv-x="778" 
d="M762 631l-62 -53c-41 51 -103 82 -190 82c-182 0 -311 -143 -334 -306s66 -306 248 -306c73 0 146 20 203 50l33 237h-169l9 66h241l-48 -347c-86 -47 -193 -72 -279 -72c-211 0 -346 157 -316 372s210 372 421 372c112 0 189 -32 243 -95z" />
    <glyph glyph-name="H" unicode="H" horiz-adv-x="722" 
d="M96 0l100 708h72l-44 -307h386l44 307h72l-100 -708h-72l47 335h-386l-47 -335h-72z" />
    <glyph glyph-name="I" unicode="I" horiz-adv-x="264" 
d="M268 708l-100 -708h-72l100 708h72z" />
    <glyph glyph-name="J" unicode="J" horiz-adv-x="482" 
d="M32 130l75 15c5 -59 36 -97 99 -97c105 0 137 89 149 176l69 484h72l-73 -514c-13 -95 -77 -212 -229 -212c-97 0 -159 51 -162 148z" />
    <glyph glyph-name="K" unicode="K" horiz-adv-x="630" 
d="M268 708l-44 -307h10l377 307h103l-403 -321l323 -387h-106l-297 365h-12l-51 -365h-72l100 708h72z" />
    <glyph glyph-name="L" unicode="L" horiz-adv-x="500" 
d="M268 708l-91 -642h330l-9 -66h-402l100 708h72z" />
    <glyph glyph-name="M" unicode="M" horiz-adv-x="890" 
d="M306 708l158 -576l320 576h110l-100 -708h-72l86 612h-2l-342 -612h-38l-170 612h-2l-86 -612h-72l100 708h110z" />
    <glyph glyph-name="N" unicode="N" horiz-adv-x="778" 
d="M286 708l337 -600h2l85 600h72l-100 -708h-90l-337 606h-2l-85 -606h-72l100 708h90z" />
    <glyph glyph-name="O" unicode="O" horiz-adv-x="834" 
d="M836 354c-30 -215 -211 -372 -422 -372s-346 157 -316 372s210 372 421 372s347 -157 317 -372zM758 354c23 163 -66 306 -248 306s-311 -143 -334 -306s66 -306 248 -306s311 143 334 306z" />
    <glyph glyph-name="P" unicode="P" horiz-adv-x="574" 
d="M96 0l100 708h206c144 0 224 -62 206 -189s-116 -190 -260 -190h-134l-46 -329h-72zM258 642l-34 -247h116c129 0 180 56 190 124s-27 123 -156 123h-116z" />
    <glyph glyph-name="Q" unicode="Q" horiz-adv-x="834" 
d="M177 363c-22 -157 63 -297 238 -297c174 0 299 140 321 297s-63 297 -237 297c-175 0 -300 -140 -322 -297zM820 66l-9 -66h-405c-205 0 -336 153 -307 363c30 210 204 363 409 363c204 0 336 -153 306 -363c-18 -127 -84 -234 -207 -295l-1 -2h214z" />
    <glyph glyph-name="R" unicode="R" horiz-adv-x="593" 
d="M214 329l-46 -329h-72l100 708h218c144 0 224 -62 206 -189c-14 -98 -89 -173 -207 -183l157 -336h-88l-148 329h-120zM258 642l-34 -247h128c129 0 180 56 190 124s-27 123 -156 123h-128z" />
    <glyph glyph-name="S" unicode="S" 
d="M584 640l-70 -49c-24 46 -67 69 -127 69c-74 0 -157 -39 -169 -128c-27 -191 350 -90 314 -345c-18 -129 -150 -205 -262 -205c-86 0 -164 31 -208 105l72 47c23 -52 75 -86 149 -86c71 0 158 46 170 129c28 200 -351 89 -314 348c19 137 142 201 257 201
c80 0 141 -22 188 -86z" />
    <glyph glyph-name="T" unicode="T" horiz-adv-x="574" 
d="M413 642l-90 -642h-72l90 642h-237l10 66h546l-10 -66h-237z" />
    <glyph glyph-name="U" unicode="U" horiz-adv-x="686" 
d="M702 708l-63 -444c-16 -118 -87 -282 -299 -282s-235 164 -219 282l63 444h72l-62 -436c-28 -204 102 -224 156 -224s190 20 218 224l62 436h72z" />
    <glyph glyph-name="V" unicode="V" horiz-adv-x="611" 
d="M177 708l140 -600h2l317 600h78l-376 -708h-72l-169 708h80z" />
    <glyph glyph-name="W" unicode="W" horiz-adv-x="944" 
d="M180 708l84 -606h2l264 606h86l92 -606h2l254 606h80l-309 -708h-84l-93 606h-2l-263 -606h-84l-109 708h80z" />
    <glyph glyph-name="X" unicode="X" horiz-adv-x="630" 
d="M223 708l153 -283l238 283h90l-288 -336l208 -372h-95l-171 321l-262 -321h-90l311 372l-191 336h97z" />
    <glyph glyph-name="Y" unicode="Y" horiz-adv-x="574" 
d="M366 305l-43 -305h-72l43 305l-208 403h90l164 -334l258 334h90z" />
    <glyph glyph-name="Z" unicode="Z" 
d="M627 708l-9 -60l-495 -582h419l-9 -66h-510l8 60l496 582h-408l10 66h498z" />
    <glyph glyph-name="bracketleft" unicode="[" horiz-adv-x="260" 
d="M330 732l-8 -54h-96l-109 -780h96l-8 -54h-162l125 888h162z" />
    <glyph glyph-name="backslash" unicode="\" horiz-adv-x="370" 
d="M304 -18l-200 724l60 20l201 -725z" />
    <glyph glyph-name="bracketright" unicode="]" horiz-adv-x="260" 
d="M11 -156l8 54h96l109 780h-96l8 54h162l-125 -888h-162z" />
    <glyph glyph-name="asciicircum" unicode="^" horiz-adv-x="666" 
d="M119 275l290 433h48l168 -433h-62l-141 361l-241 -361h-62z" />
    <glyph glyph-name="underscore" unicode="_" horiz-adv-x="500" 
d="M-18 -125l7 50h500l-7 -50h-500z" />
    <glyph glyph-name="quoteleft" unicode="&#x2018;" horiz-adv-x="260" 
d="M122 473l115 235h67l-101 -235h-81z" />
    <glyph glyph-name="a" unicode="a" horiz-adv-x="519" 
d="M379 287h33l2 12c11 81 -22 121 -103 121c-55 0 -106 -19 -151 -55l-33 47c49 44 119 68 207 68c92 0 164 -52 148 -166l-29 -209c-5 -36 -7 -80 -7 -105h-64c-1 23 1 51 5 76h-2c-47 -62 -103 -88 -178 -88c-83 0 -154 46 -141 137c21 152 201 162 313 162zM405 233h-34
c-67 0 -219 -5 -232 -99c-9 -62 45 -86 98 -86c96 0 151 68 163 151z" />
    <glyph glyph-name="b" unicode="b" horiz-adv-x="611" 
d="M72 0l106 756h66l-51 -366h2c52 63 132 90 194 90c146 0 235 -105 215 -246s-138 -246 -284 -246c-62 0 -135 27 -169 90h-2l-11 -78h-66zM532 234c15 105 -42 186 -151 186c-108 0 -198 -81 -213 -186s53 -186 161 -186c109 0 188 81 203 186z" />
    <glyph glyph-name="c" unicode="c" horiz-adv-x="482" 
d="M523 399l-60 -41c-17 34 -56 62 -108 62c-109 2 -187 -79 -202 -186s40 -188 150 -186c52 0 99 28 125 62l49 -41c-54 -54 -120 -80 -183 -81c-153 -2 -233 105 -213 246s130 248 282 246c63 -1 122 -27 160 -81z" />
    <glyph glyph-name="d" unicode="d" horiz-adv-x="611" 
d="M645 756l-106 -756h-66l11 78h-2c-52 -63 -133 -90 -195 -90c-146 0 -234 105 -214 246s137 246 283 246c62 0 136 -27 170 -90h2l51 366h66zM145 234c-15 -105 42 -186 151 -186c108 0 198 81 213 186s-53 186 -161 186c-109 0 -188 -81 -203 -186z" />
    <glyph glyph-name="e" unicode="e" 
d="M538 216h-390c-5 -94 56 -168 149 -168c70 0 129 39 161 81l45 -42c-65 -70 -138 -99 -215 -99c-139 0 -227 105 -207 246s137 246 270 246c142 -1 210 -106 192 -234zM158 270h316c12 89 -36 150 -131 150c-86 0 -174 -73 -185 -150z" />
    <glyph glyph-name="f" unicode="f" horiz-adv-x="296" 
d="M356 468l-9 -60h-111l-57 -408h-66l57 408h-99l9 60h99l18 128c17 124 86 172 181 172c19 0 38 -3 56 -7l-20 -60c-16 4 -33 7 -50 7c-73 0 -93 -52 -102 -120l-17 -120h111z" />
    <glyph glyph-name="g" unicode="g" horiz-adv-x="611" 
d="M38 -146l57 52c31 -52 92 -86 167 -86c134 0 193 83 208 184l11 84h-2c-50 -63 -119 -88 -187 -88c-135 0 -230 101 -211 238c20 136 134 242 272 242c56 0 125 -17 169 -90h2l11 78h66l-65 -464c-15 -102 -76 -244 -286 -244c-93 0 -161 30 -212 94zM154 240
c-14 -98 50 -180 148 -180c96 0 192 72 203 180c14 98 -42 180 -152 180c-98 0 -185 -82 -199 -180z" />
    <glyph glyph-name="h" unicode="h" 
d="M72 0l106 756h66l-51 -363h2c36 51 107 87 169 87c119 0 167 -67 151 -183l-42 -297h-66l36 259c15 104 -6 161 -104 161c-14 0 -143 -9 -167 -180l-34 -240h-66z" />
    <glyph glyph-name="i" unicode="i" horiz-adv-x="240" 
d="M219 468l-66 -468h-66l66 468h66zM259 648c-4 -28 -31 -48 -55 -48s-45 20 -41 48s31 48 55 48s45 -20 41 -48z" />
    <glyph glyph-name="j" unicode="j" horiz-adv-x="240" 
d="M-63 -230l17 57l3 -1c10 -3 23 -6 34 -6c65 0 78 54 84 98l78 550h66l-79 -561c-4 -27 -13 -147 -153 -147c-18 0 -34 3 -50 10zM259 648c-4 -28 -31 -48 -55 -48s-45 20 -41 48s31 48 55 48s45 -20 41 -48z" />
    <glyph glyph-name="k" unicode="k" horiz-adv-x="482" 
d="M244 756l-70 -499l251 211h99l-263 -214l222 -254h-102l-208 246l-35 -246h-66l106 756h66z" />
    <glyph glyph-name="l" unicode="l" horiz-adv-x="240" 
d="M259 756l-106 -756h-66l106 756h66z" />
    <glyph glyph-name="m" unicode="m" horiz-adv-x="852" 
d="M72 0l51 364c5 35 7 69 10 104h71l-10 -71h2c39 54 106 83 162 83c51 0 116 -17 136 -97c35 60 104 97 167 97c119 0 167 -67 151 -183l-42 -297h-66l38 273c14 95 -6 147 -97 147c-98 0 -144 -84 -156 -171l-35 -249h-66l38 273c14 95 -6 147 -97 147
c-16 0 -133 -9 -157 -180l-34 -240h-66z" />
    <glyph glyph-name="n" unicode="n" 
d="M133 468h68c-1 -25 -4 -50 -8 -75h2c36 51 107 87 169 87c119 0 167 -67 151 -183l-42 -297h-66l36 259c15 104 -6 161 -104 161c-14 0 -143 -9 -167 -180l-34 -240h-66l51 365c4 25 7 69 10 103z" />
    <glyph glyph-name="o" unicode="o" horiz-adv-x="593" 
d="M578 234c-20 -141 -138 -246 -284 -246c-145 0 -233 105 -213 246s137 246 282 246c146 0 235 -105 215 -246zM506 234c15 105 -42 186 -151 186c-108 0 -187 -81 -202 -186s42 -186 150 -186c109 0 188 81 203 186z" />
    <glyph glyph-name="p" unicode="p" horiz-adv-x="611" 
d="M32 -288l106 756h66l-11 -78h2c52 63 132 90 194 90c146 0 235 -105 215 -246s-138 -246 -284 -246c-62 0 -135 27 -169 90h-2l-51 -366h-66zM532 234c15 105 -42 186 -151 186c-108 0 -198 -81 -213 -186s53 -186 161 -186c109 0 188 81 203 186z" />
    <glyph glyph-name="q" unicode="q" horiz-adv-x="611" 
d="M605 468l-106 -756h-66l51 366h-2c-52 -63 -133 -90 -195 -90c-146 0 -234 105 -214 246s137 246 283 246c62 0 136 -27 170 -90h2l11 78h66zM145 234c-15 -105 42 -186 151 -186c108 0 198 81 213 186s-53 186 -161 186c-109 0 -188 -81 -203 -186z" />
    <glyph glyph-name="r" unicode="r" horiz-adv-x="332" 
d="M79 0l45 322c6 42 9 78 17 146h65l-12 -87h2c26 50 81 99 163 99c19 0 35 -2 49 -6l-23 -65c-7 3 -19 5 -37 5c-100 0 -157 -87 -166 -150l-37 -264h-66z" />
    <glyph glyph-name="s" unicode="s" horiz-adv-x="426" 
d="M435 396l-65 -39c-14 38 -44 63 -92 63c-46 0 -100 -20 -107 -70c-6 -44 23 -60 82 -74l65 -16c62 -15 105 -62 96 -128c-15 -102 -112 -144 -203 -144c-71 0 -132 25 -167 91l63 39c21 -42 58 -70 113 -70c54 0 113 24 121 78c6 47 -31 63 -79 75l-62 15
c-31 8 -115 34 -102 123c13 97 104 141 192 141c65 0 123 -23 145 -84z" />
    <glyph glyph-name="t" unicode="t" horiz-adv-x="332" 
d="M380 468l-9 -60h-135l-38 -276c-10 -70 15 -84 56 -84c23 0 49 7 70 18l-5 -61c-26 -11 -59 -17 -92 -17c-50 0 -113 22 -98 125l41 295h-99l9 60h99l18 132h66l-18 -132h135z" />
    <glyph glyph-name="u" unicode="u" 
d="M478 0h-68c1 25 4 50 8 75h-2c-37 -51 -108 -87 -170 -87c-119 0 -166 67 -150 183l42 297h66l-37 -259c-14 -104 7 -161 105 -161c14 0 143 9 167 180l34 240h66l-52 -365c-3 -25 -6 -69 -9 -103z" />
    <glyph glyph-name="v" unicode="v" horiz-adv-x="482" 
d="M534 468l-256 -468h-74l-124 468h79l93 -394h2l205 394h75z" />
    <glyph glyph-name="w" unicode="w" horiz-adv-x="722" 
d="M80 468h78l54 -380h2l179 380h68l71 -380h2l162 380h78l-214 -468h-74l-70 384h-2l-178 -384h-74z" />
    <glyph glyph-name="x" unicode="x" horiz-adv-x="482" 
d="M0 0l228 250l-139 218h90l105 -175l149 175h82l-194 -218l161 -250h-90l-128 205l-180 -205h-84z" />
    <glyph glyph-name="y" unicode="y" horiz-adv-x="482" 
d="M165 468l92 -387l198 387h80l-317 -590c-38 -72 -83 -118 -164 -118c-20 0 -41 1 -60 7l16 64c14 -8 31 -11 49 -11c46 0 74 31 102 84l46 90l-125 474h83z" />
    <glyph glyph-name="z" unicode="z" horiz-adv-x="426" 
d="M459 468l-7 -48l-325 -360h284l-8 -60h-380l7 48l324 360h-260l9 60h356z" />
    <glyph glyph-name="braceleft" unicode="{" horiz-adv-x="260" 
d="M48 258l9 60c45 0 94 41 104 111l25 178c14 94 69 125 126 125h64l-9 -60h-56c-49 0 -56 -45 -61 -83l-24 -172c-14 -97 -84 -125 -107 -128l-1 -2c23 -3 85 -31 71 -128l-24 -172c-5 -38 -10 -83 39 -83h56l-9 -60h-64c-57 0 -104 31 -90 125l25 178
c9 70 -29 111 -74 111z" />
    <glyph glyph-name="bar" unicode="|" horiz-adv-x="361" 
d="M202 833h58v-1110h-58v1110z" />
    <glyph glyph-name="braceright" unicode="}" horiz-adv-x="260" 
d="M293 318l-9 -60c-45 0 -95 -41 -104 -111l-25 -178c-14 -94 -69 -125 -126 -125h-64l9 60h56c49 0 56 45 61 83l24 172c14 97 84 125 107 128l1 2c-23 3 -85 31 -71 128l24 172c5 38 10 83 -39 83h-56l9 60h64c57 0 104 -31 90 -125l-25 -178c-10 -70 29 -111 74 -111z
" />
    <glyph glyph-name="asciitilde" unicode="~" horiz-adv-x="666" 
d="M587 368l36 -40c-36 -42 -84 -93 -149 -93c-42 0 -55 2 -100 29c-30 18 -63 47 -100 47c-46 0 -88 -46 -110 -73l-36 40c36 42 84 93 149 93c42 0 55 -2 100 -29c31 -18 63 -47 100 -47c46 0 88 46 110 73z" />
    <glyph glyph-name="exclamdown" unicode="&#xa1;" horiz-adv-x="278" 
d="M71 -228l72 516h72l-72 -516h-72zM146 432c4 28 29 54 61 54s51 -26 47 -54s-30 -54 -62 -54s-50 26 -46 54z" />
    <glyph glyph-name="cent" unicode="&#xa2;" 
d="M295 51l52 366c-88 -15 -151 -89 -164 -183s28 -168 112 -183zM395 419l-52 -370c48 3 91 29 115 61l49 -41c-50 -51 -112 -77 -173 -80l-8 -61h-48l9 63c-129 14 -194 114 -176 243s111 229 244 243l9 63h48l-9 -61c60 -3 114 -29 150 -80l-60 -41c-15 32 -51 58 -98 61
z" />
    <glyph glyph-name="sterling" unicode="&#xa3;" 
d="M482 395l-9 -60h-168l-39 -275h253l-8 -60h-427l8 60h102l39 275h-96l9 60h96l12 87c18 127 80 238 245 238c58 0 113 -18 147 -60l-54 -51c-23 30 -58 51 -104 51c-123 0 -154 -116 -163 -184l-11 -81h168z" />
    <glyph glyph-name="fraction" unicode="&#x2044;" horiz-adv-x="168" 
d="M-119 -32l-48 32l555 740l47 -31z" />
    <glyph glyph-name="yen" unicode="&#xa5;" 
d="M110 223h163l11 77l-5 12h-156l7 54h124l-156 342h85l147 -340l243 340h85l-253 -342h123l-7 -54h-156l-9 -12l-11 -77h163l-7 -54h-163l-24 -169h-72l24 169h-163z" />
    <glyph glyph-name="florin" unicode="&#x192;" 
d="M482 419l-8 -54h-119l-116 -352c-24 -72 -69 -152 -177 -152c-29 0 -58 7 -78 24l39 48c13 -8 33 -12 50 -12c62 0 85 55 101 106l110 338h-108l8 54h119l47 144c27 82 74 157 174 157c34 0 66 -10 91 -29l-41 -48c-15 10 -34 17 -54 17c-66 0 -94 -74 -107 -116
l-39 -125h108z" />
    <glyph glyph-name="section" unicode="&#xa7;" 
d="M541 626l-63 -30c-10 26 -37 64 -99 64c-92 0 -118 -68 -121 -90c-7 -49 26 -72 68 -95l102 -56c52 -29 87 -70 77 -139c-8 -61 -49 -103 -105 -131c45 -35 59 -68 51 -125c-15 -112 -114 -163 -211 -163c-89 0 -160 37 -181 115l70 32c13 -62 65 -87 120 -87
c53 0 119 24 130 102c6 41 -18 67 -57 88l-128 67c-48 25 -81 67 -72 130c10 66 60 108 123 134c-24 18 -70 48 -60 120c14 103 104 158 197 158c89 0 146 -42 159 -94zM299 404l-18 -7c-40 -16 -80 -42 -86 -84c-8 -57 51 -80 90 -100l61 -32c37 14 80 49 86 89
c8 58 -37 87 -80 108z" />
    <glyph glyph-name="currency" unicode="&#xa4;" 
d="M604 559l-61 -53c29 -44 41 -96 32 -152c-7 -56 -33 -108 -75 -152l46 -53l-50 -44l-46 53c-49 -34 -104 -53 -157 -53s-104 19 -143 53l-60 -53l-38 44l60 53c-28 44 -40 96 -31 152c7 56 33 108 74 152l-45 53l50 44l45 -53c49 34 105 53 158 53s103 -19 142 -53l61 53
zM147 354c-15 -104 54 -189 155 -189c100 0 192 85 207 189c14 104 -54 189 -154 189c-101 0 -194 -85 -208 -189z" />
    <glyph glyph-name="quotesingle" unicode="'" horiz-adv-x="260" 
d="M166 473l34 235h60l-34 -235h-60z" />
    <glyph glyph-name="quotedblleft" unicode="&#x201c;" horiz-adv-x="519" 
d="M161 473l115 235h67l-101 -235h-81zM342 473l115 235h67l-101 -235h-81z" />
    <glyph glyph-name="guillemotleft" unicode="&#xab;" horiz-adv-x="482" 
d="M297 416l-139 -176l90 -176l-52 -33l-110 209l169 209zM479 416l-139 -176l90 -176l-52 -33l-110 209l169 209z" />
    <glyph glyph-name="guilsinglleft" unicode="&#x2039;" horiz-adv-x="315" 
d="M165 240l90 -176l-52 -33l-110 209l169 209l42 -33z" />
    <glyph glyph-name="guilsinglright" unicode="&#x203a;" horiz-adv-x="315" 
d="M218 240l-91 176l52 33l111 -209l-170 -209l-42 33z" />
    <glyph glyph-name="endash" unicode="&#x2013;" horiz-adv-x="500" 
d="M538 273l-9 -66h-500l9 66h500z" />
    <glyph glyph-name="dagger" unicode="&#x2020;" 
d="M411 708l-29 -204h204l-9 -60h-204l-80 -570h-66l80 570h-204l9 60h204l29 204h66z" />
    <glyph glyph-name="daggerdbl" unicode="&#x2021;" 
d="M411 708l-27 -192h195l-9 -60h-195l-46 -330h195l-9 -60h-195l-27 -192h-66l27 192h-195l9 60h195l46 330h-195l9 60h195l27 192h66z" />
    <glyph glyph-name="periodcentered" unicode="&#xb7;" horiz-adv-x="278" 
d="M237 314c-4 -28 -29 -54 -61 -54s-51 26 -47 54s30 54 62 54s50 -26 46 -54z" />
    <glyph glyph-name="paragraph" unicode="&#xb6;" horiz-adv-x="600" 
d="M613 708l-118 -834h-66l110 780h-124l-110 -780h-66l62 442c-122 0 -197 82 -182 186c18 130 117 206 257 206h237z" />
    <glyph glyph-name="bullet" unicode="&#x2022;" horiz-adv-x="500" 
d="M123 354c14 98 104 177 202 177s166 -79 152 -177s-104 -177 -202 -177s-166 79 -152 177z" />
    <glyph glyph-name="quotesinglbase" unicode="&#x201a;" horiz-adv-x="260" 
d="M217 95l-114 -235h-67l100 235h81z" />
    <glyph glyph-name="quotedblbase" unicode="&#x201e;" horiz-adv-x="519" 
d="M437 95l-114 -235h-67l100 235h81zM256 95l-114 -235h-67l100 235h81z" />
    <glyph glyph-name="quotedblright" unicode="&#x201d;" horiz-adv-x="519" 
d="M524 708l-115 -235h-67l101 235h81zM343 708l-115 -235h-67l101 235h81z" />
    <glyph glyph-name="guillemotright" unicode="&#xbb;" horiz-adv-x="482" 
d="M252 64l140 176l-91 176l52 33l111 -209l-170 -209zM70 64l140 176l-91 176l52 33l111 -209l-170 -209z" />
    <glyph glyph-name="ellipsis" unicode="&#x2026;" horiz-adv-x="1000" 
d="M228 48c-4 -28 -30 -54 -62 -54s-50 26 -46 54s29 54 61 54s51 -26 47 -54zM561 48c-4 -28 -30 -54 -62 -54s-50 26 -46 54s29 54 61 54s51 -26 47 -54zM894 48c-4 -28 -30 -54 -62 -54s-50 26 -46 54s29 54 61 54s51 -26 47 -54z" />
    <glyph glyph-name="perthousand" unicode="&#x2030;" horiz-adv-x="1000" 
d="M411 566c-12 -84 -90 -154 -175 -154s-143 70 -131 154c11 84 89 154 174 154s143 -70 132 -154zM357 566c7 55 -30 100 -85 100s-106 -45 -113 -100c-8 -55 29 -100 84 -100s106 45 114 100zM645 142c-12 -84 -90 -154 -175 -154s-143 70 -131 154s90 154 175 154
s143 -70 131 -154zM591 142c8 55 -30 100 -85 100s-105 -45 -113 -100s30 -100 85 -100s105 45 113 100zM995 142c-12 -84 -90 -154 -175 -154s-143 70 -131 154s90 154 175 154s143 -70 131 -154zM941 142c8 55 -30 100 -85 100s-105 -45 -113 -100s30 -100 85 -100
s105 45 113 100zM675 712l-554 -743l-49 27l556 743z" />
    <glyph glyph-name="questiondown" unicode="&#xbf;" horiz-adv-x="482" 
d="M239 237l7 51h72l-11 -83c-18 -110 -183 -146 -199 -264c-10 -68 32 -115 101 -115c67 0 121 44 142 109l74 -9c-30 -105 -122 -166 -225 -166c-107 0 -181 62 -165 175c24 170 184 156 204 302zM243 432c4 28 29 54 61 54s51 -26 47 -54s-30 -54 -62 -54s-50 26 -46 54z
" />
    <glyph glyph-name="grave" unicode="`" horiz-adv-x="240" 
d="M201 564l-111 144h91l79 -144h-59z" />
    <glyph glyph-name="acute" unicode="&#xb4;" horiz-adv-x="240" 
d="M350 708l-153 -144h-59l121 144h91z" />
    <glyph glyph-name="circumflex" unicode="&#x2c6;" horiz-adv-x="240" 
d="M260 708l88 -144h-66l-68 108l-98 -108h-66l130 144h80z" />
    <glyph glyph-name="tilde" unicode="&#x2dc;" horiz-adv-x="240" 
d="M82 576h-43c16 52 47 104 107 104c24 0 47 -11 69 -23c23 -11 44 -23 64 -23c30 0 47 25 56 50h43c-16 -52 -46 -104 -106 -104c-24 0 -48 12 -70 23c-22 12 -43 23 -64 23c-30 0 -47 -25 -56 -50z" />
    <glyph glyph-name="macron" unicode="&#xaf;" horiz-adv-x="240" 
d="M347 654l-8 -54h-270l8 54h270z" />
    <glyph glyph-name="breve" unicode="&#x2d8;" horiz-adv-x="240" 
d="M323 708h44c-17 -83 -84 -132 -166 -132s-135 49 -128 132h44c1 -52 42 -78 92 -78s97 26 114 78z" />
    <glyph glyph-name="dotaccent" unicode="&#x2d9;" horiz-adv-x="240" 
d="M161 657c4 26 29 51 59 51s47 -25 43 -51c-3 -26 -28 -51 -58 -51s-47 25 -44 51z" />
    <glyph glyph-name="dieresis" unicode="&#xa8;" horiz-adv-x="240" 
d="M64 647c4 26 28 51 58 51s48 -25 44 -51s-28 -51 -58 -51s-48 25 -44 51zM256 647c4 26 28 51 58 51s48 -25 44 -51s-28 -51 -58 -51s-48 25 -44 51z" />
    <glyph glyph-name="ring" unicode="&#x2da;" horiz-adv-x="240" 
d="M307 650c-7 -54 -57 -95 -109 -95s-90 41 -83 95c8 54 58 95 110 95s90 -41 82 -95zM271 650c5 33 -18 59 -51 59s-64 -26 -69 -59c-4 -33 19 -59 52 -59s64 26 68 59z" />
    <glyph glyph-name="cedilla" unicode="&#xb8;" horiz-adv-x="240" 
d="M156 0l-53 -60l1 -1c12 4 22 7 37 7c40 0 74 -27 67 -75c-9 -62 -73 -88 -127 -88c-33 0 -66 8 -94 24l21 36c21 -12 46 -18 71 -18c29 0 64 12 69 45c1 12 -3 40 -44 40c-19 0 -33 -5 -47 -11l-16 17l74 84h41z" />
    <glyph glyph-name="hungarumlaut" unicode="&#x2dd;" horiz-adv-x="240" 
d="M216 708l-154 -144h-59l122 144h91zM416 708l-153 -144h-59l121 144h91z" />
    <glyph glyph-name="ogonek" unicode="&#x2db;" horiz-adv-x="240" 
d="M171 -141l14 -40c-27 -22 -62 -36 -95 -36c-47 0 -86 34 -79 85c8 56 63 105 109 138h48c-56 -49 -89 -82 -94 -121c-4 -28 16 -48 43 -48c18 0 39 8 54 22z" />
    <glyph glyph-name="caron" unicode="&#x2c7;" horiz-adv-x="240" 
d="M369 708l-130 -144h-80l-88 144h66l67 -108l99 108h66z" />
    <glyph glyph-name="emdash" unicode="&#x2014;" horiz-adv-x="1000" 
d="M1038 273l-9 -66h-1000l9 66h1000z" />
    <glyph glyph-name="AE" unicode="&#xc6;" horiz-adv-x="944" 
d="M673 642l-34 -241h276l-9 -66h-276l-38 -269h306l-9 -66h-378l28 198h-298l-156 -198h-85l561 708h416l-10 -66h-294zM292 264h256l53 378h-11z" />
    <glyph glyph-name="ordfeminine" unicode="&#xaa;" horiz-adv-x="337" 
d="M196 424c-54 0 -102 27 -94 83c9 62 57 100 189 100h22l1 8c6 37 -15 57 -56 57c-36 0 -66 -11 -93 -30l-27 37c40 33 82 41 125 41c100 0 118 -57 114 -90l-20 -137c-3 -22 -3 -46 -4 -63h-54l2 36h-1c-21 -26 -57 -42 -104 -42zM307 559h-13c-34 0 -124 0 -131 -49
c-4 -26 24 -38 53 -38c70 0 86 52 91 87z" />
    <glyph glyph-name="Lslash" unicode="&#x141;" horiz-adv-x="500" 
d="M268 708l-49 -346l242 186l-10 -70l-242 -186l-32 -226h330l-9 -66h-402l32 230l-92 -70l10 70l92 70l58 408h72z" />
    <glyph glyph-name="Oslash" unicode="&#xd8;" horiz-adv-x="834" 
d="M863 692l-87 -82c52 -65 74 -154 60 -256c-30 -215 -211 -372 -422 -372c-92 0 -169 30 -224 81l-88 -81l-32 34l88 82c-52 65 -75 154 -60 256c30 215 210 372 421 372c91 0 168 -29 225 -81l87 81zM718 556l-473 -441c42 -42 102 -67 179 -67c182 0 311 143 334 306
c10 75 -4 147 -40 202zM215 152l473 441c-42 42 -101 67 -178 67c-182 0 -311 -143 -334 -306c-11 -76 3 -148 39 -202z" />
    <glyph glyph-name="OE" unicode="&#x152;" horiz-adv-x="944" 
d="M682 642l-34 -241h282l-9 -66h-282l-38 -269h306l-9 -66h-447c-284 0 -360 202 -338 355c33 238 246 353 436 353h437l-10 -66h-294zM529 66l81 576h-57c-184 0 -336 -100 -363 -290c-11 -84 8 -286 268 -286h71z" />
    <glyph glyph-name="ordmasculine" unicode="&#xba;" horiz-adv-x="385" 
d="M434 571c-12 -84 -87 -147 -182 -147c-94 0 -153 63 -141 147c12 86 88 149 182 149c95 0 153 -63 141 -149zM374 571c8 55 -28 101 -88 101c-59 0 -107 -46 -115 -101c-7 -54 28 -99 87 -99c60 0 109 45 116 99z" />
    <glyph glyph-name="ae" unicode="&#xe6;" horiz-adv-x="852" 
d="M834 216h-351l-1 -9c-12 -85 29 -159 115 -159c80 0 122 36 156 76l47 -41c-60 -65 -137 -95 -210 -95c-70 0 -136 34 -159 109c-58 -79 -126 -109 -224 -109c-83 0 -154 46 -141 137c17 125 143 145 248 145h111l4 29c12 99 -68 121 -103 121c-55 0 -106 -19 -150 -56
l-34 48c51 42 119 68 195 68c72 0 128 -39 143 -90c38 55 112 90 179 90c138 -1 198 -102 180 -234zM417 216h-137c-56 0 -132 -19 -141 -82c-9 -62 45 -86 98 -86c95 0 166 66 179 159zM491 270h285c12 87 -35 150 -123 150c-79 0 -150 -64 -162 -150z" />
    <glyph glyph-name="dotlessi" unicode="&#x131;" horiz-adv-x="240" 
d="M219 468l-66 -468h-66l66 468h66z" />
    <glyph glyph-name="lslash" unicode="&#x142;" horiz-adv-x="240" 
d="M259 756l-42 -298l93 84l-10 -73l-93 -83l-54 -386h-66l45 317l-93 -83l10 73l93 82l51 367h66z" />
    <glyph glyph-name="oslash" unicode="&#xf8;" horiz-adv-x="593" 
d="M488 348l-292 -262c26 -24 62 -38 107 -38c109 0 188 81 203 186c6 43 -1 82 -18 114zM171 120l292 261c-26 25 -63 39 -108 39c-108 0 -187 -81 -202 -186c-6 -44 0 -84 18 -114zM618 465l-75 -68c30 -41 44 -98 35 -163c-20 -141 -138 -246 -284 -246
c-63 0 -114 20 -149 52l-77 -68l-28 31l76 68c-31 43 -44 99 -35 163c20 141 137 246 282 246c62 0 114 -19 152 -52l76 68z" />
    <glyph glyph-name="oe" unicode="&#x153;" horiz-adv-x="922" 
d="M904 216h-351l-1 -9c-12 -85 29 -159 115 -159c80 0 122 36 156 76l47 -41c-60 -65 -137 -95 -210 -95c-76 0 -140 34 -167 106c-62 -76 -151 -106 -210 -106c-143 0 -222 105 -202 246s137 246 271 246c76 0 150 -30 184 -105c53 67 110 105 193 105
c138 -1 198 -102 180 -234zM484 234c14 100 -32 186 -140 186c-97 0 -176 -81 -191 -186s42 -186 139 -186c108 0 178 86 192 186zM561 270h285c12 87 -35 150 -123 150c-79 0 -150 -64 -162 -150z" />
    <glyph glyph-name="germandbls" unicode="&#xdf;" horiz-adv-x="593" 
d="M227 550l-77 -550h-66l76 544c17 118 82 224 243 224c107 0 182 -65 166 -177c-11 -79 -56 -131 -138 -159l-1 -2c117 -10 157 -104 142 -207c-20 -142 -129 -235 -270 -235c-19 0 -38 2 -57 8l8 57c16 -4 32 -5 48 -5c106 0 184 65 199 176c18 122 -52 175 -176 175
l9 60c81 0 150 33 163 123c11 80 -37 126 -105 126c-107 0 -154 -88 -164 -158z" />
    <glyph glyph-name="onesuperior" unicode="&#xb9;" horiz-adv-x="361" 
d="M325 714l-59 -425h-60l51 365l-91 -67l-24 38l129 89h54z" />
    <glyph glyph-name="logicalnot" unicode="&#xac;" horiz-adv-x="666" 
d="M645 408l-39 -278h-60l31 218h-450l8 60h510z" />
    <glyph glyph-name="mu" unicode="&#xb5;" 
d="M40 -228l98 696h66l-37 -259c-16 -115 9 -161 105 -161c80 0 151 65 167 180l34 240h66l-52 -365c-4 -34 -6 -69 -9 -103h-71l11 76h-2c-36 -47 -108 -88 -170 -88c-46 0 -81 10 -106 29l-34 -245h-66z" />
    <glyph glyph-name="trademark" unicode="&#x2122;" horiz-adv-x="1000" 
d="M501 708l-8 -54h-133l-50 -358h-60l50 358h-136l8 54h329zM1028 708l-58 -412h-60l48 346h-2l-187 -346h-39l-91 346h-2l-48 -346h-60l58 412h93l84 -316l174 316h90z" />
    <glyph glyph-name="Eth" unicode="&#xd0;" horiz-adv-x="741" 
d="M86 0l49 347h-73l7 54h73l44 307h235c177 0 355 -118 322 -354s-245 -354 -422 -354h-235zM207 347l-40 -281h140c216 0 337 142 358 288c20 146 -61 288 -277 288h-140l-34 -241h258l-7 -54h-258z" />
    <glyph glyph-name="onehalf" unicode="&#xbd;" horiz-adv-x="834" 
d="M176 -32l-48 32l555 740l47 -31zM310 714l-59 -425h-60l51 365l-91 -67l-24 38l129 89h54zM803 54l-8 -54h-293l8 57l194 164c31 26 66 57 72 96c4 33 -32 60 -68 60c-44 0 -82 -25 -96 -56l-55 9c23 65 85 101 156 101c74 0 133 -37 123 -110c-9 -65 -62 -108 -114 -150
l-146 -117h227z" />
    <glyph glyph-name="plusminus" unicode="&#xb1;" horiz-adv-x="666" 
d="M127 347l8 60h225l22 156h60l-22 -156h225l-8 -60h-225l-21 -151h-60l21 151h-225zM85 48l8 60h510l-8 -60h-510z" />
    <glyph glyph-name="Thorn" unicode="&#xde;" horiz-adv-x="574" 
d="M96 0l100 708h72l-22 -156h160c118 0 198 -62 180 -189c-18 -128 -116 -190 -234 -190h-160l-24 -173h-72zM236 486l-34 -247h116c76 0 174 9 190 124c16 114 -80 123 -156 123h-116z" />
    <glyph glyph-name="onequarter" unicode="&#xbc;" horiz-adv-x="834" 
d="M770 425l-39 -277h60l-8 -54h-60l-13 -94h-60l13 94h-192l9 62l217 269h73zM201 -32l-48 32l555 740l47 -31zM671 148l30 217h-2l-166 -217h138zM335 714l-59 -425h-60l51 365l-91 -67l-24 38l129 89h54z" />
    <glyph glyph-name="divide" unicode="&#xf7;" horiz-adv-x="666" 
d="M635 333l-9 -60h-510l9 60h510zM452 465c-4 -28 -29 -54 -61 -54s-51 26 -47 54s30 54 62 54s50 -26 46 -54zM407 141c-4 -28 -30 -54 -62 -54s-50 26 -46 54s29 54 61 54s51 -26 47 -54z" />
    <glyph glyph-name="brokenbar" unicode="&#xa6;" horiz-adv-x="360" 
d="M202 750h57v-389h-57v389zM202 194h57v-387h-57v387z" />
    <glyph glyph-name="degree" unicode="&#xb0;" horiz-adv-x="400" 
d="M429 571c-12 -86 -84 -149 -170 -149s-140 63 -128 149s84 149 170 149s140 -63 128 -149zM381 571c8 56 -31 101 -87 101s-107 -45 -115 -101s31 -101 87 -101s107 45 115 101z" />
    <glyph glyph-name="thorn" unicode="&#xfe;" horiz-adv-x="611" 
d="M40 -228l138 984h66l-52 -375h2c70 81 142 99 195 99c146 0 235 -105 215 -246s-138 -246 -284 -246c-62 0 -135 27 -169 90h-2l-43 -306h-66zM532 234c15 105 -42 186 -151 186c-108 0 -198 -81 -213 -186s47 -186 161 -186c109 0 188 81 203 186z" />
    <glyph glyph-name="threequarters" unicode="&#xbe;" horiz-adv-x="834" 
d="M790 425l-39 -277h60l-8 -54h-60l-13 -94h-60l13 94h-192l9 62l217 269h73zM241 -32l-48 32l555 740l47 -31zM691 148l30 217h-2l-166 -217h138zM207 483l7 54h24c54 0 104 22 110 71c5 32 -22 58 -63 58c-38 0 -62 -10 -93 -46l-42 33c41 50 85 67 141 67
c72 0 128 -40 118 -110c-7 -47 -48 -85 -96 -99v-2c59 -10 87 -52 80 -104c-11 -78 -84 -122 -164 -122c-68 0 -117 26 -133 86l55 30c10 -40 33 -62 89 -62c39 0 88 35 93 69c4 31 -8 77 -97 77h-29z" />
    <glyph glyph-name="twosuperior" unicode="&#xb2;" horiz-adv-x="361" 
d="M375 343l-7 -54h-293l8 57l194 164c30 26 66 57 71 96c5 33 -31 60 -67 60c-44 0 -82 -25 -96 -56l-55 9c22 65 84 101 155 101c74 0 134 -37 124 -110c-9 -65 -62 -108 -114 -150l-147 -117h227z" />
    <glyph glyph-name="registered" unicode="&#xae;" horiz-adv-x="800" 
d="M280 136l61 431h158c103 0 146 -38 134 -124c-11 -77 -65 -110 -130 -117l97 -190h-65l-92 185h-77l-26 -185h-60zM393 513l-19 -138h74c60 0 116 3 126 71c8 60 -42 67 -88 67h-93zM74 352c31 214 224 374 428 374s353 -160 323 -370c-30 -214 -224 -374 -428 -374
s-352 160 -323 370zM134 352c-25 -178 96 -316 271 -316s334 138 360 320c25 179 -96 316 -271 316s-334 -137 -360 -320z" />
    <glyph glyph-name="minus" unicode="&#x2212;" horiz-adv-x="666" 
d="M635 333l-9 -60h-510l9 60h510z" />
    <glyph glyph-name="eth" unicode="&#xf0;" horiz-adv-x="593" 
d="M153 234c-15 -105 42 -186 150 -186c109 0 188 81 203 186s-42 186 -151 186c-108 0 -187 -81 -202 -186zM555 714l-110 -54c105 -122 160 -248 136 -406c-18 -120 -94 -266 -287 -266c-145 0 -233 105 -213 246s137 246 282 246c58 0 100 -18 142 -58l3 2
c-39 98 -77 150 -131 204l-118 -57l-31 36l116 56c-29 32 -58 59 -84 79l65 37c31 -28 60 -55 86 -83l109 53z" />
    <glyph glyph-name="multiply" unicode="&#xd7;" horiz-adv-x="666" 
d="M245 505l137 -159l180 159l37 -42l-181 -160l136 -159l-49 -43l-135 159l-182 -159l-36 43l182 159l-137 160z" />
    <glyph glyph-name="threesuperior" unicode="&#xb3;" horiz-adv-x="361" 
d="M198 483l7 54h24c54 0 104 22 110 67c5 36 -22 62 -63 62c-38 0 -62 -10 -93 -46l-42 33c41 50 85 67 141 67c72 0 128 -40 118 -110c-7 -47 -48 -85 -96 -99v-2c59 -10 87 -52 80 -104c-11 -78 -84 -122 -164 -122c-68 0 -117 26 -134 86l56 30c10 -40 33 -62 89 -62
c39 0 88 35 93 69c4 31 -8 77 -97 77h-29z" />
    <glyph glyph-name="copyright" unicode="&#xa9;" horiz-adv-x="800" 
d="M585 282h57c-36 -96 -117 -156 -209 -156c-135 0 -210 98 -191 228c18 132 115 227 252 227c95 0 167 -51 167 -152h-56c-3 56 -49 98 -118 98c-102 0 -172 -76 -185 -171c-13 -92 40 -176 138 -176c69 0 126 45 145 102zM74 352c31 214 224 374 428 374
s353 -160 323 -370c-30 -214 -224 -374 -428 -374s-352 160 -323 370zM134 352c-25 -178 96 -316 271 -316s334 138 360 320c25 179 -96 316 -271 316s-334 -137 -360 -320z" />
    <glyph glyph-name="Aacute" unicode="&#xc1;" horiz-adv-x="686" 
d="M188 186l-104 -186h-84l408 708h70l208 -708h-84l-52 186h-362zM431 624l-207 -372h307zM597 883l-152 -144h-59l120 144h91z" />
    <glyph glyph-name="Acircumflex" unicode="&#xc2;" horiz-adv-x="686" 
d="M188 186l-104 -186h-84l408 708h70l208 -708h-84l-52 186h-362zM431 624l-207 -372h307zM507 883l89 -144h-66l-68 108l-98 -108h-66l129 144h80z" />
    <glyph glyph-name="Adieresis" unicode="&#xc4;" horiz-adv-x="686" 
d="M188 186l-104 -186h-84l408 708h70l208 -708h-84l-52 186h-362zM431 624l-207 -372h307zM312 822c3 26 28 51 58 51s47 -25 44 -51c-4 -26 -29 -51 -59 -51s-47 25 -43 51zM504 822c3 26 28 51 58 51s47 -25 44 -51c-4 -26 -29 -51 -59 -51s-47 25 -43 51z" />
    <glyph glyph-name="Agrave" unicode="&#xc0;" horiz-adv-x="686" 
d="M188 186l-104 -186h-84l408 708h70l208 -708h-84l-52 186h-362zM431 624l-207 -372h307zM449 739l-112 144h91l80 -144h-59z" />
    <glyph glyph-name="Aring" unicode="&#xc5;" horiz-adv-x="686" 
d="M188 186l-104 -186h-84l408 708h70l208 -708h-84l-52 186h-362zM431 624l-207 -372h307zM555 825c-8 -54 -57 -95 -109 -95s-91 41 -83 95s57 95 109 95s91 -41 83 -95zM519 825c5 33 -19 59 -52 59s-63 -26 -68 -59s19 -59 52 -59s63 26 68 59z" />
    <glyph glyph-name="Atilde" unicode="&#xc3;" horiz-adv-x="686" 
d="M188 186l-104 -186h-84l408 708h70l208 -708h-84l-52 186h-362zM431 624l-207 -372h307zM330 751h-43c16 52 46 104 106 104c24 0 48 -11 70 -23c22 -11 44 -23 64 -23c30 0 46 25 56 50h43c-17 -52 -47 -104 -107 -104c-24 0 -47 12 -70 23c-21 12 -42 23 -63 23
c-30 0 -47 -25 -56 -50z" />
    <glyph glyph-name="Ccedilla" unicode="&#xc7;" horiz-adv-x="704" 
d="M642 154l53 -42c-58 -73 -164 -130 -281 -130c-7 0 -14 0 -20 2l-39 -44l1 -1c12 4 22 7 37 7c40 0 74 -27 67 -75c-9 -62 -73 -88 -127 -88c-33 0 -66 8 -94 24l21 36c21 -12 46 -18 71 -18c29 0 64 12 69 45c1 12 -3 40 -44 40c-19 0 -33 -5 -47 -11l-16 17l62 71
c-177 27 -285 173 -257 367c30 215 210 372 421 372c88 0 178 -33 229 -112l-69 -47c-22 46 -94 93 -169 93c-182 0 -311 -143 -334 -306s66 -306 248 -306c74 0 153 24 218 106z" />
    <glyph glyph-name="Eacute" unicode="&#xc9;" horiz-adv-x="593" 
d="M215 335l-38 -269h379l-9 -66h-451l100 708h439l-10 -66h-367l-34 -241h343l-9 -66h-343zM551 883l-152 -144h-59l120 144h91z" />
    <glyph glyph-name="Ecircumflex" unicode="&#xca;" horiz-adv-x="593" 
d="M215 335l-38 -269h379l-9 -66h-451l100 708h439l-10 -66h-367l-34 -241h343l-9 -66h-343zM461 883l89 -144h-66l-68 108l-98 -108h-66l129 144h80z" />
    <glyph glyph-name="Edieresis" unicode="&#xcb;" horiz-adv-x="593" 
d="M215 335l-38 -269h379l-9 -66h-451l100 708h439l-10 -66h-367l-34 -241h343l-9 -66h-343zM266 822c3 26 28 51 58 51s47 -25 44 -51c-4 -26 -29 -51 -59 -51s-47 25 -43 51zM458 822c3 26 28 51 58 51s47 -25 44 -51c-4 -26 -29 -51 -59 -51s-47 25 -43 51z" />
    <glyph glyph-name="Egrave" unicode="&#xc8;" horiz-adv-x="593" 
d="M215 335l-38 -269h379l-9 -66h-451l100 708h439l-10 -66h-367l-34 -241h343l-9 -66h-343zM403 739l-112 144h91l80 -144h-59z" />
    <glyph glyph-name="Iacute" unicode="&#xcd;" horiz-adv-x="264" 
d="M268 708l-100 -708h-72l100 708h72zM386 883l-152 -144h-59l120 144h91z" />
    <glyph glyph-name="Icircumflex" unicode="&#xce;" horiz-adv-x="264" 
d="M268 708l-100 -708h-72l100 708h72zM296 883l89 -144h-66l-68 108l-98 -108h-66l129 144h80z" />
    <glyph glyph-name="Idieresis" unicode="&#xcf;" horiz-adv-x="264" 
d="M268 708l-100 -708h-72l100 708h72zM101 822c3 26 28 51 58 51s47 -25 44 -51c-4 -26 -29 -51 -59 -51s-47 25 -43 51zM293 822c3 26 28 51 58 51s47 -25 44 -51c-4 -26 -29 -51 -59 -51s-47 25 -43 51z" />
    <glyph glyph-name="Igrave" unicode="&#xcc;" horiz-adv-x="264" 
d="M268 708l-100 -708h-72l100 708h72zM238 739l-112 144h91l80 -144h-59z" />
    <glyph glyph-name="Ntilde" unicode="&#xd1;" horiz-adv-x="778" 
d="M286 708l337 -600h2l85 600h72l-100 -708h-90l-337 606h-2l-85 -606h-72l100 708h90zM376 751h-43c16 52 46 104 106 104c24 0 48 -11 70 -23c22 -11 44 -23 64 -23c30 0 46 25 56 50h43c-17 -52 -47 -104 -107 -104c-24 0 -47 12 -70 23c-21 12 -42 23 -63 23
c-30 0 -47 -25 -56 -50z" />
    <glyph glyph-name="Oacute" unicode="&#xd3;" horiz-adv-x="834" 
d="M836 354c-30 -215 -211 -372 -422 -372s-346 157 -316 372s210 372 421 372s347 -157 317 -372zM758 354c23 163 -66 306 -248 306s-311 -143 -334 -306s66 -306 248 -306s311 143 334 306zM671 883l-152 -144h-59l120 144h91z" />
    <glyph glyph-name="Ocircumflex" unicode="&#xd4;" horiz-adv-x="834" 
d="M836 354c-30 -215 -211 -372 -422 -372s-346 157 -316 372s210 372 421 372s347 -157 317 -372zM758 354c23 163 -66 306 -248 306s-311 -143 -334 -306s66 -306 248 -306s311 143 334 306zM581 883l89 -144h-66l-68 108l-98 -108h-66l129 144h80z" />
    <glyph glyph-name="Odieresis" unicode="&#xd6;" horiz-adv-x="834" 
d="M836 354c-30 -215 -211 -372 -422 -372s-346 157 -316 372s210 372 421 372s347 -157 317 -372zM758 354c23 163 -66 306 -248 306s-311 -143 -334 -306s66 -306 248 -306s311 143 334 306zM386 822c3 26 28 51 58 51s47 -25 44 -51c-4 -26 -29 -51 -59 -51
s-47 25 -43 51zM578 822c3 26 28 51 58 51s47 -25 44 -51c-4 -26 -29 -51 -59 -51s-47 25 -43 51z" />
    <glyph glyph-name="Ograve" unicode="&#xd2;" horiz-adv-x="834" 
d="M836 354c-30 -215 -211 -372 -422 -372s-346 157 -316 372s210 372 421 372s347 -157 317 -372zM758 354c23 163 -66 306 -248 306s-311 -143 -334 -306s66 -306 248 -306s311 143 334 306zM523 739l-112 144h91l80 -144h-59z" />
    <glyph glyph-name="Otilde" unicode="&#xd5;" horiz-adv-x="834" 
d="M836 354c-30 -215 -211 -372 -422 -372s-346 157 -316 372s210 372 421 372s347 -157 317 -372zM758 354c23 163 -66 306 -248 306s-311 -143 -334 -306s66 -306 248 -306s311 143 334 306zM404 751h-43c16 52 46 104 106 104c24 0 48 -11 70 -23c22 -11 44 -23 64 -23
c30 0 46 25 56 50h43c-17 -52 -47 -104 -107 -104c-24 0 -47 12 -70 23c-21 12 -42 23 -63 23c-30 0 -47 -25 -56 -50z" />
    <glyph glyph-name="Scaron" unicode="&#x160;" 
d="M584 640l-70 -49c-24 46 -67 69 -127 69c-74 0 -157 -39 -169 -128c-27 -191 350 -90 314 -345c-18 -129 -150 -205 -262 -205c-86 0 -164 31 -208 105l72 47c23 -52 75 -86 149 -86c71 0 158 46 170 129c28 200 -351 89 -314 348c19 137 142 201 257 201
c80 0 141 -22 188 -86zM551 883l-129 -144h-80l-89 144h66l68 -108l98 108h66z" />
    <glyph glyph-name="Uacute" unicode="&#xda;" horiz-adv-x="686" 
d="M702 708l-63 -444c-16 -118 -87 -282 -299 -282s-235 164 -219 282l63 444h72l-62 -436c-28 -204 102 -224 156 -224s190 20 218 224l62 436h72zM597 883l-152 -144h-59l120 144h91z" />
    <glyph glyph-name="Ucircumflex" unicode="&#xdb;" horiz-adv-x="686" 
d="M702 708l-63 -444c-16 -118 -87 -282 -299 -282s-235 164 -219 282l63 444h72l-62 -436c-28 -204 102 -224 156 -224s190 20 218 224l62 436h72zM507 883l89 -144h-66l-68 108l-98 -108h-66l129 144h80z" />
    <glyph glyph-name="Udieresis" unicode="&#xdc;" horiz-adv-x="686" 
d="M702 708l-63 -444c-16 -118 -87 -282 -299 -282s-235 164 -219 282l63 444h72l-62 -436c-28 -204 102 -224 156 -224s190 20 218 224l62 436h72zM312 822c3 26 28 51 58 51s47 -25 44 -51c-4 -26 -29 -51 -59 -51s-47 25 -43 51zM504 822c3 26 28 51 58 51s47 -25 44 -51
c-4 -26 -29 -51 -59 -51s-47 25 -43 51z" />
    <glyph glyph-name="Ugrave" unicode="&#xd9;" horiz-adv-x="686" 
d="M702 708l-63 -444c-16 -118 -87 -282 -299 -282s-235 164 -219 282l63 444h72l-62 -436c-28 -204 102 -224 156 -224s190 20 218 224l62 436h72zM449 739l-112 144h91l80 -144h-59z" />
    <glyph glyph-name="Yacute" unicode="&#xdd;" horiz-adv-x="574" 
d="M366 305l-43 -305h-72l43 305l-208 403h90l164 -334l258 334h90zM541 883l-152 -144h-59l120 144h91z" />
    <glyph glyph-name="Ydieresis" unicode="&#x178;" horiz-adv-x="574" 
d="M366 305l-43 -305h-72l43 305l-208 403h90l164 -334l258 334h90zM256 822c3 26 28 51 58 51s47 -25 44 -51c-4 -26 -29 -51 -59 -51s-47 25 -43 51zM448 822c3 26 28 51 58 51s47 -25 44 -51c-4 -26 -29 -51 -59 -51s-47 25 -43 51z" />
    <glyph glyph-name="Zcaron" unicode="&#x17d;" 
d="M627 708l-9 -60l-495 -582h419l-9 -66h-510l8 60l496 582h-408l10 66h498zM551 883l-129 -144h-80l-89 144h66l68 -108l98 108h66z" />
    <glyph glyph-name="aacute" unicode="&#xe1;" horiz-adv-x="519" 
d="M379 287h33l2 12c11 81 -22 121 -103 121c-55 0 -106 -19 -151 -55l-33 47c49 44 119 68 207 68c92 0 164 -52 148 -166l-29 -209c-5 -36 -7 -80 -7 -105h-64c-1 23 1 51 5 76h-2c-47 -62 -103 -88 -178 -88c-83 0 -154 46 -141 137c21 152 201 162 313 162zM405 233h-34
c-67 0 -219 -5 -232 -99c-9 -62 45 -86 98 -86c96 0 151 68 163 151zM490 708l-153 -144h-59l121 144h91z" />
    <glyph glyph-name="acircumflex" unicode="&#xe2;" horiz-adv-x="519" 
d="M379 287h33l2 12c11 81 -22 121 -103 121c-55 0 -106 -19 -151 -55l-33 47c49 44 119 68 207 68c92 0 164 -52 148 -166l-29 -209c-5 -36 -7 -80 -7 -105h-64c-1 23 1 51 5 76h-2c-47 -62 -103 -88 -178 -88c-83 0 -154 46 -141 137c21 152 201 162 313 162zM405 233h-34
c-67 0 -219 -5 -232 -99c-9 -62 45 -86 98 -86c96 0 151 68 163 151zM400 708l88 -144h-66l-68 108l-98 -108h-66l130 144h80z" />
    <glyph glyph-name="adieresis" unicode="&#xe4;" horiz-adv-x="519" 
d="M379 287h33l2 12c11 81 -22 121 -103 121c-55 0 -106 -19 -151 -55l-33 47c49 44 119 68 207 68c92 0 164 -52 148 -166l-29 -209c-5 -36 -7 -80 -7 -105h-64c-1 23 1 51 5 76h-2c-47 -62 -103 -88 -178 -88c-83 0 -154 46 -141 137c21 152 201 162 313 162zM405 233h-34
c-67 0 -219 -5 -232 -99c-9 -62 45 -86 98 -86c96 0 151 68 163 151zM204 647c4 26 28 51 58 51s48 -25 44 -51s-28 -51 -58 -51s-48 25 -44 51zM396 647c4 26 28 51 58 51s48 -25 44 -51s-28 -51 -58 -51s-48 25 -44 51z" />
    <glyph glyph-name="agrave" unicode="&#xe0;" horiz-adv-x="519" 
d="M379 287h33l2 12c11 81 -22 121 -103 121c-55 0 -106 -19 -151 -55l-33 47c49 44 119 68 207 68c92 0 164 -52 148 -166l-29 -209c-5 -36 -7 -80 -7 -105h-64c-1 23 1 51 5 76h-2c-47 -62 -103 -88 -178 -88c-83 0 -154 46 -141 137c21 152 201 162 313 162zM405 233h-34
c-67 0 -219 -5 -232 -99c-9 -62 45 -86 98 -86c96 0 151 68 163 151zM341 564l-111 144h91l79 -144h-59z" />
    <glyph glyph-name="aring" unicode="&#xe5;" horiz-adv-x="519" 
d="M379 287h33l2 12c11 81 -22 121 -103 121c-55 0 -106 -19 -151 -55l-33 47c49 44 119 68 207 68c92 0 164 -52 148 -166l-29 -209c-5 -36 -7 -80 -7 -105h-64c-1 23 1 51 5 76h-2c-47 -62 -103 -88 -178 -88c-83 0 -154 46 -141 137c21 152 201 162 313 162zM405 233h-34
c-67 0 -219 -5 -232 -99c-9 -62 45 -86 98 -86c96 0 151 68 163 151zM447 650c-7 -54 -57 -95 -109 -95s-90 41 -83 95c8 54 58 95 110 95s90 -41 82 -95zM411 650c5 33 -18 59 -51 59s-64 -26 -69 -59c-4 -33 19 -59 52 -59s64 26 68 59z" />
    <glyph glyph-name="atilde" unicode="&#xe3;" horiz-adv-x="519" 
d="M379 287h33l2 12c11 81 -22 121 -103 121c-55 0 -106 -19 -151 -55l-33 47c49 44 119 68 207 68c92 0 164 -52 148 -166l-29 -209c-5 -36 -7 -80 -7 -105h-64c-1 23 1 51 5 76h-2c-47 -62 -103 -88 -178 -88c-83 0 -154 46 -141 137c21 152 201 162 313 162zM405 233h-34
c-67 0 -219 -5 -232 -99c-9 -62 45 -86 98 -86c96 0 151 68 163 151zM222 576h-43c16 52 47 104 107 104c24 0 47 -11 69 -23c23 -11 44 -23 64 -23c30 0 47 25 56 50h43c-16 -52 -46 -104 -106 -104c-24 0 -48 12 -70 23c-22 12 -43 23 -64 23c-30 0 -47 -25 -56 -50z" />
    <glyph glyph-name="ccedilla" unicode="&#xe7;" horiz-adv-x="482" 
d="M523 399l-60 -41c-17 34 -56 62 -108 62c-109 2 -187 -79 -202 -186s40 -188 150 -186c52 0 99 28 125 62l49 -41c-54 -54 -120 -80 -183 -81c-3 0 -6 0 -7 1l-43 -49l1 -1c12 4 22 7 37 7c40 0 74 -27 67 -75c-9 -62 -73 -88 -127 -88c-33 0 -66 8 -94 24l21 36
c21 -12 46 -18 71 -18c29 0 64 12 69 45c1 12 -3 40 -44 40c-19 0 -33 -5 -47 -11l-16 17l67 76c-124 17 -186 116 -168 242c20 141 130 248 282 246c63 -1 122 -27 160 -81z" />
    <glyph glyph-name="eacute" unicode="&#xe9;" 
d="M538 216h-390c-5 -94 56 -168 149 -168c70 0 129 39 161 81l45 -42c-65 -70 -138 -99 -215 -99c-139 0 -227 105 -207 246s137 246 270 246c142 -1 210 -106 192 -234zM158 270h316c12 89 -36 150 -131 150c-86 0 -174 -73 -185 -150zM508 708l-153 -144h-59l121 144h91z
" />
    <glyph glyph-name="ecircumflex" unicode="&#xea;" 
d="M538 216h-390c-5 -94 56 -168 149 -168c70 0 129 39 161 81l45 -42c-65 -70 -138 -99 -215 -99c-139 0 -227 105 -207 246s137 246 270 246c142 -1 210 -106 192 -234zM158 270h316c12 89 -36 150 -131 150c-86 0 -174 -73 -185 -150zM418 708l88 -144h-66l-68 108
l-98 -108h-66l130 144h80z" />
    <glyph glyph-name="edieresis" unicode="&#xeb;" 
d="M538 216h-390c-5 -94 56 -168 149 -168c70 0 129 39 161 81l45 -42c-65 -70 -138 -99 -215 -99c-139 0 -227 105 -207 246s137 246 270 246c142 -1 210 -106 192 -234zM158 270h316c12 89 -36 150 -131 150c-86 0 -174 -73 -185 -150zM222 647c4 26 28 51 58 51
s48 -25 44 -51s-28 -51 -58 -51s-48 25 -44 51zM414 647c4 26 28 51 58 51s48 -25 44 -51s-28 -51 -58 -51s-48 25 -44 51z" />
    <glyph glyph-name="egrave" unicode="&#xe8;" 
d="M538 216h-390c-5 -94 56 -168 149 -168c70 0 129 39 161 81l45 -42c-65 -70 -138 -99 -215 -99c-139 0 -227 105 -207 246s137 246 270 246c142 -1 210 -106 192 -234zM158 270h316c12 89 -36 150 -131 150c-86 0 -174 -73 -185 -150zM359 564l-111 144h91l79 -144h-59z
" />
    <glyph glyph-name="iacute" unicode="&#xed;" horiz-adv-x="240" 
d="M219 468l-66 -468h-66l66 468h66zM350 708l-153 -144h-59l121 144h91z" />
    <glyph glyph-name="icircumflex" unicode="&#xee;" horiz-adv-x="240" 
d="M219 468l-66 -468h-66l66 468h66zM260 708l88 -144h-66l-68 108l-98 -108h-66l130 144h80z" />
    <glyph glyph-name="idieresis" unicode="&#xef;" horiz-adv-x="240" 
d="M219 468l-66 -468h-66l66 468h66zM64 647c4 26 28 51 58 51s48 -25 44 -51s-28 -51 -58 -51s-48 25 -44 51zM256 647c4 26 28 51 58 51s48 -25 44 -51s-28 -51 -58 -51s-48 25 -44 51z" />
    <glyph glyph-name="igrave" unicode="&#xec;" horiz-adv-x="240" 
d="M219 468l-66 -468h-66l66 468h66zM201 564l-111 144h91l79 -144h-59z" />
    <glyph glyph-name="ntilde" unicode="&#xf1;" 
d="M133 468h68c-1 -25 -4 -50 -8 -75h2c36 51 107 87 169 87c119 0 167 -67 151 -183l-42 -297h-66l36 259c15 104 -6 161 -104 161c-14 0 -143 -9 -167 -180l-34 -240h-66l51 365c4 25 7 69 10 103zM240 576h-43c16 52 47 104 107 104c24 0 47 -11 69 -23
c23 -11 44 -23 64 -23c30 0 47 25 56 50h43c-16 -52 -46 -104 -106 -104c-24 0 -48 12 -70 23c-22 12 -43 23 -64 23c-30 0 -47 -25 -56 -50z" />
    <glyph glyph-name="oacute" unicode="&#xf3;" horiz-adv-x="593" 
d="M578 234c-20 -141 -138 -246 -284 -246c-145 0 -233 105 -213 246s137 246 282 246c146 0 235 -105 215 -246zM506 234c15 105 -42 186 -151 186c-108 0 -187 -81 -202 -186s42 -186 150 -186c109 0 188 81 203 186zM527 708l-153 -144h-59l121 144h91z" />
    <glyph glyph-name="ocircumflex" unicode="&#xf4;" horiz-adv-x="593" 
d="M578 234c-20 -141 -138 -246 -284 -246c-145 0 -233 105 -213 246s137 246 282 246c146 0 235 -105 215 -246zM506 234c15 105 -42 186 -151 186c-108 0 -187 -81 -202 -186s42 -186 150 -186c109 0 188 81 203 186zM437 708l88 -144h-66l-68 108l-98 -108h-66l130 144
h80z" />
    <glyph glyph-name="odieresis" unicode="&#xf6;" horiz-adv-x="593" 
d="M578 234c-20 -141 -138 -246 -284 -246c-145 0 -233 105 -213 246s137 246 282 246c146 0 235 -105 215 -246zM506 234c15 105 -42 186 -151 186c-108 0 -187 -81 -202 -186s42 -186 150 -186c109 0 188 81 203 186zM241 647c4 26 28 51 58 51s48 -25 44 -51
s-28 -51 -58 -51s-48 25 -44 51zM433 647c4 26 28 51 58 51s48 -25 44 -51s-28 -51 -58 -51s-48 25 -44 51z" />
    <glyph glyph-name="ograve" unicode="&#xf2;" horiz-adv-x="593" 
d="M578 234c-20 -141 -138 -246 -284 -246c-145 0 -233 105 -213 246s137 246 282 246c146 0 235 -105 215 -246zM506 234c15 105 -42 186 -151 186c-108 0 -187 -81 -202 -186s42 -186 150 -186c109 0 188 81 203 186zM378 564l-111 144h91l79 -144h-59z" />
    <glyph glyph-name="otilde" unicode="&#xf5;" horiz-adv-x="593" 
d="M578 234c-20 -141 -138 -246 -284 -246c-145 0 -233 105 -213 246s137 246 282 246c146 0 235 -105 215 -246zM506 234c15 105 -42 186 -151 186c-108 0 -187 -81 -202 -186s42 -186 150 -186c109 0 188 81 203 186zM259 576h-43c16 52 47 104 107 104
c24 0 47 -11 69 -23c23 -11 44 -23 64 -23c30 0 47 25 56 50h43c-16 -52 -46 -104 -106 -104c-24 0 -48 12 -70 23c-22 12 -43 23 -64 23c-30 0 -47 -25 -56 -50z" />
    <glyph glyph-name="scaron" unicode="&#x161;" horiz-adv-x="426" 
d="M435 396l-65 -39c-14 38 -44 63 -92 63c-46 0 -100 -20 -107 -70c-6 -44 23 -60 82 -74l65 -16c62 -15 105 -62 96 -128c-15 -102 -112 -144 -203 -144c-71 0 -132 25 -167 91l63 39c21 -42 58 -70 113 -70c54 0 113 24 121 78c6 47 -31 63 -79 75l-62 15
c-31 8 -115 34 -102 123c13 97 104 141 192 141c65 0 123 -23 145 -84zM462 708l-130 -144h-80l-88 144h66l67 -108l99 108h66z" />
    <glyph glyph-name="uacute" unicode="&#xfa;" 
d="M478 0h-68c1 25 4 50 8 75h-2c-37 -51 -108 -87 -170 -87c-119 0 -166 67 -150 183l42 297h66l-37 -259c-14 -104 7 -161 105 -161c14 0 143 9 167 180l34 240h66l-52 -365c-3 -25 -6 -69 -9 -103zM508 708l-153 -144h-59l121 144h91z" />
    <glyph glyph-name="ucircumflex" unicode="&#xfb;" 
d="M478 0h-68c1 25 4 50 8 75h-2c-37 -51 -108 -87 -170 -87c-119 0 -166 67 -150 183l42 297h66l-37 -259c-14 -104 7 -161 105 -161c14 0 143 9 167 180l34 240h66l-52 -365c-3 -25 -6 -69 -9 -103zM418 708l88 -144h-66l-68 108l-98 -108h-66l130 144h80z" />
    <glyph glyph-name="udieresis" unicode="&#xfc;" 
d="M478 0h-68c1 25 4 50 8 75h-2c-37 -51 -108 -87 -170 -87c-119 0 -166 67 -150 183l42 297h66l-37 -259c-14 -104 7 -161 105 -161c14 0 143 9 167 180l34 240h66l-52 -365c-3 -25 -6 -69 -9 -103zM222 647c4 26 28 51 58 51s48 -25 44 -51s-28 -51 -58 -51
s-48 25 -44 51zM414 647c4 26 28 51 58 51s48 -25 44 -51s-28 -51 -58 -51s-48 25 -44 51z" />
    <glyph glyph-name="ugrave" unicode="&#xf9;" 
d="M478 0h-68c1 25 4 50 8 75h-2c-37 -51 -108 -87 -170 -87c-119 0 -166 67 -150 183l42 297h66l-37 -259c-14 -104 7 -161 105 -161c14 0 143 9 167 180l34 240h66l-52 -365c-3 -25 -6 -69 -9 -103zM359 564l-111 144h91l79 -144h-59z" />
    <glyph glyph-name="yacute" unicode="&#xfd;" horiz-adv-x="482" 
d="M165 468l92 -387l198 387h80l-317 -590c-38 -72 -83 -118 -164 -118c-20 0 -41 1 -60 7l16 64c14 -8 31 -11 49 -11c46 0 74 31 102 84l46 90l-125 474h83zM471 708l-153 -144h-59l121 144h91z" />
    <glyph glyph-name="ydieresis" unicode="&#xff;" horiz-adv-x="482" 
d="M165 468l92 -387l198 387h80l-317 -590c-38 -72 -83 -118 -164 -118c-20 0 -41 1 -60 7l16 64c14 -8 31 -11 49 -11c46 0 74 31 102 84l46 90l-125 474h83zM185 647c4 26 28 51 58 51s48 -25 44 -51s-28 -51 -58 -51s-48 25 -44 51zM377 647c4 26 28 51 58 51
s48 -25 44 -51s-28 -51 -58 -51s-48 25 -44 51z" />
    <glyph glyph-name="zcaron" unicode="&#x17e;" horiz-adv-x="426" 
d="M459 468l-7 -48l-325 -360h284l-8 -60h-380l7 48l324 360h-260l9 60h356zM462 708l-130 -144h-80l-88 144h66l67 -108l99 108h66z" />
    <glyph glyph-name="Delta" unicode="&#x2206;" horiz-adv-x="646" 
d="M32 0l7 48l350 677h76l157 -677l-7 -48h-583zM107 55h444l-95 401c-10 55 -35 142 -41 189h-4c-16 -38 -60 -118 -86 -172z" />
    <glyph glyph-name="Omega" unicode="&#x2126;" horiz-adv-x="722" 
d="M211 55v3c-64 65 -113 176 -93 319c28 202 179 339 347 339c177 0 270 -155 245 -334c-21 -150 -108 -266 -185 -324v-3h153l-8 -55h-236l6 41c86 53 178 167 201 329c19 133 -35 290 -185 290c-141 0 -250 -130 -272 -292c-22 -152 38 -276 109 -327l-6 -41h-236l8 55
h152z" />
    <glyph glyph-name="uni03BC" unicode="&#x3bc;" 
d="M40 -228l98 696h66l-37 -259c-16 -115 9 -161 105 -161c80 0 151 65 167 180l34 240h66l-52 -365c-4 -34 -6 -69 -9 -103h-71l11 76h-2c-36 -47 -108 -88 -170 -88c-46 0 -81 10 -106 29l-34 -245h-66z" />
    <glyph glyph-name="pi" unicode="&#x3c0;" horiz-adv-x="566" 
d="M604 466h-83l-44 -318c-12 -85 -9 -122 -6 -148h-64c-7 16 -9 57 3 141l45 325h-189c-24 -134 -89 -371 -140 -466h-65c54 108 115 327 139 466c-65 0 -93 -5 -115 -13l-5 45c27 15 69 26 145 26h395z" />
    <glyph glyph-name="Euro" unicode="&#x20ac;" 
d="M584 618l30 62c-30 21 -93 40 -149 40c-129 0 -241 -77 -297 -245h-57l-28 -56h69c-5 -23 -10 -48 -13 -73c-3 -20 -5 -39 -7 -58h-49l-27 -55h75c1 -144 58 -245 201 -245c72 0 148 29 194 90l-42 34c-28 -36 -81 -64 -134 -64c-96 0 -141 69 -144 185h216l25 55h-240
c2 19 4 36 6 55c4 27 9 52 14 76h275l25 56h-283c41 121 111 182 211 182c56 0 101 -16 129 -39z" />
    <glyph glyph-name="afii61289" unicode="&#x2113;" horiz-adv-x="481" 
d="M444 145l29 -28c-54 -81 -122 -124 -200 -124c-114 0 -147 89 -137 190l2 14c-20 -15 -44 -32 -65 -48l-17 39c33 25 63 46 90 70l40 280c25 184 111 240 183 240c82 0 111 -71 99 -161c-18 -128 -119 -251 -261 -374l-4 -32c-16 -119 30 -165 89 -165
c65 0 121 53 152 99zM249 544l-32 -233c103 98 189 200 203 304c10 67 -5 112 -59 112c-39 0 -92 -46 -112 -183z" />
    <glyph glyph-name="estimated" unicode="&#x212e;" horiz-adv-x="984" 
d="M949 344h-659c-3 0 -5 -1 -5 -5v-199c0 -8 3 -16 9 -23c64 -66 151 -108 249 -108c105 0 198 48 262 121h58c-72 -85 -190 -141 -321 -141c-224 0 -406 163 -406 365s182 366 406 366c225 0 407 -164 407 -366v-10zM799 370v200c0 9 -3 17 -9 24
c-64 63 -151 104 -247 104c-97 0 -184 -42 -248 -107c-7 -7 -10 -16 -10 -25v-196c0 -2 2 -7 5 -7h505c3 0 4 5 4 7z" />
    <glyph glyph-name="partialdiff" unicode="&#x2202;" horiz-adv-x="543" 
d="M198 686l-17 49c36 26 92 56 172 56c127 0 232 -121 195 -382c-33 -235 -145 -417 -316 -417c-128 0 -174 116 -158 232c23 158 139 257 250 257c94 0 142 -68 154 -99h1c3 13 5 33 7 46c26 186 -45 307 -148 307c-62 0 -108 -26 -140 -49zM246 48h1
c98 0 180 125 213 265c-9 46 -54 114 -134 114c-85 0 -169 -91 -184 -202c-15 -103 25 -177 104 -177z" />
    <glyph glyph-name="product" unicode="&#x220f;" horiz-adv-x="794" 
d="M768 644h-110v-741h-66v741h-291v-741h-65v741h-110v61h642v-61z" />
    <glyph glyph-name="summation" unicode="&#x2211;" horiz-adv-x="652" 
d="M630 -97h-508v45l274 354l-261 356v47h479v-58h-387v-3l246 -332l-265 -343v-3h422v-63z" />
    <glyph glyph-name="uni2219" unicode="&#x2219;" horiz-adv-x="278" 
d="M237 314c-4 -28 -29 -54 -61 -54s-51 26 -47 54s30 54 62 54s50 -26 46 -54z" />
    <glyph glyph-name="radical" unicode="&#x221a;" horiz-adv-x="670" 
d="M669 837l-222 -990h-60l-162 473l-75 -28l-14 42l131 51l132 -385c6 -23 13 -52 17 -71h1c3 19 8 47 13 71l189 837h50z" />
    <glyph glyph-name="infinity" unicode="&#x221e;" horiz-adv-x="842" 
d="M791 294v-1c0 -96 -73 -158 -152 -158c-65 0 -114 42 -185 121c-54 -60 -109 -121 -191 -121c-81 0 -149 68 -149 154c0 90 66 157 156 157c76 0 134 -59 187 -121c54 59 105 121 189 121c87 0 145 -63 145 -152zM269 179h2c65 0 116 65 158 109c-45 55 -93 116 -166 116
c-65 0 -102 -55 -102 -116c0 -60 43 -109 108 -109zM641 404h-1c-69 0 -124 -76 -160 -112c68 -73 108 -113 162 -113c65 0 102 57 102 111c0 72 -44 114 -103 114z" />
    <glyph glyph-name="integral" unicode="&#x222b;" horiz-adv-x="452" 
d="M438 846l-13 -47c-8 6 -23 11 -36 11c-17 0 -38 -7 -51 -24c-26 -31 -35 -84 -35 -182c0 -157 13 -350 13 -512c0 -111 -21 -170 -44 -204c-21 -32 -57 -48 -95 -48c-25 0 -52 9 -63 16l13 49c8 -4 25 -12 45 -12c17 0 36 8 47 23c20 26 36 72 36 177
c0 163 -14 360 -14 517c0 109 14 172 53 212c24 26 57 38 90 38c20 0 43 -8 54 -14z" />
    <glyph glyph-name="approxequal" unicode="&#x2248;" horiz-adv-x="626" 
d="M551 431l28 -25c-26 -52 -66 -94 -128 -94c-41 0 -69 16 -118 43c-31 17 -61 34 -95 34c-47 0 -75 -36 -100 -75l-30 23c30 59 79 95 137 95c49 0 85 -27 113 -42c35 -19 59 -35 96 -35c42 0 68 26 97 76zM551 262l28 -24c-26 -52 -65 -94 -128 -94c-41 0 -69 16 -118 43
c-32 17 -61 34 -95 34c-48 0 -75 -36 -100 -76l-30 24c30 59 79 95 136 95c50 0 86 -27 114 -41c34 -19 59 -36 97 -36c41 0 67 26 96 75z" />
    <glyph glyph-name="notequal" unicode="&#x2260;" horiz-adv-x="639" 
d="M474 506l-47 -100h161v-45h-179l-69 -149h248v-44h-266l-55 -119l-36 17l47 102h-153v44h173l68 149h-241v45h259l54 117z" />
    <glyph glyph-name="lessequal" unicode="&#x2264;" horiz-adv-x="650" 
d="M596 97l-454 227v47l454 227v-54l-405 -195v-2l405 -196v-54zM599 9h-463v46h463v-46z" />
    <glyph glyph-name="greaterequal" unicode="&#x2265;" horiz-adv-x="650" 
d="M142 598l454 -227v-47l-453 -227v54l404 195v2l-405 196v54zM598 9h-461v46h461v-46z" />
    <glyph glyph-name="lozenge" unicode="&#x25ca;" horiz-adv-x="670" 
d="M615 352l-203 -397h-54l-201 397l203 398h54zM554 350l-148 290c-8 17 -15 39 -19 52h-3c-4 -15 -10 -33 -19 -52l-147 -286l149 -292c9 -20 15 -39 18 -51h3c3 13 12 37 18 50z" />
    <glyph glyph-name="uni00A0" unicode="&#xa0;" horiz-adv-x="278" 
 />
    <glyph glyph-name="uni00AD" unicode="&#xad;" horiz-adv-x="333" 
d="M333 273l-9 -66h-257l9 66h257z" />
    <glyph glyph-name="uni02C9" unicode="&#x2c9;" horiz-adv-x="240" 
d="M347 654l-8 -54h-270l8 54h270z" />
    <glyph glyph-name="uni03A9" unicode="&#x3a9;" horiz-adv-x="722" 
d="M211 55v3c-64 65 -113 176 -93 319c28 202 179 339 347 339c177 0 270 -155 245 -334c-21 -150 -108 -266 -185 -324v-3h153l-8 -55h-236l6 41c86 53 178 167 201 329c19 133 -35 290 -185 290c-141 0 -250 -130 -272 -292c-22 -152 38 -276 109 -327l-6 -41h-236l8 55
h152z" />
    <glyph glyph-name="uni2215" unicode="&#x2215;" horiz-adv-x="168" 
d="M-119 -32l-48 32l555 740l47 -31z" />
    </font>
</defs>
</svg>
