<?xml version="1.0" standalone="no"?>
<!DOCTYPE svg PUBLIC "-//W3C//DTD SVG 1.1//EN" "http://www.w3.org/Graphics/SVG/1.1/DTD/svg11.dtd" >
<svg xmlns="http://www.w3.org/2000/svg" xmlns:xlink="http://www.w3.org/1999/xlink" version="1.1">
<metadata>
Created by FontForge 20190801 at Tue Jul 10 23:40:17 2007
 By Jimmy Wärting
Copyright (c) 2007 by Felipe Iba'n~ez. All rights reserved.
</metadata>
<defs>
<font id="Tabon" horiz-adv-x="647" >
  <font-face 
    font-family="Tabon"
    font-weight="400"
    font-stretch="normal"
    units-per-em="1000"
    panose-1="0 0 0 0 0 0 0 0 0 0"
    ascent="750"
    descent="-250"
    x-height="419"
    cap-height="750"
    bbox="-144 -314 948 751"
    underline-thickness="50"
    underline-position="-100"
    unicode-range="U+0020-00FD"
  />
<missing-glyph horiz-adv-x="0" 
 />
    <glyph glyph-name=".notdef" horiz-adv-x="0" 
 />
    <glyph glyph-name=".null" horiz-adv-x="0" 
 />
    <glyph glyph-name="nonmarkingreturn" horiz-adv-x="213" 
 />
    <glyph glyph-name="space" unicode=" " horiz-adv-x="213" 
 />
    <glyph glyph-name="space" unicode="&#xa0;" horiz-adv-x="213" 
 />
    <glyph glyph-name="E" unicode="E" horiz-adv-x="653" 
d="M558 516h-186v152h-187v-249h470v-82h-470v-256h187v150h186v-231h-558v750h558v-234v0z" />
    <glyph glyph-name="F" unicode="F" horiz-adv-x="643" 
d="M186 337v-336h-186v750h558v-234h-186v152h-187v-250h471v-82h-470v0z" />
    <glyph glyph-name="G" unicode="G" horiz-adv-x="635" 
d="M0 750h556v-234h-185v152h-186v-587h186v256h-98v82h283v-419h-556v750v0z" />
    <glyph glyph-name="H" unicode="H" horiz-adv-x="653" 
d="M1 750h185v-331h187v331h185v-331h97v-82h-98l1 -337h-185l-1 337h-187l1 -337h-185v750v0z" />
    <glyph glyph-name="I" unicode="I" horiz-adv-x="273" 
d="M0 750h186v-750h-186v750v0z" />
    <glyph glyph-name="K" unicode="K" horiz-adv-x="636" 
d="M-1 750h186v-331h186v331h186v-282l-185 -87l185 -99v-282h-186v337h-186v-337h-186v750v0z" />
    <glyph glyph-name="J" unicode="J" horiz-adv-x="629" 
d="M294 668h-93v82l371 -1v-81h-92v-668h-480v419h186v-338h108v587v0z" />
    <glyph glyph-name="L" unicode="L" horiz-adv-x="649" 
d="M0 750h279v-82h-93v-587h188v150h184v-231h-558v750v0z" />
    <glyph glyph-name="M" unicode="M" horiz-adv-x="853" 
d="M0 1v750h756v-332h98v-82h-98v-336h-187v668h-98v-668h-187v668h-99v-668h-185v0z" />
    <glyph glyph-name="N" unicode="N" horiz-adv-x="657" 
d="M0 749h560v-330h98v-82h-98v-338h-187v668h-188v-668h-185v750v0z" />
    <glyph glyph-name="O" unicode="O" 
d="M185 669v-587h185v587h-185v0zM0 1v750h556v-332h98v-82h-98v-336h-556v0z" />
    <glyph glyph-name="P" unicode="P" horiz-adv-x="643" 
d="M0 750h557v-413h-279v82h93v249h-186v-668h-185v750v0z" />
    <glyph glyph-name="Q" unicode="Q" horiz-adv-x="628" 
d="M280 82h93v587h-187v-669h-185v750h558v-750h-181v-81h-98v163v0z" />
    <glyph glyph-name="R" unicode="R" horiz-adv-x="641" 
d="M186 669v-250h188v250h-188v0zM560 469l-189 -87l189 -99v-282h-185l-1 336h-188v-336h-186v750h560v-282z" />
    <glyph glyph-name="S" unicode="S" horiz-adv-x="652" 
d="M557 516h-186v152h-186v-249h372v-419h-557v231h185v-150h186v256h-371v413h557v-234v0z" />
    <glyph glyph-name="T" unicode="T" horiz-adv-x="841" 
d="M0 748h754v-411h-187v329h-98v-668h-186v668h-98v-329h-185v411v0z" />
    <glyph glyph-name="U" unicode="U" horiz-adv-x="656" 
d="M186 80h187v669h185v-330h98v-82h-98v-339h-557l-2 751h187v-669v0z" />
    <glyph glyph-name="V" unicode="V" horiz-adv-x="645" 
d="M186 82h186v669h187v-332h98v-82h-98v-255l-187 -82h-188l-184 82v669h186v-669v0z" />
    <glyph glyph-name="W" unicode="W" horiz-adv-x="848" 
d="M0 749h187v-669h98v669h188v-669h98v669h185v-669l-183 -81h-389l-184 79v671v0z" />
    <glyph glyph-name="X" unicode="X" horiz-adv-x="640" 
d="M558 750v-282l-185 -87l185 -99v-282h-186v337h-186v-337h-186v294l183 87l-183 97v272h186v-331h186v331h186v0z" />
    <glyph glyph-name="Y" unicode="Y" horiz-adv-x="637" 
d="M0 749h185v-330h188v330h182v-412h-182v-338h-188v338h-185v412v0z" />
    <glyph glyph-name="Z" unicode="Z" horiz-adv-x="612" 
d="M-1 515v234h560v-234l-374 -435h186v150h188v-231h-560v231l372 437h-186v-152h-186v0z" />
    <glyph glyph-name="a" unicode="a" 
d="M0 419h495v-338h70v-81h-218v337h-141v-256h71v-81h-277v419v0z" />
    <glyph glyph-name="b" unicode="b" horiz-adv-x="650" 
d="M276 749v-330h289v-420h-219v81h71v256h-141v-337h-206v668h-70v82h276v0z" />
    <glyph glyph-name="c" unicode="c" horiz-adv-x="587" 
d="M0 419h496v-198h-149v116h-142v-256h291v-81h-496v419v0z" />
    <glyph glyph-name="d" unicode="d" horiz-adv-x="639" 
d="M277 749h218v-669h70v-82l-218 1v337h-141v-256h71v-81h-277v420h347v249h-70v81v0z" />
    <glyph glyph-name="e" unicode="e" horiz-adv-x="581" 
d="M277 164v82h70v91h-142v-256h291v-81h-496v419h496v-255h-219v0z" />
    <glyph glyph-name="f" unicode="f" horiz-adv-x="426" 
d="M73 749h275v-82h-69v-248h69v-83h-69v-337h-278v81h72v669v0z" />
    <glyph glyph-name="g" unicode="g" horiz-adv-x="638" 
d="M2 419h565l-1 -81h-70v-651h-495v194h206v-112h141v569h-141v-256h70v-81h-276l1 418v0z" />
    <glyph glyph-name="h" unicode="h" horiz-adv-x="641" 
d="M349 0v337h-142v-337h-206v668h-71v82h277v-331h290v-338h69v-81h-217v0z" />
    <glyph glyph-name="i" unicode="i" horiz-adv-x="360" 
d="M0 419v-82h70v-337h206v419h-276v0zM276 502h-206v82h206v-82v0z" />
    <glyph glyph-name="j" unicode="j" horiz-adv-x="296" 
d="M-71 419v-82h71v-567h-144v-81h350v730h-277v0zM207 502h-207v80h207v-80v0z" />
    <glyph glyph-name="l" unicode="l" horiz-adv-x="440" 
d="M275 750v-669h72v-81h-276v668h-71v82h275v0z" />
    <glyph glyph-name="m" unicode="m" horiz-adv-x="782" 
d="M0 419h701v-420h-201v81h52v256h-99v-337h-201v81h52v256h-98v-337h-206v420v0z" />
    <glyph glyph-name="n" unicode="n" horiz-adv-x="724" 
d="M566 81h70v-81h-218v337h-141v-337h-207v337h-70v82h566v-338v0z" />
    <glyph glyph-name="o" unicode="o" horiz-adv-x="580" 
d="M206 337v-256h141v256h-141v0zM0 419h495v-419h-496l1 419v0z" />
    <glyph glyph-name="p" unicode="p" horiz-adv-x="649" 
d="M565 419v-419h-218v81h71v256h-141v-575h70v-76h-277v651h-70v82h565v0z" />
    <glyph glyph-name="q" unicode="q" horiz-adv-x="570" 
d="M207 337v-256h142v256h-142v0zM349 0h-348v419h496v-733h-148v314v0z" />
    <glyph glyph-name="r" unicode="r" horiz-adv-x="576" 
d="M-1 419h496v-205h-148v123h-141v-337h-207v419v0z" />
    <glyph glyph-name="t" unicode="t" horiz-adv-x="370" 
d="M0 749l205 1v-250h72v-81h-72v-338h72v-81h-277v749v0z" />
    <glyph glyph-name="u" unicode="u" horiz-adv-x="648" 
d="M-1 419h206v-338h141v338h148v-338h70v-81h-565v419v0z" />
    <glyph glyph-name="v" unicode="v" horiz-adv-x="639" 
d="M208 419v-338h141v338h218v-82h-70v-337h-497v337h-69v82h277v0z" />
    <glyph glyph-name="w" unicode="w" horiz-adv-x="842" 
d="M558 419h219v-82h-70v-338l-705 1v337h-69v82h275v-338h101v338h147v-338h103l-1 338v0z" />
    <glyph glyph-name="y" unicode="y" horiz-adv-x="570" 
d="M-66 419h272l1 -338h146l-2 338h145v-730h-495v185h204v-107h146v233h-350v337h-68l1 82v0z" />
    <glyph glyph-name="k" unicode="k" horiz-adv-x="648" 
d="M-70 750h277v-331h141v249h148v-249l-148 -39l148 -43v-256h70v-81h-218v337h-141v-337h-207v668h-70v82v0z" />
    <glyph glyph-name="s" unicode="s" horiz-adv-x="566" 
d="M496 337h-289v-90h289v-246h-496v81h348v83h-348v254h496v-82v0z" />
    <glyph glyph-name="x" unicode="x" horiz-adv-x="573" 
d="M0 166l201 37l-201 43v-80v0zM0 419h207v-173h141v173h148v-173l-139 -41l139 -41v-164h-148v164h-141v-164h-207v166v253v0z" />
    <glyph glyph-name="z" unicode="z" horiz-adv-x="570" 
d="M0 337v82h496v-82l-219 -256h219v-81h-496v81l233 256h-233v0z" />
    <glyph glyph-name="question" unicode="?" horiz-adv-x="571" 
d="M0 751h496v-413h-289v-173h-207v255h348v249h-141v-152h-207v234v0zM0 82h207v-81h-207v81v0z" />
    <glyph glyph-name="ntilde" unicode="&#xf1;" horiz-adv-x="724" 
d="M566 81h70v-81h-219v337h-140v-337h-207v337h-70v82h566v-338v0zM241 584h206v-82h-206v82v0z" />
    <glyph glyph-name="period" unicode="." horiz-adv-x="288" 
d="M205 166v-166h-205v166h205z" />
    <glyph glyph-name="at" unicode="@" horiz-adv-x="1035" 
d="M422 298h70v-83h-276v338h496v-255h130v354h-738v-552h632v-99h-736v750h948v-536h-385v257h-141v-174v0z" />
    <glyph glyph-name="acute" unicode="&#xb4;" horiz-adv-x="833" 
d="M171 502l206 82v-82h-206v0z" />
    <glyph glyph-name="D" unicode="D" horiz-adv-x="635" 
d="M372 750l186 -98v-567l-185 -85h-94v81h93v587h-186v-668h-186v750h372v0z" />
    <glyph glyph-name="A" unicode="A" horiz-adv-x="656" 
d="M372 419v248h-187v-248h187v0zM0 749h560v-330h98v-82h-98v-338h-188v338h-187v-338h-185v750v0z" />
    <glyph glyph-name="asterisk" unicode="*" horiz-adv-x="82" 
d="M82 419v-419h-82v337h-61v82h143z" />
    <glyph glyph-name="ampersand" unicode="&#x26;" horiz-adv-x="729" 
d="M225 337v-256h185v256h-185zM225 668v-249h185v249h-185zM583 469l-173 -88l221 -102v-114h-221v-84h319v-81h-98v-81h-221v81h-410v280l221 101l-172 88v281h534v-281z" />
    <glyph glyph-name="zero" unicode="0" horiz-adv-x="543" 
d="M185 669v-588h100v588h-100v0zM0 749h473v-749h-473v749v0z" />
    <glyph glyph-name="one" unicode="1" horiz-adv-x="343" 
d="M0 669v81h256v-750h-186v668h-71z" />
    <glyph glyph-name="two" unicode="2" horiz-adv-x="640" 
d="M0 516v234h560v-413h-374v-256h186v150h188v-231h-560v419h372v249h-186v-152h-186v0z" />
    <glyph glyph-name="three" unicode="3" horiz-adv-x="738" 
d="M283 516h-185v234h555v-282l-187 -87l187 -98v-283h-555v231h185v-150h185v256h-468v82h468v249h-185v-152v0z" />
    <glyph glyph-name="four" unicode="4" horiz-adv-x="635" 
d="M0 750h185v-331h186v331h188v-750h-188v337h-371v413v0z" />
    <glyph glyph-name="five" unicode="5" horiz-adv-x="635" 
d="M559 749v-81h-374v-249h374v-419h-559v231h185v-151h186v257h-371v412h559v0z" />
    <glyph glyph-name="six" unicode="6" horiz-adv-x="642" 
d="M185 337v-256h186v256h-186v0zM559 668h-374v-249h374v-419h-559v750h559v-82v0z" />
    <glyph glyph-name="seven" unicode="7" 
d="M0 749h560v-82l-374 -668h-186l371 668h-371v82v0z" />
    <glyph glyph-name="eight" unicode="8" horiz-adv-x="636" 
d="M187 668v-248h184v248h-184v0zM187 337v-256h184v256h-184v0zM0 0v282l186 99l-186 87v282h554v-282l-186 -87l186 -99v-282h-554v0z" />
    <glyph glyph-name="nine" unicode="9" horiz-adv-x="646" 
d="M186 668v-249h186v249h-186v0zM372 337h-371v413h559v-750h-559v231h185v-150h186v256v0z" />
    <glyph glyph-name="colon" unicode=":" horiz-adv-x="300" 
d="M0 166h205v-166h-205v166zM0 419h205v-170h-205v170z" />
    <glyph glyph-name="comma" unicode="," horiz-adv-x="833" 
 />
    <glyph glyph-name="bracketleft" unicode="[" horiz-adv-x="430" 
d="M352 669h-70v-693h70v-80h-255v441h-98v82h98v331h255v-81v0z" />
    <glyph glyph-name="bracketright" unicode="]" horiz-adv-x="353" 
d="M0 668v82h255v-331h98v-82h-98v-441h-255v80h70v692h-70v0z" />
    <glyph glyph-name="exclam" unicode="!" horiz-adv-x="267" 
d="M0 750h186v-587h-186v587zM0 81h186v-81h-186v81z" />
    <glyph glyph-name="semicolon" unicode=";" horiz-adv-x="296" 
d="M0 166h205v-250h-106v84h-99v166v0zM0 419h205v-170h-205v170z" />
    <glyph glyph-name="B" unicode="B" horiz-adv-x="653" 
d="M186 668v-249h185v249h-185v0zM186 337v-256h185v256h-185v0zM0 750h554v-282l-186 -87l186 -99v-282h-554v750v0z" />
    <glyph glyph-name="C" unicode="C" horiz-adv-x="642" 
d="M555 516h-186v152h-188v-587h188v150h186v-231h-559v750h559v-234z" />
    <glyph glyph-name="questiondown" unicode="&#xbf;" horiz-adv-x="579" 
d="M510 -240h-510v425h298v177h212v-262h-357v-257h145v157h212v-240v0zM510 448h-212v84h212v-84v0z" />
    <glyph glyph-name="exclamdown" unicode="&#xa1;" horiz-adv-x="267" 
d="M191 -267h-191v604h191v-604zM191 419h-191v84h191v-84z" />
    <glyph glyph-name="oacute" unicode="&#xf3;" horiz-adv-x="580" 
d="M206 337v-256h141v256h-141zM0 419h495v-419h-496zM174 502l206 82v-82h-206v0z" />
    <glyph glyph-name="iacute" unicode="&#xed;" horiz-adv-x="360" 
d="M0 419v-82h70v-337h206v419h-276zM69 502l207 82v-82h-207v0z" />
    <glyph glyph-name="eacute" unicode="&#xe9;" horiz-adv-x="581" 
d="M277 164v82h70v91h-142v-256h291v-81h-496v419h496v-255h-219zM165 502l206 82v-82h-206v0z" />
    <glyph glyph-name="uacute" unicode="&#xfa;" horiz-adv-x="648" 
d="M-1 419v-419h565v81h-70v338h-148v-338h-141v338h-206zM178 502l206 82v-82h-206v0z" />
    <glyph glyph-name="aacute" unicode="&#xe1;" 
d="M0 419v-419h277v81h-71v256h141v-337h218v81h-70v338h-495zM188 502l206 82v-82h-206v0z" />
    <glyph glyph-name="agrave" unicode="&#xe0;" 
 />
    <glyph glyph-name="yacute" unicode="&#xfd;" horiz-adv-x="570" 
d="M-66 419h272l1 -338h146l-2 338h145v-730h-495v185h204v-107h146v233h-350v337h-68l1 82v0zM172 502l206 82v-82h-206v0z" />
    </font>
</defs>
</svg>
