<?xml version="1.0" standalone="no"?>
<!DOCTYPE svg PUBLIC "-//W3C//DTD SVG 1.1//EN" "http://www.w3.org/Graphics/SVG/1.1/DTD/svg11.dtd" >
<svg xmlns="http://www.w3.org/2000/svg" xmlns:xlink="http://www.w3.org/1999/xlink" version="1.1">
<metadata>
Created by FontForge 20161116 at Wed Jul 30 15:35:34 1997
 By Jimmy Wärting
 (c) Copyright 1997 International Typeface Corporation. All rights reserved.
</metadata>
<defs>
<font id="HumanaSansMdITCTTMedium" horiz-adv-x="500" >
  <font-face 
    font-family="Humana Sans Md ITC TT"
    font-weight="400"
    font-stretch="normal"
    units-per-em="1000"
    panose-1="0 0 5 0 0 0 0 0 0 0"
    ascent="800"
    descent="-200"
    x-height="478"
    cap-height="643"
    bbox="-157 -262 1163 836"
    underline-thickness="89"
    underline-position="-167"
    unicode-range="U+0020-F002"
  />
<missing-glyph 
d="M63 0v749h375v-749h-375zM125 63h250v624h-250v-624z" />
    <glyph glyph-name=".notdef" 
d="M63 0v749h375v-749h-375zM125 63h250v624h-250v-624z" />
    <glyph glyph-name=".null" horiz-adv-x="0" 
 />
    <glyph glyph-name="glyph2" horiz-adv-x="223" 
 />
    <glyph glyph-name="space" unicode=" " horiz-adv-x="223" 
 />
    <glyph glyph-name="exclam" unicode="!" horiz-adv-x="293" 
d="M217 662l-26 -486l-88 -8l-26 482zM200 45q0 -23 -16 -39t-39 -16t-38.5 15.5t-15.5 39.5q0 23 15.5 38.5t38.5 15.5t39 -15.5t16 -38.5z" />
    <glyph glyph-name="quotedbl" unicode="&#x22;" horiz-adv-x="314" 
d="M273 429h-80v272h80v-272zM122 429h-80v272h80v-272z" />
    <glyph glyph-name="numbersign" unicode="#" horiz-adv-x="731" 
d="M698 405h-176l-34 -160h182v-44h-192l-51 -240l-67 9l50 230h-150l-51 -239l-67 9l50 230h-159v45h168l35 159h-175v45h184l49 227l66 -9l-47 -218h150l49 227l66 -9l-47 -218h167v-44zM454 404h-150l-34 -159h149z" />
    <glyph glyph-name="dollar" unicode="$" horiz-adv-x="513" 
d="M467 179q0 -67 -57 -115q-60 -50 -158 -57v-81h-51v80q-85 3 -162 36l34 77q58 -36 128 -39v213q-85 34 -124 77.5t-39 109.5q0 73 57 115.5t164 45.5v61h50v-61q87 -2 157 -38l-41 -76q-52 38 -116 44v-218q158 -63 158 -174zM259 376v194q-85 -17 -85 -93
q0 -59 85 -101zM332 173q0 58 -80 97v-187q80 15 80 90z" />
    <glyph glyph-name="percent" unicode="%" horiz-adv-x="790" 
d="M754 158q0 -82 -50.5 -130.5t-135.5 -48.5q-84 0 -133.5 48.5t-49.5 130.5q0 80 50 128.5t133 48.5q85 0 135.5 -48t50.5 -129zM620 746l-426 -838h-55l427 838h54zM360 483q0 -83 -50.5 -131.5t-135.5 -48.5q-84 0 -133.5 48.5t-49.5 131.5q0 80 50 128t133 48
q85 0 135.5 -48t50.5 -128zM674 158q0 55 -30.5 90.5t-75.5 35.5q-43 0 -72.5 -36t-29.5 -92t28.5 -91t73.5 -35t75.5 36t30.5 92zM280 483q0 55 -30.5 90t-75.5 35q-44 0 -73.5 -35.5t-29.5 -91.5t29 -91t74 -35t75.5 36t30.5 92z" />
    <glyph glyph-name="ampersand" unicode="&#x26;" horiz-adv-x="771" 
d="M803 13l-133 -38l-98 77q-84 -69 -252 -69q-257 0 -257 239q0 209 122 322q74 69 182 69q87 0 134.5 -35t47.5 -98q0 -141 -169 -164zM439 483q0 76 -78 76q-51 0 -86 -35t-35 -86q0 -37 22.5 -58t61.5 -21q51 0 83 34.5t32 89.5zM500 105l-304 247q-20 -65 -20 -122
q0 -91 46 -142.5t127 -51.5q93 0 151 69z" />
    <glyph glyph-name="quotesingle" unicode="'" horiz-adv-x="163" 
d="M122 429h-80v272h80v-272z" />
    <glyph glyph-name="parenleft" unicode="(" horiz-adv-x="338" 
d="M310 -251q-95 21 -147 142q-55 128 -55 347q0 239 55 378q52 133 147 157v-44q-46 -30 -73 -151q-28 -130 -28 -337q0 -189 28 -308q27 -111 73 -141v-43z" />
    <glyph glyph-name="parenright" unicode=")" horiz-adv-x="338" 
d="M230 238q0 -220 -55 -347q-53 -122 -147 -142v43q101 66 101 449q0 208 -28 336q-26 121 -73 152v44q95 -25 147 -158q55 -139 55 -377z" />
    <glyph glyph-name="asterisk" unicode="*" horiz-adv-x="335" 
d="M323 548l-7 -52l-109 4l63 -93l-54 -16l-46 88l-49 -89l-54 17l61 92l-116 -3l7 51l111 -3l-63 94l53 17l50 -91l46 91l54 -17l-63 -94z" />
    <glyph glyph-name="plus" unicode="+" horiz-adv-x="833" 
d="M709 258h-251v-258h-83v258h-251v81h251v257h83v-257h251v-81z" />
    <glyph glyph-name="comma" unicode="," horiz-adv-x="225" 
d="M161 111l-2 -58q-4 -125 -87 -227l-34 17q47 93 48 194l1 74h74z" />
    <glyph glyph-name="hyphen" unicode="-" horiz-adv-x="320" 
d="M282 200h-244v89h244v-89z" />
    <glyph glyph-name="hyphen" unicode="&#x2010;" horiz-adv-x="320" 
d="M282 200h-244v89h244v-89z" />
    <glyph glyph-name="period" unicode="." horiz-adv-x="225" 
d="M167 45q0 -23 -16 -39t-39 -16t-38.5 15.5t-15.5 39.5q0 23 15.5 38.5t38.5 15.5t39 -16t16 -38z" />
    <glyph glyph-name="slash" unicode="/" horiz-adv-x="484" 
d="M521 762l-508 -1002h-50l508 1002h50z" />
    <glyph glyph-name="zero" unicode="0" horiz-adv-x="636" 
d="M585 318q0 -160 -70.5 -248t-196.5 -88q-125 0 -196 88.5t-71 248.5t71 248t196 88t196 -89t71 -248zM466 317q0 125 -41 196t-107 71t-106 -69q-41 -72 -41 -197q0 -126 40 -196t107 -70t107.5 70t40.5 195z" />
    <glyph glyph-name="one" unicode="1" horiz-adv-x="426" 
d="M398 0h-377v57h142v507l-9 6l-137 -54l-33 70l308 73l-13 -602h119v-57z" />
    <glyph glyph-name="two" unicode="2" horiz-adv-x="507" 
d="M519 75l-15 -75h-483l-10 49q303 212 303 417q0 125 -150 125q-78 0 -156 -51l-8 80q70 34 209 34q230 0 230 -172q0 -186 -233 -389v-9z" />
    <glyph glyph-name="three" unicode="3" horiz-adv-x="475" 
d="M448 204q0 -100 -98 -156.5t-280 -56.5q-34 0 -52 1l-20 64q31 -5 77 -5q121 0 191 43q67 41 67 107q0 99 -185 99q-35 0 -66 -7l-10 49q243 51 243 161q0 40 -37 63t-105 23q-84 0 -147 -30l-24 62q83 32 197 32q231 0 231 -148q0 -58 -43 -96.5t-136 -66.5v-6
q197 -9 197 -132z" />
    <glyph glyph-name="four" unicode="4" horiz-adv-x="578" 
d="M570 203l-12 -61l-122 2v-157l-122 -14v175l-271 9l-25 32l288 473l134 -20l-6 -430zM319 551l-10 4l-189 -314l6 -8l186 -11z" />
    <glyph glyph-name="five" unicode="5" horiz-adv-x="508" 
d="M469 637l-27 -79l-266 12l-16 -180q158 0 231 -41t73 -134q0 -101 -82 -161q-84 -63 -229 -63q-53 0 -97 4l-22 66q33 -5 78 -5q106 0 169.5 41.5t63.5 105.5q0 67 -62 95q-58 27 -192 27q-24 0 -56 -1l35 314z" />
    <glyph glyph-name="six" unicode="6" horiz-adv-x="521" 
d="M498 616q-210 -54 -289 -254l7 -4q49 16 92 16q83 0 133 -49.5t50 -130.5q0 -99 -59.5 -156t-163.5 -57q-103 0 -160 57t-57 160q0 161 128 311q113 132 235 149zM384 184q0 60 -28.5 94.5t-78.5 34.5q-46 0 -92 -26q-16 -35 -16 -97q0 -68 31 -106.5t84 -38.5
q46 0 73 37t27 102z" />
    <glyph glyph-name="seven" unicode="7" horiz-adv-x="481" 
d="M493 608l-336 -622l-118 29l304 534l-6 14l-333 4l-22 70l489 1z" />
    <glyph glyph-name="eight" unicode="8" horiz-adv-x="502" 
d="M476 143q0 -74 -59.5 -117t-166.5 -43q-212 0 -212 156q0 113 132 177q-118 65 -118 173q0 74 55.5 119t150.5 45q93 0 143 -41.5t50 -118.5q0 -94 -113 -167q73 -44 104 -83q34 -43 34 -100zM355 490q0 47 -25 75t-68 28q-41 0 -67.5 -28t-26.5 -71q0 -72 105 -132
q82 50 82 128zM353 140q0 77 -126 141q-86 -59 -86 -138q0 -44 29.5 -71t79.5 -27q45 0 74 27t29 68z" />
    <glyph glyph-name="nine" unicode="9" horiz-adv-x="515" 
d="M473 437q0 -274 -267 -453l-99 36q147 80 217 253l-5 5q-42 -16 -92 -16q-88 0 -140.5 53t-52.5 142q0 87 60.5 142t160.5 55q218 0 218 -217zM357 445q0 146 -100 146q-52 0 -84 -35t-32 -91q0 -65 32 -103.5t84 -38.5q40 0 80 23q20 36 20 99z" />
    <glyph glyph-name="colon" unicode=":" horiz-adv-x="226" 
d="M166 360q0 -22 -15.5 -37.5t-37.5 -15.5t-37 15t-15 38t15 37.5t37 14.5q23 0 38 -15t15 -37zM165 43q0 -22 -15 -37.5t-38 -15.5q-22 0 -37 15.5t-15 37.5q0 23 15 37.5t37 14.5t37.5 -15t15.5 -37z" />
    <glyph glyph-name="semicolon" unicode=";" horiz-adv-x="226" 
d="M172 360q0 -22 -15.5 -37.5t-37.5 -15.5t-37.5 15.5t-15.5 37.5t15 37t38 15q22 0 37.5 -15t15.5 -37zM158 111l-2 -58q-4 -126 -86 -227l-35 17q47 93 48 194l1 74h74z" />
    <glyph glyph-name="less" unicode="&#x3c;" horiz-adv-x="833" 
d="M704 23l-575 236v78l575 237v-90l-456 -186l456 -186v-89z" />
    <glyph glyph-name="equal" unicode="=" horiz-adv-x="833" 
d="M709 358h-585v82h585v-82zM709 157h-585v81h585v-81z" />
    <glyph glyph-name="greater" unicode="&#x3e;" horiz-adv-x="833" 
d="M704 259l-575 -236v89l456 186l-456 186v90l575 -237v-78z" />
    <glyph glyph-name="question" unicode="?" horiz-adv-x="395" 
d="M360 555q0 -30 -23 -62q-8 -12 -56 -65q-70 -78 -70 -135q0 -63 64 -72l-71 -39q-105 29 -105 110q0 49 72 136q65 78 65 113q0 52 -56 52q-32 0 -88 -30l-26 56q88 34 156 34q66 0 102 -26t36 -72zM258 45q0 -23 -16 -39t-39 -16t-38.5 15.5t-15.5 39.5q0 23 15.5 38.5
t38.5 15.5t39 -16t16 -38z" />
    <glyph glyph-name="at" unicode="@" horiz-adv-x="716" 
d="M670 344q0 -95 -53.5 -157.5t-133.5 -62.5q-116 0 -116 130q0 16 1 25h-5q-39 -106 -117 -106q-59 0 -59 83q0 94 47 157.5t114 63.5q25 0 59 -11q43 -15 53 -17q-4 -28 -18 -118l-9 -50q-4 -22 -4 -41q0 -76 70 -76q54 0 89 49.5t35 134.5q0 116 -65 184.5t-176 68.5
q-133 0 -215 -81.5t-82 -213.5q0 -128 78.5 -209.5t203.5 -81.5q136 0 209 95l26 -22q-71 -108 -241 -108q-109 0 -184 55q-131 97 -131 274q0 145 97 238q94 90 236 90q130 0 210.5 -81t80.5 -212zM385 420q-15 18 -39 18q-33 0 -62 -44q-33 -48 -33 -112q0 -53 30 -53
q26 0 55 48q32 55 49 143z" />
    <glyph glyph-name="A" unicode="A" horiz-adv-x="659" 
d="M651 8l-145 -22l-97 244h-219l-92 -241l-90 20l263 636h122zM396 286l-91 243l-89 -228l7 -9z" />
    <glyph glyph-name="B" unicode="B" horiz-adv-x="624" 
d="M571 182q0 -182 -279 -182h-205l-4 643h238q126 0 182 -34t56 -117q0 -127 -146 -156v-4q158 -24 158 -150zM420 478q0 103 -157 103h-44l-3 -217l10 -7h37q157 0 157 121zM443 192q0 108 -227 109l-3 -240h50q80 0 130 37.5t50 93.5z" />
    <glyph glyph-name="C" unicode="C" horiz-adv-x="643" 
d="M605 48q-115 -65 -288 -65q-264 0 -264 235q0 197 89 318q86 117 220 117q103 0 157 -59t70 -186l-128 -31q-2 211 -89 211q-49 0 -96 -60q-83 -107 -83 -275q0 -100 42 -143t137 -43q122 0 207 55z" />
    <glyph glyph-name="D" unicode="D" horiz-adv-x="733" 
d="M675 343q0 -167 -97 -255t-282 -88h-207l-6 640h255q162 0 249.5 -78t87.5 -219zM540 339q0 123 -61.5 181t-190.5 58h-66l-2 -510l9 -7h65q115 0 180.5 73.5t65.5 204.5z" />
    <glyph glyph-name="E" unicode="E" horiz-adv-x="537" 
d="M494 84l-14 -76l-393 -16l-4 634l18 12h381l-14 -68l-246 -8l-4 -191l6 -8l228 6l-10 -79l-218 3l-8 -10v-206l9 -7z" />
    <glyph glyph-name="F" unicode="F" horiz-adv-x="508" 
d="M480 638l-14 -67l-246 -8l-4 -202l6 -10l228 12l-10 -78l-218 -3l-8 -10l-4 -280h-123l-4 634l18 12h379z" />
    <glyph glyph-name="G" unicode="G" horiz-adv-x="654" 
d="M595 41q-111 -59 -251 -59q-142 0 -216.5 69t-74.5 201q0 104 35 192t96 141q77 68 185 68q100 0 154.5 -57t70.5 -179l-126 -31q-1 202 -96 202q-68 0 -122 -89q-59 -96 -59 -236q0 -198 191 -198q77 0 118 27v149h-126l10 72h211v-272z" />
    <glyph glyph-name="H" unicode="H" horiz-adv-x="734" 
d="M651 636l-9 -636h-118l-3 294l-9 14l-300 -6l-4 -302h-119l-6 637l136 6l-5 -261l8 -10l297 -6l-4 269z" />
    <glyph glyph-name="I" unicode="I" horiz-adv-x="302" 
d="M219 643l-8 -643h-126l-2 637z" />
    <glyph glyph-name="J" unicode="J" horiz-adv-x="303" 
d="M225 353q0 -237 -19 -330q-22 -113 -88 -129l-112 27q59 29 76 102q12 50 12 193v22q0 160 -12 406l139 -16z" />
    <glyph glyph-name="K" unicode="K" horiz-adv-x="618" 
d="M609 14l-149 -23l-237 304h-9l-4 -295h-121l-6 637l135 6l-4 -331l236 330l131 -20l-230 -300z" />
    <glyph glyph-name="L" unicode="L" horiz-adv-x="477" 
d="M469 83l-14 -77l-366 -16l-6 647l136 6l-5 -567l9 -7z" />
    <glyph glyph-name="M" unicode="M" horiz-adv-x="875" 
d="M812 4l-132 -7l-39 490h-8l-172 -449h-92l-173 447h-7l-14 -485h-97l36 642l147 10l179 -463l173 457h137z" />
    <glyph glyph-name="N" unicode="N" horiz-adv-x="732" 
d="M649 645l-6 -634l-128 -19l-334 474l-7 -4l1 -462h-92l9 642l118 10l348 -504l6 3l-6 484z" />
    <glyph glyph-name="O" unicode="O" horiz-adv-x="753" 
d="M704 323q0 -158 -88 -249t-239 -91t-239.5 90t-88.5 244q0 160 86 248t242 88q155 0 241 -87t86 -243zM564 315q0 131 -49.5 202t-137.5 71q-89 0 -139 -71t-50 -200q0 -127 50.5 -197t138.5 -70q87 0 137 69.5t50 195.5z" />
    <glyph glyph-name="P" unicode="P" horiz-adv-x="591" 
d="M558 487q0 -104 -78.5 -161t-225.5 -57h-36l-2 -269h-129l-4 643h207q138 0 203 -37t65 -119zM425 480q0 58 -40 81q-37 20 -127 20h-37l-4 -248l9 -7h24q83 0 129 41t46 113z" />
    <glyph glyph-name="Q" unicode="Q" horiz-adv-x="753" 
d="M734 -30l-17 -98l-413 98q-121 29 -188 119.5t-67 227.5q0 160 86 248t242 88t241.5 -88t85.5 -250q0 -245 -220 -321v-8zM564 315q0 131 -49.5 202t-137.5 71q-89 0 -139 -71t-50 -200q0 -127 50.5 -197t138.5 -70t137.5 69t49.5 196z" />
    <glyph glyph-name="R" unicode="R" horiz-adv-x="635" 
d="M612 14l-142 -22q-72 273 -231 300l-20 -4l-2 -288h-130l-4 643h255q119 0 174 -34.5t55 -112.5q0 -138 -167 -175v-6q134 -29 212 -301zM426 484q0 54 -39 75.5t-128 21.5h-37l-4 -227l9 -7h32q78 0 122.5 37t44.5 100z" />
    <glyph glyph-name="S" unicode="S" horiz-adv-x="501" 
d="M468 172q0 -76 -65 -128q-68 -54 -176 -54q-105 0 -193 39l33 77q69 -41 142 -41q59 0 91.5 27t32.5 74q0 42 -34 70q-23 19 -96 52q-92 42 -127 78q-43 45 -43 118q0 77 61 123t169 46q131 0 204 -41l-39 -75q-65 46 -139 46q-55 0 -87 -27.5t-32 -74.5q0 -49 46 -82
q17 -11 121 -61q131 -63 131 -166z" />
    <glyph glyph-name="T" unicode="T" horiz-adv-x="579" 
d="M581 638l-14 -67l-200 -8l-2 -563h-131l-2 563l-198 -5l-16 80h563z" />
    <glyph glyph-name="U" unicode="U" horiz-adv-x="701" 
d="M623 636l-6 -388q-2 -129 -72 -197.5t-200 -68.5q-125 0 -194 69.5t-70 194.5l-3 391l138 6l-5 -376q0 -102 43.5 -158.5t119.5 -56.5q72 0 111.5 59t39.5 171v354h98z" />
    <glyph glyph-name="V" unicode="V" horiz-adv-x="588" 
d="M580 635l-257 -645h-57l-268 625l140 30l178 -439h6l169 430z" />
    <glyph glyph-name="W" unicode="W" horiz-adv-x="874" 
d="M866 637l-224 -647h-77l-130 415h-4l-135 -415h-74l-224 632l138 23l143 -425h6l119 368h103l116 -368h6l141 417h96z" />
    <glyph glyph-name="X" unicode="X" horiz-adv-x="587" 
d="M589 14l-154 -28l-162 250l-158 -237h-103l204 305l-206 316l151 26l154 -243l143 231h96l-180 -306z" />
    <glyph glyph-name="Y" unicode="Y" horiz-adv-x="567" 
d="M559 638l-200 -421l-2 -217h-124l-2 230l-223 393l148 24l165 -328l148 319h90z" />
    <glyph glyph-name="Z" unicode="Z" horiz-adv-x="556" 
d="M538 80l-19 -82l-461 -3l-18 40l303 522l-6 9l-293 -22l-16 84l467 15l16 -36l-306 -529l9 -8z" />
    <glyph glyph-name="bracketleft" unicode="[" horiz-adv-x="338" 
d="M334 -246l-211 -13v1026l211 -13v-51l-116 7v-912l116 7v-51z" />
    <glyph glyph-name="backslash" unicode="\" horiz-adv-x="484" 
d="M539 -240h-50l-508 1002h50z" />
    <glyph glyph-name="bracketright" unicode="]" horiz-adv-x="338" 
d="M215 -259l-211 13v51l116 -7v912l-116 -7v51l211 13v-1026z" />
    <glyph glyph-name="asciicircum" unicode="^" horiz-adv-x="1000" 
d="M795 439h-101l-194 194l-195 -194h-101l243 274h106z" />
    <glyph glyph-name="underscore" unicode="_" 
d="M500 -222h-500v89h500v-89z" />
    <glyph glyph-name="grave" unicode="`" 
d="M323 531l-8 -16l-113 55q-86 42 -86 70t27 28q24 0 66 -37z" />
    <glyph glyph-name="a" unicode="a" horiz-adv-x="505" 
d="M450 -13l-121 -13l-6 79h-2q-53 -70 -153 -70q-61 0 -95.5 30t-34.5 82q0 53 46.5 88.5t119.5 35.5q59 0 114 -24v32q0 121 -10 160q-14 48 -59 48q-80 0 -109 -153l-95 26q56 184 227 184q62 0 97 -21t54 -71q11 -28 11 -147q0 -164 16 -266zM320 134q-26 33 -80 33
q-88 0 -88 -68q0 -23 18.5 -40t45.5 -17q40 0 71 27t33 65z" />
    <glyph glyph-name="b" unicode="b" horiz-adv-x="540" 
d="M499 317q0 -150 -66 -242t-165 -92q-197 0 -200 271l-5 472l127 16q-3 -229 -14 -455h5q53 204 195 204q123 0 123 -174zM382 270q0 120 -64 120q-39 0 -77 -68q-42 -76 -42 -176q0 -109 75 -109q48 0 78 62t30 171z" />
    <glyph glyph-name="c" unicode="c" horiz-adv-x="493" 
d="M464 34q-99 -51 -215 -51q-208 0 -208 196q0 136 69 226q67 87 167 87q153 0 166 -189l-101 -22q0 156 -60 156q-50 0 -85 -70q-38 -74 -38 -190q0 -124 130 -124q69 0 153 40z" />
    <glyph glyph-name="d" unicode="d" horiz-adv-x="546" 
d="M493 -28l-123 -10l-14 156q-61 -136 -171 -136q-144 0 -144 218q0 131 60.5 211t153.5 80q56 0 104 -27l-17 262l127 16v-92q-1 -60 -1 -87q0 -488 25 -591zM356 259v89q-40 88 -87 88q-48 0 -79 -56q-33 -59 -33 -157q0 -148 76 -148q84 0 123 184z" />
    <glyph glyph-name="e" unicode="e" horiz-adv-x="508" 
d="M470 34q-98 -51 -218 -51q-209 0 -209 196q0 137 67 225t166 88q77 0 126 -63.5t59 -181.5h-297q-6 -34 -6 -63q0 -131 133 -131q80 0 157 40zM354 300q-11 137 -77 137q-34 0 -63.5 -35t-39.5 -94l4 -8h176z" />
    <glyph glyph-name="f" unicode="f" horiz-adv-x="383" 
d="M495 708l-42 -64q-36 42 -93 42q-136 0 -139 -273h200l-7 -56h-192v-355h-117v355h-107l8 56h98q2 340 254 340q90 0 137 -45z" />
    <glyph glyph-name="g" unicode="g" horiz-adv-x="522" 
d="M469 45q0 -149 -48 -218q-50 -72 -163 -72t-179 59l49 63q56 -49 120 -49q61 0 85 44q22 40 22 139v137h-6q-19 -79 -66 -122.5t-110 -43.5q-62 0 -96 52t-34 149q0 139 66.5 224t170.5 85q102 0 145.5 -63t43.5 -204v-180zM343 332q0 105 -71 105q-50 0 -82 -58
q-35 -61 -35 -163q0 -144 66 -144q33 0 60 39q62 89 62 221z" />
    <glyph glyph-name="h" unicode="h" horiz-adv-x="570" 
d="M509 361l-13 -357l-120 -7l-4 8l16 262q1 16 1 27q0 82 -54 82q-50 0 -91 -70q-44 -75 -47 -185l-4 -133h-113l-2 738l128 16l-13 -422h6q67 158 199 158q111 0 111 -110v-7z" />
    <glyph glyph-name="i" unicode="i" horiz-adv-x="275" 
d="M186 677q0 -20 -14.5 -34.5t-34.5 -14.5q-21 0 -35 14t-14 35t14.5 35t34.5 14t34.5 -14.5t14.5 -34.5zM203 490l-2 -496h-112l-15 473z" />
    <glyph glyph-name="j" unicode="j" horiz-adv-x="275" 
d="M186 677q0 -20 -14.5 -34.5t-34.5 -14.5q-21 0 -35 14t-14 35t14.5 35t34.5 14t34.5 -14.5t14.5 -34.5zM203 206q0 -233 -19 -326q-22 -111 -88 -127l-98 27q58 29 75 99q12 50 12 185v32q0 145 -11 396l125 -16z" />
    <glyph glyph-name="k" unicode="k" horiz-adv-x="527" 
d="M539 4l-129 -23l-155 231q-47 -108 -79 -213l-95 -1l-3 728l128 16l-19 -544h7l50 119q73 174 192 174q35 0 69 -17l-27 -84q-20 17 -54 17q-62 0 -107 -78z" />
    <glyph glyph-name="l" unicode="l" horiz-adv-x="263" 
d="M275 8l-106 -27q-60 24 -84 86q-21 56 -21 167q0 135 24 492l130 16q-37 -392 -37 -479q0 -112 15 -160q19 -63 79 -95z" />
    <glyph glyph-name="m" unicode="m" horiz-adv-x="813" 
d="M752 349l-20 -349h-115l9 251q1 28 1 36q0 42 -5 58q-10 33 -41 33q-38 0 -72 -53q-36 -57 -40 -141l-7 -152h-95l2 231q0 91 -37 91q-49 0 -85 -92q-40 -102 -42 -270h-113l3 152q1 51 1 61q0 152 -18 268l120 13q14 -87 16 -185h6q54 168 167 168q79 0 79 -126v-4
q48 138 173 138q53 0 83 -31t30 -85v-12z" />
    <glyph glyph-name="n" unicode="n" horiz-adv-x="569" 
d="M508 360l-13 -356l-119 -7l-3 5l16 264q1 17 1 27q0 83 -52 83q-50 0 -92 -71q-45 -77 -48 -187l-3 -118h-112l-5 497h123l-7 -169h6q75 149 199 149q109 0 109 -109v-8z" />
    <glyph glyph-name="o" unicode="o" horiz-adv-x="531" 
d="M490 244q0 -118 -62.5 -189.5t-163.5 -71.5t-162 70.5t-61 190.5q0 112 62.5 180t163.5 68q102 0 162.5 -67t60.5 -181zM367 245q0 87 -28 136t-73 49t-73.5 -50.5t-28.5 -136.5q0 -95 27.5 -146t74.5 -51q46 0 73.5 52.5t27.5 146.5z" />
    <glyph glyph-name="p" unicode="p" horiz-adv-x="555" 
d="M512 297q0 -142 -61.5 -227.5t-156.5 -85.5q-43 0 -101 16v-246h-106l-9 743l124 24l-9 -234h5q66 204 190 204t124 -194zM398 262q0 130 -57 130q-43 0 -85 -81q-48 -93 -61 -238q38 -29 76 -29q54 0 90.5 62t36.5 156z" />
    <glyph glyph-name="q" unicode="q" horiz-adv-x="553" 
d="M475 -236l-122 -16l7 433h-6q-37 -199 -182 -199q-61 0 -95 53.5t-34 153.5q0 139 58 221t149 82q63 0 99 -31v55h121zM342 322q0 52 -20.5 82.5t-54.5 30.5q-43 0 -75 -60q-34 -65 -34 -165q0 -129 67 -129q41 0 76 72q41 85 41 169z" />
    <glyph glyph-name="r" unicode="r" horiz-adv-x="418" 
d="M410 370h-12q-80 0 -131 -63.5t-59 -177.5l-9 -133h-104l-17 470l117 14l-5 -212h4q31 104 72.5 153t104.5 50z" />
    <glyph glyph-name="s" unicode="s" horiz-adv-x="448" 
d="M407 461l-39 -66q-51 38 -111 38q-91 0 -91 -69q0 -33 29 -56q20 -17 78 -44q66 -31 94 -59q32 -33 32 -81q0 -62 -55 -100q-57 -41 -152 -41q-88 0 -151 26l27 69q55 -35 112 -35q47 0 74 19t27 52q0 29 -27 50q-16 13 -72 40q-136 66 -136 156q0 60 55.5 96.5
t153.5 36.5q89 0 152 -32z" />
    <glyph glyph-name="t" unicode="t" horiz-adv-x="368" 
d="M387 19q-75 -36 -148 -36t-104 47t-31 156q0 70 8 171h-104l8 56h101l14 144l124 14l-18 -158h138l-6 -56h-137q-9 -93 -9 -168t14 -105q14 -33 52 -33q36 0 81 22z" />
    <glyph glyph-name="u" unicode="u" horiz-adv-x="565" 
d="M487 -20l-123 9l1 207h-4q-35 -112 -80 -161q-47 -52 -119 -52q-94 0 -94 119v4l4 362l122 10l-9 -314q0 -71 43 -71q45 0 88 98q49 115 49 285v9h107z" />
    <glyph glyph-name="v" unicode="v" horiz-adv-x="488" 
d="M480 477l-176 -489h-118l-178 483l125 21l123 -392h5l127 377h92z" />
    <glyph glyph-name="w" unicode="w" horiz-adv-x="718" 
d="M690 473q-13 -236 -69 -365q-53 -124 -134 -124q-68 0 -106 71t-38 205v5h-6l-91 -282h-85l-153 493l124 16l89 -343h7l93 287h125q-10 -71 -10 -147q0 -223 62 -223q23 0 43 75q22 84 22 211q0 72 -8 121h135z" />
    <glyph glyph-name="x" unicode="x" 
d="M483 9l-131 -22l-120 186l-111 -173h-105l166 237l-157 235l135 20l111 -184l110 169h96l-158 -234z" />
    <glyph glyph-name="y" unicode="y" horiz-adv-x="510" 
d="M497 477l-249 -727l-102 20l80 182v30l-219 488l130 22l142 -384h7l112 369h99z" />
    <glyph glyph-name="z" unicode="z" horiz-adv-x="467" 
d="M446 64l-13 -69l-393 1l-13 30q121 131 198 246q60 91 60 116q0 26 -80 26q-100 0 -171 -30l-13 78q122 16 259 16q80 0 108 -10q36 -13 36 -54q0 -70 -230 -354l5 -4z" />
    <glyph glyph-name="braceleft" unicode="{" horiz-adv-x="338" 
d="M310 -225l-91 -21q-109 85 -109 221q0 59 17 135.5t17 92.5q0 32 -72 32h-7v49h7q72 0 72 35q0 11 -17 87t-17 137q0 146 109 222l91 -21q-96 -86 -96 -216q0 -43 11 -108t11 -87q0 -65 -80 -71v-5q80 -6 80 -71q0 -23 -11 -87.5t-11 -106.5q0 -131 96 -217z" />
    <glyph glyph-name="bar" unicode="|" 
d="M294 -236h-87v1000h87v-1000z" />
    <glyph glyph-name="braceright" unicode="}" horiz-adv-x="338" 
d="M273 235h-8q-71 0 -71 -35q0 -13 17 -89t17 -136q0 -136 -109 -221l-91 21q96 86 96 217q0 42 -11 106.5t-11 87.5q0 65 80 71v5q-80 6 -80 71q0 22 11 87.5t11 107.5q0 129 -96 216l91 21q109 -75 109 -222q0 -61 -17 -137t-17 -87q0 -35 71 -35h8v-49z" />
    <glyph glyph-name="asciitilde" unicode="~" 
d="M392 643q0 -106 -61 -106q-22 0 -77.5 28t-81.5 28q-33 0 -46 -56h-18v15q0 111 62 111q22 0 76.5 -28t80.5 -28q34 0 47 56h18v-20z" />
    <glyph glyph-name="Adieresis" unicode="&#xc4;" horiz-adv-x="659" 
d="M651 8l-145 -22l-97 244h-219l-92 -241l-90 20l263 636h122zM396 286l-91 243l-89 -228l7 -9zM451 751q0 -20 -14 -34.5t-35 -14.5q-20 0 -34.5 14t-14.5 35q0 20 14.5 34t34.5 14t34.5 -14t14.5 -34zM316 751q0 -20 -14 -34.5t-35 -14.5q-20 0 -34.5 14t-14.5 35
q0 20 14.5 34t34.5 14t34.5 -14t14.5 -34z" />
    <glyph glyph-name="Aring" unicode="&#xc5;" horiz-adv-x="659" 
d="M408 754q0 -33 -23 -56t-56 -23q-34 0 -56.5 22.5t-22.5 56.5q0 33 23 56t56 23t56 -23t23 -56zM651 8l-145 -22l-97 244h-219l-92 -241l-90 20l263 636h122zM374 754q0 19 -13.5 32.5t-31.5 13.5t-32 -13.5t-14 -32.5q0 -18 14 -32t32 -14t31.5 14t13.5 32zM396 286
l-91 243l-89 -228l7 -9z" />
    <glyph glyph-name="Ccedilla" unicode="&#xc7;" horiz-adv-x="643" 
d="M605 48q-102 -57 -218 -63l-5 -125q-4 -101 -54 -101q-32 0 -32 44q0 30 19 88l30 92h-28q-264 0 -264 235q0 197 89 318q86 117 220 117q103 0 157 -59t70 -186l-128 -31q-2 211 -91 211q-47 0 -94 -60q-83 -107 -83 -275q0 -100 42 -143t137 -43q122 0 207 55z" />
    <glyph glyph-name="Eacute" unicode="&#xc9;" horiz-adv-x="537" 
d="M494 84l-14 -76l-393 -16l-4 634l18 12h381l-14 -68l-246 -8l-4 -191l6 -8l228 6l-10 -79l-218 3l-8 -10v-206l9 -7zM413 808q0 -30 -85 -71l-113 -55l-9 15l114 101q41 36 66 36q27 0 27 -26z" />
    <glyph glyph-name="Ntilde" unicode="&#xd1;" horiz-adv-x="732" 
d="M649 645l-6 -634l-128 -19l-334 474l-7 -4l1 -462h-92l9 642l118 10l348 -504l6 3l-6 484zM514 803q0 -105 -63 -105q-24 0 -67.5 29.5t-66.5 29.5q-31 0 -47 -59h-17v11q0 115 63 115q22 0 65.5 -29.5t66.5 -29.5q30 0 47 59h18q0 -3 1 -10v-11z" />
    <glyph glyph-name="Odieresis" unicode="&#xd6;" horiz-adv-x="753" 
d="M704 323q0 -158 -88 -249t-239 -91t-239.5 90t-88.5 244q0 160 86 248t242 88q155 0 241 -87t86 -243zM564 315q0 131 -49.5 202t-137.5 71q-89 0 -139 -71t-50 -200q0 -127 50.5 -197t138.5 -70q87 0 137 69.5t50 195.5zM504 751q0 -20 -14 -34.5t-35 -14.5
q-20 0 -34.5 14t-14.5 35q0 20 14.5 34t34.5 14t34.5 -14t14.5 -34zM369 751q0 -20 -14 -34.5t-35 -14.5q-20 0 -34.5 14t-14.5 35q0 20 14.5 34t34.5 14t34.5 -14t14.5 -34z" />
    <glyph glyph-name="Udieresis" unicode="&#xdc;" horiz-adv-x="701" 
d="M623 636l-6 -388q-2 -129 -72 -197.5t-200 -68.5q-125 0 -194 69.5t-70 194.5l-3 391l138 6l-5 -376q0 -102 43.5 -158.5t119.5 -56.5q72 0 111.5 59t39.5 171v354h98zM486 751q0 -20 -14 -34.5t-35 -14.5q-20 0 -34.5 14t-14.5 35q0 20 14.5 34t34.5 14t34.5 -14
t14.5 -34zM351 751q0 -20 -14 -34.5t-35 -14.5q-20 0 -34.5 14t-14.5 35q0 20 14.5 34t34.5 14t34.5 -14t14.5 -34z" />
    <glyph glyph-name="aacute" unicode="&#xe1;" horiz-adv-x="505" 
d="M450 -13l-121 -13l-6 79h-2q-53 -70 -153 -70q-61 0 -95.5 30t-34.5 82q0 53 46.5 88.5t119.5 35.5q59 0 114 -24v32q0 121 -10 160q-14 48 -59 48q-80 0 -109 -153l-95 26q56 184 227 184q62 0 97 -21t54 -71q11 -28 11 -147q0 -164 16 -266zM320 134q-26 33 -80 33
q-88 0 -88 -68q0 -23 18.5 -40t45.5 -17q40 0 71 27t33 65zM395 647q0 -30 -85 -71l-113 -55l-9 15l114 101q41 36 66 36q27 0 27 -26z" />
    <glyph glyph-name="agrave" unicode="&#xe0;" horiz-adv-x="505" 
d="M450 -13l-121 -13l-6 79h-2q-53 -70 -153 -70q-61 0 -95.5 30t-34.5 82q0 53 46.5 88.5t119.5 35.5q59 0 114 -24v32q0 121 -10 160q-14 48 -59 48q-80 0 -109 -153l-95 26q56 184 227 184q62 0 97 -21t54 -71q11 -28 11 -147q0 -164 16 -266zM320 134q-26 33 -80 33
q-88 0 -88 -68q0 -23 18.5 -40t45.5 -17q40 0 71 27t33 65zM332 531l-8 -16l-113 55q-86 42 -86 70t27 28q24 0 66 -37z" />
    <glyph glyph-name="acircumflex" unicode="&#xe2;" horiz-adv-x="505" 
d="M450 -13l-121 -13l-6 79h-2q-53 -70 -153 -70q-61 0 -95.5 30t-34.5 82q0 53 46.5 88.5t119.5 35.5q59 0 114 -24v32q0 121 -10 160q-14 48 -59 48q-80 0 -109 -153l-95 26q56 184 227 184q62 0 97 -21t54 -71q11 -28 11 -147q0 -164 16 -266zM320 134q-26 33 -80 33
q-88 0 -88 -68q0 -23 18.5 -40t45.5 -17q40 0 71 27t33 65zM388 530l-34 -8l-95 86l-95 -86l-34 8l114 145h30z" />
    <glyph glyph-name="adieresis" unicode="&#xe4;" horiz-adv-x="505" 
d="M450 -13l-121 -13l-6 79h-2q-53 -70 -153 -70q-61 0 -95.5 30t-34.5 82q0 53 46.5 88.5t119.5 35.5q59 0 114 -24v32q0 121 -10 160q-14 48 -59 48q-80 0 -109 -153l-95 26q56 184 227 184q62 0 97 -21t54 -71q11 -28 11 -147q0 -164 16 -266zM320 134q-26 33 -80 33
q-88 0 -88 -68q0 -23 18.5 -40t45.5 -17q40 0 71 27t33 65zM375 590q0 -20 -14 -34.5t-35 -14.5q-20 0 -34.5 14t-14.5 35q0 20 14.5 34t34.5 14t34.5 -14t14.5 -34zM240 590q0 -20 -14 -34.5t-35 -14.5q-20 0 -34.5 14t-14.5 35q0 20 14.5 34t34.5 14t34.5 -14t14.5 -34z
" />
    <glyph glyph-name="atilde" unicode="&#xe3;" horiz-adv-x="505" 
d="M450 -13l-121 -13l-6 79h-2q-53 -70 -153 -70q-61 0 -95.5 30t-34.5 82q0 53 46.5 88.5t119.5 35.5q59 0 114 -24v32q0 121 -10 160q-14 48 -59 48q-80 0 -109 -153l-95 26q56 184 227 184q62 0 97 -21t54 -71q11 -28 11 -147q0 -164 16 -266zM320 134q-26 33 -80 33
q-88 0 -88 -68q0 -23 18.5 -40t45.5 -17q40 0 71 27t33 65zM390 642q0 -105 -63 -105q-24 0 -67.5 29.5t-66.5 29.5q-31 0 -47 -59h-17v11q0 115 63 115q22 0 65.5 -29.5t66.5 -29.5q30 0 47 59h18q0 -3 1 -10v-11z" />
    <glyph glyph-name="aring" unicode="&#xe5;" horiz-adv-x="505" 
d="M352 594q0 -33 -23 -56t-56 -23q-34 0 -56.5 22.5t-22.5 56.5t23 56.5t56 22.5t56 -23t23 -56zM450 -13l-121 -13l-6 79h-2q-53 -70 -153 -70q-61 0 -95.5 30t-34.5 82q0 53 46.5 88.5t119.5 35.5q59 0 114 -24v32q0 121 -10 160q-14 48 -59 48q-80 0 -109 -153l-95 26
q56 184 227 184q62 0 97 -21t54 -71q11 -28 11 -147q0 -164 16 -266zM319 594q0 18 -14 32t-32 14t-32 -13.5t-14 -32.5q0 -18 14 -32t32 -14t32 14t14 32zM320 134q-26 33 -80 33q-88 0 -88 -68q0 -23 18.5 -40t45.5 -17q40 0 71 27t33 65z" />
    <glyph glyph-name="ccedilla" unicode="&#xe7;" horiz-adv-x="497" 
d="M468 34q-89 -47 -188 -50l-2 -109q-2 -84 -40 -84q-30 0 -30 40q0 29 12 68l26 84q-205 1 -205 195q0 137 67.5 225.5t168.5 88.5q153 0 166 -189l-101 -22q0 156 -60 156q-50 0 -85 -70q-38 -74 -38 -190q0 -124 130 -124q74 0 157 40z" />
    <glyph glyph-name="eacute" unicode="&#xe9;" horiz-adv-x="508" 
d="M470 34q-98 -51 -218 -51q-209 0 -209 196q0 137 67 225t166 88q77 0 126 -63.5t59 -181.5h-297q-6 -34 -6 -63q0 -131 133 -131q80 0 157 40zM354 300q-11 137 -77 137q-34 0 -63.5 -35t-39.5 -94l4 -8h176zM404 647q0 -30 -85 -71l-113 -55l-9 15l114 101q41 36 66 36
q27 0 27 -26z" />
    <glyph glyph-name="egrave" unicode="&#xe8;" horiz-adv-x="508" 
d="M470 34q-98 -51 -218 -51q-209 0 -209 196q0 137 67 225t166 88q77 0 126 -63.5t59 -181.5h-297q-6 -34 -6 -63q0 -131 133 -131q80 0 157 40zM354 300q-11 137 -77 137q-34 0 -63.5 -35t-39.5 -94l4 -8h176zM341 531l-8 -16l-113 55q-86 42 -86 70t27 28q24 0 66 -37z
" />
    <glyph glyph-name="ecircumflex" unicode="&#xea;" horiz-adv-x="508" 
d="M470 34q-98 -51 -218 -51q-209 0 -209 196q0 137 67 225t166 88q77 0 126 -63.5t59 -181.5h-297q-6 -34 -6 -63q0 -131 133 -131q80 0 157 40zM354 300q-11 137 -77 137q-34 0 -63.5 -35t-39.5 -94l4 -8h176zM397 530l-34 -8l-95 86l-95 -86l-34 8l114 145h30z" />
    <glyph glyph-name="edieresis" unicode="&#xeb;" horiz-adv-x="508" 
d="M470 34q-98 -51 -218 -51q-209 0 -209 196q0 137 67 225t166 88q77 0 126 -63.5t59 -181.5h-297q-6 -34 -6 -63q0 -131 133 -131q80 0 157 40zM354 300q-11 137 -77 137q-34 0 -63.5 -35t-39.5 -94l4 -8h176zM384 590q0 -20 -14 -34.5t-35 -14.5q-20 0 -34.5 14t-14.5 35
q0 20 14.5 34t34.5 14t34.5 -14t14.5 -34zM249 590q0 -20 -14 -34.5t-35 -14.5q-20 0 -34.5 14t-14.5 35q0 20 14.5 34t34.5 14t34.5 -14t14.5 -34z" />
    <glyph glyph-name="iacute" unicode="&#xed;" horiz-adv-x="247" 
d="M184 490l-2 -496h-111l-15 473zM260 647q0 -30 -85 -71l-113 -55l-9 15l114 101q41 36 66 36q27 0 27 -26z" />
    <glyph glyph-name="igrave" unicode="&#xec;" horiz-adv-x="247" 
d="M184 490l-2 -496h-111l-15 473zM197 531l-8 -16l-113 55q-86 42 -86 70t27 28q24 0 66 -37z" />
    <glyph glyph-name="icircumflex" unicode="&#xee;" horiz-adv-x="247" 
d="M184 490l-2 -496h-111l-15 473zM253 530l-34 -8l-95 86l-95 -86l-34 8l114 145h30z" />
    <glyph glyph-name="idieresis" unicode="&#xef;" horiz-adv-x="247" 
d="M184 490l-2 -496h-111l-15 473zM240 590q0 -20 -14 -34.5t-35 -14.5q-20 0 -34.5 14t-14.5 35q0 20 14.5 34t34.5 14t34.5 -14t14.5 -34zM105 590q0 -20 -14 -34.5t-35 -14.5q-20 0 -34.5 14t-14.5 35q0 20 14.5 34t34.5 14t34.5 -14t14.5 -34z" />
    <glyph glyph-name="ntilde" unicode="&#xf1;" horiz-adv-x="569" 
d="M508 360l-13 -356l-119 -7l-3 5l16 264q1 17 1 27q0 83 -52 83q-50 0 -92 -71q-45 -77 -48 -187l-3 -118h-112l-5 497h123l-7 -169h6q75 149 199 149q109 0 109 -109v-8zM438 642q0 -105 -63 -105q-24 0 -67.5 29.5t-66.5 29.5q-31 0 -47 -59h-17v11q0 115 63 115
q22 0 65.5 -29.5t66.5 -29.5q30 0 47 59h18q0 -3 1 -10v-11z" />
    <glyph glyph-name="oacute" unicode="&#xf3;" horiz-adv-x="531" 
d="M490 244q0 -118 -62.5 -189.5t-163.5 -71.5t-162 70.5t-61 190.5q0 112 62.5 180t163.5 68q102 0 162.5 -67t60.5 -181zM367 245q0 87 -28 136t-73 49t-73.5 -50.5t-28.5 -136.5q0 -95 27.5 -146t74.5 -51q46 0 73.5 52.5t27.5 146.5zM402 647q0 -30 -85 -71l-113 -55
l-9 15l114 101q41 36 66 36q27 0 27 -26z" />
    <glyph glyph-name="ograve" unicode="&#xf2;" horiz-adv-x="531" 
d="M490 244q0 -118 -62.5 -189.5t-163.5 -71.5t-162 70.5t-61 190.5q0 112 62.5 180t163.5 68q102 0 162.5 -67t60.5 -181zM367 245q0 87 -28 136t-73 49t-73.5 -50.5t-28.5 -136.5q0 -95 27.5 -146t74.5 -51q46 0 73.5 52.5t27.5 146.5zM339 531l-8 -16l-113 55
q-86 42 -86 70t27 28q24 0 66 -37z" />
    <glyph glyph-name="ocircumflex" unicode="&#xf4;" horiz-adv-x="531" 
d="M490 244q0 -118 -62.5 -189.5t-163.5 -71.5t-162 70.5t-61 190.5q0 112 62.5 180t163.5 68q102 0 162.5 -67t60.5 -181zM367 245q0 87 -28 136t-73 49t-73.5 -50.5t-28.5 -136.5q0 -95 27.5 -146t74.5 -51q46 0 73.5 52.5t27.5 146.5zM395 530l-34 -8l-95 86l-95 -86
l-34 8l114 145h30z" />
    <glyph glyph-name="odieresis" unicode="&#xf6;" horiz-adv-x="531" 
d="M490 244q0 -118 -62.5 -189.5t-163.5 -71.5t-162 70.5t-61 190.5q0 112 62.5 180t163.5 68q102 0 162.5 -67t60.5 -181zM367 245q0 87 -28 136t-73 49t-73.5 -50.5t-28.5 -136.5q0 -95 27.5 -146t74.5 -51q46 0 73.5 52.5t27.5 146.5zM382 590q0 -20 -14 -34.5t-35 -14.5
q-20 0 -34.5 14t-14.5 35q0 20 14.5 34t34.5 14t34.5 -14t14.5 -34zM247 590q0 -20 -14 -34.5t-35 -14.5q-20 0 -34.5 14t-14.5 35q0 20 14.5 34t34.5 14t34.5 -14t14.5 -34z" />
    <glyph glyph-name="otilde" unicode="&#xf5;" horiz-adv-x="531" 
d="M490 244q0 -118 -62.5 -189.5t-163.5 -71.5t-162 70.5t-61 190.5q0 112 62.5 180t163.5 68q102 0 162.5 -67t60.5 -181zM367 245q0 87 -28 136t-73 49t-73.5 -50.5t-28.5 -136.5q0 -95 27.5 -146t74.5 -51q46 0 73.5 52.5t27.5 146.5zM397 642q0 -105 -63 -105
q-24 0 -67.5 29.5t-66.5 29.5q-31 0 -47 -59h-17v11q0 115 63 115q22 0 65.5 -29.5t66.5 -29.5q30 0 47 59h18q0 -3 1 -10v-11z" />
    <glyph glyph-name="uacute" unicode="&#xfa;" horiz-adv-x="565" 
d="M487 -20l-123 9l1 207h-4q-35 -112 -80 -161q-47 -52 -119 -52q-94 0 -94 119v4l4 362l122 10l-9 -314q0 -71 43 -71q45 0 88 98q49 115 49 285v9h107zM419 647q0 -30 -85 -71l-113 -55l-9 15l114 101q41 36 66 36q27 0 27 -26z" />
    <glyph glyph-name="ugrave" unicode="&#xf9;" horiz-adv-x="565" 
d="M487 -20l-123 9l1 207h-4q-35 -112 -80 -161q-47 -52 -119 -52q-94 0 -94 119v4l4 362l122 10l-9 -314q0 -71 43 -71q45 0 88 98q49 115 49 285v9h107zM356 531l-8 -16l-113 55q-86 42 -86 70t27 28q24 0 66 -37z" />
    <glyph glyph-name="ucircumflex" unicode="&#xfb;" horiz-adv-x="565" 
d="M487 -20l-123 9l1 207h-4q-35 -112 -80 -161q-47 -52 -119 -52q-94 0 -94 119v4l4 362l122 10l-9 -314q0 -71 43 -71q45 0 88 98q49 115 49 285v9h107zM412 530l-34 -8l-95 86l-95 -86l-34 8l114 145h30z" />
    <glyph glyph-name="udieresis" unicode="&#xfc;" horiz-adv-x="565" 
d="M487 -20l-123 9l1 207h-4q-35 -112 -80 -161q-47 -52 -119 -52q-94 0 -94 119v4l4 362l122 10l-9 -314q0 -71 43 -71q45 0 88 98q49 115 49 285v9h107zM399 590q0 -20 -14 -34.5t-35 -14.5q-20 0 -34.5 14t-14.5 35q0 20 14.5 34t34.5 14t34.5 -14t14.5 -34zM264 590
q0 -20 -14 -34.5t-35 -14.5q-20 0 -34.5 14t-14.5 35q0 20 14.5 34t34.5 14t34.5 -14t14.5 -34z" />
    <glyph glyph-name="dagger" unicode="&#x2020;" horiz-adv-x="407" 
d="M374 459l-3 -56l-141 3l3 -424l-66 -3l3 427l-137 -3l3 56l134 -3l-3 187l66 3l-3 -191z" />
    <glyph glyph-name="degree" unicode="&#xb0;" horiz-adv-x="357" 
d="M279 554q0 -42 -29.5 -71.5t-71.5 -29.5t-71 29t-29 72t29 71.5t71 28.5t71.5 -29t29.5 -71zM236 554q0 23 -17.5 41t-40.5 18t-41 -18t-18 -41q0 -24 18 -41.5t41 -17.5t40.5 18t17.5 41z" />
    <glyph glyph-name="cent" unicode="&#xa2;" horiz-adv-x="533" 
d="M485 125q-82 -45 -181 -50v-136h-40v135q-206 5 -206 193q0 125 56.5 210.5t149.5 103.5v109h40v-107q141 -7 156 -189l-101 -23q-1 78 -12 113q-13 39 -43 44v-384q85 3 159 40zM264 148v369q-40 -28 -63 -91q-25 -66 -25 -152q0 -110 88 -126z" />
    <glyph glyph-name="sterling" unicode="&#xa3;" horiz-adv-x="552" 
d="M509 597l-42 -50q-32 44 -86 44q-133 0 -133 -225v-36h186l-12 -49h-174v-226l258 11l-16 -66h-437l12 58h58v223h-54l8 49h46v14q0 149 62.5 225.5t180.5 76.5q90 0 143 -49z" />
    <glyph glyph-name="section" unicode="&#xa7;" horiz-adv-x="558" 
d="M515 168q0 -86 -81 -139q44 -45 44 -109q0 -76 -64 -127q-68 -55 -177 -55q-103 0 -193 39l34 80q67 -42 141 -42q59 0 91.5 25.5t32.5 70.5q0 47 -41 78q-20 15 -109 58q-80 38 -113 77q-37 44 -37 111q0 86 77 134q-40 49 -40 115q0 77 61 123t169 46q131 0 204 -41
l-41 -78q-63 47 -137 47q-56 0 -87.5 -26.5t-31.5 -73.5q0 -45 40 -77q23 -18 109 -59q78 -38 112 -75q37 -42 37 -102zM380 162q0 43 -41 77q-35 28 -124 67q-35 -31 -35 -74q0 -45 41 -77q31 -25 123 -68q36 30 36 75z" />
    <glyph glyph-name="bullet" unicode="&#x2022;" horiz-adv-x="354" 
d="M286 353q0 -46 -32 -78t-78 -32t-77 31.5t-31 78.5q0 46 31 77t77 31t78 -31.5t32 -76.5z" />
    <glyph glyph-name="paragraph" unicode="&#xb6;" horiz-adv-x="734" 
d="M648 638l-24 -676h-87l8 637l-50 -7l3 -628l-115 -16l21 628q-151 -45 -151 -160q0 -98 114 -154l-61 -34q-139 6 -213.5 59.5t-74.5 142.5q0 92 122 156q128 66 332 66q83 0 176 -14z" />
    <glyph glyph-name="germandbls" unicode="&#xdf;" horiz-adv-x="601" 
d="M562 134q0 -63 -54.5 -102t-149.5 -39q-87 0 -150 26l27 69q58 -35 111 -35q48 0 75 19.5t27 51.5q0 33 -29 55q-16 12 -77 42q-56 27 -79 57q-26 31 -26 80q0 48 31 89q19 25 80 79q53 47 53 92q0 68 -69 68q-61 0 -98 -67q-38 -70 -38 -194v-423h-117l-1 414
q0 336 250 336q159 0 159 -123q0 -42 -20 -76q-15 -27 -53.5 -64t-50.5 -53q-21 -28 -21 -60q0 -37 30 -62q17 -14 80 -45q57 -28 82 -57q28 -33 28 -78z" />
    <glyph glyph-name="registered" unicode="&#xae;" horiz-adv-x="271" 
d="M253 605q0 -46 -32.5 -78t-79.5 -32q-43 0 -75.5 33t-32.5 79q0 42 32.5 75t77.5 33t77.5 -32.5t32.5 -77.5zM237 605q0 39 -27.5 66t-66.5 27t-66 -27.5t-27 -65.5t27.5 -65.5t65.5 -27.5t66 27t28 66zM193 546h-28l-23 48h-17v-48h-26v118h43q50 0 50 -34
q0 -25 -25 -32zM166 628q0 18 -25 18h-16v-34h17q24 0 24 16z" />
    <glyph glyph-name="copyright" unicode="&#xa9;" horiz-adv-x="271" 
d="M253 605q0 -46 -32.5 -78t-79.5 -32q-43 0 -75.5 33t-32.5 79q0 42 32.5 75t77.5 33t77.5 -32.5t32.5 -77.5zM237 605q0 39 -27.5 66t-66.5 27t-66 -27.5t-27 -65.5t27.5 -65.5t65.5 -27.5t66 27t28 66zM195 586q0 -48 -53 -48q-55 0 -55 68q0 29 16 47t42 18
q47 0 49 -42h-27q-2 22 -23 22q-28 0 -28 -45q0 -44 28 -44q22 0 24 24h27z" />
    <glyph glyph-name="trademark" unicode="&#x2122;" horiz-adv-x="292" 
d="M269 587h-28v89l-33 -89h-13l-34 89v-89h-28v119h41l28 -72l26 72h41v-119zM109 682h-36v-95h-29v95h-37v24h102v-24z" />
    <glyph glyph-name="acute" unicode="&#xb4;" 
d="M386 647q0 -30 -85 -71l-113 -55l-9 15l114 101q41 36 66 36q27 0 27 -26z" />
    <glyph glyph-name="dieresis" unicode="&#xa8;" 
d="M366 590q0 -20 -14 -34.5t-35 -14.5q-20 0 -34.5 14t-14.5 35q0 20 14.5 34t34.5 14t34.5 -14t14.5 -34zM231 590q0 -20 -14 -34.5t-35 -14.5q-20 0 -34.5 14t-14.5 35q0 20 14.5 34t34.5 14t34.5 -14t14.5 -34z" />
    <glyph glyph-name="AE" unicode="&#xc6;" horiz-adv-x="887" 
d="M844 84l-14 -76l-361 -20l-53 243h-197l-122 -242l-89 20l326 615l19 14h479l-14 -68l-328 -9l44 -192l5 -5l2 -1l261 6l-10 -80l-229 3l-10 -8l48 -213zM411 287l-47 236l-111 -221l5 -9z" />
    <glyph glyph-name="Oslash" unicode="&#xd8;" horiz-adv-x="753" 
d="M704 315q0 -152 -89 -242t-238 -90q-81 0 -158 33l-70 -110h-51l83 132q-132 102 -132 279q0 160 86 248t242 88q88 0 168 -37l64 102h51l-77 -124q121 -97 121 -279zM496 539q-50 49 -119 49q-89 0 -139 -71t-50 -200q0 -111 49 -189zM564 322q0 103 -41 178l-257 -409
q47 -41 111 -41q89 0 138 70t49 202z" />
    <glyph glyph-name="plusminus" unicode="&#xb1;" horiz-adv-x="833" 
d="M709 345h-251v-163h-83v163h-251v81h251v163h83v-163h251v-81zM709 7h-585v82h585v-82z" />
    <glyph glyph-name="yen" unicode="&#xa5;" horiz-adv-x="591" 
d="M559 638l-192 -406h103v-42h-110v-38h110v-42h-111l-1 -110h-124l-1 110h-106v42h106l-1 38h-105v42h104l-222 391l148 24l165 -328l149 319h88z" />
    <glyph glyph-name="ordfeminine" unicode="&#xaa;" horiz-adv-x="457" 
d="M365 318l-80 -9l-3 53h-2q-34 -47 -104 -47q-39 0 -62 20.5t-23 54.5q0 35 31 58.5t79 23.5q41 0 77 -16v22q0 80 -8 107q-9 33 -39 33q-51 0 -72 -104l-63 17q36 122 150 122q68 0 90 -38q18 -31 18 -120q0 -109 11 -177zM366 241h-275v36h275v-36zM272 417
q-22 13 -42 13q-49 0 -49 -36q0 -32 39 -32q20 0 35 15.5t17 39.5z" />
    <glyph glyph-name="ordmasculine" unicode="&#xba;" horiz-adv-x="481" 
d="M390 489q0 -78 -41.5 -126t-109.5 -48q-67 0 -107.5 47t-40.5 127q0 74 41.5 119t109.5 45q67 0 107.5 -44.5t40.5 -119.5zM378 241h-275v36h275v-36zM299 489q0 58 -16 91t-41 33t-41 -33t-16 -91q0 -134 58 -134q56 0 56 134z" />
    <glyph glyph-name="ae" unicode="&#xe6;" horiz-adv-x="783" 
d="M745 34q-94 -51 -226 -51q-120 0 -172 78q-57 -77 -178 -77q-131 0 -131 105q0 54 46.5 89.5t119.5 35.5q68 0 116 -23v33q0 99 -5 128q-14 85 -66 85q-79 0 -109 -155l-95 26q56 184 227 184q100 0 136 -70q59 70 142 70q166 0 181 -209l-291 -28q-6 -34 -6 -66
q0 -136 133 -136q69 0 157 40zM626 327q-9 110 -73 110q-33 0 -62.5 -33t-40.5 -88l4 -8zM322 134q-35 28 -82 28q-93 0 -93 -67q0 -24 20 -38.5t53 -14.5q38 0 69 27t33 65z" />
    <glyph glyph-name="oslash" unicode="&#xf8;" horiz-adv-x="531" 
d="M490 244q0 -117 -62.5 -189t-163.5 -72q-52 0 -101 23l-57 -92h-44l69 113q-90 74 -90 217q0 112 62.5 180t163.5 68q65 0 118 -31l50 76h45l-64 -99q74 -78 74 -194zM335 379q-27 51 -69 51q-44 0 -73 -51t-29 -136q0 -67 23 -125zM367 245q0 44 -16 86l-146 -254
q25 -31 61 -31q46 0 73.5 53t27.5 146z" />
    <glyph glyph-name="questiondown" unicode="&#xbf;" horiz-adv-x="395" 
d="M247 598q0 -23 -15.5 -38.5t-38.5 -15.5t-39 16t-16 38q0 23 16 39t39 16t38.5 -15.5t15.5 -39.5zM330 24q-88 -34 -156 -34q-65 0 -101.5 26.5t-36.5 72.5q0 30 23 62q8 12 56 65q70 78 70 134q0 63 -64 72l71 39q105 -29 105 -110q0 -32 -20 -66q-13 -22 -52 -70
q-65 -80 -65 -113q0 -52 56 -52q33 0 88 30z" />
    <glyph glyph-name="exclamdown" unicode="&#xa1;" horiz-adv-x="293" 
d="M203 607q0 -23 -15.5 -38.5t-38.5 -15.5t-39 15.5t-16 38.5t16 39t39 16t38.5 -15.5t15.5 -39.5zM217 2l-140 -12l26 486l88 8z" />
    <glyph glyph-name="logicalnot" unicode="&#xac;" horiz-adv-x="833" 
d="M709 176h-81v164h-504v81h585v-245z" />
    <glyph glyph-name="florin" unicode="&#x192;" horiz-adv-x="579" 
d="M593 610l-42 -64q-36 42 -92 42q-67 0 -103 -61q-38 -64 -38 -182q0 -5 1 -15v-15h160l-7 -56h-153v-164q0 -340 -253 -340q-85 0 -137 45l42 64q36 -42 93 -42q138 0 138 273v164h-146l8 56h138q0 340 254 340q84 0 137 -45z" />
    <glyph glyph-name="guillemotleft" unicode="&#xab;" horiz-adv-x="468" 
d="M435 58l-59 -16l-184 190l184 190l59 -16l-150 -173zM296 58l-59 -16l-184 190l184 190l59 -16l-150 -173z" />
    <glyph glyph-name="guillemotright" unicode="&#xbb;" horiz-adv-x="468" 
d="M415 232l-184 -190l-59 16l150 175l-150 173l59 16zM276 232l-184 -190l-59 16l150 175l-150 173l59 16z" />
    <glyph glyph-name="ellipsis" unicode="&#x2026;" horiz-adv-x="1000" 
d="M833 45q0 -23 -16 -39t-39 -16t-38.5 15.5t-15.5 39.5q0 23 15.5 38.5t38.5 15.5t39 -15.5t16 -38.5zM500 45q0 -23 -16 -39t-39 -16t-38.5 15.5t-15.5 39.5q0 23 15.5 38.5t38.5 15.5t39 -15.5t16 -38.5zM167 45q0 -23 -16 -39t-39 -16t-38.5 15.5t-15.5 39.5
q0 23 15.5 38.5t38.5 15.5t39 -16t16 -38z" />
    <glyph glyph-name="nonbreakingspace" unicode="&#xa0;" horiz-adv-x="223" 
 />
    <glyph glyph-name="Agrave" unicode="&#xc0;" horiz-adv-x="659" 
d="M651 8l-145 -22l-97 244h-219l-92 -241l-90 20l263 636h122zM396 286l-91 243l-89 -228l7 -9zM408 692l-8 -16l-113 55q-86 42 -86 70t27 28q24 0 66 -37z" />
    <glyph glyph-name="Atilde" unicode="&#xc3;" horiz-adv-x="659" 
d="M651 8l-145 -22l-97 244h-219l-92 -241l-90 20l263 636h122zM396 286l-91 243l-89 -228l7 -9zM466 803q0 -105 -63 -105q-24 0 -67.5 29.5t-66.5 29.5q-31 0 -47 -59h-17v11q0 115 63 115q22 0 65.5 -29.5t66.5 -29.5q30 0 47 59h18q0 -3 1 -10v-11z" />
    <glyph glyph-name="Otilde" unicode="&#xd5;" horiz-adv-x="753" 
d="M704 323q0 -158 -88 -249t-239 -91t-239.5 90t-88.5 244q0 160 86 248t242 88q155 0 241 -87t86 -243zM564 315q0 131 -49.5 202t-137.5 71q-89 0 -139 -71t-50 -200q0 -127 50.5 -197t138.5 -70q87 0 137 69.5t50 195.5zM519 803q0 -105 -63 -105q-24 0 -67.5 29.5
t-66.5 29.5q-31 0 -47 -59h-17v11q0 115 63 115q22 0 65.5 -29.5t66.5 -29.5q30 0 47 59h18q0 -3 1 -10v-11z" />
    <glyph glyph-name="OE" unicode="&#x152;" horiz-adv-x="985" 
d="M942 84l-14 -76l-392 -16v25q-77 -34 -159 -34q-150 0 -239 90t-89 244q0 160 86 248t242 88q82 0 156 -31l17 16h380l-14 -68l-246 -8l-4 -191l6 -8l228 6l-10 -79l-218 3l-8 -10v-206l9 -7zM535 112l-1 407q-63 69 -157 69q-89 0 -139 -71t-50 -200t50.5 -198
t144.5 -69q89 0 152 62z" />
    <glyph glyph-name="oe" unicode="&#x153;" horiz-adv-x="830" 
d="M792 34q-94 -51 -226 -51q-98 0 -153 64q-59 -64 -149 -64q-101 0 -162 71t-61 190q0 112 62.5 180t163.5 68q110 0 172 -88q65 88 160 88q77 0 126 -63.5t59 -181.5h-297q-6 -34 -6 -62q0 -132 133 -132q78 0 157 40zM677 300q-11 137 -77 137q-34 0 -63.5 -35
t-39.5 -94l4 -8h176zM367 245q0 87 -28 136t-73 49t-73.5 -50.5t-28.5 -136.5q0 -95 27.5 -146t74.5 -51q46 0 73.5 52.5t27.5 146.5z" />
    <glyph glyph-name="endash" unicode="&#x2013;" horiz-adv-x="440" 
d="M402 200h-364v89h364v-89z" />
    <glyph glyph-name="emdash" unicode="&#x2014;" horiz-adv-x="631" 
d="M593 200h-555v89h555v-89z" />
    <glyph glyph-name="quotedblleft" unicode="&#x201c;" horiz-adv-x="352" 
d="M310 636q-45 -112 -51 -238l-77 7q20 157 91 245zM160 636q-45 -112 -51 -238l-77 7q20 157 91 245z" />
    <glyph glyph-name="quotedblright" unicode="&#x201d;" horiz-adv-x="352" 
d="M303 637q-20 -159 -91 -246l-37 15q45 110 51 238zM153 637q-20 -160 -90 -246l-38 15q45 110 51 238z" />
    <glyph glyph-name="quoteleft" unicode="&#x2018;" horiz-adv-x="225" 
d="M172 636q-45 -112 -51 -238l-77 7q20 157 91 245z" />
    <glyph glyph-name="quoteright" unicode="&#x2019;" horiz-adv-x="225" 
d="M167 637q-20 -157 -90 -246l-38 15q45 110 51 238z" />
    <glyph glyph-name="divide" unicode="&#xf7;" horiz-adv-x="833" 
d="M484 483q0 -27 -19.5 -46.5t-47.5 -19.5t-47.5 19t-19.5 47t20 48t47 20q28 0 47.5 -20t19.5 -48zM709 258h-585v81h585v-81zM484 112q0 -27 -19.5 -46.5t-47.5 -19.5t-47.5 19t-19.5 47t20 47.5t47 19.5q28 0 47.5 -19.5t19.5 -47.5z" />
    <glyph glyph-name="ydieresis" unicode="&#xff;" horiz-adv-x="510" 
d="M497 477l-249 -727l-102 20l80 182v30l-219 488l130 22l142 -384h7l112 369h99zM399 590q0 -20 -14 -34.5t-35 -14.5q-20 0 -34.5 14t-14.5 35q0 20 14.5 34t34.5 14t34.5 -14t14.5 -34zM264 590q0 -20 -14 -34.5t-35 -14.5q-20 0 -34.5 14t-14.5 35q0 20 14.5 34
t34.5 14t34.5 -14t14.5 -34z" />
    <glyph glyph-name="Ydieresis" unicode="&#x178;" horiz-adv-x="567" 
d="M559 638l-200 -421l-2 -217h-124l-2 230l-223 393l148 24l165 -328l148 319h90zM422 751q0 -20 -14 -34.5t-35 -14.5q-20 0 -34.5 14t-14.5 35q0 20 14.5 34t34.5 14t34.5 -14t14.5 -34zM287 751q0 -20 -14 -34.5t-35 -14.5q-20 0 -34.5 14t-14.5 35q0 20 14.5 34
t34.5 14t34.5 -14t14.5 -34z" />
    <glyph glyph-name="currency" unicode="&#xa4;" horiz-adv-x="606" 
d="M571 211l-46 -45l-99 100q-55 -40 -122 -40q-70 0 -123 40l-99 -100l-45 45l99 100q-39 53 -39 121q0 69 39 121l-99 100l45 45l99 -99q53 40 122 40q70 0 123 -40l99 99l46 -45l-100 -100q39 -52 39 -121q0 -68 -39 -121zM446 432q0 58 -42 100t-100 42t-100 -42
t-42 -100q0 -59 41.5 -100t100.5 -41t100.5 41t41.5 100z" />
    <glyph glyph-name="guilsinglleft" unicode="&#x2039;" horiz-adv-x="329" 
d="M296 58l-59 -16l-184 190l184 190l59 -16l-150 -173z" />
    <glyph glyph-name="guilsinglright" unicode="&#x203a;" horiz-adv-x="329" 
d="M276 232l-184 -190l-59 16l150 175l-150 173l59 16z" />
    <glyph glyph-name="daggerdbl" unicode="&#x2021;" horiz-adv-x="407" 
d="M374 225l-3 -56l-141 3l3 -190l-66 -3l3 193l-137 -3l3 56l134 -3v184l-137 -3l3 56l134 -3l-3 187l66 3l-3 -191l144 4l-3 -56l-141 3v-185z" />
    <glyph glyph-name="periodcentered" unicode="&#xb7;" horiz-adv-x="221" 
d="M163 359q0 -22 -15 -37.5t-38 -15.5q-22 0 -37 15.5t-15 37.5q0 23 15 37.5t37 14.5q23 0 38 -15t15 -37z" />
    <glyph glyph-name="periodcentered" unicode="&#x2219;" horiz-adv-x="221" 
d="M163 359q0 -22 -15 -37.5t-38 -15.5q-22 0 -37 15.5t-15 37.5q0 23 15 37.5t37 14.5q23 0 38 -15t15 -37z" />
    <glyph glyph-name="quotesinglbase" unicode="&#x201a;" horiz-adv-x="225" 
d="M146 84q-18 -154 -90 -246l-37 15q44 108 50 238z" />
    <glyph glyph-name="quotedblbase" unicode="&#x201e;" horiz-adv-x="352" 
d="M296 84q-18 -154 -90 -246l-38 15q45 111 51 238zM146 84q-18 -154 -90 -246l-37 15q44 108 50 238z" />
    <glyph glyph-name="perthousand" unicode="&#x2030;" horiz-adv-x="1202" 
d="M1163 158q0 -83 -50 -131t-136 -48q-84 0 -133.5 48.5t-49.5 130.5q0 80 50 128.5t133 48.5q85 0 135.5 -48t50.5 -129zM754 158q0 -83 -50 -131t-136 -48q-84 0 -133.5 48.5t-49.5 130.5q0 80 50 128.5t133 48.5q85 0 135.5 -48t50.5 -129zM620 746l-426 -838h-55
l427 838h54zM360 483q0 -83 -50.5 -131.5t-135.5 -48.5q-84 0 -133.5 48.5t-49.5 131.5q0 80 50 128t133 48q85 0 135.5 -48t50.5 -128zM1083 158q0 55 -30.5 90.5t-75.5 35.5q-43 0 -72.5 -36t-29.5 -92t28.5 -91t73.5 -35t75.5 36t30.5 92zM674 158q0 55 -30.5 90.5
t-75.5 35.5q-43 0 -72.5 -36t-29.5 -92t28.5 -91t73.5 -35t75.5 36t30.5 92zM280 483q0 55 -30.5 90t-75.5 35q-44 0 -73.5 -35.5t-29.5 -91.5t29 -91t74 -35t75.5 36t30.5 92z" />
    <glyph glyph-name="Acircumflex" unicode="&#xc2;" horiz-adv-x="659" 
d="M651 8l-145 -22l-97 244h-219l-92 -241l-90 20l263 636h122zM396 286l-91 243l-89 -228l7 -9zM464 691l-34 -8l-95 86l-95 -86l-34 8l114 145h30z" />
    <glyph glyph-name="Ecircumflex" unicode="&#xca;" horiz-adv-x="537" 
d="M494 84l-14 -76l-393 -16l-4 634l18 12h381l-14 -68l-246 -8l-4 -191l6 -8l228 6l-10 -79l-218 3l-8 -10v-206l9 -7zM406 691l-34 -8l-95 86l-95 -86l-34 8l114 145h30z" />
    <glyph glyph-name="Aacute" unicode="&#xc1;" horiz-adv-x="659" 
d="M651 8l-145 -22l-97 244h-219l-92 -241l-90 20l263 636h122zM396 286l-91 243l-89 -228l7 -9zM471 808q0 -30 -85 -71l-113 -55l-9 15l114 101q41 36 66 36q27 0 27 -26z" />
    <glyph glyph-name="Edieresis" unicode="&#xcb;" horiz-adv-x="537" 
d="M494 84l-14 -76l-393 -16l-4 634l18 12h381l-14 -68l-246 -8l-4 -191l6 -8l228 6l-10 -79l-218 3l-8 -10v-206l9 -7zM393 751q0 -20 -14 -34.5t-35 -14.5q-20 0 -34.5 14t-14.5 35q0 20 14.5 34t34.5 14t34.5 -14t14.5 -34zM258 751q0 -20 -14 -34.5t-35 -14.5
q-20 0 -34.5 14t-14.5 35q0 20 14.5 34t34.5 14t34.5 -14t14.5 -34z" />
    <glyph glyph-name="Egrave" unicode="&#xc8;" horiz-adv-x="537" 
d="M494 84l-14 -76l-393 -16l-4 634l18 12h381l-14 -68l-246 -8l-4 -191l6 -8l228 6l-10 -79l-218 3l-8 -10v-206l9 -7zM350 692l-8 -16l-113 55q-86 42 -86 70t27 28q24 0 66 -37z" />
    <glyph glyph-name="Iacute" unicode="&#xcd;" horiz-adv-x="302" 
d="M219 643l-8 -643h-126l-2 637zM287 808q0 -30 -85 -71l-113 -55l-9 15l114 101q41 36 66 36q27 0 27 -26z" />
    <glyph glyph-name="Icircumflex" unicode="&#xce;" horiz-adv-x="302" 
d="M219 643l-8 -643h-126l-2 637zM280 691l-34 -8l-95 86l-95 -86l-34 8l114 145h30z" />
    <glyph glyph-name="Idieresis" unicode="&#xcf;" horiz-adv-x="302" 
d="M219 643l-8 -643h-126l-2 637zM267 751q0 -20 -14 -34.5t-35 -14.5q-20 0 -34.5 14t-14.5 35q0 20 14.5 34t34.5 14t34.5 -14t14.5 -34zM132 751q0 -20 -14 -34.5t-35 -14.5q-20 0 -34.5 14t-14.5 35q0 20 14.5 34t34.5 14t34.5 -14t14.5 -34z" />
    <glyph glyph-name="Igrave" unicode="&#xcc;" horiz-adv-x="302" 
d="M219 643l-8 -643h-126l-2 637zM224 692l-8 -16l-113 55q-86 42 -86 70t27 28q24 0 66 -37z" />
    <glyph glyph-name="Oacute" unicode="&#xd3;" horiz-adv-x="753" 
d="M704 323q0 -158 -88 -249t-239 -91t-239.5 90t-88.5 244q0 160 86 248t242 88q155 0 241 -87t86 -243zM564 315q0 131 -49.5 202t-137.5 71q-89 0 -139 -71t-50 -200q0 -127 50.5 -197t138.5 -70q87 0 137 69.5t50 195.5zM524 808q0 -30 -85 -71l-113 -55l-9 15l114 101
q41 36 66 36q27 0 27 -26z" />
    <glyph glyph-name="Ocircumflex" unicode="&#xd4;" horiz-adv-x="753" 
d="M704 323q0 -158 -88 -249t-239 -91t-239.5 90t-88.5 244q0 160 86 248t242 88q155 0 241 -87t86 -243zM564 315q0 131 -49.5 202t-137.5 71q-89 0 -139 -71t-50 -200q0 -127 50.5 -197t138.5 -70q87 0 137 69.5t50 195.5zM517 691l-34 -8l-95 86l-95 -86l-34 8l114 145
h30z" />
    <glyph glyph-name="Ograve" unicode="&#xd2;" horiz-adv-x="753" 
d="M704 323q0 -158 -88 -249t-239 -91t-239.5 90t-88.5 244q0 160 86 248t242 88q155 0 241 -87t86 -243zM564 315q0 131 -49.5 202t-137.5 71q-89 0 -139 -71t-50 -200q0 -127 50.5 -197t138.5 -70q87 0 137 69.5t50 195.5zM461 692l-8 -16l-113 55q-86 42 -86 70t27 28
q24 0 66 -37z" />
    <glyph glyph-name="Uacute" unicode="&#xda;" horiz-adv-x="701" 
d="M623 636l-6 -388q-2 -129 -72 -197.5t-200 -68.5q-125 0 -194 69.5t-70 194.5l-3 391l138 6l-5 -376q0 -102 43.5 -158.5t119.5 -56.5q72 0 111.5 59t39.5 171v354h98zM506 808q0 -30 -85 -71l-113 -55l-9 15l114 101q41 36 66 36q27 0 27 -26z" />
    <glyph glyph-name="Ucircumflex" unicode="&#xdb;" horiz-adv-x="701" 
d="M623 636l-6 -388q-2 -129 -72 -197.5t-200 -68.5q-125 0 -194 69.5t-70 194.5l-3 391l138 6l-5 -376q0 -102 43.5 -158.5t119.5 -56.5q72 0 111.5 59t39.5 171v354h98zM499 691l-34 -8l-95 86l-95 -86l-34 8l114 145h30z" />
    <glyph glyph-name="Ugrave" unicode="&#xd9;" horiz-adv-x="701" 
d="M623 636l-6 -388q-2 -129 -72 -197.5t-200 -68.5q-125 0 -194 69.5t-70 194.5l-3 391l138 6l-5 -376q0 -102 43.5 -158.5t119.5 -56.5q72 0 111.5 59t39.5 171v354h98zM443 692l-8 -16l-113 55q-86 42 -86 70t27 28q24 0 66 -37z" />
    <glyph glyph-name="circumflex" unicode="&#x2c6;" 
d="M379 530l-34 -8l-95 86l-95 -86l-34 8l114 145h30z" />
    <glyph glyph-name="tilde" unicode="&#x2dc;" 
d="M381 642q0 -105 -63 -105q-24 0 -67.5 29.5t-66.5 29.5q-31 0 -47 -59h-17v11q0 115 63 115q22 0 65.5 -29.5t66.5 -29.5q30 0 47 59h18q0 -3 1 -10v-11z" />
    <glyph glyph-name="macron" unicode="&#xaf;" 
d="M393 564h-286v60h286v-60z" />
    <glyph glyph-name="macron" unicode="&#x2c9;" 
d="M393 564h-286v60h286v-60z" />
    <glyph glyph-name="cedilla" unicode="&#xb8;" 
d="M272 0l-5 -140q-4 -101 -54 -101q-31 0 -31 44q0 25 19 88l33 109h38z" />
    <glyph glyph-name="Scaron" unicode="&#x160;" horiz-adv-x="501" 
d="M468 172q0 -76 -65 -128q-68 -54 -176 -54q-105 0 -193 39l33 77q69 -41 142 -41q59 0 91.5 27t32.5 74q0 42 -34 70q-23 19 -96 52q-92 42 -127 78q-43 45 -43 118q0 77 61 123t169 46q131 0 204 -41l-39 -75q-65 46 -139 46q-55 0 -87 -27.5t-32 -74.5q0 -49 46 -82
q17 -11 121 -61q131 -63 131 -166zM405 827l-114 -145h-30l-114 145l34 8l95 -86l95 86z" />
    <glyph glyph-name="scaron" unicode="&#x161;" horiz-adv-x="448" 
d="M407 461l-39 -66q-51 38 -111 38q-91 0 -91 -69q0 -33 29 -56q20 -17 78 -44q66 -31 94 -59q32 -33 32 -81q0 -62 -55 -100q-57 -41 -152 -41q-88 0 -151 26l27 69q55 -35 112 -35q47 0 74 19t27 52q0 29 -27 50q-16 13 -72 40q-136 66 -136 156q0 60 55.5 96.5
t153.5 36.5q89 0 152 -32zM370 666l-114 -145h-30l-114 145l34 8l95 -86l95 86z" />
    <glyph glyph-name="brokenbar" unicode="&#xa6;" 
d="M294 329h-87v370h87v-370zM294 -171h-87v370h87v-370z" />
    <glyph glyph-name="Eth" unicode="&#xd0;" horiz-adv-x="733" 
d="M675 343q0 -167 -97 -255t-282 -88h-207l-3 308h-97v41h97l-3 291h255q162 0 249.5 -78t87.5 -219zM540 339q0 123 -61.5 181t-190.5 58h-66l-1 -229h101v-41h-101l-1 -240l9 -7h65q115 0 180.5 73.5t65.5 204.5z" />
    <glyph glyph-name="eth" unicode="&#xf0;" horiz-adv-x="532" 
d="M491 244q0 -117 -62.5 -189t-164.5 -72q-101 0 -162 71t-61 190q0 108 65 178t160 70q14 0 39 -5q-31 45 -61 72l-89 -56l-18 27l81 53q-59 48 -131 73l69 83q84 -34 156 -95l83 54l17 -32l-74 -47q153 -175 153 -375zM367 245q0 87 -28 136t-73 49t-73.5 -50.5
t-28.5 -136.5q0 -95 27.5 -146t74.5 -51q46 0 73.5 52.5t27.5 146.5z" />
    <glyph glyph-name="Yacute" unicode="&#xdd;" horiz-adv-x="567" 
d="M559 638l-200 -421l-2 -217h-124l-2 230l-223 393l148 24l165 -328l148 319h90zM442 808q0 -30 -85 -71l-113 -55l-9 15l114 101q41 36 66 36q27 0 27 -26z" />
    <glyph glyph-name="yacute" unicode="&#xfd;" horiz-adv-x="510" 
d="M497 477l-249 -727l-102 20l80 182v30l-219 488l130 22l142 -384h7l112 369h99zM419 647q0 -30 -85 -71l-113 -55l-9 15l114 101q41 36 66 36q27 0 27 -26z" />
    <glyph glyph-name="Thorn" unicode="&#xde;" horiz-adv-x="591" 
d="M558 357q0 -104 -78.5 -161t-225.5 -57h-36l-2 -139h-129l-4 643h138v-130h69q138 0 203 -37t65 -119zM425 350q0 58 -38.5 80t-128.5 22h-37l-4 -249l9 -7h24q83 0 129 41t46 113z" />
    <glyph glyph-name="thorn" unicode="&#xfe;" horiz-adv-x="554" 
d="M514 297q0 -141 -61.5 -227t-156.5 -86q-43 0 -101 16v-246h-106l-9 877l124 24l-9 -368h5q66 204 190 204q65 0 94.5 -47t29.5 -147zM400 262q0 130 -57 130q-43 0 -85 -82q-48 -92 -61 -237q38 -29 76 -29q54 0 90.5 62t36.5 156z" />
    <glyph glyph-name="minus" unicode="&#xad;" horiz-adv-x="833" 
d="M709 257h-585v83h585v-83z" />
    <glyph glyph-name="minus" unicode="&#x2212;" horiz-adv-x="833" 
d="M709 257h-585v83h585v-83z" />
    <glyph glyph-name="multiply" unicode="&#xd7;" horiz-adv-x="833" 
d="M703 74l-57 -58l-225 225l-224 -225l-57 58l224 224l-224 225l57 57l224 -224l225 224l57 -57l-224 -225z" />
    <glyph glyph-name="onesuperior" unicode="&#xb9;" horiz-adv-x="281" 
d="M263 255h-249v34h94v304l-6 4l-91 -32l-22 42l204 43l-9 -361h79v-34z" />
    <glyph glyph-name="twosuperior" unicode="&#xb2;" horiz-adv-x="335" 
d="M343 300l-10 -45h-319l-7 29q200 127 200 251q0 75 -99 75q-49 0 -103 -31l-5 48q45 20 138 20q152 0 152 -103q0 -112 -154 -233v-6z" />
    <glyph glyph-name="threesuperior" unicode="&#xb3;" horiz-adv-x="314" 
d="M296 377q0 -59 -64.5 -93t-185.5 -34h-34l-13 39q16 -3 51 -3q79 0 126 26q44 24 44 64q0 59 -122 59q-24 0 -44 -4l-6 29q160 31 160 97q0 51 -94 51q-57 0 -97 -18l-16 38q58 19 130 19q153 0 153 -89q0 -66 -118 -98v-3q130 -6 130 -80z" />
    <glyph glyph-name="onehalf" unicode="&#xbd;" horiz-adv-x="755" 
d="M762 42l-9 -42h-305l-6 27q191 119 191 234q0 70 -95 70q-48 0 -98 -29l-5 45q45 19 132 19q145 0 145 -96q0 -104 -147 -218v-5zM592 746l-426 -838h-55l427 838h54zM251 280h-238v32h90v284l-6 3l-86 -30l-21 39l194 41l-8 -337h75v-32z" />
    <glyph glyph-name="onequarter" unicode="&#xbc;" horiz-adv-x="800" 
d="M794 114l-7 -34l-77 1v-88l-77 -8v98l-171 5l-16 18l182 265l84 -11l-4 -241zM592 746l-426 -838h-55l427 838h54zM251 280h-238v32h90v284l-6 3l-86 -30l-21 39l194 41l-8 -337h75v-32zM636 309l-6 2l-119 -176l3 -5l118 -6z" />
    <glyph glyph-name="threequarters" unicode="&#xbe;" horiz-adv-x="830" 
d="M825 114l-7 -34l-77 1v-88l-77 -8v98l-171 5l-16 18l182 265l84 -11l-4 -241zM623 746l-426 -838h-55l427 838h54zM282 394q0 -56 -61.5 -87.5t-176.5 -31.5q-21 0 -33 1l-12 35q15 -2 48 -2q76 0 121 24q42 22 42 60q0 55 -117 55q-22 0 -41 -4l-7 28q153 28 153 90
q0 48 -89 48q-53 0 -93 -17l-15 35q53 18 124 18q146 0 146 -83q0 -62 -113 -91v-4q124 -5 124 -74zM667 309l-6 2l-119 -176l3 -5l118 -6z" />
    <glyph glyph-name="Lslash" unicode="&#x141;" horiz-adv-x="477" 
d="M469 83l-14 -77l-366 -16l-2 265l-67 -42l-20 31l86 55l-3 338l138 6l-2 -259l81 52l18 -32l-100 -63l-2 -265l9 -7z" />
    <glyph glyph-name="lslash" unicode="&#x142;" horiz-adv-x="263" 
d="M283 383l-100 -63l-2 -69q0 -104 16 -153q20 -59 78 -90l-106 -27q-57 22 -81.5 80t-24.5 161q0 6 1 18v17l-68 -42l-18 31l87 55q4 138 23 425l130 16q-27 -279 -32 -377l80 52z" />
    <glyph glyph-name="HT" horiz-adv-x="223" 
 />
    <glyph glyph-name="nonmarkingreturn" horiz-adv-x="223" 
 />
    <glyph glyph-name="Zcaron" unicode="&#x17d;" horiz-adv-x="556" 
d="M538 80l-19 -82l-461 -3l-18 40l303 522l-6 9l-293 -22l-16 84l467 15l16 -36l-306 -529l9 -8zM407 827l-114 -145h-30l-114 145l34 8l95 -86l95 86z" />
    <glyph glyph-name="zcaron" unicode="&#x17e;" horiz-adv-x="467" 
d="M446 64l-13 -69l-393 1l-13 30q121 131 198 246q60 91 60 116q0 26 -80 26q-100 0 -171 -30l-13 78q122 16 259 16q80 0 108 -10q36 -13 36 -54q0 -70 -230 -354l5 -4zM363 666l-114 -145h-30l-114 145l34 8l95 -86l95 86z" />
    <glyph glyph-name="notequal" unicode="&#x2260;" horiz-adv-x="549" 
d="M501 139h-279l-117 -117l-39 40l77 77h-95v58h148l79 78h-227v58h279l117 117l40 -40l-78 -77h95v-58h-147l-79 -78h226v-58z" />
    <glyph glyph-name="infinity" unicode="&#x221e;" horiz-adv-x="713" 
d="M659 300q0 -75 -34 -127q-40 -59 -111 -59q-93 0 -148 124q-65 -124 -157 -124q-71 0 -115 58q-41 53 -41 126q0 75 35 127q39 59 111 59q91 0 148 -124q63 124 157 124q71 0 115 -58q40 -53 40 -126zM635 303q0 54 -29 88.5t-81 34.5q-77 0 -149 -162q46 -86 142 -86
q53 0 85 36t32 89zM336 334q-47 86 -141 86q-53 0 -85 -36t-32 -89q0 -51 28 -87t78 -36q51 0 95 59q23 32 57 103z" />
    <glyph glyph-name="lessequal" unicode="&#x2264;" horiz-adv-x="549" 
d="M503 127l-456 143v61l456 143v-64l-351 -110l351 -109v-64zM503 0h-457v62h457v-62z" />
    <glyph glyph-name="greaterequal" unicode="&#x2265;" horiz-adv-x="549" 
d="M503 270l-457 -143v64l351 109l-351 110v64l457 -143v-61zM503 0h-457v62h457v-62z" />
    <glyph glyph-name="mu" unicode="&#xb5;" horiz-adv-x="590" 
d="M546 528l-71 -361q-9 -46 -9 -65q0 -32 33 -32q11 0 17 1l-16 -78q-31 -8 -73 -8q-73 0 -73 61v7q-42 -69 -124 -69q-76 0 -115 53l-48 -247h-112l145 738h112l-61 -310q-6 -30 -6 -51q0 -96 89 -96q61 0 95.5 44.5t53.5 141.5l53 271h110z" />
    <glyph glyph-name="mu" unicode="&#x3bc;" horiz-adv-x="590" 
d="M546 528l-71 -361q-9 -46 -9 -65q0 -32 33 -32q11 0 17 1l-16 -78q-31 -8 -73 -8q-73 0 -73 61v7q-42 -69 -124 -69q-76 0 -115 53l-48 -247h-112l145 738h112l-61 -310q-6 -30 -6 -51q0 -96 89 -96q61 0 95.5 44.5t53.5 141.5l53 271h110z" />
    <glyph glyph-name="partialdiff" unicode="&#x2202;" horiz-adv-x="494" 
d="M436 367q0 -130 -47 -238q-61 -142 -175 -142q-74 0 -116 59q-36 51 -36 129q0 79 49 140q52 65 129 65q87 0 118 -93q12 45 12 148q0 167 -63 167q-17 0 -50 -35t-56 -35q-37 0 -37 32q0 34 36 54q30 17 66 17q93 0 137 -93q33 -71 33 -175zM341 224q0 125 -85 125
q-65 0 -97 -84q-23 -60 -23 -137q0 -119 84 -119q63 0 96 81q25 61 25 134z" />
    <glyph glyph-name="summation" unicode="&#x2211;" horiz-adv-x="713" 
d="M661 20q-10 -43 -53 -236h-572l398 436l-384 524h550l33 -230h-34q-33 108 -92.5 153t-171.5 45h-142l325 -446l-359 -394h212q109 0 158 25q61 30 97 123h35z" />
    <glyph glyph-name="product" unicode="&#x220f;" horiz-adv-x="823" 
d="M797 -216h-264v32h84v896h-407v-896h84v-32h-264v32h88v896h-88v32h767v-32h-88v-896h88v-32z" />
    <glyph glyph-name="pi" unicode="&#x3c0;" horiz-adv-x="549" 
d="M526 469q0 -51 -23 -70.5t-75 -20.5h-24q-4 -132 -4 -196v-86q6 -63 39 -63q39 0 51 43q7 24 7 75h25q0 -161 -106 -161q-66 0 -87 53q-16 40 -16 151q0 -6 4 184h-137q0 -227 -13 -294q-18 -94 -80 -94q-46 0 -61 48q-9 28 -9 86h24q1 -52 37 -52q45 0 62 75
q14 62 16 231h-22q-77 0 -87 -52h-23q4 74 46 101q34 22 113 22h254q66 0 66 22v1h23v-3z" />
    <glyph glyph-name="integral" unicode="&#x222b;" horiz-adv-x="274" 
d="M364 690q0 -48 -49 -48q-26 0 -43.5 37t-29.5 37q-38 0 -48 -109q-3 -31 -12 -309q-9 -272 -47 -362q-50 -117 -144 -117q-33 0 -57 17.5t-24 49.5q0 47 49 47q26 0 44 -36.5t30 -36.5q36 0 47 109q6 58 9 220q4 169 11 250q11 135 39 201q49 117 144 117q33 0 57 -17.5
t24 -49.5z" />
    <glyph glyph-name="Omega" unicode="&#x3a9;" horiz-adv-x="768" 
d="M718 408q0 -108 -72 -177q-65 -61 -176 -82v-59h123q50 0 67 17.5t21 68.5h23l-10 -176h-252v170q80 16 122 88q36 63 36 150q0 103 -56 170q-59 71 -160 71q-102 0 -161 -71q-55 -66 -55 -170q0 -88 36 -150q41 -72 122 -88v-170h-252l-10 176h23q3 -50 21 -68t67 -18
h123v59q-112 21 -176 82q-72 69 -72 177q0 131 105 204q91 63 229 63t229 -63q105 -73 105 -204z" />
    <glyph glyph-name="Omega" unicode="&#x2126;" horiz-adv-x="768" 
d="M718 408q0 -108 -72 -177q-65 -61 -176 -82v-59h123q50 0 67 17.5t21 68.5h23l-10 -176h-252v170q80 16 122 88q36 63 36 150q0 103 -56 170q-59 71 -160 71q-102 0 -161 -71q-55 -66 -55 -170q0 -88 36 -150q41 -72 122 -88v-170h-252l-10 176h23q3 -50 21 -68t67 -18
h123v59q-112 21 -176 82q-72 69 -72 177q0 131 105 204q91 63 229 63t229 -63q105 -73 105 -204z" />
    <glyph glyph-name="radical" unicode="&#x221a;" horiz-adv-x="549" 
d="M594 764h-57l-290 -784h-32l-156 431l-61 -22l-12 39l138 48l125 -346l252 681h93v-47z" />
    <glyph glyph-name="approxequal" unicode="&#x2248;" horiz-adv-x="549" 
d="M531 297q-81 -54 -146 -54q-34 0 -105.5 23.5t-109.5 23.5q-60 0 -152 -65v69q86 56 157 56q38 0 84 -14q29 -10 88 -28q21 -5 43 -5q54 0 141 63v-69zM531 178q-79 -54 -146 -54q-32 0 -105.5 23.5t-114.5 23.5q-55 0 -147 -65v69q89 57 158 57q35 0 84 -15l81 -25
q26 -8 49 -8q53 0 141 64v-70z" />
    <glyph glyph-name="approxequal" unicode="&#x22f2;" horiz-adv-x="549" 
d="M531 297q-81 -54 -146 -54q-34 0 -105.5 23.5t-109.5 23.5q-60 0 -152 -65v69q86 56 157 56q38 0 84 -14q29 -10 88 -28q21 -5 43 -5q54 0 141 63v-69zM531 178q-79 -54 -146 -54q-32 0 -105.5 23.5t-114.5 23.5q-55 0 -147 -65v69q89 57 158 57q35 0 84 -15l81 -25
q26 -8 49 -8q53 0 141 64v-70z" />
    <glyph glyph-name="Delta" unicode="&#x394;" horiz-adv-x="612" 
d="M595 0h-574l276 672h22zM471 32l-198 491l-201 -491h399z" />
    <glyph glyph-name="Delta" unicode="&#x2206;" horiz-adv-x="612" 
d="M595 0h-574l276 672h22zM471 32l-198 491l-201 -491h399z" />
    <glyph glyph-name="lozenge" unicode="&#x25ca;" horiz-adv-x="494" 
d="M491 289l-244 -522l-244 522l244 518zM435 289l-188 399l-188 -399l188 -403z" />
    <glyph glyph-name="fraction" unicode="&#x2044;" horiz-adv-x="167" 
d="M324 746l-426 -838h-55l427 838h54z" />
    <glyph glyph-name="fi" unicode="&#xf001;" horiz-adv-x="591" 
d="M512 524l-3 -530h-111l-11 483zM515 700l-51 -77q-40 55 -105 55t-102 -61.5t-37 -174.5q0 -5 1 -14v-15h132l-8 -56h-123v-355h-117v355h-107l8 55h100v17q0 158 65 241t187 83q93 0 157 -53z" />
    <glyph glyph-name="fl" unicode="&#xf002;" horiz-adv-x="588" 
d="M600 8l-106 -27q-69 15 -91 117q-16 78 -16 303q0 114 4 281q-14 2 -21 2q-77 0 -111.5 -64.5t-37.5 -206.5h130l-7 -56h-122v-355h-117v355h-107l8 56h98q2 175 67 257.5t201 82.5q104 0 149 -39q-10 -225 -10 -375v-12q0 -158 12 -211q17 -79 77 -108z" />
    <glyph glyph-name="apple" unicode="&#xf000;" horiz-adv-x="790" 
d="M566 808q0 -52 -2 -62q-8 -42 -34 -68q-30 -30 -68 -53q-7 -4 -56 -9q-3 30 6 52.5t34 67.5q28 35 54 48q38 19 66 24zM733 213q-61 -131 -109 -174q-14 -12 -27 -24q-17 -11 -47 -16q-8 -1 -17 -1q-29 0 -55 12q-43 20 -69 20q-25 0 -69 -20q-27 -13 -53 -13q-9 0 -18 2
q-37 7 -63 30q-60 54 -109 160q-41 89 -41 190q0 23 3 41q20 108 86 160q51 40 132 40q27 0 69 -16t63 -16q22 0 47 11q36 14 42 16q18 5 44 5q81 0 132 -40q14 -11 38 -38q-47 -34 -67 -68q-27 -46 -26 -100q1 -56 33 -98q23 -31 43 -44q19 -9 38 -19z" />
    <glyph glyph-name="dotlessi" unicode="&#x131;" horiz-adv-x="247" 
d="M184 490l-2 -496h-111l-15 473z" />
    <glyph glyph-name="breve" unicode="&#x2d8;" 
d="M364 653q-17 -114 -114 -114q-100 0 -114 114h44q6 -71 70 -71q59 0 70 71h44z" />
    <glyph glyph-name="dotaccent" unicode="&#x2d9;" 
d="M299 591q0 -20 -14 -34.5t-35 -14.5t-35 14t-14 35t14.5 35t34.5 14t34.5 -14.5t14.5 -34.5z" />
    <glyph glyph-name="ring" unicode="&#x2da;" 
d="M329 594q0 -33 -23 -56t-56 -23q-34 0 -56.5 22.5t-22.5 56.5t23 56.5t56 22.5t56 -23t23 -56zM295 594q0 19 -13.5 32.5t-31.5 13.5t-32 -13.5t-14 -32.5t13.5 -32.5t32.5 -13.5q18 0 31.5 14t13.5 32z" />
    <glyph glyph-name="hungarumlaut" unicode="&#x2dd;" 
d="M407 656q0 -24 -49 -68l-76 -68l-16 8l50 97q29 56 63 56q28 0 28 -25zM306 656q0 -24 -49 -68l-75 -68l-16 8l50 97q29 56 62 56q28 0 28 -25z" />
    <glyph glyph-name="ogonek" unicode="&#x2db;" 
d="M321 -206h-13q-130 0 -130 82q0 29 41 73q21 22 24 28q13 17 16 39h27v-2q0 -24 -23 -64t-23 -65q0 -68 81 -73v-18z" />
    <glyph glyph-name="caron" unicode="&#x2c7;" 
d="M379 666l-114 -145h-30l-114 145l34 8l95 -86l95 86z" />
    <glyph glyph-name="glyph249" horiz-adv-x="223" 
 />
    </font>
</defs>
</svg>
