<?xml version="1.0" standalone="no"?>
<!DOCTYPE svg PUBLIC "-//W3C//DTD SVG 1.1//EN" "http://www.w3.org/Graphics/SVG/1.1/DTD/svg11.dtd" >
<svg xmlns="http://www.w3.org/2000/svg" xmlns:xlink="http://www.w3.org/1999/xlink" version="1.1">
<metadata>
Created by FontForge 20141024 at Wed Mar 16 07:01:35 2016
 By Jimmy Warting
Copyright 1987, 1990, 1994, 2001, 2002 Adobe Systems Incorporated. All rights reserved. Hobo
</metadata>
<defs>
<font id="HoboStd" horiz-adv-x="580" >
  <font-face 
    font-family="Hobo Std"
    font-weight="500"
    font-stretch="normal"
    units-per-em="1000"
    panose-1="2 11 8 3 4 7 9 2 2 4"
    ascent="853"
    descent="-147"
    x-height="640"
    cap-height="832"
    bbox="-123 -315 1264 1101"
    underline-thickness="50"
    underline-position="-50"
    stemh="118"
    stemv="135"
    unicode-range="U+0020-FB02"
  />
<missing-glyph horiz-adv-x="500" 
d="M0 0v700h500v-700h-500zM250 395l170 255h-340zM280 350l170 -255v510zM80 50h340l-170 255zM50 605v-510l170 255z" />
    <glyph glyph-name="f_i" unicode="fi" horiz-adv-x="604" 
d="M505 0h-68c-49 0 -53 -21 -53 331c0 89 1 142 3 167c0 25 -32 38 -60 38h-47c-55 0 -53 -68 -53 -107c0 -132 37 -398 37 -411c0 -22 -14 -18 -32 -18h-107c-15 0 -33 -30 -33 299c0 50 3 100 3 150c0 30 9 87 -36 87c-18 0 -28 -12 -39 -12c-13 0 -12 13 -12 31
c0 76 22 85 60 85c45 0 45 67 59 112c19 62 81 101 133 101c69 0 195 0 195 -34c0 -15 -22 -114 -44 -114c-19 0 -18 20 -119 20c-28 0 -47 -41 -47 -64c0 -14 10 -31 26 -31c72 0 45 10 227 10c22 0 33 -8 33 -20c0 -32 -12 -69 -12 -178c0 -252 39 -407 39 -416
c0 -32 -30 -26 -53 -26z" />
    <glyph glyph-name="f_l" unicode="fl" horiz-adv-x="594" 
d="M529 0h-102c-35 0 -34 335 -34 358c0 311 13 314 13 338c0 39 -41 29 -79 29c-77 0 -82 -41 -82 -64c0 -14 10 -26 25 -26c13 0 25 5 38 5c38 0 39 -27 39 -61c0 -14 0 -52 -21 -52c-8 0 -28 9 -46 9c-55 0 -53 -68 -53 -107c0 -132 37 -398 37 -411
c0 -22 -14 -18 -32 -18h-107c-15 0 -32 -30 -33 299c0 50 0 100 3 150c0 30 9 87 -36 87c-18 0 -28 -12 -39 -12c-13 0 -12 13 -12 31c0 76 22 85 60 85c45 0 45 67 59 112c19 62 81 101 173 101c205 0 270 -13 269 -34c1 -16 -41 -135 -41 -384c0 -275 38 -410 38 -423
c0 -17 -26 -12 -37 -12z" />
    <glyph glyph-name=".notdef" horiz-adv-x="500" 
d="M0 0v700h500v-700h-500zM250 395l170 255h-340zM280 350l170 -255v510zM80 50h340l-170 255zM50 605v-510l170 255z" />
    <glyph glyph-name="space" unicode=" " horiz-adv-x="290" 
 />
    <glyph glyph-name="exclam" unicode="!" horiz-adv-x="325" 
d="M161 -15c-62 0 -111 50 -111 111c0 60 50 109 110 109c63 0 114 -48 114 -110s-51 -110 -113 -110zM106 832h133c13 0 35 -2 35 -19c0 -16 -79 -153 -79 -293c0 -100 16 -220 16 -240c0 -10 -43 -14 -70 -14c-46 0 -91 312 -91 420c0 164 16 146 56 146z" />
    <glyph glyph-name="quotedbl" unicode="&#x22;" horiz-adv-x="333" 
d="M74 847c30 0 49 -17 49 -59c0 -24 -13 -151 -20 -226c-2 -16 -14 -31 -29 -31s-27 15 -29 31c-7 75 -20 202 -20 226c0 42 19 59 49 59zM259 847c30 0 49 -17 49 -59c0 -24 -13 -151 -20 -226c-2 -16 -14 -31 -29 -31s-27 15 -29 31c-7 75 -20 202 -20 226
c0 42 19 59 49 59z" />
    <glyph glyph-name="numbersign" unicode="#" horiz-adv-x="618" 
d="M191 0h-97l37 235h-100v103h115l25 140h-106v103h119l37 230h96l-37 -230h110l36 230h98l-36 -230h99v-103h-114l-25 -140h104v-103h-117l-39 -235h-95l36 235h-109zM242 338h110l24 140h-110z" />
    <glyph glyph-name="dollar" unicode="$" 
d="M315 297v-91c0 -23 0 -39 29 -39c48 0 80 36 80 79c0 39 -57 90 -89 90c-22 0 -20 -19 -20 -39zM243 590v56c0 29 5 49 -20 49c-45 0 -67 -44 -67 -85c0 -46 50 -86 69 -86c15 0 18 37 18 66zM243 215v93c0 51 2 62 -49 80c-99 36 -173 104 -173 213
c0 108 72 198 189 220c19 4 30 8 31 34c1 22 34 20 52 20c20 0 18 -9 18 -24c0 -27 35 -23 65 -28c16 -3 120 -21 120 -44c0 -8 -40 -125 -54 -125c-24 0 -49 41 -106 41c-25 0 -21 -34 -21 -50v-87c0 -47 3 -62 51 -80c117 -41 193 -117 193 -240
c0 -142 -92 -238 -209 -238c-22 0 -31 -16 -31 -40c0 -25 -16 -20 -37 -20c-19 0 -34 -5 -35 17c-1 33 -17 43 -51 43c-56 0 -161 49 -161 68c0 23 34 158 52 158c38 0 63 -59 129 -59c30 0 27 28 27 48z" />
    <glyph glyph-name="percent" unicode="%" horiz-adv-x="794" 
d="M594 103c40 0 59 68 59 114c0 45 -21 91 -59 91c-40 0 -59 -69 -59 -115c0 -45 21 -90 59 -90zM607 753l-306 -694c-11 -24 -28 -74 -81 -74c-10 0 -21 5 -21 16c0 19 24 79 32 99l239 623c45 118 57 124 123 124c15 0 41 -6 41 -27c0 -12 -13 -35 -27 -67zM594 -15
c-104 0 -154 107 -154 198c0 90 51 197 154 197c104 0 154 -107 154 -197c0 -91 -51 -198 -154 -198zM200 431c-104 0 -154 107 -154 198c0 90 51 197 154 197c104 0 154 -107 154 -197c0 -91 -51 -198 -154 -198zM200 549c40 0 59 68 59 114c0 45 -21 91 -59 91
c-40 0 -59 -69 -59 -115c0 -45 21 -90 59 -90z" />
    <glyph glyph-name="ampersand" unicode="&#x26;" horiz-adv-x="958" 
d="M295 328c-35 0 -83 -66 -83 -114c0 -50 49 -83 91 -83c36 0 99 25 99 53c0 16 -82 144 -107 144zM379 562c26 0 79 63 79 102c0 43 -26 65 -69 65s-73 -24 -73 -68c0 -29 29 -99 63 -99zM267 -15c-142 0 -217 81 -217 194c0 186 169 241 169 285c0 31 -65 92 -65 183
c0 63 36 200 249 200c152 0 201 -112 201 -169c0 -148 -155 -194 -155 -251c0 -27 44 -99 74 -104c32 0 92 152 280 152c56 0 105 -35 105 -93c0 -23 -19 -64 -42 -64c-21 0 -40 29 -77 29c-80 0 -169 -121 -169 -143s53 -41 80 -41c68 0 104 44 114 44c6 0 6 -9 6 -17
c0 -108 -62 -205 -169 -205c-91 0 -122 72 -160 72c-46 0 -81 -72 -224 -72z" />
    <glyph glyph-name="quoteright" unicode="&#x2019;" horiz-adv-x="340" 
d="M70 761l83 67c11 8 23 19 38 19c56 0 99 -61 99 -113c0 -115 -122 -163 -180 -163c-3 0 -8 2 -8 5c0 4 26 35 26 76c0 84 -78 80 -78 90c0 5 17 17 20 19z" />
    <glyph glyph-name="parenleft" unicode="(" horiz-adv-x="461" 
d="M75 440c0 266 74 407 223 407c68 0 88 -115 88 -128c0 -4 -2 -7 -28 -7c-151 0 -165 -132 -165 -306c0 -259 59 -373 59 -385c0 -15 -51 -36 -73 -36c-36 0 -104 245 -104 455z" />
    <glyph glyph-name="parenright" unicode=")" horiz-adv-x="461" 
d="M386 392c0 -266 -74 -407 -223 -407c-68 0 -88 115 -88 128c0 4 2 7 28 7c151 0 165 132 165 306c0 259 -59 373 -59 385c0 15 51 36 73 36c36 0 104 -245 104 -455z" />
    <glyph glyph-name="asterisk" unicode="*" horiz-adv-x="647" 
d="M374 720c37 23 92 42 104 42c13 0 41 -87 41 -97c0 -18 -43 -22 -126 -35c68 -71 80 -81 80 -89c0 -11 -81 -62 -90 -62c-14 0 -17 18 -59 92c-41 -71 -45 -92 -61 -92c-12 0 -89 48 -89 61c0 9 9 15 80 90c-83 12 -126 17 -126 32c0 13 23 100 40 100c6 0 12 -2 105 -42
l-10 105c0 32 17 28 35 28h51c19 0 35 4 35 -20z" />
    <glyph glyph-name="plus" unicode="+" 
d="M529 282h-192v-245h-93v245h-194v94h194v232h93v-232h192v-94z" />
    <glyph glyph-name="comma" unicode="," horiz-adv-x="290" 
d="M45 126l83 67c11 8 23 19 38 19c56 0 99 -61 99 -113c0 -115 -122 -163 -180 -163c-3 0 -8 2 -8 5c0 4 26 35 26 76c0 84 -78 80 -78 90c0 5 17 17 20 19z" />
    <glyph glyph-name="hyphen" unicode="-" horiz-adv-x="250" 
d="M194 251h-148c-16 0 -46 -5 -46 18c0 10 17 110 56 110h148c16 0 46 5 46 -18c0 -10 -17 -110 -56 -110z" />
    <glyph glyph-name="period" unicode="." horiz-adv-x="290" 
d="M144 -15c-62 0 -111 50 -111 111c0 60 50 109 110 109c63 0 114 -48 114 -110s-51 -110 -113 -110z" />
    <glyph glyph-name="slash" unicode="/" horiz-adv-x="527" 
d="M454 753l-306 -694c-11 -24 -28 -74 -81 -74c-10 0 -21 5 -21 16c0 19 24 79 32 99l239 623c45 118 57 124 123 124c15 0 41 -6 41 -27c0 -12 -13 -35 -27 -67z" />
    <glyph glyph-name="zero" unicode="0" 
d="M290 -15c-134 0 -257 133 -257 420s123 421 257 421s257 -134 257 -421s-123 -420 -257 -420zM290 163c52 0 111 62 111 258c0 237 -61 270 -111 270s-111 -33 -111 -270c0 -196 59 -258 111 -258z" />
    <glyph glyph-name="one" unicode="1" 
d="M211 226c0 151 11 275 11 390c0 86 -82 81 -82 115c0 24 79 95 184 95c21 0 61 -12 61 -40c0 -19 -28 -141 -28 -301c0 -136 33 -298 33 -473c0 -17 -98 -27 -150 -27c-18 0 -29 -6 -29 241z" />
    <glyph glyph-name="two" unicode="2" 
d="M213 183c0 -18 11 -23 20 -23c13 0 25 12 58 12c53 0 95 -20 121 -20c38 0 70 35 70 84c0 23 -15 45 -4 45c8 0 56 -56 56 -126c0 -100 -84 -170 -146 -170c-49 0 -128 27 -173 27c-50 0 -105 -27 -130 -27c-32 0 -39 26 -39 54c0 347 338 391 338 546
c0 56 -25 106 -86 106c-104 0 -145 -157 -164 -157c-10 0 -71 110 -71 121c0 51 90 171 232 171c136 0 235 -77 235 -215c0 -248 -317 -321 -317 -428z" />
    <glyph glyph-name="three" unicode="3" 
d="M130 811h330c26 0 59 7 59 -29c0 -164 -151 -257 -151 -279c0 -26 166 -39 166 -233c0 -156 -100 -285 -262 -285c-145 0 -226 100 -226 113c0 8 94 136 104 136c21 0 50 -71 134 -71c57 0 104 60 104 115c0 92 -86 132 -198 132c-13 0 -35 5 -35 21
c0 39 190 205 190 235c0 18 -30 17 -48 17c-79 0 -162 -36 -181 -36c-15 0 -36 120 -36 142c0 27 31 22 50 22z" />
    <glyph glyph-name="four" unicode="4" 
d="M431 10c0 -17 -86 -25 -126 -25c-24 0 -31 8 -30 38c0 60 17 115 17 183c0 22 -18 25 -36 25c-70 0 -160 -33 -185 -33c-46 0 -50 50 -50 96c0 186 236 517 295 517h110c8 0 35 0 35 -19c0 -18 -285 -255 -285 -428c0 -12 5 -15 22 -15c22 0 103 16 113 61
c40 174 125 245 158 245c6 0 10 -5 10 -10c0 -9 -32 -84 -32 -180c0 -79 14 -84 78 -84c36 0 38 14 38 -113c0 -28 -2 -39 -13 -39c-19 0 -50 10 -74 10c-35 0 -49 -9 -49 -100c0 -45 4 -73 4 -129z" />
    <glyph glyph-name="five" unicode="5" 
d="M142 811h337c9 0 20 -1 20 -12c0 -13 -11 -131 -29 -131c-25 0 -65 15 -160 15c-19 0 -47 -2 -65 -9c-17 -7 -44 -75 -44 -128c0 -23 6 -39 21 -39c8 0 28 17 96 17c141 0 215 -120 215 -250c0 -185 -118 -289 -282 -289c-133 0 -204 74 -204 96c0 8 61 155 78 155
c29 0 39 -73 144 -73c70 0 118 44 118 113c0 74 -49 130 -123 130c-71 0 -106 -49 -133 -49c-26 0 -59 13 -59 72c0 151 28 382 70 382z" />
    <glyph glyph-name="six" unicode="6" 
d="M294 152c75 0 118 61 118 130c0 64 -36 123 -108 123c-70 0 -125 -53 -125 -121c0 -63 48 -132 115 -132zM384 826c21 0 121 -9 121 -44c0 -8 -42 -125 -57 -125c-19 0 -37 34 -92 34c-87 0 -170 -111 -170 -180c0 -9 7 -22 17 -22c17 0 70 44 144 44
c130 0 200 -138 200 -253c0 -210 -148 -295 -254 -295c-144 0 -260 117 -260 382c0 288 140 459 351 459z" />
    <glyph glyph-name="seven" unicode="7" 
d="M103 811h391c28 0 26 -5 26 -86c0 -38 -3 -39 -24 -73c-142 -230 -186 -313 -186 -429c0 -62 26 -120 98 -120c16 0 23 7 31 7c4 0 6 -4 6 -8c0 -33 -51 -117 -153 -117c-99 0 -160 89 -160 181c0 247 242 444 242 497c0 24 -39 20 -57 20h-84c-118 0 -118 -77 -142 -77
c-14 0 -14 21 -15 30l-16 157c0 22 30 18 43 18z" />
    <glyph glyph-name="eight" unicode="8" 
d="M285 -15c-132 0 -260 65 -260 202c0 147 117 189 117 229c0 44 -82 74 -82 194c0 142 104 216 235 216c147 0 219 -101 219 -192c0 -109 -94 -148 -94 -182c0 -41 135 -79 135 -223c0 -164 -116 -244 -270 -244zM284 152c59 0 109 30 109 79c0 62 -60 120 -105 120
c-58 0 -101 -65 -101 -119c0 -48 36 -80 97 -80zM284 708c-47 0 -89 -39 -89 -87c0 -68 65 -119 93 -119c34 0 91 56 91 117c0 52 -44 89 -95 89z" />
    <glyph glyph-name="nine" unicode="9" 
d="M286 691c-75 0 -118 -61 -118 -130c0 -64 36 -123 108 -123c70 0 125 53 125 121c0 63 -48 132 -115 132zM196 -15c-21 0 -121 9 -121 44c0 8 42 157 57 157c19 0 37 -34 92 -34c87 0 170 111 170 180c0 9 -7 22 -17 22c-17 0 -70 -44 -144 -44c-130 0 -200 106 -200 221
c0 210 148 295 254 295c144 0 260 -117 260 -382c0 -288 -140 -459 -351 -459z" />
    <glyph glyph-name="colon" unicode=":" horiz-adv-x="290" 
d="M144 -15c-62 0 -111 50 -111 111c0 60 50 109 110 109c63 0 114 -48 114 -110s-51 -110 -113 -110zM144 435c-62 0 -111 50 -111 111c0 60 50 109 110 109c63 0 114 -48 114 -110s-51 -110 -113 -110z" />
    <glyph glyph-name="semicolon" unicode=";" horiz-adv-x="290" 
d="M45 126l83 67c11 8 23 19 38 19c56 0 99 -61 99 -113c0 -115 -122 -163 -180 -163c-3 0 -8 2 -8 5c0 4 26 35 26 76c0 84 -78 80 -78 90c0 5 17 17 20 19zM144 435c-62 0 -111 50 -111 111c0 60 50 109 110 109c63 0 114 -48 114 -110s-51 -110 -113 -110z" />
    <glyph glyph-name="less" unicode="&#x3c;" 
d="M528 23l-475 258v98l474 257v-106l-389 -198v-2l390 -199v-108z" />
    <glyph glyph-name="equal" unicode="=" 
d="M529 404h-478v93h478v-93zM529 161h-478v94h478v-94z" />
    <glyph glyph-name="greater" unicode="&#x3e;" 
d="M53 636l475 -257v-98l-474 -258v108l389 198v3l-390 198v106z" />
    <glyph glyph-name="question" unicode="?" horiz-adv-x="480" 
d="M132 305v72c0 147 152 132 152 256c0 41 -22 86 -69 86c-57 0 -71 -62 -87 -62c-11 0 -78 77 -78 89c0 32 76 101 168 101c127 0 212 -114 212 -235c0 -181 -198 -223 -198 -300c0 -44 -9 -38 -53 -38c-33 0 -47 -6 -47 31zM184 -15c-62 0 -111 50 -111 111
c0 60 50 109 110 109c63 0 114 -48 114 -110s-51 -110 -113 -110z" />
    <glyph glyph-name="at" unicode="@" horiz-adv-x="873" 
d="M591 -39l25 -69c-70 -40 -132 -52 -211 -52c-215 0 -359 164 -359 396c0 244 162 465 432 465c236 0 355 -169 355 -360c0 -187 -99 -291 -216 -291c-62 0 -97 42 -102 111h-3c-29 -60 -85 -111 -154 -111c-73 0 -125 66 -125 163c0 165 109 290 265 290
c53 0 109 -14 141 -33l-36 -208c-16 -90 -2 -125 34 -126c43 0 111 54 111 205c0 163 -99 288 -284 288c-149 0 -329 -148 -329 -387c0 -204 130 -328 285 -328c61 0 119 15 171 47zM496 298l22 111c-8 4 -27 8 -43 8c-56 0 -115 -71 -115 -168c0 -41 14 -74 51 -74
c38 0 72 60 85 123z" />
    <glyph glyph-name="A" unicode="A" horiz-adv-x="698" 
d="M592 0h-112c-9 0 -38 -3 -38 12c0 28 77 128 77 242c0 45 -43 62 -88 62c-91 0 -236 -16 -236 -130c0 -79 65 -164 65 -179c0 -6 -6 -7 -19 -7h-143c-51 0 -65 90 -65 220c0 428 297 627 341 627c33 0 291 -143 291 -607c0 -267 -43 -240 -73 -240zM378 676
c-54 0 -161 -159 -161 -232c0 -12 7 -19 19 -19c18 0 115 26 203 26c35 0 51 5 51 33c0 62 -74 192 -112 192z" />
    <glyph glyph-name="B" unicode="B" horiz-adv-x="662" 
d="M406 0h-301c-25 0 -55 -19 -55 356c0 494 52 476 69 476h259c177 0 204 -82 204 -146c0 -110 -114 -174 -114 -205c0 -35 161 -116 161 -288c0 -98 -59 -193 -223 -193zM310 388l-65 -35c-27 -15 -43 -21 -43 -54c0 -152 38 -171 120 -171c72 0 145 28 145 106
c0 71 -88 171 -115 171c-13 0 -31 -11 -42 -17zM276 491l73 52c29 21 71 70 71 111c0 48 -42 60 -80 60c-99 0 -144 -43 -144 -199c0 -20 -2 -46 26 -46c12 0 38 11 54 22z" />
    <glyph glyph-name="C" unicode="C" horiz-adv-x="645" 
d="M358 -15c-227 0 -333 206 -333 408c0 217 122 454 365 454c87 0 221 -37 221 -145c0 -58 -40 -91 -103 -91c-41 0 14 94 -113 94c-146 0 -208 -149 -208 -274c0 -191 130 -268 217 -268c163 0 177 146 186 146c14 0 22 -80 22 -90c0 -148 -114 -234 -254 -234z" />
    <glyph glyph-name="D" unicode="D" horiz-adv-x="670" 
d="M364 0h-259c-25 0 -55 -19 -55 356c0 494 52 476 69 476h170c127 0 356 -139 356 -514c0 -173 -79 -318 -281 -318zM206 522v-143c0 -225 66 -251 122 -251c54 0 155 51 155 231c0 247 -128 355 -193 355c-70 0 -84 -129 -84 -192z" />
    <glyph glyph-name="E" unicode="E" horiz-adv-x="597" 
d="M551 0h-459c-53 -2 -37 33 -42 236c0 134 55 596 84 596h394c12 0 48 3 48 -17c0 -8 -64 -148 -77 -148c-17 0 -47 47 -145 47c-69 0 -142 -41 -142 -137c0 -21 4 -57 32 -57c32 0 103 47 187 47c12 0 45 -4 45 -21c0 -1 -56 -164 -68 -164c-10 0 -48 20 -87 20
c-51 0 -125 -37 -125 -136c0 -80 42 -138 126 -138c99 0 160 66 184 66c15 0 82 -169 82 -179c0 -19 -25 -15 -37 -15z" />
    <glyph glyph-name="F" unicode="F" horiz-adv-x="548" 
d="M119 832h409c12 0 48 3 48 -17c0 -8 -64 -148 -77 -148c-17 0 -47 47 -145 47c-69 0 -142 -41 -142 -137c0 -60 3 -79 32 -79c65 0 71 46 203 46c11 0 34 0 34 -17c0 -5 -39 -161 -56 -161c-10 0 -37 14 -76 14c-88 0 -132 -51 -132 -133c0 -87 40 -227 39 -238
c1 -12 -24 -9 -33 -9h-118c-25 0 -55 -19 -55 356c0 494 52 476 69 476z" />
    <glyph glyph-name="G" unicode="G" horiz-adv-x="659" 
d="M372 -15c-232 0 -347 160 -347 383c0 236 131 479 370 479c87 0 221 -37 221 -145c0 -58 -40 -91 -103 -91c-41 0 14 94 -113 94c-158 0 -213 -179 -213 -318c0 -109 31 -224 162 -224c62 0 129 26 129 96c0 81 -79 88 -79 114c0 13 172 75 184 75c20 0 43 -244 43 -274
c0 -131 -130 -189 -254 -189z" />
    <glyph glyph-name="H" unicode="H" horiz-adv-x="711" 
d="M629 0h-144c-10 0 -37 -1 -37 15c0 5 1 10 3 14c35 92 64 186 64 285c0 68 -27 91 -94 91c-101 0 -209 -48 -209 -164c0 -72 13 -150 41 -216c2 -4 4 -11 4 -15c0 -14 -24 -10 -32 -10h-147c-28 0 -28 288 -28 331c0 73 20 501 68 501h136c6 0 30 3 30 -9
c0 -13 -68 -158 -68 -264c0 -25 9 -49 24 -49c31 0 31 30 167 30c49 0 88 -11 88 31c0 95 -88 238 -88 251s30 10 36 10h131c38 0 87 -288 87 -501c0 -48 0 -331 -32 -331z" />
    <glyph glyph-name="I" unicode="I" horiz-adv-x="327" 
d="M239 0h-122c-25 0 -55 -19 -55 356c0 494 52 476 69 476h108c13 0 38 3 38 -16c0 -10 -53 -177 -53 -370c0 -256 50 -421 50 -435c0 -10 -6 -11 -15 -11h-20z" />
    <glyph glyph-name="J" unicode="J" horiz-adv-x="400" 
d="M167 832h131c20 0 52 28 52 -511c0 -364 -186 -336 -201 -336c-78 0 -149 55 -149 81c0 47 41 157 63 157c16 0 33 -71 64 -71c30 0 61 -30 61 225c0 274 -51 430 -51 442c0 17 18 13 30 13z" />
    <glyph glyph-name="K" unicode="K" horiz-adv-x="652" 
d="M469 832h96c10 0 32 4 32 -12c0 -149 -170 -305 -170 -325c0 -22 192 -181 192 -474c0 -27 -21 -21 -43 -21h-122c-25 0 -22 29 -22 40c-5 227 -93 334 -110 334c-24 0 -110 -74 -110 -131c0 -40 34 -218 34 -226c0 -12 -8 -17 -19 -17h-122c-25 0 -55 -19 -55 356
c0 494 52 476 69 476h101c13 0 34 3 34 -16c0 -1 -49 -144 -49 -288c0 -11 -3 -63 17 -63c22 0 170 172 218 340c7 22 6 26 29 27z" />
    <glyph glyph-name="L" unicode="L" horiz-adv-x="551" 
d="M499 0h-407c-53 -2 -37 33 -42 236c0 134 55 596 84 596h159c7 0 19 -2 19 -20c0 -22 -116 -237 -116 -513c0 -138 60 -171 115 -171c92 0 148 85 173 85c19 0 58 -193 58 -198c0 -20 -31 -15 -43 -15z" />
    <glyph glyph-name="M" unicode="M" horiz-adv-x="867" 
d="M212 0h-107c-25 0 -55 -19 -55 356c0 494 52 476 69 476h92c39 0 53 0 102 -67c94 -129 100 -202 120 -202c15 0 21 73 127 202c56 68 71 67 110 67h78c17 0 69 18 69 -476c0 -375 -30 -356 -55 -356h-128c-12 0 -36 -3 -36 15c0 14 57 194 57 455c0 21 3 144 -30 144
c-29 0 -67 -99 -77 -123c-84 -205 -50 -299 -117 -299c-84 0 -51 94 -140 299c-10 22 -43 123 -74 123c-33 0 -32 -123 -32 -144c0 -261 63 -441 63 -455c0 -18 -24 -15 -36 -15z" />
    <glyph glyph-name="N" unicode="N" horiz-adv-x="709" 
d="M604 0h-105c-69 0 -7 62 -163 378c-13 27 -101 195 -133 195c-25 0 -18 -109 -18 -129c0 -282 41 -384 41 -435c0 -13 -19 -9 -28 -9h-93c-25 0 -55 -19 -55 356c0 494 52 476 69 476h79c38 0 114 -80 301 -426c3 -5 8 -18 17 -18c10 0 8 43 8 57c0 187 -51 353 -51 376
c0 14 22 11 41 11h76c22 0 69 18 69 -476c0 -375 -30 -356 -55 -356z" />
    <glyph glyph-name="O" unicode="O" horiz-adv-x="712" 
d="M406 -15h-100c-202 0 -281 145 -281 318c0 257 144 544 331 544s331 -287 331 -544c0 -173 -79 -318 -281 -318zM356 163c106 0 169 45 169 162c0 221 -102 360 -169 360s-169 -139 -169 -360c0 -117 63 -162 169 -162z" />
    <glyph glyph-name="P" unicode="P" horiz-adv-x="624" 
d="M243 427c52 0 219 123 219 195c0 69 -60 92 -120 92c-72 0 -131 -11 -130 -241c0 -24 2 -46 31 -46zM119 832h307c164 0 198 -119 198 -178c0 -268 -391 -307 -391 -433c0 -84 35 -206 35 -212c0 -12 -23 -9 -30 -9h-133c-25 0 -55 -19 -55 356c0 494 52 476 69 476z" />
    <glyph glyph-name="Q" unicode="Q" horiz-adv-x="723" 
d="M630 -13l-83 71c-45 -51 -131 -73 -186 -73c-170 0 -311 124 -311 417c0 199 67 445 311 445s311 -246 311 -445c1 -66 -17 -162 -54 -242c48 -44 72 -88 72 -154c0 -11 1 -48 -17 -48c-14 0 -33 20 -43 29zM361 705c-130 0 -149 -178 -149 -279c0 -192 59 -274 149 -274
c11 0 32 1 49 12c-60 45 -99 107 -99 184c0 7 4 55 15 55c16 0 16 -14 16 -17c20 -59 82 -90 146 -124c18 58 22 119 22 179c0 98 -14 264 -149 264z" />
    <glyph glyph-name="R" unicode="R" horiz-adv-x="664" 
d="M243 447c34 0 212 89 212 181c0 63 -59 86 -113 86c-91 0 -131 -33 -130 -206c0 -21 1 -61 31 -61zM119 832h265c186 0 233 -102 233 -187c0 -160 -150 -209 -150 -237s180 -159 180 -395c0 -11 -4 -13 -25 -13h-113c-18 0 -49 -3 -49 13c0 113 -80 316 -138 316
c-30 0 -103 -41 -103 -97c0 -76 37 -213 37 -220c0 -17 -25 -12 -35 -12h-116c-25 0 -55 -19 -55 356c0 494 52 476 69 476z" />
    <glyph glyph-name="S" unicode="S" horiz-adv-x="646" 
d="M488 622c-25 0 -64 90 -168 90c-50 0 -114 -25 -114 -83c0 -72 99 -100 154 -119c210 -70 253 -171 253 -266c0 -116 -83 -259 -294 -259c-142 0 -286 76 -286 235c0 85 51 135 61 135c17 0 0 -203 215 -203c76 0 142 33 142 95c0 73 -90 103 -148 121
c-219 68 -243 167 -243 252c0 84 57 227 260 227c145 0 248 -77 248 -106c0 -28 -52 -119 -80 -119z" />
    <glyph glyph-name="T" unicode="T" horiz-adv-x="626" 
d="M371 0h-105c-19 0 -63 -40 -63 250c0 223 44 365 44 402c0 30 5 48 -20 48c-71 0 -196 -115 -213 -115c-9 0 -14 -4 -14 24c0 31 27 155 42 183c10 19 145 55 280 55c161 0 304 -43 304 -90c0 -44 -49 -139 -60 -139c-17 0 -58 83 -130 83c-61 0 -71 -191 -71 -283
c0 -257 55 -383 55 -401c0 -22 -36 -17 -49 -17z" />
    <glyph glyph-name="U" unicode="U" horiz-adv-x="673" 
d="M483 832h98c20 0 59 -16 59 -376c0 -294 -90 -471 -304 -471c-188 0 -303 145 -303 444c0 320 38 403 51 403h139c10 0 22 0 22 -13c0 -23 -50 -129 -50 -359c0 -227 82 -297 141 -297c50 0 158 13 158 287c0 260 -49 351 -49 369c0 16 29 13 38 13z" />
    <glyph glyph-name="V" unicode="V" horiz-adv-x="644" 
d="M453 832h116c23 0 58 -80 58 -263c0 -345 -247 -593 -307 -593c-20 0 -303 158 -303 613c0 238 36 243 54 243h114c12 0 47 3 47 -16c0 -26 -53 -86 -53 -297c0 -179 117 -326 141 -326c52 0 161 147 161 326c0 211 -66 271 -66 297c0 19 26 16 38 16z" />
    <glyph glyph-name="W" unicode="W" horiz-adv-x="851" 
d="M687 832h92c26 0 56 15 56 -167c0 -385 -227 -689 -246 -689c-44 0 -146 264 -179 264s-135 -264 -179 -264c-19 0 -215 254 -215 597c0 274 19 259 40 259h124c10 0 23 -1 23 -14c0 -10 -29 -80 -29 -212c0 -246 60 -361 83 -361c31 0 113 142 113 380
c0 133 -18 181 -18 194c0 12 6 13 17 13h130c13 0 25 -2 25 -17c0 -17 -19 -76 -19 -187c0 -223 57 -383 87 -383c38 0 108 176 108 344c0 106 -34 215 -34 228c0 16 12 15 21 15z" />
    <glyph glyph-name="X" unicode="X" horiz-adv-x="636" 
d="M572 0h-99c-35 0 -44 -6 -48 34l-3 43c-15 170 -85 241 -104 241c-18 0 -111 -61 -131 -265c-7 -53 -2 -53 -47 -53h-74c-14 0 -41 -5 -41 15c0 260 196 365 196 418c0 62 -155 127 -155 372c0 31 26 27 49 27h110c24 -3 22 6 28 -68c13 -172 72 -233 93 -233
c36 0 82 125 82 209c0 13 -3 67 -3 73c0 27 29 19 41 19h78c46 1 45 -21 45 -59c0 -241 -134 -285 -134 -340c0 -47 156 -158 156 -403c0 -34 -6 -30 -39 -30z" />
    <glyph glyph-name="Y" unicode="Y" horiz-adv-x="644" 
d="M505 832h75c40 0 48 -14 48 -53c0 -315 -264 -380 -264 -696c0 -22 6 -43 6 -64s-31 -19 -46 -19h-116c-27 0 -31 38 -31 58c0 120 67 207 67 241c0 35 -228 192 -228 457c0 75 14 76 59 76h80c19 0 57 2 57 -26c0 -8 -9 -61 -9 -78c0 -143 98 -272 128 -272
c29 0 143 158 143 277c0 32 -9 74 -9 82c0 21 26 17 40 17z" />
    <glyph glyph-name="Z" unicode="Z" horiz-adv-x="620" 
d="M535 0h-452c-39 0 -67 -6 -67 42c0 235 328 559 328 629c0 35 -33 43 -62 43c-105 0 -130 -57 -149 -57c-25 0 -68 156 -68 166c0 13 33 9 40 9h460c17 0 39 -9 39 -32c0 -120 -364 -485 -364 -611c0 -44 54 -61 97 -61c104 0 143 73 165 73c19 0 78 -181 78 -186
c0 -9 -11 -15 -45 -15z" />
    <glyph glyph-name="bracketleft" unicode="[" horiz-adv-x="400" 
d="M208 0h-82c-55 0 -51 335 -51 358c0 47 -4 489 61 489h72c11 0 142 5 142 -12c0 -78 -157 82 -157 -400c0 -505 153 -345 153 -423c0 -17 -127 -12 -138 -12z" />
    <glyph glyph-name="backslash" unicode="\" horiz-adv-x="362" 
d="M352 -49h-97l-245 902h96z" />
    <glyph glyph-name="bracketright" unicode="]" horiz-adv-x="400" 
d="M274 0h-82c-11 0 -142 -5 -142 12c0 78 157 -82 157 423c0 482 -157 322 -157 400c0 17 131 12 142 12h72c65 0 61 -442 61 -489c0 -23 4 -358 -51 -358z" />
    <glyph glyph-name="asciicircum" unicode="^" horiz-adv-x="586" 
d="M542 362h-105l-146 344l-148 -344h-100l203 445h93z" />
    <glyph glyph-name="underscore" unicode="_" horiz-adv-x="500" 
d="M469 -195h-448c-16 0 -46 -5 -46 18c0 10 17 100 56 100h448c16 0 46 5 46 -18c0 -10 -17 -100 -56 -100z" />
    <glyph glyph-name="quoteleft" unicode="&#x2018;" horiz-adv-x="340" 
d="M270 657l-83 -67c-11 -8 -23 -19 -38 -19c-56 0 -99 61 -99 113c0 115 122 163 180 163c3 0 8 -2 8 -5c0 -4 -26 -35 -26 -76c0 -84 78 -80 78 -90c0 -5 -17 -17 -20 -19z" />
    <glyph glyph-name="a" unicode="a" horiz-adv-x="520" 
d="M331 197v44c0 35 6 77 -42 77c-59 0 -121 -50 -121 -111c0 -56 49 -89 102 -89c59 0 61 30 61 79zM33 184c0 126 124 213 236 232c29 5 52 10 52 43c0 51 -53 78 -97 78c-102 0 -87 -86 -109 -86c-32 0 -67 39 -67 82c0 74 83 122 175 122c32 0 169 1 220 -139
c21 -58 23 -354 23 -389c0 -44 8 -70 8 -104c0 -21 -94 -23 -183 -23c-241 0 -258 124 -258 184z" />
    <glyph glyph-name="b" unicode="b" horiz-adv-x="536" 
d="M259 167c98 0 121 115 121 189c0 164 -71 204 -113 204c-71 0 -85 -35 -85 -181c0 -216 51 -212 77 -212zM88 853h96c12 0 36 0 36 -22c0 -8 -30 -108 -30 -167c0 -16 3 -32 22 -32c11 0 25 5 41 11c17 5 37 12 58 12c85 0 204 -76 204 -287c0 -115 -29 -207 -102 -290
c-29 -34 -82 -78 -158 -78h-177c-35 0 -31 335 -31 358c0 47 -4 495 41 495z" />
    <glyph glyph-name="c" unicode="c" horiz-adv-x="488" 
d="M257 -15c-166 0 -236 157 -236 303c0 172 87 367 284 367c87 0 150 -47 150 -104c0 -30 -22 -88 -59 -88c-23 0 -19 74 -100 74c-103 0 -140 -136 -140 -220c0 -97 46 -178 141 -178c108 0 133 99 142 99c5 0 15 -18 15 -59c0 -120 -79 -194 -197 -194z" />
    <glyph glyph-name="d" unicode="d" horiz-adv-x="542" 
d="M267 146c108 0 94 154 94 226c0 176 -27 188 -64 188c-43 0 -141 -56 -141 -238c0 -69 26 -176 111 -176zM465 0h-234c-112 0 -210 99 -210 301c0 229 152 354 240 354c21 0 43 -23 57 -23c20 0 23 36 23 52c0 81 -25 117 -25 155c0 14 25 14 35 14h104
c45 0 41 -448 41 -495c0 -23 4 -358 -31 -358z" />
    <glyph glyph-name="e" unicode="e" horiz-adv-x="525" 
d="M274 -15c-179 0 -253 148 -253 308c0 242 134 362 268 362c110 0 203 -62 203 -180c0 -215 -322 -170 -322 -274c0 -47 76 -81 126 -81c164 0 164 125 178 125c15 0 18 -52 18 -60c0 -127 -98 -200 -218 -200zM284 537c-81 0 -128 -87 -128 -145c0 -11 5 -22 18 -22
c12 0 194 40 194 91c0 49 -46 76 -84 76z" />
    <glyph glyph-name="f" unicode="f" horiz-adv-x="358" 
d="M232 0h-107c-15 0 -33 -30 -33 299c0 50 3 100 3 150c0 30 9 87 -36 87c-18 0 -28 -12 -39 -12c-13 0 -12 13 -12 31c0 76 22 85 60 85c45 0 45 67 59 112c19 62 81 101 133 101c39 0 90 5 90 -24c0 -15 -12 -113 -29 -113c-14 0 -18 9 -29 9c-28 0 -47 -41 -47 -64
c0 -14 10 -26 25 -26c13 0 25 5 38 5c38 0 39 -27 39 -61c0 -14 0 -52 -21 -52c-8 0 -28 9 -46 9c-55 0 -53 -68 -53 -107c0 -132 37 -398 37 -411c0 -22 -14 -18 -32 -18z" />
    <glyph glyph-name="g" unicode="g" horiz-adv-x="556" 
d="M282 356c54 0 97 38 97 102s-43 102 -97 102s-97 -38 -97 -102c0 -59 38 -102 97 -102zM282 655c17 0 31 -2 42 -4c10 -2 17 -4 20 -4c46 0 73 92 113 92c27 0 82 -71 82 -87c0 -30 -93 0 -93 -52c0 -30 51 -50 51 -158c0 -104 -66 -214 -215 -214
c-55 0 -122 -34 -122 -63c0 -19 16 -34 34 -34c42 0 125 50 219 50c23 0 106 -22 106 -58c0 -26 -40 -138 -70 -138c-25 0 -26 50 -82 50c-30 0 -61 -12 -94 -25c-32 -12 -66 -25 -104 -25c-79 0 -144 46 -144 128c0 117 114 128 114 156c0 24 -72 68 -72 176
c0 131 81 210 215 210z" />
    <glyph glyph-name="h" unicode="h" horiz-adv-x="544" 
d="M107 853h109c9 0 16 -11 16 -21c0 -14 -38 -112 -38 -192c0 -12 0 -31 17 -31c8 0 24 9 46 22c23 12 51 24 84 24c91 0 158 -65 158 -306c0 -96 -14 -349 -45 -349h-104c-9 0 -36 -3 -36 13c0 7 50 205 50 338c0 155 -26 186 -75 186c-102 0 -104 -156 -104 -227
c0 -200 22 -265 22 -294c0 -16 -19 -16 -29 -16h-99c-29 0 -29 -34 -29 410c0 80 2 443 57 443z" />
    <glyph glyph-name="i" unicode="i" horiz-adv-x="266" 
d="M167 0h-68c-49 0 -53 -21 -53 331c0 342 16 309 49 309h55c42 0 43 -3 43 -15c0 -37 -12 -74 -12 -183c0 -252 39 -407 39 -416c0 -32 -30 -26 -53 -26zM134 718c-40 0 -77 23 -77 66s37 69 77 69s77 -26 77 -69s-37 -66 -77 -66z" />
    <glyph glyph-name="j" unicode="j" horiz-adv-x="302" 
d="M143 640h79c14 0 34 0 34 -394c0 -119 -21 -261 -167 -261c-27 0 -89 9 -89 46c0 31 10 127 37 127c16 0 22 -25 41 -25c20 0 43 8 43 167c0 100 -21 276 -21 321c0 23 27 19 43 19zM166 718c-40 0 -77 23 -77 66s37 69 77 69s77 -26 77 -69s-37 -66 -77 -66z" />
    <glyph glyph-name="k" unicode="k" horiz-adv-x="514" 
d="M193 0h-115c-35 0 -31 335 -31 358c0 47 -4 495 41 495h107c13 0 24 -6 24 -22c0 -20 -36 -112 -37 -372c0 -35 0 -80 13 -80c34 0 125 132 125 240c0 25 10 21 31 21h61c20 0 43 6 43 -22c0 -138 -109 -228 -109 -248c0 -21 41 -37 82 -88s82 -136 82 -255
c0 -30 -19 -27 -44 -27h-81c-27 0 -36 -1 -37 31c-1 138 -66 249 -96 249c-13 0 -59 -15 -59 -63c0 -122 25 -187 25 -205c0 -11 -10 -12 -25 -12z" />
    <glyph glyph-name="l" unicode="l" horiz-adv-x="257" 
d="M191 0h-105c-35 0 -31 335 -31 358c0 47 -4 495 41 495h95c11 0 41 3 41 -19c0 -6 -42 -150 -42 -399c0 -275 38 -410 38 -423c0 -17 -26 -12 -37 -12z" />
    <glyph glyph-name="m" unicode="m" horiz-adv-x="845" 
d="M180 0h-79c-34 0 -55 -32 -55 264c0 421 -13 408 123 408c21 0 43 -1 43 -16c0 -12 -12 -31 -12 -45c0 -10 10 -17 20 -17c12 0 26 12 48 23c22 12 52 23 94 23c49 0 81 -46 106 -46c14 0 34 3 59 18c25 14 56 28 92 28c184 0 180 -241 180 -369
c0 -305 -38 -271 -67 -271h-68c-10 0 -38 -2 -38 16s38 128 38 295c0 191 -68 211 -106 211c-35 0 -68 3 -68 -162c0 -359 -5 -360 -37 -360h-90c-19 0 -35 -4 -35 10c0 15 38 216 38 311c0 60 0 201 -82 201c-75 0 -103 -92 -103 -241c0 -201 28 -239 28 -267
c0 -17 -18 -14 -29 -14z" />
    <glyph glyph-name="n" unicode="n" horiz-adv-x="552" 
d="M441 0h-86c-13 0 -35 -3 -35 16c0 10 51 143 51 346c0 71 -6 160 -74 160c-38 0 -116 -25 -116 -223c0 -120 29 -274 29 -286c0 -14 -17 -13 -27 -13h-85c-37 0 -52 -17 -52 247c0 453 35 425 112 425c35 0 71 5 71 -18c0 -10 -9 -22 -9 -36c0 -10 5 -19 15 -19
c17 0 63 41 127 41c28 0 144 -4 144 -267c0 -393 -31 -373 -65 -373z" />
    <glyph glyph-name="o" unicode="o" horiz-adv-x="544" 
d="M272 -15c-115 0 -251 101 -251 336c0 161 77 334 251 334s251 -173 251 -334c0 -235 -136 -336 -251 -336zM272 152c101 0 127 114 127 194c0 79 -28 191 -127 191s-127 -112 -127 -191c0 -80 26 -194 127 -194z" />
    <glyph glyph-name="p" unicode="p" horiz-adv-x="525" 
d="M227 259c89 0 161 85 161 168c0 65 -53 110 -116 110c-53 0 -91 -4 -91 -203c0 -35 1 -75 46 -75zM173 0h-82c-31 0 -45 -9 -45 163v294c0 213 16 198 186 198c224 0 280 -105 280 -211c0 -156 -153 -313 -230 -313c-18 0 -37 24 -53 43c-16 18 -29 37 -36 37
c-10 0 -7 -18 -7 -36c0 -70 19 -150 19 -161c0 -16 -21 -14 -32 -14z" />
    <glyph glyph-name="q" unicode="q" horiz-adv-x="525" 
d="M298 259c45 0 46 40 46 75c0 199 -38 203 -91 203c-63 0 -116 -45 -116 -110c0 -83 72 -168 161 -168zM434 0h-82c-11 0 -32 -2 -32 14c0 11 19 91 19 161c0 18 3 36 -7 36c-7 0 -20 -19 -36 -37c-16 -19 -35 -43 -53 -43c-77 0 -230 157 -230 313c0 106 56 211 280 211
c170 0 186 15 186 -198v-294c0 -172 -14 -163 -45 -163z" />
    <glyph glyph-name="r" unicode="r" horiz-adv-x="426" 
d="M182 0h-80c-37 0 -55 -31 -55 300c0 277 -8 339 20 340h83c15 0 33 5 34 -14c2 -15 4 -34 24 -34c15 0 32 16 53 32c21 15 45 31 72 31c51 0 93 -44 93 -98c0 -70 -57 -112 -87 -112c-12 0 2 67 -67 67c-84 0 -90 -135 -90 -195c0 -199 34 -283 34 -301
c-1 -16 -23 -16 -34 -16z" />
    <glyph glyph-name="s" unicode="s" horiz-adv-x="517" 
d="M250 -15c-106 0 -211 62 -211 179c0 47 24 107 32 107c5 0 30 -151 172 -151c41 0 89 21 89 72c0 103 -270 76 -270 275c0 122 98 188 206 188c125 0 194 -75 194 -95c0 -19 -56 -100 -79 -100c-26 0 -32 77 -124 77c-31 0 -73 -14 -73 -44c0 -103 292 -101 292 -304
c0 -130 -108 -204 -228 -204z" />
    <glyph glyph-name="t" unicode="t" horiz-adv-x="363" 
d="M268 786c7 0 12 -2 12 -21c0 -27 -30 -88 -30 -100c0 -18 5 -30 20 -30c13 0 25 5 38 5c38 0 39 -27 39 -61c0 -14 0 -52 -21 -52c-8 0 -28 9 -46 9c-55 0 -55 -64 -55 -153c0 -266 56 -310 56 -327c0 -15 -116 -71 -139 -71c-38 0 -48 223 -48 278c0 123 6 171 6 190
c0 30 9 83 -36 83c-18 0 -28 -12 -39 -12c-13 0 -12 13 -12 31c0 76 22 85 60 85c4 0 11 -4 19 -4c31 0 34 49 39 84c5 38 117 66 137 66z" />
    <glyph glyph-name="u" unicode="u" horiz-adv-x="556" 
d="M374 640h93c42 0 43 -210 43 -305c0 -367 -26 -350 -98 -350c-105 0 -25 56 -82 56c-9 0 -32 -21 -50 -33c-18 -11 -41 -23 -74 -23c-83 0 -160 52 -160 338c0 17 7 317 49 317h92c13 0 40 5 40 -15c0 -15 -46 -115 -46 -304c0 -56 -1 -208 85 -208c33 0 109 10 109 225
c0 120 -35 274 -35 290c0 13 23 12 34 12z" />
    <glyph glyph-name="v" unicode="v" horiz-adv-x="516" 
d="M387 640h66c35 0 42 0 42 -57c0 -420 -217 -598 -250 -598c-23 0 -224 168 -224 624c0 29 4 31 31 31h77c14 0 43 5 43 -16c0 -23 -5 -44 -5 -88c0 -246 73 -343 96 -343c35 0 100 137 100 332c0 35 -6 63 -6 94c0 23 10 21 30 21z" />
    <glyph glyph-name="w" unicode="w" horiz-adv-x="722" 
d="M599 640h55c40 0 47 2 47 -99c0 -363 -197 -556 -221 -556c-28 0 -81 109 -93 134c-3 6 -23 56 -35 56c-10 0 -22 -27 -26 -35c-11 -23 -81 -155 -109 -155c-31 0 -196 216 -196 546c0 121 16 109 55 109h79c12 -1 23 0 23 -15c0 -9 -11 -34 -11 -124
c0 -171 47 -304 64 -304s85 67 82 320c0 36 -6 91 -6 107c0 12 4 16 15 16h99c9 -1 22 1 22 -14c0 -12 -9 -75 -9 -127c0 -187 48 -302 69 -302c24 0 74 142 74 291c0 66 -13 111 -13 137c0 18 22 15 35 15z" />
    <glyph glyph-name="x" unicode="x" horiz-adv-x="510" 
d="M446 0h-75c-21 0 -33 -3 -33 21c0 131 -73 219 -100 219c-26 0 -77 -81 -77 -194c0 -42 0 -46 -39 -46h-62c-28 0 -34 -4 -34 32c0 168 116 263 116 285c0 37 -104 97 -104 285c0 39 7 38 41 38h73c19 0 32 3 32 -21c0 -117 51 -198 80 -198c14 0 57 44 66 173
c8 46 0 46 43 46h50c28 0 42 1 42 -34c0 -161 -114 -234 -114 -260c0 -46 133 -90 133 -294c0 -52 -1 -52 -38 -52z" />
    <glyph glyph-name="y" unicode="y" horiz-adv-x="513" 
d="M26 23v88c0 12 2 41 29 41c115 0 145 37 145 50c0 42 -174 113 -174 391c0 45 -1 47 38 47h82c13 0 35 3 35 -18c0 -14 -9 -45 -9 -75c0 -117 98 -227 118 -227c40 0 67 120 67 197c0 50 -11 92 -11 108c0 18 25 15 36 15h89c19 -3 16 -35 16 -78
c9 -293 -217 -577 -437 -577c-23 0 -24 15 -24 38z" />
    <glyph glyph-name="z" unicode="z" horiz-adv-x="467" 
d="M397 0h-321c-26 0 -50 -5 -50 28c0 241 239 445 239 474c0 19 -33 20 -45 20c-85 0 -105 -26 -123 -26c-21 0 -42 119 -42 131c0 17 31 13 41 13h301c28 0 44 4 44 -31c0 -12 -1 -99 -12 -119c-33 -62 -225 -250 -225 -350c0 -20 12 -22 41 -22c117 0 131 31 147 31
c18 0 44 -119 44 -135c0 -15 -30 -14 -39 -14z" />
    <glyph glyph-name="braceleft" unicode="{" horiz-adv-x="400" 
d="M15 423c0 20 84 -28 84 247c0 187 60 177 125 177c22 0 151 5 151 -12c0 -65 -158 22 -158 -153c0 -58 12 -100 12 -161c0 -67 -66 -88 -66 -98s66 -31 66 -98c0 -61 -12 -103 -12 -160c0 -175 158 -88 158 -153c0 -17 -129 -12 -151 -12c-65 0 -125 -10 -125 177
c0 274 -84 226 -84 246z" />
    <glyph glyph-name="bar" unicode="|" horiz-adv-x="341" 
d="M103 946h133v-1261h-133v1261z" />
    <glyph glyph-name="braceright" unicode="}" horiz-adv-x="400" 
d="M385 423c0 -20 -84 28 -84 -246c0 -187 -60 -177 -125 -177c-22 0 -151 -5 -151 12c0 65 158 -22 158 153c0 57 -12 99 -12 160c0 67 66 88 66 98s-66 31 -66 98c0 61 12 103 12 161c0 175 -158 88 -158 153c0 17 129 12 151 12c65 0 125 10 125 -177
c0 -275 84 -227 84 -247z" />
    <glyph glyph-name="asciitilde" unicode="~" 
d="M486 412l54 -47c-31 -69 -85 -121 -147 -121c-42 0 -69 13 -117 44c-31 21 -55 38 -89 38c-46 0 -70 -42 -94 -80l-55 48c31 66 88 119 156 119c53 0 87 -25 112 -39c37 -23 60 -41 89 -41c40 0 64 34 91 79z" />
    <glyph glyph-name="exclamdown" unicode="&#xa1;" horiz-adv-x="325" 
d="M161 847c62 0 113 -48 113 -110s-51 -110 -114 -110c-60 0 -110 49 -110 109c0 61 49 111 111 111zM218 0h-133c-13 0 -35 2 -35 19c0 16 79 153 79 293c0 100 -16 220 -16 240c0 10 43 14 70 14c46 0 91 -312 91 -420c0 -164 -16 -146 -56 -146z" />
    <glyph glyph-name="cent" unicode="&#xa2;" 
d="M208 420c0 -70 24 -131 72 -159c-1 45 -4 90 -4 135c0 77 13 153 19 230c-63 -37 -87 -138 -87 -206zM491 341c5 0 15 -18 15 -59c0 -136 -111 -180 -121 -180c-4 0 -12 -12 -12 -16c0 -10 25 -31 25 -44c0 -17 -53 -30 -82 -30c-17 0 -23 44 -27 61c-3 9 -8 19 -28 19
c-64 0 -188 85 -188 299c0 282 177 359 218 359c17 0 19 49 31 62c15 10 39 14 54 14s24 -12 24 -26c0 -15 -10 -30 -10 -36c0 -8 1 -12 5 -12c50 0 112 -46 112 -98c0 -30 -17 -88 -54 -88c-16 0 -45 69 -83 69c-8 -90 -22 -204 -22 -277c0 -39 8 -77 12 -111
c102 0 122 94 131 94z" />
    <glyph glyph-name="sterling" unicode="&#xa3;" 
d="M390 500c23 0 40 -11 40 -27s-24 -91 -56 -91c-25 0 -50 12 -78 12c-7 0 -11 -5 -11 -12c0 -32 21 -37 21 -115c0 -45 -7 -74 -31 -108c13 4 25 11 39 11c44 0 62 -18 110 -18c118 -4 83 176 105 176c17 0 51 -55 51 -143c0 -154 -98 -200 -148 -200
c-102 0 -124 40 -199 40c-39 0 -63 -3 -90 -15s-53 -25 -93 -25c-56 0 -49 38 -49 60c0 71 -6 113 33 113c23 0 31 -6 61 -6c52 -4 76 19 76 94c0 72 -26 148 -48 148c-31 0 -66 -12 -87 -12c-23 0 -42 13 -42 31c0 13 21 87 48 87c11 0 23 -11 32 -11c10 0 11 19 11 32
s-11 22 -11 60c0 150 105 245 241 245c150 0 218 -92 218 -122c0 -20 -86 -78 -105 -78c-30 0 -33 72 -115 72c-43 0 -93 -46 -93 -110c0 -87 27 -99 60 -99c34 0 87 11 110 11z" />
    <glyph glyph-name="fraction" unicode="&#x2044;" horiz-adv-x="231" 
d="M-25 -10h-98l380 832h98z" />
    <glyph glyph-name="yen" unicode="&#xa5;" 
d="M464 811h67c40 0 48 -14 48 -53c0 -214 -156 -326 -156 -368c0 -11 32 -7 75 -7c33 0 63 -81 63 -99c0 -19 -15 -19 -45 -19c-61 0 -83 23 -118 23c-41 0 -70 -60 -70 -205c0 -22 11 -43 11 -73c0 -17 -136 -25 -158 -25s-31 53 -31 73c0 114 45 160 45 182
c-1 33 -7 48 -40 48c-21 0 -38 -6 -52 -11c-13 -6 -28 -12 -43 -12c-46 0 -50 65 -50 96c0 25 39 22 82 22c22 0 48 -2 48 17c0 26 -139 144 -139 356c0 54 14 55 59 55h55c19 0 57 2 57 -26c0 -8 -9 -61 -9 -78c0 -143 97 -272 127 -272c29 0 143 158 143 277
c0 32 -9 74 -9 82c0 21 26 17 40 17z" />
    <glyph glyph-name="florin" unicode="&#x192;" 
d="M133 525c0 16 12 80 75 80c50 0 50 72 64 117c19 62 81 104 133 104c59 0 130 2 130 -27c0 -15 -32 -107 -49 -107c-14 0 -38 6 -49 6c-28 0 -47 -44 -47 -67c0 -14 10 -26 25 -26c13 0 35 15 78 15c18 0 29 -17 29 -31c0 -24 -20 -92 -41 -92c-18 0 -38 13 -56 13
c-55 0 -53 -52 -53 -91c0 -329 -93 -434 -184 -434c-69 0 -143 8 -143 37c0 15 25 146 62 146c14 0 18 -16 39 -16c79 0 91 218 91 287c0 30 7 71 -33 71c-18 0 -38 -16 -59 -16c-13 0 -12 13 -12 31z" />
    <glyph glyph-name="section" unicode="&#xa7;" horiz-adv-x="608" 
d="M501 816l-24 -113c-28 17 -77 31 -125 31c-66 0 -102 -27 -102 -61c0 -37 42 -59 132 -89c122 -50 175 -106 175 -196c0 -63 -32 -111 -81 -152c28 -22 48 -72 48 -111c0 -131 -123 -198 -240 -198c-72 0 -144 13 -194 46l28 114c28 -19 90 -44 149 -44
c55 0 108 23 108 72c0 45 -38 60 -131 90c-118 37 -190 90 -190 197c0 54 31 115 94 145c-28 30 -47 71 -47 112c0 130 101 193 238 193c64 0 119 -14 162 -36zM189 427v-1c0 -40 30 -63 99 -86c48 -18 89 -33 108 -46c20 11 31 37 31 64c0 45 -36 75 -93 94
c-36 12 -78 26 -106 39c-24 -15 -39 -35 -39 -64z" />
    <glyph glyph-name="currency" unicode="&#xa4;" horiz-adv-x="597" 
d="M536 167l-56 -53l-70 83c-34 -28 -74 -38 -112 -38c-39 0 -78 7 -113 39l-67 -84l-58 53l75 82c-26 36 -47 90 -47 154c0 57 17 117 48 153l-75 80l58 54l66 -82c34 31 74 41 113 41c43 0 81 -9 115 -40l67 83l56 -56l-76 -80c32 -36 50 -96 50 -153
c0 -56 -20 -116 -51 -153zM299 558h-2c-66 0 -117 -65 -117 -155s50 -153 119 -153c68 0 118 64 118 153c0 90 -50 155 -118 155z" />
    <glyph glyph-name="quotesingle" unicode="'" horiz-adv-x="222" 
d="M111 847c30 0 49 -17 49 -59c0 -24 -13 -151 -20 -226c-2 -16 -14 -31 -29 -31s-27 15 -29 31c-7 75 -20 202 -20 226c0 42 19 59 49 59z" />
    <glyph glyph-name="quotedblleft" unicode="&#x201c;" horiz-adv-x="615" 
d="M545 657l-83 -67c-11 -8 -23 -19 -38 -19c-56 0 -99 61 -99 113c0 115 122 163 180 163c3 0 8 -2 8 -5c0 -4 -26 -35 -26 -76c0 -84 78 -80 78 -90c0 -5 -17 -17 -20 -19zM270 657l-83 -67c-11 -8 -23 -19 -38 -19c-56 0 -99 61 -99 113c0 115 122 163 180 163
c3 0 8 -2 8 -5c0 -4 -26 -35 -26 -76c0 -84 78 -80 78 -90c0 -5 -17 -17 -20 -19z" />
    <glyph glyph-name="guillemotleft" unicode="&#xab;" horiz-adv-x="608" 
d="M319 367l109 165c6 9 17 30 31 30c10 0 23 -9 50 -26c30 -19 49 -28 49 -43s-15 -31 -25 -43l-86 -109c-5 -6 -15 -17 -15 -25s10 -19 15 -25l86 -109c10 -12 25 -28 25 -43s-19 -24 -49 -43c-27 -17 -40 -26 -50 -26c-14 0 -25 21 -31 30l-109 165c-11 15 -19 28 -19 51
s8 36 19 51zM69 367l109 165c6 9 17 30 31 30c10 0 23 -9 50 -26c30 -19 49 -28 49 -43s-15 -31 -25 -43l-86 -109c-5 -6 -15 -17 -15 -25s10 -19 15 -25l86 -109c10 -12 25 -28 25 -43s-19 -24 -49 -43c-27 -17 -40 -26 -50 -26c-14 0 -25 21 -31 30l-109 165
c-11 15 -19 28 -19 51s8 36 19 51z" />
    <glyph glyph-name="guilsinglleft" unicode="&#x2039;" horiz-adv-x="358" 
d="M69 367l109 165c6 9 17 30 31 30c10 0 23 -9 50 -26c30 -19 49 -28 49 -43s-15 -31 -25 -43l-86 -109c-5 -6 -15 -17 -15 -25s10 -19 15 -25l86 -109c10 -12 25 -28 25 -43s-19 -24 -49 -43c-27 -17 -40 -26 -50 -26c-14 0 -25 21 -31 30l-109 165c-11 15 -19 28 -19 51
s8 36 19 51z" />
    <glyph glyph-name="guilsinglright" unicode="&#x203a;" horiz-adv-x="358" 
d="M180 532l109 -165c11 -15 19 -28 19 -51s-8 -36 -19 -51l-109 -165c-6 -9 -17 -30 -31 -30c-10 0 -23 9 -50 26c-30 19 -49 28 -49 43s15 31 25 43l86 109c5 6 15 17 15 25s-10 19 -15 25l-86 109c-10 12 -25 28 -25 43s19 24 49 43c27 17 40 26 50 26
c14 0 25 -21 31 -30z" />
    <glyph glyph-name="fi" unicode="&#xfb01;" horiz-adv-x="604" 
d="M505 0h-68c-49 0 -53 -21 -53 331c0 89 1 142 3 167c0 25 -32 38 -60 38h-47c-55 0 -53 -68 -53 -107c0 -132 37 -398 37 -411c0 -22 -14 -18 -32 -18h-107c-15 0 -33 -30 -33 299c0 50 3 100 3 150c0 30 9 87 -36 87c-18 0 -28 -12 -39 -12c-13 0 -12 13 -12 31
c0 76 22 85 60 85c45 0 45 67 59 112c19 62 81 101 133 101c69 0 195 0 195 -34c0 -15 -22 -114 -44 -114c-19 0 -18 20 -119 20c-28 0 -47 -41 -47 -64c0 -14 10 -31 26 -31c72 0 45 10 227 10c22 0 33 -8 33 -20c0 -32 -12 -69 -12 -178c0 -252 39 -407 39 -416
c0 -32 -30 -26 -53 -26z" />
    <glyph glyph-name="fl" unicode="&#xfb02;" horiz-adv-x="594" 
d="M529 0h-102c-35 0 -34 335 -34 358c0 311 13 314 13 338c0 39 -41 29 -79 29c-77 0 -82 -41 -82 -64c0 -14 10 -26 25 -26c13 0 25 5 38 5c38 0 39 -27 39 -61c0 -14 0 -52 -21 -52c-8 0 -28 9 -46 9c-55 0 -53 -68 -53 -107c0 -132 37 -398 37 -411
c0 -22 -14 -18 -32 -18h-107c-15 0 -32 -30 -33 299c0 50 0 100 3 150c0 30 9 87 -36 87c-18 0 -28 -12 -39 -12c-13 0 -12 13 -12 31c0 76 22 85 60 85c45 0 45 67 59 112c19 62 81 101 173 101c205 0 270 -13 269 -34c1 -16 -41 -135 -41 -384c0 -275 38 -410 38 -423
c0 -17 -26 -12 -37 -12z" />
    <glyph glyph-name="endash" unicode="&#x2013;" horiz-adv-x="500" 
d="M469 257h-448c-16 0 -46 -5 -46 18c0 10 17 100 56 100h448c16 0 46 5 46 -18c0 -10 -17 -100 -56 -100z" />
    <glyph glyph-name="dagger" unicode="&#x2020;" horiz-adv-x="582" 
d="M213 841h154l-12 -246l184 10v-146l-184 10l12 -530h-154l11 530l-183 -10v146l183 -10z" />
    <glyph glyph-name="daggerdbl" unicode="&#x2021;" horiz-adv-x="582" 
d="M216 841h144l-9 -231l189 10v-141l-189 11v-202l189 11v-140l-189 10l9 -230h-144l7 230l-182 -10v140l183 -11v202l-183 -11v141l183 -10z" />
    <glyph glyph-name="periodcentered" unicode="&#xb7;" horiz-adv-x="290" 
d="M144 226c-62 0 -111 50 -111 111c0 60 50 109 110 109c63 0 114 -48 114 -110s-51 -110 -113 -110z" />
    <glyph glyph-name="paragraph" unicode="&#xb6;" horiz-adv-x="583" 
d="M334 -61h-97v385h-9c-72 0 -190 59 -189 244c1 168 101 275 316 275c68 0 119 -5 150 -13v-891h-98v802h-73v-802z" />
    <glyph glyph-name="bullet" unicode="&#x2022;" horiz-adv-x="400" 
d="M200 200c-115 0 -200 85 -200 200s85 200 200 200s200 -85 200 -200s-85 -200 -200 -200z" />
    <glyph glyph-name="quotesinglbase" unicode="&#x201a;" horiz-adv-x="340" 
d="M70 126l83 67c11 8 23 19 38 19c56 0 99 -61 99 -113c0 -115 -122 -163 -180 -163c-3 0 -8 2 -8 5c0 4 26 35 26 76c0 84 -78 80 -78 90c0 5 17 17 20 19z" />
    <glyph glyph-name="quotedblbase" unicode="&#x201e;" horiz-adv-x="615" 
d="M70 126l83 67c11 8 23 19 38 19c56 0 99 -61 99 -113c0 -115 -122 -163 -180 -163c-3 0 -8 2 -8 5c0 4 26 35 26 76c0 84 -78 80 -78 90c0 5 17 17 20 19zM345 126l83 67c11 8 23 19 38 19c56 0 99 -61 99 -113c0 -115 -122 -163 -180 -163c-3 0 -8 2 -8 5
c0 4 26 35 26 76c0 84 -78 80 -78 90c0 5 17 17 20 19z" />
    <glyph glyph-name="quotedblright" unicode="&#x201d;" horiz-adv-x="615" 
d="M70 761l83 67c11 8 23 19 38 19c56 0 99 -61 99 -113c0 -115 -122 -163 -180 -163c-3 0 -8 2 -8 5c0 4 26 35 26 76c0 84 -78 80 -78 90c0 5 17 17 20 19zM345 761l83 67c11 8 23 19 38 19c56 0 99 -61 99 -113c0 -115 -122 -163 -180 -163c-3 0 -8 2 -8 5
c0 4 26 35 26 76c0 84 -78 80 -78 90c0 5 17 17 20 19z" />
    <glyph glyph-name="guillemotright" unicode="&#xbb;" horiz-adv-x="608" 
d="M180 532l109 -165c11 -15 19 -28 19 -51s-8 -36 -19 -51l-109 -165c-6 -9 -17 -30 -31 -30c-10 0 -23 9 -50 26c-30 19 -49 28 -49 43s15 31 25 43l86 109c5 6 15 17 15 25s-10 19 -15 25l-86 109c-10 12 -25 28 -25 43s19 24 49 43c27 17 40 26 50 26
c14 0 25 -21 31 -30zM430 532l109 -165c11 -15 19 -28 19 -51s-8 -36 -19 -51l-109 -165c-6 -9 -17 -30 -31 -30c-10 0 -23 9 -50 26c-30 19 -49 28 -49 43s15 31 25 43l86 109c5 6 15 17 15 25s-10 19 -15 25l-86 109c-10 12 -25 28 -25 43s19 24 49 43c27 17 40 26 50 26
c14 0 25 -21 31 -30z" />
    <glyph glyph-name="ellipsis" unicode="&#x2026;" horiz-adv-x="1000" 
d="M166 -15c-62 0 -111 50 -111 111c0 60 50 109 110 109c63 0 114 -48 114 -110s-51 -110 -113 -110zM499 -15c-62 0 -111 50 -111 111c0 60 50 109 110 109c63 0 114 -48 114 -110s-51 -110 -113 -110zM832 -15c-62 0 -111 50 -111 111c0 60 50 109 110 109
c63 0 114 -48 114 -110s-51 -110 -113 -110z" />
    <glyph glyph-name="perthousand" unicode="&#x2030;" horiz-adv-x="1293" 
d="M1090 493h2c94 0 172 -81 172 -244c0 -172 -81 -256 -177 -256c-99 0 -176 89 -176 244c0 168 79 256 179 256zM1088 399h-1c-42 0 -63 -56 -63 -156c0 -108 24 -157 64 -157c37 0 62 46 62 157c0 104 -18 156 -62 156zM685 493h1c95 0 172 -81 172 -244
c0 -171 -80 -256 -176 -256c-99 0 -177 89 -177 245c0 167 80 255 180 255zM682 398c-42 0 -63 -56 -63 -155c0 -107 23 -156 64 -156c37 0 62 45 62 156c0 103 -17 155 -63 155zM209 823h2c95 0 171 -82 171 -244c0 -173 -80 -257 -177 -257c-98 0 -177 89 -177 246
c0 167 81 255 181 255zM206 728h-1c-42 0 -63 -56 -63 -155c0 -108 24 -157 65 -157c37 0 61 46 61 157c0 103 -18 155 -62 155zM282 -10h-83l398 831h83z" />
    <glyph glyph-name="questiondown" unicode="&#xbf;" horiz-adv-x="480" 
d="M348 527v-72c0 -147 -152 -132 -152 -256c0 -41 22 -86 69 -86c57 0 71 62 87 62c11 0 78 -77 78 -89c0 -32 -76 -101 -168 -101c-127 0 -212 114 -212 235c0 181 198 223 198 300c0 44 9 38 53 38c33 0 47 6 47 -31zM296 627c-62 0 -111 50 -111 111
c0 60 50 109 110 109c63 0 114 -48 114 -110s-51 -110 -113 -110z" />
    <glyph glyph-name="grave" unicode="`" horiz-adv-x="385" 
d="M180 861l76 -142c3 -5 12 -19 12 -26c0 -6 -7 -7 -13 -7c-61 -6 -205 160 -205 184c0 30 48 23 65 23c45 0 45 5 65 -32z" />
    <glyph glyph-name="acute" unicode="&#xb4;" horiz-adv-x="385" 
d="M129 719l76 142c20 37 20 32 65 32c17 0 65 7 65 -23c0 -24 -144 -190 -205 -184c-6 0 -13 1 -13 7c0 7 9 21 12 26z" />
    <glyph glyph-name="circumflex" unicode="&#x2c6;" horiz-adv-x="550" 
d="M346 856l108 -107c6 -5 13 -11 13 -19c0 -5 -69 -39 -97 -39c-9 0 -16 9 -21 13l-60 59c-5 5 -21 23 -30 23c-10 0 -27 -18 -33 -25l-37 -40c-11 -11 -27 -30 -43 -30c-9 0 -63 19 -63 35c0 12 14 26 22 34l100 107c23 24 27 31 60 31c43 0 51 -11 81 -42z" />
    <glyph glyph-name="tilde" unicode="&#x2dc;" horiz-adv-x="410" 
d="M127 868c24 0 55 -7 76 -16c39 -15 78 -32 116 -32c60 0 46 41 67 41c19 0 24 -8 24 -13c0 -4 -10 -122 -147 -122c-40 0 -76 12 -109 24c-32 12 -60 23 -83 23c-40 0 -36 -36 -41 -36c-10 0 -30 -2 -30 14c0 44 41 117 127 117z" />
    <glyph glyph-name="macron" unicode="&#xaf;" horiz-adv-x="500" 
d="M329 708h-168c-16 0 -46 -5 -46 18c0 10 17 100 56 100h168c16 0 46 5 46 -18c0 -10 -17 -100 -56 -100z" />
    <glyph glyph-name="breve" unicode="&#x2d8;" horiz-adv-x="400" 
d="M210 721c-117 0 -180 65 -180 110c0 25 28 37 60 37c35 0 59 -12 69 -23c15 -16 39 -29 71 -29s57 17 71 29c11 10 29 23 49 23c17 0 20 -7 20 -37s-53 -110 -160 -110z" />
    <glyph glyph-name="dotaccent" unicode="&#x2d9;" horiz-adv-x="500" 
d="M250 708c-48 0 -89 28 -89 80s41 80 89 80s89 -28 89 -80s-41 -80 -89 -80z" />
    <glyph glyph-name="dieresis" unicode="&#xa8;" horiz-adv-x="567" 
d="M398 708c-48 0 -89 28 -89 80s41 80 89 80s89 -28 89 -80s-41 -80 -89 -80zM169 708c-48 0 -89 28 -89 80s41 80 89 80s89 -28 89 -80s-41 -80 -89 -80z" />
    <glyph glyph-name="ring" unicode="&#x2da;" horiz-adv-x="400" 
d="M200 677c-70 0 -123 52 -123 117c0 62 52 114 121 114c71 0 125 -48 125 -115c0 -63 -54 -116 -123 -116zM200 739c32 0 51 25 51 56c0 28 -24 51 -52 51s-50 -24 -50 -52c0 -29 19 -55 51 -55z" />
    <glyph glyph-name="cedilla" unicode="&#xb8;" horiz-adv-x="500" 
d="M113 -109c0 22 142 129 197 131c60 -2 80 8 80 -12c0 -10 -58 -37 -58 -68c0 -21 75 -23 75 -82c0 -82 -152 -117 -222 -117c-24 0 -36 4 -36 13c0 18 80 29 80 64c0 65 -116 54 -116 71z" />
    <glyph glyph-name="hungarumlaut" unicode="&#x2dd;" horiz-adv-x="567" 
d="M299 719l76 142c20 37 20 32 65 32c17 0 65 7 65 -23c0 -24 -144 -190 -205 -184c-6 0 -13 1 -13 7c0 7 9 21 12 26zM74 719l76 142c20 37 20 32 65 32c17 0 65 7 65 -23c0 -24 -144 -190 -205 -184c-6 0 -13 1 -13 7c0 7 9 21 12 26z" />
    <glyph glyph-name="ogonek" unicode="&#x2db;" horiz-adv-x="400" 
d="M44 -118c0 83 87 120 206 120v-7c-12 -5 -28 -24 -28 -54c0 -82 154 -57 154 -66c0 -15 -50 -69 -203 -69c-68 0 -129 39 -129 76z" />
    <glyph glyph-name="caron" unicode="&#x2c7;" horiz-adv-x="550" 
d="M201 840l60 -59c5 -5 21 -23 30 -23c10 0 27 18 33 25l37 40c11 11 27 30 43 30c9 0 63 -19 63 -35c0 -12 -14 -26 -22 -34l-100 -107c-23 -24 -27 -31 -60 -31c-43 0 -51 11 -81 42l-108 107c-6 5 -13 11 -13 19c0 5 69 39 97 39c9 0 16 -9 21 -13z" />
    <glyph glyph-name="emdash" unicode="&#x2014;" horiz-adv-x="1000" 
d="M969 257h-948c-16 0 -46 -5 -46 18c0 10 17 100 56 100h948c16 0 46 5 46 -18c0 -10 -17 -100 -56 -100z" />
    <glyph glyph-name="AE" unicode="&#xc6;" horiz-adv-x="1055" 
d="M378 676c-54 0 -161 -159 -161 -232c0 -12 7 -19 19 -19c18 0 115 26 203 26c35 0 51 5 51 33c0 67 -74 192 -112 192zM241 0h-143c-51 0 -65 90 -65 220c0 428 297 627 341 627c36 0 144 -102 165 -139c28 130 32 124 77 124h370c12 0 48 3 48 -17
c0 -8 -64 -148 -77 -148c-17 0 -47 47 -145 47c-69 0 -161 -41 -161 -137c0 -21 3 -57 31 -57c52 0 123 47 207 47c12 0 45 -4 45 -21c0 -1 -56 -164 -68 -164c-10 0 -48 20 -87 20c-51 0 -127 -37 -127 -136c0 -80 44 -138 128 -138c99 0 160 66 184 66
c15 0 82 -169 82 -179c0 -19 -25 -15 -37 -15h-529c-9 0 -38 -3 -38 12c0 28 64 98 64 242c0 50 -30 62 -75 62c-91 0 -236 -16 -236 -130c0 -79 65 -164 65 -179c0 -6 -6 -7 -19 -7z" />
    <glyph glyph-name="ordfeminine" unicode="&#xaa;" horiz-adv-x="400" 
d="M239 572v27c0 21 4 37 -24 37c-39 0 -72 -30 -72 -58c0 -20 25 -34 59 -34c33 0 37 17 37 28zM216 426c-180 0 -191 102 -191 138c0 76 94 132 167 144c19 3 41 2 41 21c0 21 -32 29 -61 29c-46 0 -56 -40 -70 -40c-44 0 -67 30 -67 56c0 44 54 79 114 79
c44 0 151 16 195 -65c11 -21 13 -242 13 -263c0 -49 5 -65 5 -85c0 -13 -88 -14 -146 -14z" />
    <glyph glyph-name="Lslash" unicode="&#x141;" horiz-adv-x="551" 
d="M380 640c12 0 20 -5 20 -20c0 -12 -34 -112 -64 -112c-55 0 -102 -34 -112 -34c-27 0 -28 -128 -28 -175c0 -138 60 -171 115 -171c92 0 148 85 173 85c19 0 58 -193 58 -198c0 -20 -31 -15 -43 -15h-407c-53 -2 -37 33 -42 236c0 34 5 120 5 133c0 21 -15 26 -25 26
c-19 0 -25 -25 -55 -25c-20 0 -18 15 -18 25c0 19 14 115 59 115c49 0 68 46 68 88c0 47 33 234 50 234h159c7 0 19 1 19 -10c0 -42 -66 -152 -66 -197c0 -14 14 -20 34 -20c35 0 69 35 100 35z" />
    <glyph glyph-name="Oslash" unicode="&#xd8;" horiz-adv-x="712" 
d="M118 46l-61 -74c-7 -9 -18 -25 -33 -25c-21 0 -40 14 -40 35c0 17 8 24 14 33l73 91c-32 61 -46 125 -46 197c0 257 144 544 331 544c73 0 149 -43 211 -132l66 81c10 13 23 34 45 34c18 0 35 -13 35 -33c0 -17 -12 -28 -21 -39l-87 -109c46 -89 82 -214 82 -346
c0 -173 -79 -318 -281 -318h-100c-23 0 -95 -5 -188 61zM498 517l-260 -324c29 -23 81 -30 118 -30c106 0 169 45 169 162c0 75 -8 127 -27 192zM194 250l273 342c-23 40 -65 93 -111 93c-67 0 -171 -139 -169 -360c0 -17 3 -42 7 -75z" />
    <glyph glyph-name="OE" unicode="&#x152;" horiz-adv-x="1077" 
d="M356 163c106 0 169 45 169 162c0 221 -102 360 -169 360s-169 -139 -169 -360c0 -117 63 -162 169 -162zM406 -15h-100c-202 0 -281 145 -281 318c0 257 144 544 331 544c91 0 148 -57 207 -126c26 117 30 111 75 111h370c12 0 48 3 48 -17c0 -8 -64 -148 -77 -148
c-17 0 -47 47 -145 47c-69 0 -161 -41 -161 -137c0 -21 3 -57 31 -57c52 0 123 47 207 47c12 0 45 -4 45 -21c0 -1 -56 -164 -68 -164c-10 0 -48 20 -87 20c-51 0 -130 -37 -130 -136c0 -80 47 -138 131 -138c99 0 160 66 184 66c15 0 82 -169 82 -179
c0 -19 -25 -15 -37 -15h-437c-18 0 -56 0 -56 22c-41 -31 -91 -37 -132 -37z" />
    <glyph glyph-name="ordmasculine" unicode="&#xba;" horiz-adv-x="400" 
d="M200 435c-95 0 -190 61 -190 212c0 96 57 206 190 206s190 -110 190 -206c0 -151 -95 -212 -190 -212zM200 563c56 0 72 49 72 97s-17 98 -72 98c-54 0 -72 -50 -72 -98s17 -97 72 -97z" />
    <glyph glyph-name="ae" unicode="&#xe6;" horiz-adv-x="821" 
d="M580 537c-81 0 -128 -87 -128 -145c0 -11 5 -22 18 -22c12 0 194 40 194 91c0 49 -46 76 -84 76zM331 197v44c0 35 6 77 -42 77c-59 0 -121 -50 -121 -111c0 -56 49 -89 102 -89c59 0 61 30 61 79zM33 184c0 126 124 213 236 232c29 5 52 10 52 43c0 51 -53 78 -97 78
c-102 0 -87 -86 -109 -86c-32 0 -67 39 -67 82c0 74 83 122 175 122c89 0 148 -31 189 -82c40 46 100 82 173 82c110 0 203 -62 203 -180c0 -215 -322 -170 -322 -274c0 -47 76 -81 126 -81c164 0 164 125 178 125c15 0 18 -52 18 -60c0 -127 -98 -200 -218 -200
c-38 0 -87 8 -135 46c-11 -17 2 -31 -162 -31c-198 0 -240 81 -240 184z" />
    <glyph glyph-name="dotlessi" unicode="&#x131;" horiz-adv-x="266" 
d="M167 0h-68c-49 0 -53 -21 -53 331c0 342 16 309 49 309h55c42 0 43 -3 43 -15c0 -37 -12 -74 -12 -183c0 -252 39 -407 39 -416c0 -32 -30 -26 -53 -26z" />
    <glyph glyph-name="lslash" unicode="&#x142;" horiz-adv-x="257" 
d="M191 0h-105c-35 0 -31 335 -31 358c1 110 0 122 -15 122c-10 0 -30 -25 -49 -25c-11 0 -21 10 -21 30c0 10 5 73 48 74c30 1 40 41 42 66c0 72 8 228 36 228h95c11 0 41 3 41 -19c0 -10 -30 -156 -30 -172s8 -32 18 -32s30 25 45 25c20 0 15 -17 15 -30
c0 -100 -90 0 -90 -190c0 -275 38 -410 38 -423c0 -17 -26 -12 -37 -12z" />
    <glyph glyph-name="oslash" unicode="&#xf8;" horiz-adv-x="544" 
d="M440 578l29 40c8 10 23 37 44 37s36 -10 36 -34c0 -18 -15 -36 -23 -45l-46 -59c24 -49 43 -106 43 -196c0 -235 -136 -336 -251 -336c-60 0 -118 26 -160 70l-37 -46c-7 -8 -16 -24 -34 -24s-39 12 -39 35c0 13 11 25 19 34l48 59c-34 57 -48 140 -48 208
c0 161 77 334 251 334c73 0 128 -27 168 -77zM393 405l-185 -231c19 -14 45 -22 64 -22c101 0 127 114 127 194c0 20 -2 41 -6 59zM165 232l199 250c-18 33 -47 55 -92 55c-99 0 -127 -112 -127 -191c0 -39 4 -76 20 -114z" />
    <glyph glyph-name="oe" unicode="&#x153;" horiz-adv-x="892" 
d="M651 537c-81 0 -128 -87 -128 -145c0 -11 5 -22 18 -22c12 0 194 40 194 91c0 49 -46 76 -84 76zM272 152c101 0 127 114 127 194c0 79 -28 191 -127 191s-127 -112 -127 -191c0 -80 26 -194 127 -194zM21 321c0 161 77 334 251 334c80 0 145 -37 190 -102
c52 69 120 102 194 102c110 0 203 -62 203 -180c0 -215 -322 -170 -322 -274c0 -47 76 -81 126 -81c164 0 164 125 178 125c15 0 18 -52 18 -60c0 -127 -98 -200 -218 -200c-80 0 -141 31 -192 92c-35 -53 -108 -92 -177 -92c-115 0 -251 101 -251 336z" />
    <glyph glyph-name="germandbls" unicode="&#xdf;" horiz-adv-x="557" 
d="M182 0h-73c-45 0 -59 -20 -59 406c0 252 18 318 52 372c50 79 117 90 162 90c91 0 176 -67 176 -174c0 -114 -71 -135 -71 -148c0 -11 171 -71 171 -326c0 -184 -106 -235 -182 -235c-53 0 -110 39 -110 58c0 11 62 127 76 127c10 0 20 -15 36 -15c30 0 34 42 34 69
c0 146 -79 268 -116 268c-12 0 -28 -19 -34 -19c-14 0 -15 35 -15 50c0 65 12 70 36 76c28 7 51 37 51 77c0 28 -16 57 -49 57c-37 0 -82 -3 -82 -294c0 -188 37 -398 37 -416c0 -16 -3 -23 -40 -23z" />
    <glyph glyph-name="onesuperior" unicode="&#xb9;" horiz-adv-x="350" 
d="M110 468c0 89 7 165 7 224c0 51 -53 48 -53 69c0 14 62 65 130 65c23 0 52 -6 52 -22c0 -12 -18 -87 -18 -181c0 -82 22 -208 22 -263c0 -20 -96 -33 -118 -33c-15 0 -22 -8 -22 141z" />
    <glyph glyph-name="logicalnot" unicode="&#xac;" 
d="M529 158h-92v230h-386v93h478v-323z" />
    <glyph glyph-name="mu" unicode="&#xb5;" horiz-adv-x="556" 
d="M374 640h93c42 0 43 -179 43 -304c0 -217 -31 -200 -103 -200c-91 0 -16 66 -60 66c-11 0 -33 -39 -65 -39c-62 0 -96 2 -96 -48c0 -35 19 -90 19 -101c0 -16 -21 -14 -32 -14h-82c-31 0 -45 -9 -45 163v244c0 84 7 233 49 233h92c13 0 40 5 40 -15
c0 -15 -46 -105 -46 -203c0 -101 52 -124 85 -124s107 14 109 146c1 94 -35 168 -35 184c0 13 23 12 34 12z" />
    <glyph glyph-name="trademark" unicode="&#x2122;" horiz-adv-x="1000" 
d="M567 333h-66c-21 0 -30 -2 -34 11c-11 31 -14 163 -14 202l6 179c2 22 8 69 16 88c6 13 11 19 35 19h57c25 0 34 0 66 -40c61 -78 65 -121 78 -121c10 0 14 43 82 121c37 41 47 40 72 40h47c22 0 28 -6 33 -19c9 -19 14 -66 16 -88l6 -179c0 -39 -3 -171 -14 -202
c-4 -13 -12 -11 -32 -11h-79c-20 0 -36 -2 -36 9c0 8 40 116 40 273c0 12 2 86 -20 86c-11 0 -36 -59 -42 -74c-55 -123 -30 -179 -85 -179s-33 56 -91 179c-7 14 -28 74 -38 74c-21 0 -19 -74 -19 -86c0 -157 40 -265 40 -273c0 -11 -16 -9 -24 -9zM246 333h-69
c-18 0 -46 -24 -46 150c0 142 29 233 29 247c0 11 -4 16 -14 16c-40 0 -121 -62 -132 -62c-6 0 -9 -3 -9 14c0 19 17 93 27 110c6 11 94 33 182 33c105 0 197 -26 197 -54c0 -26 -31 -83 -39 -83c-11 0 -37 42 -84 42c-34 0 -39 -107 -39 -162c0 -155 35 -230 35 -241
c0 -13 -30 -10 -38 -10z" />
    <glyph glyph-name="Eth" unicode="&#xd0;" horiz-adv-x="670" 
d="M-12 383v74c0 11 7 17 15 17h48c6 312 36 358 65 358h173c127 0 356 -139 356 -514c0 -173 -79 -318 -281 -318h-258c-50 0 -56 80 -56 356v10h-47c-8 0 -15 6 -15 17zM206 522v-48h121c13 0 21 -5 30 -23l22 -50c4 -8 6 -14 6 -20c0 -10 -6 -15 -22 -15h-157
c0 -213 67 -238 122 -238c54 0 155 51 155 231c0 247 -128 355 -193 355c-48 0 -84 -74 -84 -192z" />
    <glyph glyph-name="onehalf" unicode="&#xbd;" horiz-adv-x="906" 
d="M253 -10h-98l381 831h98zM253 330h-127v375h-3l-69 -34l-26 90l109 56h116v-487zM519 0v77l75 78c87 85 119 129 119 172c0 29 -22 59 -70 59c-31 0 -71 -18 -90 -32l-29 92c28 21 90 46 158 46c96 0 163 -56 163 -144c0 -95 -60 -148 -137 -220l-27 -18v-3h170v-107
h-332z" />
    <glyph glyph-name="plusminus" unicode="&#xb1;" 
d="M524 364h-189v-232h-94v232h-191v94h191v222h94v-222h189v-94zM529 -9h-475v92h475v-92z" />
    <glyph glyph-name="Thorn" unicode="&#xde;" horiz-adv-x="624" 
d="M77 342v143c0 224 15 347 47 347h141c10 0 14 -4 14 -10c0 -4 -1 -10 -2 -16l-18 -96c16 -1 33 -2 49 -2c48 0 96 4 144 4c89 0 171 -65 171 -181c0 -121 -79 -199 -194 -284l-141 -104c-9 -6 -15 -13 -15 -25c0 -13 2 -23 4 -31l13 -51c2 -10 4 -19 4 -25
c0 -7 -11 -11 -27 -11h-155c-12 0 -17 8 -19 21c-6 41 -16 181 -16 321zM240 429l6 -102c2 -27 5 -40 20 -40c26 0 205 124 205 211c0 65 -46 86 -104 86c-103 0 -128 -40 -128 -99c0 -17 0 -34 1 -56z" />
    <glyph glyph-name="onequarter" unicode="&#xbc;" horiz-adv-x="867" 
d="M760 0h-118v105h-198v78l196 305h120v-291h59v-92h-59v-105zM642 197v86c0 28 0 52 2 75l-2 2c-11 -20 -19 -39 -30 -54l-81 -108l1 -1h110zM253 -10h-98l382 831h98zM253 330h-127v375h-3l-69 -34l-26 90l109 56h116v-487z" />
    <glyph glyph-name="divide" unicode="&#xf7;" 
d="M293 462h-2c-33 0 -67 35 -67 77c0 40 34 77 69 77c38 0 68 -37 68 -77c0 -42 -30 -77 -68 -77zM529 282h-478v94h478v-94zM292 196h1c33 0 67 -34 67 -76c0 -41 -34 -78 -68 -78c-40 0 -70 37 -70 78c0 42 30 76 70 76z" />
    <glyph glyph-name="brokenbar" unicode="&#xa6;" horiz-adv-x="341" 
d="M103 852h133v-441h-133v441zM103 221h133v-441h-133v441z" />
    <glyph glyph-name="degree" unicode="&#xb0;" horiz-adv-x="414" 
d="M202 837h2c103 0 163 -88 163 -184c0 -117 -75 -184 -165 -184c-86 0 -161 67 -161 184c0 113 75 184 161 184zM203 776h-1c-53 0 -87 -50 -87 -122c0 -73 35 -125 89 -125c56 0 88 50 88 122c0 71 -28 125 -89 125z" />
    <glyph glyph-name="thorn" unicode="&#xfe;" horiz-adv-x="525" 
d="M181 334c0 -35 1 -75 46 -75c89 0 161 85 161 168c0 65 -53 110 -116 110c-53 0 -91 -4 -91 -203zM46 163v331c0 210 20 359 42 359h101c20 0 31 -6 31 -21c0 -9 -30 -109 -30 -166c0 -8 3 -14 11 -14c4 0 13 1 22 2c9 0 18 1 23 1c189 0 266 -94 266 -211
c0 -156 -153 -313 -230 -313c-18 0 -37 24 -53 43c-16 18 -29 37 -36 37s-7 -13 -7 -36c0 -70 19 -150 19 -161c0 -8 -7 -14 -23 -14h-102c-24 0 -35 22 -34 163z" />
    <glyph glyph-name="threequarters" unicode="&#xbe;" horiz-adv-x="927" 
d="M820 0h-117v105h-198v78l196 305h119v-291h59v-92h-59v-105zM703 197v86c0 28 0 52 2 75l-2 2c-11 -20 -20 -39 -30 -55l-82 -107l1 -1h111zM314 -10h-99l382 831h98zM68 701l-22 90c28 17 81 32 147 32c90 0 157 -45 157 -121c0 -57 -42 -94 -91 -114v-3
c59 -9 106 -59 106 -113c0 -86 -73 -148 -193 -148c-54 0 -118 12 -143 28l21 93c17 -11 58 -26 94 -26c55 0 89 26 89 60c0 41 -45 65 -105 65h-29v84h26c54 0 97 20 97 51c0 23 -16 48 -71 48c-32 0 -62 -12 -83 -26z" />
    <glyph glyph-name="twosuperior" unicode="&#xb2;" horiz-adv-x="350" 
d="M134 463c0 -6 6 -9 12 -9c5 0 21 5 42 5s48 -12 65 -12c25 0 46 8 46 38c0 13 -10 27 -3 27c5 0 36 -34 36 -91c0 -60 -54 -102 -95 -102c-15 0 -36 4 -57 8c-20 4 -40 8 -55 8c-32 0 -68 -16 -84 -16c-21 0 -25 16 -25 32c0 206 217 227 217 328c0 34 -14 52 -54 52
c-68 0 -94 -80 -107 -80c-6 0 -46 66 -46 72c0 31 59 103 151 103c88 0 156 -46 156 -131c0 -149 -199 -203 -199 -232z" />
    <glyph glyph-name="registered" unicode="&#xae;" horiz-adv-x="928" 
d="M416 436c22 0 138 53 138 109c0 37 -39 52 -74 52c-59 0 -85 -21 -85 -124c0 -13 1 -37 21 -37zM322 669h187c133 0 163 -61 163 -112c0 -93 -109 -126 -109 -143c0 -13 129 -107 129 -237c0 -6 -3 -7 -16 -7h-96c-12 0 -23 -2 -26 7c-12 98 -64 190 -85 190
c-20 0 -67 -25 -67 -58c0 -46 24 -128 24 -132c0 -10 -17 -7 -23 -7h-90c-13 0 -21 -2 -25 10c-11 32 -14 164 -14 203l6 178c2 23 7 70 16 89c6 13 11 19 26 19zM464 -15c-274 0 -431 157 -431 431s157 431 431 431s431 -157 431 -431s-157 -431 -431 -431zM464 80
c210 0 336 126 336 336s-126 336 -336 336s-336 -126 -336 -336s126 -336 336 -336z" />
    <glyph glyph-name="minus" unicode="&#x2212;" 
d="M529 282h-478v94h478v-94z" />
    <glyph glyph-name="eth" unicode="&#xf0;" horiz-adv-x="544" 
d="M145 346c0 -80 26 -194 127 -194s127 114 127 194c0 79 -28 191 -127 191s-127 -112 -127 -191zM157 677l-42 47l101 43c-38 21 -73 30 -93 30c-3 0 -5 1 -5 4c0 2 1 4 3 5l86 62c5 3 9 6 14 6c19 0 92 -27 127 -51l114 51l42 -49l-106 -45c87 -88 125 -220 125 -375
c0 -305 -115 -420 -251 -420c-115 0 -251 101 -251 336c0 213 99 334 227 334c32 0 68 -7 104 -37h2c-18 46 -47 83 -79 110z" />
    <glyph glyph-name="multiply" unicode="&#xd7;" 
d="M536 101l-68 -60l-182 211l-181 -210l-68 59l193 217l-188 216l67 62l184 -210l178 211l66 -61l-191 -217z" />
    <glyph glyph-name="threesuperior" unicode="&#xb3;" horiz-adv-x="350" 
d="M72 811h215c16 0 38 4 38 -17c0 -98 -98 -162 -98 -176c0 -15 106 -23 106 -139c0 -94 -63 -171 -169 -171c-94 0 -147 60 -147 67c0 5 62 104 68 104c14 0 33 -43 77 -43c37 0 53 26 53 47c0 56 -41 80 -104 85c-8 0 -23 3 -23 12c0 21 110 102 110 119
c0 16 -16 17 -27 17c-37 0 -86 -21 -103 -21c-10 0 -28 90 -28 103c0 16 20 13 32 13z" />
    <glyph glyph-name="copyright" unicode="&#xa9;" horiz-adv-x="928" 
d="M464 158c-147 0 -216 124 -216 245c0 130 79 273 237 273c57 0 142 -23 142 -87c0 -44 -24 -64 -65 -64c-27 0 9 56 -74 56c-95 0 -122 -80 -122 -155c0 -115 72 -150 128 -150c106 0 128 88 134 88c9 0 14 -48 14 -65c0 -89 -87 -141 -178 -141zM464 -15
c-274 0 -431 157 -431 431s157 431 431 431s431 -157 431 -431s-157 -431 -431 -431zM464 80c210 0 336 126 336 336s-126 336 -336 336s-336 -126 -336 -336s126 -336 336 -336z" />
    <glyph glyph-name="Aacute" unicode="&#xc1;" horiz-adv-x="698" 
d="M592 0h-112c-9 0 -38 -3 -38 12c0 28 77 128 77 242c0 45 -43 62 -88 62c-91 0 -236 -16 -236 -130c0 -79 65 -164 65 -179c0 -6 -6 -7 -19 -7h-143c-51 0 -65 90 -65 220c0 428 297 627 341 627c33 0 291 -143 291 -607c0 -267 -43 -240 -73 -240zM378 676
c-54 0 -161 -159 -161 -232c0 -12 7 -19 19 -19c18 0 115 26 203 26c35 0 51 5 51 33c0 62 -74 192 -112 192zM316 912l76 142c20 37 20 32 65 32c17 0 65 7 65 -23c0 -24 -144 -190 -205 -184c-6 0 -13 1 -13 7c0 7 9 21 12 26z" />
    <glyph glyph-name="Acircumflex" unicode="&#xc2;" horiz-adv-x="698" 
d="M592 0h-112c-9 0 -38 -3 -38 12c0 28 77 128 77 242c0 45 -43 62 -88 62c-91 0 -236 -16 -236 -130c0 -79 65 -164 65 -179c0 -6 -6 -7 -19 -7h-143c-51 0 -65 90 -65 220c0 428 297 627 341 627c33 0 291 -143 291 -607c0 -267 -43 -240 -73 -240zM378 676
c-54 0 -161 -159 -161 -232c0 -12 7 -19 19 -19c18 0 115 26 203 26c35 0 51 5 51 33c0 62 -74 192 -112 192zM440 1039l108 -107c6 -5 13 -11 13 -19c0 -5 -69 -39 -97 -39c-9 0 -16 9 -21 13l-60 59c-5 5 -21 23 -30 23c-10 0 -27 -18 -33 -25l-37 -40
c-11 -11 -27 -30 -43 -30c-9 0 -63 19 -63 35c0 12 14 26 22 34l100 107c23 24 27 31 60 31c43 0 51 -11 81 -42z" />
    <glyph glyph-name="Adieresis" unicode="&#xc4;" horiz-adv-x="698" 
d="M592 0h-112c-9 0 -38 -3 -38 12c0 28 77 128 77 242c0 45 -43 62 -88 62c-91 0 -236 -16 -236 -130c0 -79 65 -164 65 -179c0 -6 -6 -7 -19 -7h-143c-51 0 -65 90 -65 220c0 428 297 627 341 627c33 0 291 -143 291 -607c0 -267 -43 -240 -73 -240zM378 676
c-54 0 -161 -159 -161 -232c0 -12 7 -19 19 -19c18 0 115 26 203 26c35 0 51 5 51 33c0 62 -74 192 -112 192zM484 901c-48 0 -89 28 -89 80s41 80 89 80s89 -28 89 -80s-41 -80 -89 -80zM255 901c-48 0 -89 28 -89 80s41 80 89 80s89 -28 89 -80s-41 -80 -89 -80z" />
    <glyph glyph-name="Agrave" unicode="&#xc0;" horiz-adv-x="698" 
d="M592 0h-112c-9 0 -38 -3 -38 12c0 28 77 128 77 242c0 45 -43 62 -88 62c-91 0 -236 -16 -236 -130c0 -79 65 -164 65 -179c0 -6 -6 -7 -19 -7h-143c-51 0 -65 90 -65 220c0 428 297 627 341 627c33 0 291 -143 291 -607c0 -267 -43 -240 -73 -240zM378 676
c-54 0 -161 -159 -161 -232c0 -12 7 -19 19 -19c18 0 115 26 203 26c35 0 51 5 51 33c0 62 -74 192 -112 192zM337 1054l76 -142c3 -5 12 -19 12 -26c0 -6 -7 -7 -13 -7c-61 -6 -205 160 -205 184c0 30 48 23 65 23c45 0 45 5 65 -32z" />
    <glyph glyph-name="Aring" unicode="&#xc5;" horiz-adv-x="698" 
d="M592 0h-112c-9 0 -38 -3 -38 12c0 28 77 128 77 242c0 45 -43 62 -88 62c-91 0 -236 -16 -236 -130c0 -79 65 -164 65 -179c0 -6 -6 -7 -19 -7h-143c-51 0 -65 90 -65 220c0 428 297 627 341 627c33 0 291 -143 291 -607c0 -267 -43 -240 -73 -240zM378 676
c-54 0 -161 -159 -161 -232c0 -12 7 -19 19 -19c18 0 115 26 203 26c35 0 51 5 51 33c0 62 -74 192 -112 192zM369 870c-70 0 -123 52 -123 117c0 62 52 114 121 114c71 0 125 -48 125 -115c0 -63 -54 -116 -123 -116zM369 932c32 0 51 25 51 56c0 28 -24 51 -52 51
s-50 -24 -50 -52c0 -29 19 -55 51 -55z" />
    <glyph glyph-name="Atilde" unicode="&#xc3;" horiz-adv-x="698" 
d="M592 0h-112c-9 0 -38 -3 -38 12c0 28 77 128 77 242c0 45 -43 62 -88 62c-91 0 -236 -16 -236 -130c0 -79 65 -164 65 -179c0 -6 -6 -7 -19 -7h-143c-51 0 -65 90 -65 220c0 428 297 627 341 627c33 0 291 -143 291 -607c0 -267 -43 -240 -73 -240zM378 676
c-54 0 -161 -159 -161 -232c0 -12 7 -19 19 -19c18 0 115 26 203 26c35 0 51 5 51 33c0 62 -74 192 -112 192zM271 1061c24 0 55 -7 76 -16c39 -15 78 -32 116 -32c60 0 46 41 67 41c19 0 24 -8 24 -13c0 -4 -10 -122 -147 -122c-40 0 -76 12 -109 24c-32 12 -60 23 -83 23
c-40 0 -36 -36 -41 -36c-10 0 -30 -2 -30 14c0 44 41 117 127 117z" />
    <glyph glyph-name="Ccedilla" unicode="&#xc7;" horiz-adv-x="645" 
d="M186 -121c0 16 72 75 133 108c-200 22 -294 216 -294 406c0 217 122 454 365 454c87 0 221 -37 221 -145c0 -58 -40 -91 -103 -91c-41 0 14 94 -113 94c-146 0 -208 -149 -208 -274c0 -191 130 -268 217 -268c163 0 177 146 186 146c14 0 22 -80 22 -90
c0 -109 -61 -176 -130 -208c-24 -16 -77 -53 -77 -81c0 -21 75 -23 75 -82c0 -82 -152 -117 -222 -117c-24 0 -36 4 -36 13c0 18 80 29 80 64c0 65 -116 54 -116 71z" />
    <glyph glyph-name="Eacute" unicode="&#xc9;" horiz-adv-x="597" 
d="M551 0h-459c-53 -2 -37 33 -42 236c0 134 55 596 84 596h394c12 0 48 3 48 -17c0 -8 -64 -148 -77 -148c-17 0 -47 47 -145 47c-69 0 -142 -41 -142 -137c0 -21 4 -57 32 -57c32 0 103 47 187 47c12 0 45 -4 45 -21c0 -1 -56 -164 -68 -164c-10 0 -48 20 -87 20
c-51 0 -125 -37 -125 -136c0 -80 42 -138 126 -138c99 0 160 66 184 66c15 0 82 -169 82 -179c0 -19 -25 -15 -37 -15zM295 912l76 142c20 37 20 32 65 32c17 0 65 7 65 -23c0 -24 -144 -190 -205 -184c-6 0 -13 1 -13 7c0 7 9 21 12 26z" />
    <glyph glyph-name="Ecircumflex" unicode="&#xca;" horiz-adv-x="597" 
d="M551 0h-459c-53 -2 -37 33 -42 236c0 134 55 596 84 596h394c12 0 48 3 48 -17c0 -8 -64 -148 -77 -148c-17 0 -47 47 -145 47c-69 0 -142 -41 -142 -137c0 -21 4 -57 32 -57c32 0 103 47 187 47c12 0 45 -4 45 -21c0 -1 -56 -164 -68 -164c-10 0 -48 20 -87 20
c-51 0 -125 -37 -125 -136c0 -80 42 -138 126 -138c99 0 160 66 184 66c15 0 82 -169 82 -179c0 -19 -25 -15 -37 -15zM410 1049l108 -107c6 -5 13 -11 13 -19c0 -5 -69 -39 -97 -39c-9 0 -16 9 -21 13l-60 59c-5 5 -21 23 -30 23c-10 0 -27 -18 -33 -25l-37 -40
c-11 -11 -27 -30 -43 -30c-9 0 -63 19 -63 35c0 12 14 26 22 34l100 107c23 24 27 31 60 31c43 0 51 -11 81 -42z" />
    <glyph glyph-name="Edieresis" unicode="&#xcb;" horiz-adv-x="597" 
d="M551 0h-459c-53 -2 -37 33 -42 236c0 134 55 596 84 596h394c12 0 48 3 48 -17c0 -8 -64 -148 -77 -148c-17 0 -47 47 -145 47c-69 0 -142 -41 -142 -137c0 -21 4 -57 32 -57c32 0 103 47 187 47c12 0 45 -4 45 -21c0 -1 -56 -164 -68 -164c-10 0 -48 20 -87 20
c-51 0 -125 -37 -125 -136c0 -80 42 -138 126 -138c99 0 160 66 184 66c15 0 82 -169 82 -179c0 -19 -25 -15 -37 -15zM413 901c-48 0 -89 28 -89 80s41 80 89 80s89 -28 89 -80s-41 -80 -89 -80zM184 901c-48 0 -89 28 -89 80s41 80 89 80s89 -28 89 -80s-41 -80 -89 -80z
" />
    <glyph glyph-name="Egrave" unicode="&#xc8;" horiz-adv-x="597" 
d="M551 0h-459c-53 -2 -37 33 -42 236c0 134 55 596 84 596h394c12 0 48 3 48 -17c0 -8 -64 -148 -77 -148c-17 0 -47 47 -145 47c-69 0 -142 -41 -142 -137c0 -21 4 -57 32 -57c32 0 103 47 187 47c12 0 45 -4 45 -21c0 -1 -56 -164 -68 -164c-10 0 -48 20 -87 20
c-51 0 -125 -37 -125 -136c0 -80 42 -138 126 -138c99 0 160 66 184 66c15 0 82 -169 82 -179c0 -19 -25 -15 -37 -15zM346 1054l76 -142c3 -5 12 -19 12 -26c0 -6 -7 -7 -13 -7c-61 -6 -205 160 -205 184c0 30 48 23 65 23c45 0 45 5 65 -32z" />
    <glyph glyph-name="Iacute" unicode="&#xcd;" horiz-adv-x="327" 
d="M239 0h-122c-25 0 -55 -19 -55 356c0 494 52 476 69 476h108c13 0 38 3 38 -16c0 -10 -53 -177 -53 -370c0 -256 50 -421 50 -435c0 -10 -6 -11 -15 -11h-20zM120 912l76 142c20 37 20 32 65 32c17 0 65 7 65 -23c0 -24 -144 -190 -205 -184c-6 0 -13 1 -13 7
c0 7 9 21 12 26z" />
    <glyph glyph-name="Icircumflex" unicode="&#xce;" horiz-adv-x="327" 
d="M239 0h-122c-25 0 -55 -19 -55 356c0 494 52 476 69 476h108c13 0 38 3 38 -16c0 -10 -53 -177 -53 -370c0 -256 50 -421 50 -435c0 -10 -6 -11 -15 -11h-20zM254 1049l108 -107c6 -5 13 -11 13 -19c0 -5 -69 -39 -97 -39c-9 0 -16 9 -21 13l-60 59c-5 5 -21 23 -30 23
c-10 0 -27 -18 -33 -25l-37 -40c-11 -11 -27 -30 -43 -30c-9 0 -63 19 -63 35c0 12 14 26 22 34l100 107c23 24 27 31 60 31c43 0 51 -11 81 -42z" />
    <glyph glyph-name="Idieresis" unicode="&#xcf;" horiz-adv-x="327" 
d="M239 0h-122c-25 0 -55 -19 -55 356c0 494 52 476 69 476h108c13 0 38 3 38 -16c0 -10 -53 -177 -53 -370c0 -256 50 -421 50 -435c0 -10 -6 -11 -15 -11h-20zM278 901c-48 0 -89 28 -89 80s41 80 89 80s89 -28 89 -80s-41 -80 -89 -80zM49 901c-48 0 -89 28 -89 80
s41 80 89 80s89 -28 89 -80s-41 -80 -89 -80z" />
    <glyph glyph-name="Igrave" unicode="&#xcc;" horiz-adv-x="327" 
d="M239 0h-122c-25 0 -55 -19 -55 356c0 494 52 476 69 476h108c13 0 38 3 38 -16c0 -10 -53 -177 -53 -370c0 -256 50 -421 50 -435c0 -10 -6 -11 -15 -11h-20zM151 1054l76 -142c3 -5 12 -19 12 -26c0 -6 -7 -7 -13 -7c-61 -6 -205 160 -205 184c0 30 48 23 65 23
c45 0 45 5 65 -32z" />
    <glyph glyph-name="Ntilde" unicode="&#xd1;" horiz-adv-x="709" 
d="M604 0h-105c-69 0 -7 62 -163 378c-13 27 -101 195 -133 195c-25 0 -18 -109 -18 -129c0 -282 41 -384 41 -435c0 -13 -19 -9 -28 -9h-93c-25 0 -55 -19 -55 356c0 494 52 476 69 476h79c38 0 114 -80 301 -426c3 -5 8 -18 17 -18c10 0 8 43 8 57c0 187 -51 353 -51 376
c0 14 22 11 41 11h76c22 0 69 18 69 -476c0 -375 -30 -356 -55 -356zM277 1061c24 0 55 -7 76 -16c39 -15 78 -32 116 -32c60 0 46 41 67 41c19 0 24 -8 24 -13c0 -4 -10 -122 -147 -122c-40 0 -76 12 -109 24c-32 12 -60 23 -83 23c-40 0 -36 -36 -41 -36
c-10 0 -30 -2 -30 14c0 44 41 117 127 117z" />
    <glyph glyph-name="Oacute" unicode="&#xd3;" horiz-adv-x="712" 
d="M406 -15h-100c-202 0 -281 145 -281 318c0 257 144 544 331 544s331 -287 331 -544c0 -173 -79 -318 -281 -318zM356 163c106 0 169 45 169 162c0 221 -102 360 -169 360s-169 -139 -169 -360c0 -117 63 -162 169 -162zM293 912l76 142c20 37 20 32 65 32
c17 0 65 7 65 -23c0 -24 -144 -190 -205 -184c-6 0 -13 1 -13 7c0 7 9 21 12 26z" />
    <glyph glyph-name="Ocircumflex" unicode="&#xd4;" horiz-adv-x="712" 
d="M406 -15h-100c-202 0 -281 145 -281 318c0 257 144 544 331 544s331 -287 331 -544c0 -173 -79 -318 -281 -318zM356 163c106 0 169 45 169 162c0 221 -102 360 -169 360s-169 -139 -169 -360c0 -117 63 -162 169 -162zM447 1049l108 -107c6 -5 13 -11 13 -19
c0 -5 -69 -39 -97 -39c-9 0 -16 9 -21 13l-60 59c-5 5 -21 23 -30 23c-10 0 -27 -18 -33 -25l-37 -40c-11 -11 -27 -30 -43 -30c-9 0 -63 19 -63 35c0 12 14 26 22 34l100 107c23 24 27 31 60 31c43 0 51 -11 81 -42z" />
    <glyph glyph-name="Odieresis" unicode="&#xd6;" horiz-adv-x="712" 
d="M406 -15h-100c-202 0 -281 145 -281 318c0 257 144 544 331 544s331 -287 331 -544c0 -173 -79 -318 -281 -318zM356 163c106 0 169 45 169 162c0 221 -102 360 -169 360s-169 -139 -169 -360c0 -117 63 -162 169 -162zM481 901c-48 0 -89 28 -89 80s41 80 89 80
s89 -28 89 -80s-41 -80 -89 -80zM252 901c-48 0 -89 28 -89 80s41 80 89 80s89 -28 89 -80s-41 -80 -89 -80z" />
    <glyph glyph-name="Ograve" unicode="&#xd2;" horiz-adv-x="712" 
d="M406 -15h-100c-202 0 -281 145 -281 318c0 257 144 544 331 544s331 -287 331 -544c0 -173 -79 -318 -281 -318zM356 163c106 0 169 45 169 162c0 221 -102 360 -169 360s-169 -139 -169 -360c0 -117 63 -162 169 -162zM314 1054l76 -142c3 -5 12 -19 12 -26
c0 -6 -7 -7 -13 -7c-61 -6 -205 160 -205 184c0 30 48 23 65 23c45 0 45 5 65 -32z" />
    <glyph glyph-name="Otilde" unicode="&#xd5;" horiz-adv-x="712" 
d="M406 -15h-100c-202 0 -281 145 -281 318c0 257 144 544 331 544s331 -287 331 -544c0 -173 -79 -318 -281 -318zM356 163c106 0 169 45 169 162c0 221 -102 360 -169 360s-169 -139 -169 -360c0 -117 63 -162 169 -162zM278 1061c24 0 55 -7 76 -16
c39 -15 78 -32 116 -32c60 0 46 41 67 41c19 0 24 -8 24 -13c0 -4 -10 -122 -147 -122c-40 0 -76 12 -109 24c-32 12 -60 23 -83 23c-40 0 -36 -36 -41 -36c-10 0 -30 -2 -30 14c0 44 41 117 127 117z" />
    <glyph glyph-name="Scaron" unicode="&#x160;" horiz-adv-x="646" 
d="M488 622c-25 0 -64 90 -168 90c-50 0 -114 -25 -114 -83c0 -72 99 -100 154 -119c210 -70 253 -171 253 -266c0 -116 -83 -259 -294 -259c-142 0 -286 76 -286 235c0 85 51 135 61 135c17 0 0 -203 215 -203c76 0 142 33 142 95c0 73 -90 103 -148 121
c-219 68 -243 167 -243 252c0 84 57 227 260 227c145 0 248 -77 248 -106c0 -28 -52 -119 -80 -119zM249 1063l60 -59c5 -5 21 -23 30 -23c10 0 27 18 33 25l37 40c11 11 27 30 43 30c9 0 63 -19 63 -35c0 -12 -14 -26 -22 -34l-100 -107c-23 -24 -27 -31 -60 -31
c-43 0 -51 11 -81 42l-108 107c-6 5 -13 11 -13 19c0 5 69 39 97 39c9 0 16 -9 21 -13z" />
    <glyph glyph-name="Uacute" unicode="&#xda;" horiz-adv-x="673" 
d="M483 832h98c20 0 59 -16 59 -376c0 -294 -90 -471 -304 -471c-188 0 -303 145 -303 444c0 320 38 403 51 403h139c10 0 22 0 22 -13c0 -23 -50 -129 -50 -359c0 -227 82 -297 141 -297c50 0 158 13 158 287c0 260 -49 351 -49 369c0 16 29 13 38 13zM303 912l76 142
c20 37 20 32 65 32c17 0 65 7 65 -23c0 -24 -144 -190 -205 -184c-6 0 -13 1 -13 7c0 7 9 21 12 26z" />
    <glyph glyph-name="Ucircumflex" unicode="&#xdb;" horiz-adv-x="673" 
d="M483 832h98c20 0 59 -16 59 -376c0 -294 -90 -471 -304 -471c-188 0 -303 145 -303 444c0 320 38 403 51 403h139c10 0 22 0 22 -13c0 -23 -50 -129 -50 -359c0 -227 82 -297 141 -297c50 0 158 13 158 287c0 260 -49 351 -49 369c0 16 29 13 38 13zM408 1049l108 -107
c6 -5 13 -11 13 -19c0 -5 -69 -39 -97 -39c-9 0 -16 9 -21 13l-60 59c-5 5 -21 23 -30 23c-10 0 -27 -18 -33 -25l-37 -40c-11 -11 -27 -30 -43 -30c-9 0 -63 19 -63 35c0 12 14 26 22 34l100 107c23 24 27 31 60 31c43 0 51 -11 81 -42z" />
    <glyph glyph-name="Udieresis" unicode="&#xdc;" horiz-adv-x="673" 
d="M483 832h98c20 0 59 -16 59 -376c0 -294 -90 -471 -304 -471c-188 0 -303 145 -303 444c0 320 38 403 51 403h139c10 0 22 0 22 -13c0 -23 -50 -129 -50 -359c0 -227 82 -297 141 -297c50 0 158 13 158 287c0 260 -49 351 -49 369c0 16 29 13 38 13zM451 901
c-48 0 -89 28 -89 80s41 80 89 80s89 -28 89 -80s-41 -80 -89 -80zM222 901c-48 0 -89 28 -89 80s41 80 89 80s89 -28 89 -80s-41 -80 -89 -80z" />
    <glyph glyph-name="Ugrave" unicode="&#xd9;" horiz-adv-x="673" 
d="M483 832h98c20 0 59 -16 59 -376c0 -294 -90 -471 -304 -471c-188 0 -303 145 -303 444c0 320 38 403 51 403h139c10 0 22 0 22 -13c0 -23 -50 -129 -50 -359c0 -227 82 -297 141 -297c50 0 158 13 158 287c0 260 -49 351 -49 369c0 16 29 13 38 13zM294 1054l76 -142
c3 -5 12 -19 12 -26c0 -6 -7 -7 -13 -7c-61 -6 -205 160 -205 184c0 30 48 23 65 23c45 0 45 5 65 -32z" />
    <glyph glyph-name="Yacute" unicode="&#xdd;" horiz-adv-x="644" 
d="M505 832h75c40 0 48 -14 48 -53c0 -315 -264 -380 -264 -696c0 -22 6 -43 6 -64s-31 -19 -46 -19h-116c-27 0 -31 38 -31 58c0 120 67 207 67 241c0 35 -228 192 -228 457c0 75 14 76 59 76h80c19 0 57 2 57 -26c0 -8 -9 -61 -9 -78c0 -143 98 -272 128 -272
c29 0 143 158 143 277c0 32 -9 74 -9 82c0 21 26 17 40 17zM309 912l76 142c20 37 20 32 65 32c17 0 65 7 65 -23c0 -24 -144 -190 -205 -184c-6 0 -13 1 -13 7c0 7 9 21 12 26z" />
    <glyph glyph-name="Ydieresis" unicode="&#x178;" horiz-adv-x="644" 
d="M505 832h75c40 0 48 -14 48 -53c0 -315 -264 -380 -264 -696c0 -22 6 -43 6 -64s-31 -19 -46 -19h-116c-27 0 -31 38 -31 58c0 120 67 207 67 241c0 35 -228 192 -228 457c0 75 14 76 59 76h80c19 0 57 2 57 -26c0 -8 -9 -61 -9 -78c0 -143 98 -272 128 -272
c29 0 143 158 143 277c0 32 -9 74 -9 82c0 21 26 17 40 17zM437 901c-48 0 -89 28 -89 80s41 80 89 80s89 -28 89 -80s-41 -80 -89 -80zM208 901c-48 0 -89 28 -89 80s41 80 89 80s89 -28 89 -80s-41 -80 -89 -80z" />
    <glyph glyph-name="Zcaron" unicode="&#x17d;" horiz-adv-x="620" 
d="M535 0h-452c-39 0 -67 -6 -67 42c0 235 328 559 328 629c0 35 -33 43 -62 43c-105 0 -130 -57 -149 -57c-25 0 -68 156 -68 166c0 13 33 9 40 9h460c17 0 39 -9 39 -32c0 -120 -364 -485 -364 -611c0 -44 54 -61 97 -61c104 0 143 73 165 73c19 0 78 -181 78 -186
c0 -9 -11 -15 -45 -15zM236 1063l60 -59c5 -5 21 -23 30 -23c10 0 27 18 33 25l37 40c11 11 27 30 43 30c9 0 63 -19 63 -35c0 -12 -14 -26 -22 -34l-100 -107c-23 -24 -27 -31 -60 -31c-43 0 -51 11 -81 42l-108 107c-6 5 -13 11 -13 19c0 5 69 39 97 39c9 0 16 -9 21 -13z
" />
    <glyph glyph-name="aacute" unicode="&#xe1;" horiz-adv-x="520" 
d="M331 197v44c0 35 6 77 -42 77c-59 0 -121 -50 -121 -111c0 -56 49 -89 102 -89c59 0 61 30 61 79zM33 184c0 126 124 213 236 232c29 5 52 10 52 43c0 51 -53 78 -97 78c-102 0 -87 -86 -109 -86c-32 0 -67 39 -67 82c0 74 83 122 175 122c32 0 169 1 220 -139
c21 -58 23 -354 23 -389c0 -44 8 -70 8 -104c0 -21 -94 -23 -183 -23c-241 0 -258 124 -258 184zM227 719l76 142c20 37 20 32 65 32c17 0 65 7 65 -23c0 -24 -144 -190 -205 -184c-6 0 -13 1 -13 7c0 7 9 21 12 26z" />
    <glyph glyph-name="acircumflex" unicode="&#xe2;" horiz-adv-x="520" 
d="M331 197v44c0 35 6 77 -42 77c-59 0 -121 -50 -121 -111c0 -56 49 -89 102 -89c59 0 61 30 61 79zM33 184c0 126 124 213 236 232c29 5 52 10 52 43c0 51 -53 78 -97 78c-102 0 -87 -86 -109 -86c-32 0 -67 39 -67 82c0 74 83 122 175 122c32 0 169 1 220 -139
c21 -58 23 -354 23 -389c0 -44 8 -70 8 -104c0 -21 -94 -23 -183 -23c-241 0 -258 124 -258 184zM321 856l108 -107c6 -5 13 -11 13 -19c0 -5 -69 -39 -97 -39c-9 0 -16 9 -21 13l-60 59c-5 5 -21 23 -30 23c-10 0 -27 -18 -33 -25l-37 -40c-11 -11 -27 -30 -43 -30
c-9 0 -63 19 -63 35c0 12 14 26 22 34l100 107c23 24 27 31 60 31c43 0 51 -11 81 -42z" />
    <glyph glyph-name="adieresis" unicode="&#xe4;" horiz-adv-x="520" 
d="M331 197v44c0 35 6 77 -42 77c-59 0 -121 -50 -121 -111c0 -56 49 -89 102 -89c59 0 61 30 61 79zM33 184c0 126 124 213 236 232c29 5 52 10 52 43c0 51 -53 78 -97 78c-102 0 -87 -86 -109 -86c-32 0 -67 39 -67 82c0 74 83 122 175 122c32 0 169 1 220 -139
c21 -58 23 -354 23 -389c0 -44 8 -70 8 -104c0 -21 -94 -23 -183 -23c-241 0 -258 124 -258 184zM375 708c-48 0 -89 28 -89 80s41 80 89 80s89 -28 89 -80s-41 -80 -89 -80zM146 708c-48 0 -89 28 -89 80s41 80 89 80s89 -28 89 -80s-41 -80 -89 -80z" />
    <glyph glyph-name="agrave" unicode="&#xe0;" horiz-adv-x="520" 
d="M331 197v44c0 35 6 77 -42 77c-59 0 -121 -50 -121 -111c0 -56 49 -89 102 -89c59 0 61 30 61 79zM33 184c0 126 124 213 236 232c29 5 52 10 52 43c0 51 -53 78 -97 78c-102 0 -87 -86 -109 -86c-32 0 -67 39 -67 82c0 74 83 122 175 122c32 0 169 1 220 -139
c21 -58 23 -354 23 -389c0 -44 8 -70 8 -104c0 -21 -94 -23 -183 -23c-241 0 -258 124 -258 184zM248 861l76 -142c3 -5 12 -19 12 -26c0 -6 -7 -7 -13 -7c-61 -6 -205 160 -205 184c0 30 48 23 65 23c45 0 45 5 65 -32z" />
    <glyph glyph-name="aring" unicode="&#xe5;" horiz-adv-x="520" 
d="M331 197v44c0 35 6 77 -42 77c-59 0 -121 -50 -121 -111c0 -56 49 -89 102 -89c59 0 61 30 61 79zM33 184c0 126 124 213 236 232c29 5 52 10 52 43c0 51 -53 78 -97 78c-102 0 -87 -86 -109 -86c-32 0 -67 39 -67 82c0 74 83 122 175 122c32 0 169 1 220 -139
c21 -58 23 -354 23 -389c0 -44 8 -70 8 -104c0 -21 -94 -23 -183 -23c-241 0 -258 124 -258 184zM250 677c-70 0 -123 52 -123 117c0 62 52 114 121 114c71 0 125 -48 125 -115c0 -63 -54 -116 -123 -116zM250 739c32 0 51 25 51 56c0 28 -24 51 -52 51s-50 -24 -50 -52
c0 -29 19 -55 51 -55z" />
    <glyph glyph-name="atilde" unicode="&#xe3;" horiz-adv-x="520" 
d="M331 197v44c0 35 6 77 -42 77c-59 0 -121 -50 -121 -111c0 -56 49 -89 102 -89c59 0 61 30 61 79zM33 184c0 126 124 213 236 232c29 5 52 10 52 43c0 51 -53 78 -97 78c-102 0 -87 -86 -109 -86c-32 0 -67 39 -67 82c0 74 83 122 175 122c32 0 169 1 220 -139
c21 -58 23 -354 23 -389c0 -44 8 -70 8 -104c0 -21 -94 -23 -183 -23c-241 0 -258 124 -258 184zM182 868c24 0 55 -7 76 -16c39 -15 78 -32 116 -32c60 0 46 41 67 41c19 0 24 -8 24 -13c0 -4 -10 -122 -147 -122c-40 0 -76 12 -109 24c-32 12 -60 23 -83 23
c-40 0 -36 -36 -41 -36c-10 0 -30 -2 -30 14c0 44 41 117 127 117z" />
    <glyph glyph-name="ccedilla" unicode="&#xe7;" horiz-adv-x="488" 
d="M97 -99c0 13 50 58 103 91c-125 32 -179 168 -179 296c0 172 87 367 284 367c87 0 150 -47 150 -104c0 -30 -22 -88 -59 -88c-23 0 -19 74 -100 74c-103 0 -140 -136 -140 -220c0 -97 46 -178 141 -178c108 0 133 99 142 99c5 0 15 -18 15 -59c0 -75 -31 -133 -84 -165
c-13 -13 -54 -36 -54 -62c0 -21 75 -23 75 -82c0 -82 -152 -117 -222 -117c-24 0 -36 4 -36 13c0 18 80 29 80 64c0 65 -116 54 -116 71z" />
    <glyph glyph-name="eacute" unicode="&#xe9;" horiz-adv-x="525" 
d="M274 -15c-179 0 -253 148 -253 308c0 242 134 362 268 362c110 0 203 -62 203 -180c0 -215 -322 -170 -322 -274c0 -47 76 -81 126 -81c164 0 164 125 178 125c15 0 18 -52 18 -60c0 -127 -98 -200 -218 -200zM284 537c-81 0 -128 -87 -128 -145c0 -11 5 -22 18 -22
c12 0 194 40 194 91c0 49 -46 76 -84 76zM229 719l76 142c20 37 20 32 65 32c17 0 65 7 65 -23c0 -24 -144 -190 -205 -184c-6 0 -13 1 -13 7c0 7 9 21 12 26z" />
    <glyph glyph-name="ecircumflex" unicode="&#xea;" horiz-adv-x="525" 
d="M274 -15c-179 0 -253 148 -253 308c0 242 134 362 268 362c110 0 203 -62 203 -180c0 -215 -322 -170 -322 -274c0 -47 76 -81 126 -81c164 0 164 125 178 125c15 0 18 -52 18 -60c0 -127 -98 -200 -218 -200zM284 537c-81 0 -128 -87 -128 -145c0 -11 5 -22 18 -22
c12 0 194 40 194 91c0 49 -46 76 -84 76zM334 856l108 -107c6 -5 13 -11 13 -19c0 -5 -69 -39 -97 -39c-9 0 -16 9 -21 13l-60 59c-5 5 -21 23 -30 23c-10 0 -27 -18 -33 -25l-37 -40c-11 -11 -27 -30 -43 -30c-9 0 -63 19 -63 35c0 12 14 26 22 34l100 107
c23 24 27 31 60 31c43 0 51 -11 81 -42z" />
    <glyph glyph-name="edieresis" unicode="&#xeb;" horiz-adv-x="525" 
d="M274 -15c-179 0 -253 148 -253 308c0 242 134 362 268 362c110 0 203 -62 203 -180c0 -215 -322 -170 -322 -274c0 -47 76 -81 126 -81c164 0 164 125 178 125c15 0 18 -52 18 -60c0 -127 -98 -200 -218 -200zM284 537c-81 0 -128 -87 -128 -145c0 -11 5 -22 18 -22
c12 0 194 40 194 91c0 49 -46 76 -84 76zM377 708c-48 0 -89 28 -89 80s41 80 89 80s89 -28 89 -80s-41 -80 -89 -80zM148 708c-48 0 -89 28 -89 80s41 80 89 80s89 -28 89 -80s-41 -80 -89 -80z" />
    <glyph glyph-name="egrave" unicode="&#xe8;" horiz-adv-x="525" 
d="M274 -15c-179 0 -253 148 -253 308c0 242 134 362 268 362c110 0 203 -62 203 -180c0 -215 -322 -170 -322 -274c0 -47 76 -81 126 -81c164 0 164 125 178 125c15 0 18 -52 18 -60c0 -127 -98 -200 -218 -200zM284 537c-81 0 -128 -87 -128 -145c0 -11 5 -22 18 -22
c12 0 194 40 194 91c0 49 -46 76 -84 76zM280 861l76 -142c3 -5 12 -19 12 -26c0 -6 -7 -7 -13 -7c-61 -6 -205 160 -205 184c0 30 48 23 65 23c45 0 45 5 65 -32z" />
    <glyph glyph-name="iacute" unicode="&#xed;" horiz-adv-x="266" 
d="M167 0h-68c-49 0 -53 -21 -53 331c0 342 16 309 49 309h55c42 0 43 -3 43 -15c0 -37 -12 -74 -12 -183c0 -252 39 -407 39 -416c0 -32 -30 -26 -53 -26zM70 719l76 142c20 37 20 32 65 32c17 0 65 7 65 -23c0 -24 -144 -190 -205 -184c-6 0 -13 1 -13 7c0 7 9 21 12 26z
" />
    <glyph glyph-name="icircumflex" unicode="&#xee;" horiz-adv-x="266" 
d="M167 0h-68c-49 0 -53 -21 -53 331c0 342 16 309 49 309h55c42 0 43 -3 43 -15c0 -37 -12 -74 -12 -183c0 -252 39 -407 39 -416c0 -32 -30 -26 -53 -26zM204 856l108 -107c6 -5 13 -11 13 -19c0 -5 -69 -39 -97 -39c-9 0 -16 9 -21 13l-60 59c-5 5 -21 23 -30 23
c-10 0 -27 -18 -33 -25l-37 -40c-11 -11 -27 -30 -43 -30c-9 0 -63 19 -63 35c0 12 14 26 22 34l100 107c23 24 27 31 60 31c43 0 51 -11 81 -42z" />
    <glyph glyph-name="idieresis" unicode="&#xef;" horiz-adv-x="266" 
d="M167 0h-68c-49 0 -53 -21 -53 331c0 342 16 309 49 309h55c42 0 43 -3 43 -15c0 -37 -12 -74 -12 -183c0 -252 39 -407 39 -416c0 -32 -30 -26 -53 -26zM248 708c-48 0 -89 28 -89 80s41 80 89 80s89 -28 89 -80s-41 -80 -89 -80zM19 708c-48 0 -89 28 -89 80
s41 80 89 80s89 -28 89 -80s-41 -80 -89 -80z" />
    <glyph glyph-name="igrave" unicode="&#xec;" horiz-adv-x="266" 
d="M167 0h-68c-49 0 -53 -21 -53 331c0 342 16 309 49 309h55c42 0 43 -3 43 -15c0 -37 -12 -74 -12 -183c0 -252 39 -407 39 -416c0 -32 -30 -26 -53 -26zM121 861l76 -142c3 -5 12 -19 12 -26c0 -6 -7 -7 -13 -7c-61 -6 -205 160 -205 184c0 30 48 23 65 23
c45 0 45 5 65 -32z" />
    <glyph glyph-name="ntilde" unicode="&#xf1;" horiz-adv-x="552" 
d="M441 0h-86c-13 0 -35 -3 -35 16c0 10 51 143 51 346c0 71 -6 160 -74 160c-38 0 -116 -25 -116 -223c0 -120 29 -274 29 -286c0 -14 -17 -13 -27 -13h-85c-37 0 -52 -17 -52 247c0 453 35 425 112 425c35 0 71 5 71 -18c0 -10 -9 -22 -9 -36c0 -10 5 -19 15 -19
c17 0 63 41 127 41c28 0 144 -4 144 -267c0 -393 -31 -373 -65 -373zM188 868c24 0 55 -7 76 -16c39 -15 78 -32 116 -32c60 0 46 41 67 41c19 0 24 -8 24 -13c0 -4 -10 -122 -147 -122c-40 0 -76 12 -109 24c-32 12 -60 23 -83 23c-40 0 -36 -36 -41 -36
c-10 0 -30 -2 -30 14c0 44 41 117 127 117z" />
    <glyph glyph-name="oacute" unicode="&#xf3;" horiz-adv-x="544" 
d="M272 -15c-115 0 -251 101 -251 336c0 161 77 334 251 334s251 -173 251 -334c0 -235 -136 -336 -251 -336zM272 152c101 0 127 114 127 194c0 79 -28 191 -127 191s-127 -112 -127 -191c0 -80 26 -194 127 -194zM209 719l76 142c20 37 20 32 65 32c17 0 65 7 65 -23
c0 -24 -144 -190 -205 -184c-6 0 -13 1 -13 7c0 7 9 21 12 26z" />
    <glyph glyph-name="ocircumflex" unicode="&#xf4;" horiz-adv-x="544" 
d="M272 -15c-115 0 -251 101 -251 336c0 161 77 334 251 334s251 -173 251 -334c0 -235 -136 -336 -251 -336zM272 152c101 0 127 114 127 194c0 79 -28 191 -127 191s-127 -112 -127 -191c0 -80 26 -194 127 -194zM343 856l108 -107c6 -5 13 -11 13 -19
c0 -5 -69 -39 -97 -39c-9 0 -16 9 -21 13l-60 59c-5 5 -21 23 -30 23c-10 0 -27 -18 -33 -25l-37 -40c-11 -11 -27 -30 -43 -30c-9 0 -63 19 -63 35c0 12 14 26 22 34l100 107c23 24 27 31 60 31c43 0 51 -11 81 -42z" />
    <glyph glyph-name="odieresis" unicode="&#xf6;" horiz-adv-x="544" 
d="M272 -15c-115 0 -251 101 -251 336c0 161 77 334 251 334s251 -173 251 -334c0 -235 -136 -336 -251 -336zM272 152c101 0 127 114 127 194c0 79 -28 191 -127 191s-127 -112 -127 -191c0 -80 26 -194 127 -194zM387 708c-48 0 -89 28 -89 80s41 80 89 80s89 -28 89 -80
s-41 -80 -89 -80zM158 708c-48 0 -89 28 -89 80s41 80 89 80s89 -28 89 -80s-41 -80 -89 -80z" />
    <glyph glyph-name="ograve" unicode="&#xf2;" horiz-adv-x="544" 
d="M272 -15c-115 0 -251 101 -251 336c0 161 77 334 251 334s251 -173 251 -334c0 -235 -136 -336 -251 -336zM272 152c101 0 127 114 127 194c0 79 -28 191 -127 191s-127 -112 -127 -191c0 -80 26 -194 127 -194zM290 861l76 -142c3 -5 12 -19 12 -26c0 -6 -7 -7 -13 -7
c-61 -6 -205 160 -205 184c0 30 48 23 65 23c45 0 45 5 65 -32z" />
    <glyph glyph-name="otilde" unicode="&#xf5;" horiz-adv-x="544" 
d="M272 -15c-115 0 -251 101 -251 336c0 161 77 334 251 334s251 -173 251 -334c0 -235 -136 -336 -251 -336zM272 152c101 0 127 114 127 194c0 79 -28 191 -127 191s-127 -112 -127 -191c0 -80 26 -194 127 -194zM194 868c24 0 55 -7 76 -16c39 -15 78 -32 116 -32
c60 0 46 41 67 41c19 0 24 -8 24 -13c0 -4 -10 -122 -147 -122c-40 0 -76 12 -109 24c-32 12 -60 23 -83 23c-40 0 -36 -36 -41 -36c-10 0 -30 -2 -30 14c0 44 41 117 127 117z" />
    <glyph glyph-name="scaron" unicode="&#x161;" horiz-adv-x="517" 
d="M250 -15c-106 0 -211 62 -211 179c0 47 24 107 32 107c5 0 30 -151 172 -151c41 0 89 21 89 72c0 103 -270 76 -270 275c0 122 98 188 206 188c125 0 194 -75 194 -95c0 -19 -56 -100 -79 -100c-26 0 -32 77 -124 77c-31 0 -73 -14 -73 -44c0 -103 292 -101 292 -304
c0 -130 -108 -204 -228 -204zM185 870l60 -59c5 -5 21 -23 30 -23c10 0 27 18 33 25l37 40c11 11 27 30 43 30c9 0 63 -19 63 -35c0 -12 -14 -26 -22 -34l-100 -107c-23 -24 -27 -31 -60 -31c-43 0 -51 11 -81 42l-108 107c-6 5 -13 11 -13 19c0 5 69 39 97 39
c9 0 16 -9 21 -13z" />
    <glyph glyph-name="uacute" unicode="&#xfa;" horiz-adv-x="556" 
d="M374 640h93c42 0 43 -210 43 -305c0 -367 -26 -350 -98 -350c-105 0 -25 56 -82 56c-9 0 -32 -21 -50 -33c-18 -11 -41 -23 -74 -23c-83 0 -160 52 -160 338c0 17 7 317 49 317h92c13 0 40 5 40 -15c0 -15 -46 -115 -46 -304c0 -56 -1 -208 85 -208c33 0 109 10 109 225
c0 120 -35 274 -35 290c0 13 23 12 34 12zM245 719l76 142c20 37 20 32 65 32c17 0 65 7 65 -23c0 -24 -144 -190 -205 -184c-6 0 -13 1 -13 7c0 7 9 21 12 26z" />
    <glyph glyph-name="ucircumflex" unicode="&#xfb;" horiz-adv-x="556" 
d="M374 640h93c42 0 43 -210 43 -305c0 -367 -26 -350 -98 -350c-105 0 -25 56 -82 56c-9 0 -32 -21 -50 -33c-18 -11 -41 -23 -74 -23c-83 0 -160 52 -160 338c0 17 7 317 49 317h92c13 0 40 5 40 -15c0 -15 -46 -115 -46 -304c0 -56 -1 -208 85 -208c33 0 109 10 109 225
c0 120 -35 274 -35 290c0 13 23 12 34 12zM349 856l108 -107c6 -5 13 -11 13 -19c0 -5 -69 -39 -97 -39c-9 0 -16 9 -21 13l-60 59c-5 5 -21 23 -30 23c-10 0 -27 -18 -33 -25l-37 -40c-11 -11 -27 -30 -43 -30c-9 0 -63 19 -63 35c0 12 14 26 22 34l100 107
c23 24 27 31 60 31c43 0 51 -11 81 -42z" />
    <glyph glyph-name="udieresis" unicode="&#xfc;" horiz-adv-x="556" 
d="M374 640h93c42 0 43 -210 43 -305c0 -367 -26 -350 -98 -350c-105 0 -25 56 -82 56c-9 0 -32 -21 -50 -33c-18 -11 -41 -23 -74 -23c-83 0 -160 52 -160 338c0 17 7 317 49 317h92c13 0 40 5 40 -15c0 -15 -46 -115 -46 -304c0 -56 -1 -208 85 -208c33 0 109 10 109 225
c0 120 -35 274 -35 290c0 13 23 12 34 12zM393 708c-48 0 -89 28 -89 80s41 80 89 80s89 -28 89 -80s-41 -80 -89 -80zM164 708c-48 0 -89 28 -89 80s41 80 89 80s89 -28 89 -80s-41 -80 -89 -80z" />
    <glyph glyph-name="ugrave" unicode="&#xf9;" horiz-adv-x="556" 
d="M374 640h93c42 0 43 -210 43 -305c0 -367 -26 -350 -98 -350c-105 0 -25 56 -82 56c-9 0 -32 -21 -50 -33c-18 -11 -41 -23 -74 -23c-83 0 -160 52 -160 338c0 17 7 317 49 317h92c13 0 40 5 40 -15c0 -15 -46 -115 -46 -304c0 -56 -1 -208 85 -208c33 0 109 10 109 225
c0 120 -35 274 -35 290c0 13 23 12 34 12zM266 861l76 -142c3 -5 12 -19 12 -26c0 -6 -7 -7 -13 -7c-61 -6 -205 160 -205 184c0 30 48 23 65 23c45 0 45 5 65 -32z" />
    <glyph glyph-name="yacute" unicode="&#xfd;" horiz-adv-x="513" 
d="M26 23v88c0 12 2 41 29 41c115 0 145 37 145 50c0 42 -174 113 -174 391c0 45 -1 47 38 47h82c13 0 35 3 35 -18c0 -14 -9 -45 -9 -75c0 -117 98 -227 118 -227c40 0 67 120 67 197c0 50 -11 92 -11 108c0 18 25 15 36 15h89c19 -3 16 -35 16 -78
c9 -293 -217 -577 -437 -577c-23 0 -24 15 -24 38zM243 719l76 142c20 37 20 32 65 32c17 0 65 7 65 -23c0 -24 -144 -190 -205 -184c-6 0 -13 1 -13 7c0 7 9 21 12 26z" />
    <glyph glyph-name="ydieresis" unicode="&#xff;" horiz-adv-x="513" 
d="M26 23v88c0 12 2 41 29 41c115 0 145 37 145 50c0 42 -174 113 -174 391c0 45 -1 47 38 47h82c13 0 35 3 35 -18c0 -14 -9 -45 -9 -75c0 -117 98 -227 118 -227c40 0 67 120 67 197c0 50 -11 92 -11 108c0 18 25 15 36 15h89c19 -3 16 -35 16 -78
c9 -293 -217 -577 -437 -577c-23 0 -24 15 -24 38zM371 708c-48 0 -89 28 -89 80s41 80 89 80s89 -28 89 -80s-41 -80 -89 -80zM142 708c-48 0 -89 28 -89 80s41 80 89 80s89 -28 89 -80s-41 -80 -89 -80z" />
    <glyph glyph-name="zcaron" unicode="&#x17e;" horiz-adv-x="467" 
d="M397 0h-321c-26 0 -50 -5 -50 28c0 241 239 445 239 474c0 19 -33 20 -45 20c-85 0 -105 -26 -123 -26c-21 0 -42 119 -42 131c0 17 31 13 41 13h301c28 0 44 4 44 -31c0 -12 -1 -99 -12 -119c-33 -62 -225 -250 -225 -350c0 -20 12 -22 41 -22c117 0 131 31 147 31
c18 0 44 -119 44 -135c0 -15 -30 -14 -39 -14zM160 870l60 -59c5 -5 21 -23 30 -23c10 0 27 18 33 25l37 40c11 11 27 30 43 30c9 0 63 -19 63 -35c0 -12 -14 -26 -22 -34l-100 -107c-23 -24 -27 -31 -60 -31c-43 0 -51 11 -81 42l-108 107c-6 5 -13 11 -13 19
c0 5 69 39 97 39c9 0 16 -9 21 -13z" />
    <glyph glyph-name="Omega" unicode="&#x2126;" horiz-adv-x="722" 
d="M167 131v3c-59 69 -119 179 -119 320c0 196 124 369 315 369c209 0 306 -202 306 -358c0 -143 -60 -263 -120 -331v-3h136v-131h-279v95c27 20 53 56 72 111c20 54 33 127 33 221c0 142 -49 259 -150 259c-96 0 -155 -110 -155 -266c0 -170 52 -286 106 -325v-95h-279
v131h134z" />
    <glyph glyph-name="pi" unicode="&#x3c0;" horiz-adv-x="644" 
d="M621 473h-70v-309c0 -78 5 -127 13 -164h-149c-14 28 -19 86 -19 161v312h-127c-5 -112 -27 -338 -66 -473h-149c35 145 61 357 63 473c-46 0 -74 -4 -96 -10l-17 108c28 23 88 41 181 41h446z" />
    <glyph glyph-name="Euro" unicode="&#x20ac;" 
d="M533 789v-147c-22 23 -62 43 -127 43c-81 0 -125 -45 -138 -140h233l-34 -107h-210c0 -9 -1 -20 -1 -31c0 -12 1 -26 1 -36h188l-34 -107h-142c12 -96 58 -140 138 -140c61 0 103 19 126 40v-146c-20 -15 -72 -32 -156 -32c-151 0 -245 85 -272 278h-86l33 107h42
c-1 9 -1 21 -1 36c0 11 0 20 1 31h-75l33 107h51c25 178 111 280 274 280c77 0 134 -21 156 -36z" />
    <glyph glyph-name="estimated" unicode="&#x212e;" horiz-adv-x="1014" 
d="M974 394h-757c-4 0 -6 -1 -6 -5v-229c0 -10 4 -19 10 -26c73 -76 174 -125 286 -125c121 0 228 55 301 140h67c-83 -99 -219 -163 -369 -163c-258 0 -467 188 -467 419c0 233 209 421 467 421c259 0 468 -188 468 -421v-11zM802 424v230c0 10 -4 20 -11 27
c-74 72 -173 120 -284 120s-211 -49 -285 -124c-7 -7 -11 -17 -11 -28v-225c0 -3 2 -8 6 -8h580c4 0 5 5 5 8z" />
    <glyph glyph-name="partialdiff" unicode="&#x2202;" horiz-adv-x="618" 
d="M113 729l-41 124c34 27 96 65 197 65c155 0 296 -141 296 -440c0 -303 -110 -487 -302 -487c-148 0 -222 147 -222 275c0 194 105 308 230 308c77 0 126 -50 141 -76h1c1 7 1 27 1 34c0 122 -62 252 -167 252c-61 0 -105 -29 -134 -55zM279 127h1c71 0 111 133 121 237
c-9 30 -43 80 -100 80c-66 0 -107 -92 -107 -187c0 -72 32 -130 85 -130z" />
    <glyph glyph-name="product" unicode="&#x220f;" horiz-adv-x="773" 
d="M743 664h-101v-776h-155v776h-202v-776h-155v776h-102v147h715v-147z" />
    <glyph glyph-name="summation" unicode="&#x2211;" horiz-adv-x="587" 
d="M567 -112h-540v106l244 358l-238 345v114h518v-135h-314v-3l207 -291l-234 -340v-3h357v-151z" />
    <glyph glyph-name="uni2219" unicode="&#x2219;" horiz-adv-x="290" 
d="M144 226c-62 0 -111 50 -111 111c0 60 50 109 110 109c63 0 114 -48 114 -110s-51 -110 -113 -110z" />
    <glyph glyph-name="radical" unicode="&#x221a;" horiz-adv-x="639" 
d="M646 979l-236 -1134h-122l-150 497l-79 -31l-24 90l197 80l95 -336c8 -42 17 -84 21 -110l2 -2c4 27 9 74 17 121l173 825h106z" />
    <glyph glyph-name="infinity" unicode="&#x221e;" horiz-adv-x="858" 
d="M806 335v-1c0 -125 -88 -198 -180 -198c-63 0 -123 23 -195 123c-56 -72 -114 -123 -203 -123c-92 0 -176 76 -176 192s80 195 186 195c81 0 139 -44 196 -120c42 49 97 120 198 120c96 -1 174 -74 174 -188zM239 221h2c59 0 101 50 144 103c-45 62 -80 115 -149 115
c-62 0 -98 -47 -98 -112c0 -58 45 -106 101 -106zM623 439h-1c-65 0 -111 -67 -145 -107c64 -84 96 -111 151 -111c59 0 92 60 92 106c0 63 -38 112 -97 112z" />
    <glyph glyph-name="integral" unicode="&#x222b;" horiz-adv-x="453" 
d="M420 995l-15 -113c-10 5 -21 9 -36 9c-21 0 -39 -8 -53 -30c-21 -30 -26 -98 -26 -191c0 -192 15 -336 15 -551c0 -106 -12 -185 -36 -234c-31 -66 -94 -89 -152 -89c-38 0 -70 9 -86 18l18 116c11 -5 25 -11 45 -11c16 0 33 5 44 21c17 27 25 76 25 175
c0 219 -15 366 -15 569c0 138 18 213 66 267c33 37 86 55 137 55c29 0 55 -6 69 -11z" />
    <glyph glyph-name="approxequal" unicode="&#x2248;" 
d="M486 523l54 -48c-32 -69 -86 -120 -147 -120c-41 0 -69 12 -117 43c-32 22 -55 38 -89 38c-46 0 -69 -41 -94 -79l-54 48c30 66 88 118 156 118c52 0 86 -24 111 -39c37 -24 60 -41 89 -41c40 0 64 35 91 80zM486 311l54 -48c-32 -68 -85 -120 -148 -120
c-40 0 -69 13 -116 43c-33 22 -56 39 -89 39c-46 0 -69 -42 -94 -81l-54 48c30 67 88 119 156 119c53 0 86 -24 111 -39c34 -20 58 -41 88 -41c42 0 64 34 92 80z" />
    <glyph glyph-name="notequal" unicode="&#x2260;" 
d="M433 587l-40 -94h136v-91h-167l-61 -147h228v-90h-260l-51 -122l-70 27l41 95h-138v90h170l60 147h-230v91h262l49 119z" />
    <glyph glyph-name="lessequal" unicode="&#x2264;" 
d="M526 114l-469 249v99l468 249v-106l-384 -191v-2l385 -192v-106zM531 -20h-478v93h478v-93z" />
    <glyph glyph-name="greaterequal" unicode="&#x2265;" 
d="M60 711l469 -249v-99l-469 -249v106l384 192v2l-384 191v106zM530 -20h-476v93h476v-93z" />
    <glyph glyph-name="lozenge" unicode="&#x25ca;" horiz-adv-x="638" 
d="M585 405l-207 -461h-127l-198 461l207 462h127zM447 401l-103 253c-8 25 -17 56 -21 80h-4c-5 -25 -12 -54 -21 -80l-107 -246l105 -259c8 -24 15 -57 18 -74h6c4 19 14 60 19 71z" />
    <glyph glyph-name="uni02C9" unicode="&#x2c9;" horiz-adv-x="500" 
d="M329 708h-168c-16 0 -46 -5 -46 18c0 10 17 100 56 100h168c16 0 46 5 46 -18c0 -10 -17 -100 -56 -100z" />
    <glyph glyph-name="uni00AD" unicode="&#xad;" horiz-adv-x="250" 
d="M194 251h-148c-16 0 -46 -5 -46 18c0 10 17 110 56 110h148c16 0 46 5 46 -18c0 -10 -17 -110 -56 -110z" />
    <glyph glyph-name="uni03A9" unicode="&#x3a9;" horiz-adv-x="722" 
d="M167 131v3c-59 69 -119 179 -119 320c0 196 124 369 315 369c209 0 306 -202 306 -358c0 -143 -60 -263 -120 -331v-3h136v-131h-279v95c27 20 53 56 72 111c20 54 33 127 33 221c0 142 -49 259 -150 259c-96 0 -155 -110 -155 -266c0 -170 52 -286 106 -325v-95h-279
v131h134z" />
    <glyph glyph-name="uni00A0" unicode="&#xa0;" horiz-adv-x="290" 
 />
    <glyph glyph-name="afii61289" unicode="&#x2113;" horiz-adv-x="546" 
d="M472 214l59 -65c-57 -121 -139 -161 -222 -161c-137 0 -190 90 -198 187c0 4 0 9 -1 13c-16 -13 -35 -30 -53 -44l-36 83c33 30 62 53 88 81v292c0 196 91 291 200 291c104 0 149 -91 149 -209c0 -130 -76 -260 -198 -390v-62c1 -75 36 -115 85 -115c52 0 96 49 127 99z
M260 588v-149c65 85 108 181 108 252c0 55 -12 85 -51 85c-28 0 -57 -39 -57 -188z" />
    <glyph glyph-name="uni03BC" unicode="&#x3bc;" horiz-adv-x="556" 
d="M374 640h93c42 0 43 -179 43 -304c0 -217 -31 -200 -103 -200c-91 0 -16 66 -60 66c-11 0 -33 -39 -65 -39c-62 0 -96 2 -96 -48c0 -35 19 -90 19 -101c0 -16 -21 -14 -32 -14h-82c-31 0 -45 -9 -45 163v244c0 84 7 233 49 233h92c13 0 40 5 40 -15
c0 -15 -46 -105 -46 -203c0 -101 52 -124 85 -124s107 14 109 146c1 94 -35 168 -35 184c0 13 23 12 34 12z" />
    <glyph glyph-name="uni2215" unicode="&#x2215;" horiz-adv-x="231" 
d="M-25 -10h-98l380 832h98z" />
    <glyph glyph-name="a.superior" horiz-adv-x="400" 
d="M239 572v27c0 21 4 37 -24 37c-39 0 -72 -30 -72 -58c0 -20 25 -34 59 -34c33 0 37 17 37 28zM216 426c-180 0 -191 102 -191 138c0 76 94 132 167 144c19 3 41 2 41 21c0 21 -32 29 -61 29c-46 0 -56 -40 -70 -40c-44 0 -67 30 -67 56c0 44 54 79 114 79
c44 0 151 16 195 -65c11 -21 13 -242 13 -263c0 -49 5 -65 5 -85c0 -13 -88 -14 -146 -14z" />
    <glyph glyph-name="o.superior" horiz-adv-x="400" 
d="M200 435c-95 0 -190 61 -190 212c0 96 57 206 190 206s190 -110 190 -206c0 -151 -95 -212 -190 -212zM200 563c56 0 72 49 72 97s-17 98 -72 98c-54 0 -72 -50 -72 -98s17 -97 72 -97z" />
    <glyph glyph-name="one.superior" horiz-adv-x="350" 
d="M110 468c0 89 7 165 7 224c0 51 -53 48 -53 69c0 14 62 65 130 65c23 0 52 -6 52 -22c0 -12 -18 -87 -18 -181c0 -82 22 -208 22 -263c0 -20 -96 -33 -118 -33c-15 0 -22 -8 -22 141z" />
    <glyph glyph-name="two.superior" horiz-adv-x="350" 
d="M134 463c0 -6 6 -9 12 -9c5 0 21 5 42 5s48 -12 65 -12c25 0 46 8 46 38c0 13 -10 27 -3 27c5 0 36 -34 36 -91c0 -60 -54 -102 -95 -102c-15 0 -36 4 -57 8c-20 4 -40 8 -55 8c-32 0 -68 -16 -84 -16c-21 0 -25 16 -25 32c0 206 217 227 217 328c0 34 -14 52 -54 52
c-68 0 -94 -80 -107 -80c-6 0 -46 66 -46 72c0 31 59 103 151 103c88 0 156 -46 156 -131c0 -149 -199 -203 -199 -232z" />
    <glyph glyph-name="three.superior" horiz-adv-x="350" 
d="M72 811h215c16 0 38 4 38 -17c0 -98 -98 -162 -98 -176c0 -15 106 -23 106 -139c0 -94 -63 -171 -169 -171c-94 0 -147 60 -147 67c0 5 62 104 68 104c14 0 33 -43 77 -43c37 0 53 26 53 47c0 56 -41 80 -104 85c-8 0 -23 3 -23 12c0 21 110 102 110 119
c0 16 -16 17 -27 17c-37 0 -86 -21 -103 -21c-10 0 -28 90 -28 103c0 16 20 13 32 13z" />
    <glyph glyph-name="uni2206" unicode="&#x2206;" horiz-adv-x="690" 
d="M28 0v93l230 733h184l219 -730v-96h-633zM185 130h314l-97 297c-15 65 -46 162 -56 212h-3c-8 -43 -37 -127 -53 -195z" />
    <glyph glyph-name="uni2010" unicode="&#x2010;" horiz-adv-x="250" 
d="M194 251h-148c-16 0 -46 -5 -46 18c0 10 17 110 56 110h148c16 0 46 5 46 -18c0 -10 -17 -110 -56 -110z" />
    </font>
</defs>
</svg>
