<?xml version="1.0" standalone="no"?>
<!DOCTYPE svg PUBLIC "-//W3C//DTD SVG 1.1//EN" "http://www.w3.org/Graphics/SVG/1.1/DTD/svg11.dtd" >
<svg xmlns="http://www.w3.org/2000/svg" xmlns:xlink="http://www.w3.org/1999/xlink" version="1.1">
<metadata>
Created by FontForge 20150913 at Thu Mar 31 08:02:22 2016
 By Jimmy Wärting
Copyright (c) 2011 by Mans Greba:ck. All rights reserved.
</metadata>
<defs>
<font id="Gretoon" horiz-adv-x="833" >
  <font-face 
    font-family="Gretoon"
    font-weight="400"
    font-stretch="normal"
    units-per-em="1000"
    panose-1="0 0 0 0 0 0 0 0 0 0"
    ascent="750"
    descent="-250"
    x-height="612"
    cap-height="859"
    bbox="-497.629 -730 1854.78 1197"
    underline-thickness="50"
    underline-position="-100"
    unicode-range="U+0020-FB02"
  />
<missing-glyph horiz-adv-x="500" 
 />
    <glyph glyph-name=".notdef" horiz-adv-x="500" 
 />
    <glyph glyph-name=".null" horiz-adv-x="0" 
 />
    <glyph glyph-name="nonmarkingreturn" horiz-adv-x="500" 
 />
    <glyph glyph-name="space" unicode=" " horiz-adv-x="500" 
 />
    <glyph glyph-name="space" unicode="&#xa0;" horiz-adv-x="500" 
 />
    <glyph glyph-name="c" unicode="c" horiz-adv-x="847" 
d="M600 415l-2 1h-1q-1 0 -1 0.5t-1 0.5q-2 0 -2.5 0.5t-2.5 0.5q-2 1 -4 1.5t-4 1.5q-5 2 -9 2.5t-9 1.5q-9 2 -18.5 3t-18.5 2q-18 1 -35.5 -1t-34.5 -6q-35 -9 -61 -27q-14 -8 -24.5 -18.5t-19.5 -21.5q-8 -11 -13.5 -22.5t-8.5 -22.5q-4 -9 -4 -20q-2 -9 0 -17
q0 -5 0.5 -8t1.5 -7q1 -3 3 -7q0 -1 2 -7q7 -11 17 -21q5 -5 11 -10t14 -10t15.5 -9t16.5 -9q9 -4 19 -8t21 -6q3 -1 5.5 -1.5t5.5 -1.5h3l1 -1h1h1h1h2l2 -1q6 -1 12 -1.5t12 -0.5q11 -1 23 -0.5t24 2.5t24 5t24 8q6 2 11.5 5t11.5 6q5 4 11 7t11 8q5 4 10.5 9t10.5 10
q2 3 5 6t5 6q2 2 2.5 3t2.5 3q2 4 5 7l15 22q10 15 24.5 24t31 12t33 -0.5t31.5 -13.5q27 -18 35 -49q2 -7 4 -17q1 -4 1 -8t1 -8q1 -8 1.5 -17t0.5 -17q-2 -37 -10 -68q-8 -35 -24 -66q-16 -34 -37 -59q-42 -56 -102 -94l-30 -18q-8 -4 -16 -7.5t-16 -7.5
q-16 -7 -32.5 -12.5t-33.5 -10.5q-33 -8 -69 -12q-5 0 -8 -1h-5h-2h-1h-1h-1h-1h-2l-5 -1h-8h-35q-35 2 -70.5 9t-69.5 21q-71 26 -127 75q-29 25 -53 55t-43 65q-5 8 -8.5 17t-7.5 19q-4 9 -7.5 18t-6.5 19q-5 19 -9 38.5t-6 39.5q-1 11 -1.5 20.5t-0.5 19.5q1 10 1 19.5
t2 19.5q2 20 6.5 39t10.5 38q12 37 32 69q10 17 21 31t23 28q25 27 53 47.5t57 35.5q58 29 123 40q8 1 15 2t15 2t15.5 1t15.5 1h15t15 -1q8 0 15 -0.5t15 -1.5q14 -2 29 -4t29 -6q27 -7 55 -18q14 -5 26.5 -11.5t25.5 -13.5l24 -15q3 -3 11 -9q4 -2 6 -4l3 -2v-1h1l1 -1
q20 -17 22 -43t-15 -46q-14 -16 -33.5 -21t-37.5 3z" />
    <glyph glyph-name="d" unicode="d" horiz-adv-x="947" 
d="M-2 243q0 82 31 154.5t85 126.5t126 85t154 31t154.5 -31t126.5 -85t85 -126.5t31 -154.5t-31 -154t-85 -126t-126.5 -85t-154.5 -31t-154 31t-126 85t-85 126t-31 154zM237 407q0 -21 12 -40t33 -33t48.5 -22t59.5 -8t60 8t49 22t33 33t12 40t-12 40t-33 33t-49 22
t-60 8t-59.5 -8t-48.5 -22t-33 -33t-12 -40zM961 109q10 -44 2.5 -86t-29 -77.5t-56 -61t-78.5 -35.5q-44 -11 -86 -3.5t-77 29.5t-61 56t-36 78q-6 34 -5 62l39 705q1 24 11 44t26.5 34.5t37.5 22.5t45 7q38 -2 67 -27t37 -61z" />
    <glyph glyph-name="e" unicode="e" horiz-adv-x="839" 
d="M423 177q9 -4 17 -5q3 -1 5.5 -1.5t5.5 -1.5h3l1 -1h5l3 -1q5 -1 11 -1.5t12 -0.5q22 -1 47 2q12 2 24 5t24 8q11 4 23 11q6 4 11.5 7t10.5 8t10.5 9.5t10.5 9.5q3 3 5.5 6t4.5 6q2 2 2.5 3t2.5 3t2.5 3.5t2.5 3.5l15 22q10 15 24.5 24t31 12t33.5 -0.5t32 -13.5
q26 -18 34 -49q2 -7 4 -17t2 -16q1 -8 1.5 -17t0.5 -17q-2 -35 -9 -68q-9 -36 -25 -66q-14 -29 -36 -59q-44 -56 -103 -94l-30 -18q-8 -4 -16 -7.5t-16 -7.5q-16 -7 -32.5 -12.5t-33.5 -9.5q-17 -5 -34 -8t-34 -5q-6 0 -9 -1h-13l-4 -1h-44q-35 2 -70.5 9t-69.5 21
q-34 13 -66 31.5t-61 43.5t-53 55t-42 65q-5 8 -9 17t-8 19q-4 9 -7.5 18t-6.5 19q-11 39 -15 78q-1 11 -1 20.5v19.5t0.5 19.5t1.5 19.5q2 20 6.5 39t10.5 38q12 37 32 69q19 33 44 59q25 27 53 47.5t57 35.5q30 15 61 25t62 15q8 2 15.5 2.5t15.5 1.5t15 1t15 1h15t15 -1
q8 0 15 -0.5t15 -1.5q32 -3 58 -10q27 -7 55 -18t52 -25l24 -15q3 -2 5.5 -4.5t5.5 -4.5q4 -2 6 -4l3 -2v-1h1l1 -1q20 -17 22.5 -41.5t-12.5 -44.5v-1l-2 -2q-2 -2 -2.5 -3t-1.5 -2q0 -1 -0.5 -1t-0.5 -1zM450 423q-35 -9 -61 -27q-26 -17 -43 -40q-9 -11 -14.5 -22.5
t-8.5 -22.5q-2 -5 -3 -10t-1 -10q-2 -9 0 -17q0 -8 3 -15q0 -3 2 -7l3 -6q3 -8 7 -12l172 196q-14 -1 -28 -2.5t-28 -4.5z" />
    <glyph glyph-name="f" unicode="f" horiz-adv-x="499" 
d="M-15 -3l36 258l18 129l2 16l1 8l1 4v2v1v1v-6v1v1v1v1l1 3v6q0 2 0.5 5t0.5 5q1 5 1.5 10t1.5 10q3 20 6.5 38.5t8.5 38.5q5 19 11 38t13 38q15 39 37 77q6 9 12 18.5t14 18.5q14 21 31 36q9 9 18.5 16.5t20.5 15.5t22 14t22 11q12 5 24 8.5t25 5.5q12 3 24 4t23 1h12
t11 -1h6h1h1l1 -1h1h1h3h2q2 -1 6 -1q11 -2 22 -4.5t22 -5.5q11 -4 21.5 -8.5t21.5 -10.5q23 -13 39 -29q19 -18 31 -38q4 -5 6.5 -10.5t5.5 -11.5q1 -2 2 -5l2 -6q2 -6 2 -7q1 -1 1 -4l2 -5q6 -23 -5 -43t-34 -26t-43 5t-26 34v-1v-1l-1 1l-3 3q-2 2 -3 2.5t-3 2.5
q-7 5 -14 8q-16 6 -33 5h-10.5t-10.5 -2h-2h-2l-1 -1h-1h-1h-1l-2 -1q-3 -1 -5.5 -1t-4.5 -2q-10 -3 -15 -7q-4 -2 -6.5 -4.5t-5.5 -4.5q-6 -8 -8 -12l-4 -6t-4 -7q-3 -8 -6 -16.5t-5 -19.5q-2 -10 -3.5 -21.5t-3.5 -23.5q-1 -24 0 -50q0 -13 1 -25.5t3 -25.5q1 -3 1 -6.5
t1 -6.5q1 -2 1 -5q0 -1 0.5 -1.5t0.5 -1.5v-1h1v-6v-1v-1v-2l1 -4l1 -8l2 -16l18 -129l36 -258q6 -41 -5 -79.5t-34 -69t-57.5 -51t-75.5 -26.5t-79.5 4.5t-69 34t-51 57.5t-26.5 75q-3 27 0 55zM92 290l362 203q20 11 43 4.5t35 -26.5q8 -15 7 -32t-11 -30l-247 -333
q-18 -24 -43 -39t-52.5 -19t-56 2.5t-52.5 24.5t-39 43t-19 53t2.5 56t24.5 52q19 25 46 41z" />
    <glyph glyph-name="g" unicode="g" horiz-adv-x="870" 
d="M240 13h1l2 -2h2l7 -4l15 -6q16 -7 29 -11q14 -5 28.5 -10t28.5 -9q55 -15 106 -15q26 0 45 4q23 5 40 12q20 8 34 21q8 7 16 14.5t15 18.5q7 10 13.5 21t11.5 24q4 10 7 21q-51 -32 -114 -50t-134 -18q-82 0 -154 24t-126 66t-85 98t-31 120t31 120t85 98t126 66t154 24
q59 0 112.5 -12.5t100.5 -35.5q11 34 46 45q25 8 48.5 -1.5t35.5 -31.5q20 -36 39 -73.5t36 -76.5q34 -78 56 -163q5 -22 9.5 -44t7.5 -45t5 -46t2 -48q0 -24 -1.5 -48.5t-5.5 -50.5q-9 -53 -28 -102q-22 -53 -54 -100q-17 -23 -37.5 -45t-43.5 -41t-48 -34t-51 -28
q-26 -12 -53 -21.5t-53 -15.5q-54 -14 -106 -18q-26 -2 -51.5 -2.5t-50.5 0.5q-50 2 -98 9q-12 2 -24 3.5t-24 3.5q-5 2 -11 2.5t-12 2.5l-12 2l-6 2h-3l-2 1q-41 8 -74 31t-55 56t-30 72.5t0 80.5q9 41 32 74t55.5 55t72 30t80.5 0q11 -2 21 -5.5t20 -7.5zM236 459
q0 -17 12 -31.5t33 -25t48.5 -17t59.5 -6.5t60 6.5t49 17t33 25t12 31.5q0 16 -12 31t-33 25.5t-49 17t-60 6.5t-59.5 -6.5t-48.5 -17t-33 -25.5t-12 -31z" />
    <glyph glyph-name="h" unicode="h" horiz-adv-x="873" 
d="M371 776l39 -705q2 -45 -12.5 -85t-42.5 -71t-66 -50t-83 -22q-45 -2 -85 12.5t-71 42.5t-50 66t-22 83q-2 32 6 62l162 687q6 23 19.5 41t32 29.5t41 15.5t45.5 -1q38 -9 61.5 -38.5t25.5 -66.5zM183 458l10 10q3 2 5.5 4.5t5.5 4.5q5 5 10.5 9.5t10.5 9.5
q11 8 22.5 16.5t23.5 16.5t24.5 15.5t25.5 14.5q29 15 57 23q30 11 64 15q17 2 35 2.5t36 -1.5q38 -5 74 -18q18 -7 35 -16t33 -20q33 -24 57 -49q25 -26 46 -55q19 -29 36 -57q8 -14 15 -29t14 -29q14 -29 24.5 -58t20.5 -58q9 -29 17 -57.5t15 -57.5l2 -9q9 -38 2.5 -75.5
t-25.5 -68.5t-49.5 -53.5t-68.5 -31.5t-75.5 -3t-68.5 25.5t-54 49.5t-32 69q-5 17 -5 35.5t2 35.5q3 23 5.5 45.5t4.5 44.5q2 23 2 44.5t-1 41.5q-2 42 -9 78l-4 16l-4 16q-5 15 -12 28q-8 15 -16 24q-5 5 -10.5 9.5t-12.5 8.5q-15 10 -31 14q-9 2 -18.5 4t-20.5 3
q-41 3 -90 -8q-24 -5 -47 -12q-5 -2 -11 -4l-12 -4q-3 -2 -5.5 -2.5t-5.5 -2.5l-6 -2t-5 -2l-2 -1q-12 -5 -24 0t-17 16q-8 20 7 35z" />
    <glyph glyph-name="i" unicode="i" horiz-adv-x="373" 
d="M284 529l89 -504q6 -34 -3 -65.5t-29 -57.5t-50 -43.5t-67 -23.5t-71.5 2t-62.5 26.5t-47 46.5t-25 62q-2 14 -2 27.5t2 25.5l89 504q6 34 35.5 53.5t67.5 14.5q29 -4 49.5 -23.5t24.5 -44.5zM307 673q0 -21 -9 -40t-24 -33t-35.5 -22t-43.5 -8t-43.5 8t-35.5 22t-24 33
t-9 40q0 22 9 41t24 33t35.5 22t43.5 8t43.5 -8t35.5 -22t24 -33t9 -41z" />
    <glyph glyph-name="j" unicode="j" horiz-adv-x="365" 
d="M-263 -230l4 1l4 1l7 1l15 3l30 6q14 4 27.5 7.5t27.5 8.5q53 16 97 43q43 26 72 61q7 9 14 19.5t13 21.5t10.5 22.5t9.5 25.5q18 51 21 116q2 32 0.5 65t-5.5 67t-10 68.5t-14 69.5t-18 69.5t-21 69.5q-9 29 4.5 55.5t42.5 35.5q25 8 48.5 -1.5t35.5 -31.5
q20 -34 38 -68.5t35 -69.5q17 -36 32.5 -73t29.5 -75q14 -39 24.5 -79.5t18.5 -83.5q3 -22 5.5 -43.5t4.5 -44.5q1 -23 0.5 -46t-2.5 -47t-6 -48t-10 -48q-6 -25 -14.5 -49t-19.5 -47t-24 -45.5t-28 -44.5q-29 -40 -65 -78q-36 -36 -75 -66q-19 -15 -39 -28l-40 -26
q-20 -12 -40 -23t-41 -21q-10 -5 -20 -9.5t-20 -9.5l-21 -9l-10 -5l-5 -2l-5 -2q-39 -17 -79 -16.5t-76.5 14.5t-66 42t-45.5 67q-17 39 -17 79t14.5 76.5t42 65.5t66.5 46q11 5 21.5 8t21.5 5zM149 660q0 -41 -28.5 -69.5t-70.5 -28.5q-41 0 -69.5 28.5t-28.5 69.5
q0 42 28.5 70.5t69.5 28.5q42 0 70.5 -28.5t28.5 -70.5z" />
    <glyph glyph-name="A" unicode="A" horiz-adv-x="948" 
d="M940 163q22 -35 27.5 -74t-3 -76t-31.5 -69t-58 -54q-35 -21 -74 -27t-76 3t-69 31.5t-54 57.5q-18 29 -24 61l-167 748q-6 29 9 53t44 30q23 5 43.5 -4t31.5 -27zM331 19q-11 -36 -33.5 -63.5t-53 -44t-66 -21t-71.5 6.5q-36 10 -63.5 33t-44 53.5t-21 65.5t6.5 71
q3 11 8 21.5t10 19.5l388 659q18 31 52 39.5t65 -9.5q26 -15 36.5 -42.5t2.5 -55.5zM686 296q27 2 52.5 -6.5t45 -25t32 -40t14.5 -50.5t-6.5 -52.5t-25 -45t-40 -32t-50.5 -14.5q-11 -2 -22 0l-502 42q-38 3 -62.5 31.5t-21.5 66.5q3 35 27 58t57 26z" />
    <glyph glyph-name="o" unicode="o" horiz-adv-x="795" 
d="M394 640q82 0 154.5 -31t126.5 -85t85 -126.5t31 -154.5t-31 -154t-85 -126t-126.5 -85t-154.5 -31t-154 31t-126 85t-85 126t-31 154t31 154.5t85 126.5t126 85t154 31zM408 294q32 0 60 8t49 22t33 33t12 40t-12 40t-33 33t-49 22t-60 8t-59.5 -8t-48.5 -22t-33 -33
t-12 -40t12 -40t33 -33t48.5 -22t59.5 -8z" />
    <glyph glyph-name="a" unicode="a" horiz-adv-x="885" 
d="M396 411q82 0 154.5 -21t126.5 -57.5t85 -85.5t31 -104q0 -56 -31 -104.5t-85 -85t-126.5 -57.5t-154.5 -21t-154 21t-126 57.5t-85 85t-31 104.5q0 55 31 104t85 85.5t126 57.5t154 21zM410 177q32 0 60 5.5t49 15t33 22t12 27.5q0 14 -12 26.5t-33 22t-49 15t-60 5.5
t-59.5 -5.5t-48.5 -15t-33 -22t-12 -26.5q0 -15 12 -27.5t33 -22t48.5 -15t59.5 -5.5zM115 584h1l1 1l2 2l4 3l4 2t4 3q7 5 16 10q14 10 31 20q35 19 67 33q17 8 35.5 14.5t37.5 12.5q19 5 39 9t41 7q42 5 89 0q23 -3 46 -8.5t46 -14.5t43.5 -21.5t40.5 -26.5q38 -29 67 -66
q15 -17 27 -35.5t23 -36.5q21 -38 36 -75t26 -74t19 -73q9 -37 14.5 -73t10.5 -71q9 -72 12 -142v-2q2 -36 -10 -67.5t-34 -56t-52.5 -39.5t-66.5 -17q-35 -2 -67 10t-56.5 34t-39.5 52.5t-17 65.5q-1 8 -0.5 15t1.5 14q3 30 5.5 59.5t4.5 58.5q3 58 0 114q-2 28 -5 54
t-8 51q-11 49 -29 84q-8 17 -20 30q-10 12 -24 22q-7 5 -14.5 9t-16.5 7q-18 5 -41 7q-11 2 -23 1.5t-25 -2.5q-25 -1 -52 -9q-13 -3 -26 -7t-27 -9t-26 -10q-3 -2 -6 -2.5t-6 -2.5l-6 -3l-6 -2l-4 -2q-16 -8 -32.5 -8.5t-31.5 5t-27.5 16.5t-19.5 27q-14 27 -6.5 56
t30.5 46z" />
    <glyph glyph-name="b" unicode="b" horiz-adv-x="938" 
d="M547 640q82 0 154.5 -31t126.5 -85t85 -126.5t31 -154.5t-31 -154t-85 -126t-126.5 -85t-154.5 -31t-154 31t-126 85t-85 126t-31 154t31 154.5t85 126.5t126 85t154 31zM561 294q32 0 60 8t49 22t33 33t12 40t-12 40t-33 33t-49 22t-60 8t-59.5 -8t-48.5 -22t-33 -33
t-12 -40t12 -40t33 -33t48.5 -22t59.5 -8zM407 71q3 -45 -12 -85t-43 -71t-66 -50t-83 -22q-45 -2 -85 12.5t-71 42.5t-50 66t-22 83q-2 33 6 62l163 687q5 23 18.5 41t32 29.5t41 15.5t45.5 -1q38 -9 61.5 -38.5t25.5 -66.5z" />
    <glyph glyph-name="k" unicode="k" horiz-adv-x="882" 
d="M378 776l39 -705q2 -45 -12.5 -85t-42.5 -71t-66 -50t-83 -22q-45 -2 -85 12.5t-71 42.5t-50 66t-22 83q-2 32 6 62l162 687q6 23 19.5 41t32 29.5t41 15.5t45.5 -1q38 -9 61.5 -38.5t25.5 -66.5zM110 309l559 311q24 14 50 6t40 -32q11 -18 8.5 -38.5t-14.5 -35.5
l-401 -498q-25 -31 -58.5 -48.5t-70 -21.5t-73 6t-67.5 35t-48.5 58.5t-21.5 70t6 73t35 67.5q24 30 56 47zM429 389l341 -139q40 -17 68.5 -46.5t44 -66t16.5 -77.5t-15 -81q-17 -40 -46.5 -68.5t-66 -44t-77.5 -16t-81 15.5q-23 10 -43.5 25t-36.5 33l-238 282
q-15 19 -22 41t-5 44.5t12.5 43t28.5 36.5q26 22 58.5 26t61.5 -8z" />
    <glyph glyph-name="l" unicode="l" horiz-adv-x="466" 
d="M402 776l39 -705q2 -45 -12.5 -85t-42.5 -71t-66 -50t-83 -22q-45 -2 -85 12.5t-71 42.5t-50 66t-22 83q-2 32 6 62l162 687q6 23 19.5 41t32 29.5t41 15.5t45.5 -1q38 -9 61.5 -38.5t25.5 -66.5z" />
    <glyph glyph-name="m" unicode="m" horiz-adv-x="1086" 
d="M323 553l13 -520q1 -37 -12 -69.5t-36.5 -57.5t-55.5 -39.5t-69 -15.5t-69.5 12t-57 36.5t-39.5 55.5t-16 69q-1 15 1.5 29.5t6.5 28.5l158 496q6 18 17.5 31.5t27 21.5t33 10t35.5 -4q29 -9 45.5 -32t17.5 -52zM554 475l6 5q2 1 3 2t3 2q2 2 5 3.5t5 3.5q5 4 10.5 7.5
t11.5 6.5q11 7 23 12.5t25 10.5t26.5 8.5t28.5 5.5t30.5 2.5t31.5 -1.5q17 -2 33 -6t32 -10q31 -12 58 -32q26 -18 47 -41q11 -11 20 -22.5t17 -22.5q32 -46 54 -92q11 -23 20.5 -46t17.5 -46t14.5 -45.5t12.5 -45.5q12 -43 21 -89l2 -9q8 -39 0.5 -76t-27.5 -67.5
t-51 -52.5t-70 -30t-76 -0.5t-67.5 28t-52.5 51t-30 69.5q-7 37 -1 73q13 72 18 140q1 17 1.5 33t-0.5 31q-2 31 -6 57q-2 6 -2.5 12t-2.5 11t-3 9.5t-3 9.5q-2 4 -4 7.5t-4 6.5q-2 5 -10 13q-4 2 -8.5 4.5t-9.5 4.5t-11 3t-13 2t-14 0.5t-15 -1.5q-4 -1 -7.5 -1t-7.5 -1
q-2 -1 -4 -1t-4 -1l-3 -1h-3l-39 5q-23 3 -37.5 21.5t-11.5 42.5q3 22 21 37zM190 474l6 5q2 1 2.5 2t2.5 2q3 2 5.5 3.5t4.5 3.5q5 4 10.5 7.5t11.5 6.5q23 15 46 23q26 11 53 17q14 2 29.5 3.5t32.5 -0.5q31 -1 66 -14q34 -14 60 -34q13 -11 24.5 -22t21.5 -23t18 -24
l16 -24q7 -13 13.5 -25t11.5 -24l10 -24t9 -24q9 -24 15.5 -47.5t12.5 -46.5q5 -23 9 -46l8 -46q7 -45 12 -90v-5q3 -33 -6.5 -64t-29 -55t-47.5 -39.5t-61 -19.5q-33 -3 -64 6.5t-55 29t-40 48t-19 61.5q-3 23 2 48q4 19 7 37l6 36l4 36t4 35q1 18 1.5 34.5t-0.5 33.5
q0 32 -6 58q-2 13 -6 23q-2 5 -3 9t-3 8l-3.5 7t-3.5 6q-2 2 -5 4.5t-7 4.5q-9 6 -20 7q-6 1 -12.5 1.5t-14.5 -0.5q-7 -1 -14.5 -2t-15.5 -3q-10 -2 -15 -4q-6 -2 -8 -2l-4 -2h-2l-20 -4q-25 -5 -46 9t-26 39q-4 17 2.5 33t19.5 27z" />
    <glyph glyph-name="n" unicode="n" horiz-adv-x="767" 
d="M309 553l14 -520q1 -37 -12.5 -69.5t-36.5 -57.5t-55 -39.5t-69 -15.5t-70 12t-57.5 36.5t-39.5 55.5t-16 69q0 29 8 58l158 496q6 18 17.5 31.5t27 21.5t33 10t35.5 -4q29 -9 45.5 -32t17.5 -52zM189 458v1h1v1h1v1h1l2 3l5 5q2 2 5 4.5t5 4.5q5 5 10 9.5t10 8.5
q11 9 22 17.5t22 16.5q12 8 24 15.5t26 14.5t28.5 12.5t31.5 9.5q8 2 17 4t18 3q20 3 39 2q18 0 41 -5q10 -2 20 -5t21 -8q18 -8 38 -20q16 -11 33 -26t28 -29q6 -8 11.5 -15t10.5 -15q11 -14 18.5 -29t15.5 -30q14 -30 23 -58q11 -29 18 -56.5t13 -54.5t10 -54t8 -53
t6.5 -52.5t4.5 -52.5v-5q3 -38 -8.5 -72t-34.5 -60.5t-55 -43.5t-70 -20t-72.5 8.5t-61 34.5t-43.5 55t-20 70q-1 28 5 56q10 43 18 84q8 43 12 82q2 20 3 39t1 37v17t-1 16t-2 15t-2 12q-1 6 -2 11t-2 8t-1 7q-1 1 -1 2t-1 3q0 1 -2 5q-3 3 -5 4q-7 5 -21 7q-16 2 -31 -1
q-9 -1 -18 -3t-19 -4q-9 -3 -18.5 -6t-19.5 -8q-5 -2 -9.5 -4t-9.5 -4q-2 -1 -4.5 -2t-4.5 -2l-4 -3l-2 -1h-1h-1v-1q-23 -14 -48.5 -7t-38.5 30q-11 18 -9 38.5t16 35.5z" />
    <glyph glyph-name="p" unicode="p" horiz-adv-x="909" 
d="M516 640q82 0 154.5 -31t126.5 -85t85 -126.5t31 -154.5t-31 -154t-85 -126t-126.5 -85t-154.5 -31t-154 31t-126 85t-85 126t-31 154t31 154.5t85 126.5t126 85t154 31zM530 294q32 0 60 8t49 22t33 33t12 40t-12 40t-33 33t-49 22t-60 8t-59.5 -8t-48.5 -22t-33 -33
t-12 -40t12 -40t33 -33t48.5 -22t59.5 -8zM381 -180q2 -45 -12.5 -85t-42.5 -71t-66 -50t-83 -22q-45 -2 -85 12.5t-71 42.5t-50 66t-22 83q-2 32 6 62l162 687q6 23 19.5 41t32 29.5t41 15.5t45.5 -1q38 -9 61.5 -38.5t25.5 -66.5z" />
    <glyph glyph-name="q" unicode="q" horiz-adv-x="891" 
d="M398 644q82 0 154.5 -31t126.5 -85t85 -126.5t31 -154.5t-31 -154t-85 -126t-126.5 -85t-154.5 -31t-154 31t-126 85t-85 126t-31 154t31 154.5t85 126.5t126 85t154 31zM412 298q32 0 60 8t49 22t33 33t12 40t-12 40t-33 33t-49 22t-60 8t-59.5 -8t-48.5 -22t-33 -33
t-12 -40t12 -40t33 -33t48.5 -22t59.5 -8zM963 -142q10 -44 2.5 -86t-29 -77.5t-56 -61t-78.5 -35.5q-44 -11 -86 -3.5t-77 29.5t-61 56t-36 78q-6 34 -5 62l38 705q1 24 11.5 44t27 34.5t37.5 22t45 6.5q38 -2 67 -26.5t37 -60.5z" />
    <glyph glyph-name="r" unicode="r" horiz-adv-x="680" 
d="M7 91l101 455q4 17 14 31t23.5 22.5t30.5 12t34 -0.5q21 -5 36.5 -18t23.5 -31l189 -425q20 -45 20.5 -93t-16 -91t-48.5 -78t-77 -55t-93 -20.5t-91 16t-78 49t-55 77.5q-16 37 -19 75t5 74zM480 343q1 -1 1 0v2v5q0 2 -0.5 5t-0.5 5q-1 5 -2 10.5t-3 10.5q-1 5 -2 9
t-3 9q-4 10 -6 14l-5 10q-4 6 -7 9t-11 6q-10 2 -18 2q-10 0 -22 -3q-7 -2 -13 -4t-13 -4q-27 -11 -53 -27q-14 -8 -26.5 -17t-26.5 -19q-26 -20 -51 -42q-9 -8 -21 -7t-20 10q-13 15 -3 33q16 30 36 60q10 15 20.5 30t21.5 29q12 14 25 28t28 28q17 15 33 26q18 13 39 23
q19 9 47 16q29 6 56 5q31 -3 58 -12q14 -5 27 -11.5t25 -14.5q24 -16 41 -33q10 -9 18 -18l16 -18q15 -20 27 -39q7 -11 12 -21q2 -3 6 -11l3 -6q1 -1 1 -1.5t1 -1.5v-2l1 -1v-1q12 -23 13.5 -48t-6 -47.5t-23.5 -41.5t-39 -31t-47.5 -13.5t-47.5 6t-42 23t-31 38.5
q-10 20 -13 42v1z" />
    <glyph glyph-name="s" unicode="s" horiz-adv-x="855" 
d="M602 435q0 1 0.5 0t0.5 0v-1l-1 1l-3 3q-4 4 -6 5q-2 2 -3.5 3t-3.5 3q-6 4 -9 5q-17 11 -37 17q-41 12 -88 9q-3 0 -6 -0.5t-6 -0.5l-12 -1q-3 -1 -6 -1t-6 -1q-3 0 -5.5 -0.5t-5.5 -0.5q-27 -5 -33 -10t-1 -8.5t16 -6.5t18 -3q14 -4 28 -7l28 -6q14 -4 28 -7.5t29 -7.5
q14 -4 28.5 -7.5t30.5 -8.5q15 -5 30.5 -10.5t32.5 -11.5q16 -7 33 -15t35 -19q19 -11 37 -25q9 -8 18.5 -16t18.5 -18q17 -17 33 -44q16 -26 25 -52q5 -14 8.5 -27t5.5 -27q3 -14 3 -26q0 -4 0.5 -7t0.5 -6v-1v-1v-1v-1v-3v-3q0 -7 -1 -10q-2 -25 -7 -44q-4 -11 -8 -21.5
t-9 -20.5q-11 -20 -24 -36q-11 -13 -26 -27q-13 -12 -25.5 -20.5t-24.5 -15.5q-22 -12 -46 -22q-11 -4 -21 -7.5t-20 -5.5q-10 -3 -19.5 -5.5t-18.5 -4.5q-19 -4 -36.5 -6.5t-34.5 -4.5t-33.5 -3t-33.5 -1q-8 -1 -16.5 -1h-16.5h-8h-2h-2h-1h-1h-3h-10.5t-10.5 1
q-20 2 -39 4t-37 6q-36 8 -68 18q-33 11 -62 24q-16 6 -30.5 12.5t-29.5 14.5l-14 8l-14 8q-4 2 -7.5 4.5t-6.5 4.5l-4 2l-4 2l-4 3l-2 1l-1 1l-1 1q-28 15 -46.5 38.5t-27 51.5t-6 58t17.5 58t38.5 46.5t51.5 27t58 6t58 -17.5h1q1 0 1.5 -0.5t1.5 -0.5q2 -1 2.5 -1t2.5 -1
l11 -4l23 -7q11 -5 22.5 -8.5t22.5 -7.5q11 -3 21.5 -6.5t21.5 -6.5t21 -6t20 -5t19 -3.5t17 -2.5q2 0 3.5 -0.5t3.5 -0.5h1h1h1h2l6 -1q20 4 24.5 8t-1.5 8.5t-19 9t-26 8t-24 6t-12 3.5q-13 5 -25.5 10t-26.5 10l-26 10t-27 10q-8 3 -14.5 5.5t-14.5 5.5q-8 4 -15.5 7
t-16.5 7l-18 9q-5 3 -10.5 6t-12.5 7q-6 5 -12.5 10t-14.5 12q-4 3 -7.5 7t-7.5 9q-3 5 -6.5 10t-6.5 10q-6 11 -11 22q-5 12 -6 22q-3 10 -3 19q0 2 -0.5 4.5t-0.5 4.5v4v4v1v3v4q0 2 0.5 4t0.5 4q0 5 2 15q1 8 3 15l4 14t5 13.5t6 13.5q6 11 14 23q4 6 8 11l8 10
q9 10 18 18q19 16 39 27q10 6 19.5 10.5t18.5 8.5q39 13 75 18q18 2 34.5 3t33.5 1t33 -1t33 -3q33 -5 66 -12q8 -2 16.5 -4.5t16.5 -5.5t16.5 -6t16.5 -7q33 -16 62 -36q7 -5 14 -11t14 -13l14 -14q2 -2 3 -4t3 -4q3 -3 4 -5q1 -1 1 -1.5t1 -1.5l1 -1l1 -1l1 -1
q14 -23 9.5 -49t-27.5 -41q-22 -15 -48 -10t-41 27z" />
    <glyph glyph-name="t" unicode="t" horiz-adv-x="719" 
d="M339 723q-2 -17 -4.5 -33.5t-4.5 -33.5l-4 -34l-5 -34l-5 -33l-5 -34l-5 -34l-5 -33q-5 -34 -10.5 -67.5t-10.5 -66.5l-1 -9v-2v-9v-21q9 -34 23.5 -42.5t28.5 -4.5t25.5 15t13.5 16q3 4 7 14q3 3 3 7q1 1 1 3l1 1h-1v-1l-1 -2q15 34 40.5 59t58 37.5t68 13t70.5 -14.5
q34 -15 58.5 -40.5t37.5 -57.5t13.5 -68t-14.5 -70l-2 -2v-2l-1 -2l-2 -4q-2 -2 -2.5 -3.5t-1.5 -3.5q-4 -8 -7 -12q-3 -6 -6.5 -11.5t-6.5 -10.5q-8 -11 -15.5 -21t-15.5 -21q-8 -10 -17 -20t-19 -19q-10 -10 -20.5 -19.5t-22.5 -17.5q-24 -18 -51 -33q-14 -8 -29 -14
t-31 -11q-33 -11 -66 -14q-8 -1 -16.5 -1.5t-16.5 -0.5h-5h-4h-1h-1h-1h-1h-1v1h-2h-12q-12 2 -24.5 3t-25.5 3t-26.5 5.5t-27.5 7.5q-14 5 -27.5 10t-27.5 13q-14 7 -27.5 15.5t-27.5 18.5q-24 20 -48 47q-21 25 -36 54q-7 14 -12.5 28t-10.5 28q-8 28 -12 54
q-2 14 -2.5 26.5t-1.5 24.5q0 13 0.5 25t1.5 24q2 11 3 23t3 23q2 6 2.5 12t2.5 12q1 3 1.5 6t2.5 8l3 8q10 32 19.5 65t20.5 65l11 32l10 32l11 33l10 32l11 32l11 32q5 17 10.5 32.5t11.5 32.5q7 19 20.5 34t31 23t37 9.5t39.5 -5.5q35 -12 53.5 -42t13.5 -65zM122 512
l361 100q24 7 45.5 -5.5t28.5 -36.5q5 -20 -2 -38t-24 -29l-315 -202q-20 -13 -43 -17t-45 0.5t-41 17.5t-32 34q-13 20 -17 43t0.5 44.5t17.5 41t34 32.5q15 10 32 15z" />
    <glyph glyph-name="u" unicode="u" horiz-adv-x="707" 
d="M554 568l177 -467q13 -37 11.5 -74t-16.5 -70t-42 -59t-63 -40t-73.5 -12.5t-70.5 16.5t-59 42t-40 63q-16 44 -11 86l51 497q3 29 25.5 47.5t51.5 15.5q21 -2 36.5 -14.5t22.5 -30.5zM295 528l-9 -27q-2 -7 -4.5 -13t-4.5 -13t-4 -13.5t-4 -13.5t-4 -13t-4 -13
q-7 -24 -12 -52q-3 -12 -4.5 -24.5t-3.5 -24.5q-1 -6 -1 -11.5v-11.5q-1 -12 0 -22q0 -19 5 -39q1 -5 2 -8.5t3 -7.5q2 -3 3 -6.5t3 -5.5q5 -10 14 -17q2 -2 4 -3t4 -3q2 -1 8 -3q4 -3 9 -3l9 -3q5 -1 11 -1t12 -1q5 0 11.5 0.5t11.5 1.5q6 1 11.5 2t10.5 3t8.5 3.5t5.5 2.5
q4 2 5 2h3q1 0 2.5 -0.5t4.5 0.5l150 40q42 11 78.5 -10t47.5 -63q6 -24 2 -46q-2 -7 -3.5 -13.5t-3.5 -13.5q-1 -4 -2 -7t-3 -7q-2 -6 -5 -13q-13 -29 -28 -51q-18 -24 -37 -42q-11 -10 -21.5 -18.5t-21.5 -16.5q-22 -14 -45.5 -24.5t-46.5 -18.5q-46 -13 -95 -15
q-47 -2 -94 9q-47 9 -90 33q-11 5 -21 11.5t-21 13.5q-10 8 -19.5 16t-18.5 17q-20 18 -34 38q-15 19 -27 42t-19.5 45.5t-12.5 45.5q-2 12 -3.5 23t-1.5 22q-1 22 0 43t4 41t8 38q3 10 5.5 19t5.5 17q3 9 6.5 17.5t6.5 16.5q14 33 31.5 62.5t36.5 55.5q5 7 10 13.5t10 13.5
l10 12t10 13l21 24l6 5l5 6l6 6l3 3l2 2q19 18 45 18t44 -19q14 -14 17 -31t-2 -34z" />
    <glyph glyph-name="v" unicode="v" horiz-adv-x="680" 
d="M135 608l348 -467q22 -30 30.5 -64t3.5 -68t-22.5 -64t-47.5 -52q-29 -22 -63 -30.5t-68 -3.5t-64.5 22.5t-52.5 47.5q-16 23 -25 46l-195 549q-6 18 -5 35.5t8 33t20 28t31 18.5q29 10 57 1t45 -32zM707 524l-196 -549q-12 -35 -36 -60.5t-54.5 -40t-66 -16.5t-69.5 10
q-35 12 -60.5 36t-40 55t-17 65.5t9.5 69.5q5 13 11 24.5t14 22.5l349 467q11 15 26 24t32 11.5t34.5 -2t32.5 -15.5q25 -18 33 -46.5t-2 -55.5z" />
    <glyph glyph-name="w" unicode="w" horiz-adv-x="943" 
d="M411 597l347 -461q22 -30 30.5 -64.5t3.5 -68t-22.5 -64.5t-46.5 -53q-30 -22 -64.5 -30.5t-68 -3.5t-64.5 22.5t-53 46.5q-11 14 -17.5 29t-11.5 30l-157 555q-8 29 6 54t42 33q22 6 42.5 -1t33.5 -24zM979 524l-196 -549q-12 -35 -36 -60.5t-54.5 -40t-66 -16.5
t-69.5 10q-35 12 -60.5 36t-40 55t-17 65.5t9.5 69.5q5 13 11 24.5t14 22.5l349 467q11 15 26 24t32 11.5t34.5 -2t32.5 -15.5q25 -18 33 -46.5t-2 -55.5zM124 608l348 -467q22 -30 30.5 -64t3.5 -68t-22.5 -64t-47.5 -52q-29 -22 -63 -30.5t-68 -3.5t-64.5 22.5t-52.5 47.5
q-16 23 -25 46l-195 549q-6 18 -5 35.5t8 33t20 28t31 18.5q29 10 57 1t45 -32zM664 533l-161 -553q-11 -35 -33 -62.5t-52 -44t-65 -21t-71 6.5q-35 10 -62.5 32.5t-44 52.5t-21 65t6.5 70q5 16 12 30t16 27l343 462q19 25 49 29.5t55 -13.5q20 -14 27 -36.5t1 -44.5z" />
    <glyph glyph-name="z" unicode="z" horiz-adv-x="823" 
d="M112 675l596 -63q22 -2 35.5 -19t11.5 -39q-2 -19 -15.5 -32t-31.5 -15l-596 -62q-24 -3 -46 4t-39.5 21t-28.5 34t-14 44q-2 24 5 45.5t21 39t34 28.5t44 14q12 1 24 0zM744 509l-475 -537q-20 -23 -46 -35t-54 -14t-55.5 7t-50.5 29t-35 46t-13.5 54t7.5 55.5t29 50.5
q5 6 12 12t14 11l589 409q20 14 44 9.5t38 -24.5q12 -17 10.5 -37.5t-14.5 -35.5zM152 206l500 43q40 3 77 -9t66 -36.5t47.5 -58.5t21.5 -74q3 -41 -9 -77.5t-36.5 -65.5t-59 -47.5t-74.5 -21.5q-17 -2 -33 0l-500 43q-32 3 -58.5 17t-45 36.5t-28.5 51t-7 60.5
q2 28 14 52.5t30.5 43t43 30t51.5 13.5z" />
    <glyph glyph-name="x" unicode="x" horiz-adv-x="754" 
d="M203 625l516 -451q28 -24 43 -55.5t17 -65.5t-8.5 -67t-34.5 -61t-55.5 -43t-65.5 -17.5t-67.5 8.5t-60.5 35q-18 16 -30 33l-387 566q-20 31 -13.5 67t37.5 57q26 18 56 16t53 -22zM702 504l-387 -566q-21 -30 -50.5 -48.5t-62.5 -25t-67.5 0t-64.5 27.5t-49 50.5
t-25 63t0.5 68t27.5 64.5q6 9 13.5 17.5t15.5 15.5l516 451q29 24 65.5 22t61.5 -31q20 -23 21.5 -53.5t-15.5 -55.5z" />
    <glyph glyph-name="y" unicode="y" horiz-adv-x="670" 
d="M292 523l-11 -23q-2 -6 -5 -12t-5 -11q-2 -6 -4.5 -12t-4.5 -11q-2 -6 -4 -11.5t-4 -11.5q-4 -11 -7.5 -21.5t-6.5 -21.5t-4.5 -16t-3.5 -15q-1 -5 -1 -9.5v-9.5q-6 -24 9 -38t40.5 -19t57.5 -1t59.5 16t46.5 32.5t19 47.5l114 -74q18 -12 21.5 -20.5t1 -18t-8.5 -23
t-7 -34.5q0 -5 8 -12t17.5 -14t16.5 -14t5 -11q-2 -3 1.5 -6t7.5 -6t7 -5.5t1 -5.5q-1 -1 -11 -2t-22.5 -2t-22.5 -2.5t-11 -2.5t7.5 -2.5t19 -2.5t19 -2.5t7.5 -2.5q-8 -10 -16 -18.5t-16 -16.5q-35 -31 -71 -50q-38 -20 -75 -30q-20 -6 -38.5 -9.5t-38.5 -5.5
q-19 -2 -38 -2t-39 2q-38 3 -79 15q-39 10 -78 33q-10 5 -19.5 11t-19.5 14q-9 8 -18.5 16t-17.5 17t-16 19t-15 21q-13 21 -23 45q-5 12 -8.5 24t-5.5 24t-3 24t-1 23q0 22 3 43t9 39q10 36 27 67q8 16 16.5 29.5t17.5 26.5q19 25 39 48l21 21l21 21q5 5 10.5 9.5t11.5 9.5
l5 4l6 5q2 1 3 2t3 2l2 3l3 2q21 15 47 11t42 -25q11 -14 12.5 -31t-5.5 -32v-1zM129 -39l2 -1v-1h1q1 0 1 -1h1l1 -1l6 -3l12 -6l12 -6t11 -6q12 -5 23 -9l22 -8q20 -6 40 -9q9 -1 17.5 -1.5t16.5 -0.5q8 1 14.5 2t13.5 3q7 3 14 6.5t14 8.5q16 12 28 29q15 20 25 43
q5 12 9.5 25.5t9.5 27.5q7 28 12 60t6.5 65t0.5 67q-2 69 -12 139q-11 70 -27 140v1q-3 15 -0.5 29t9.5 25.5t18.5 20t25.5 12.5q26 6 48.5 -5t33.5 -34q17 -35 32.5 -71t29.5 -73q14 -38 26.5 -76t22.5 -78t17 -81t10 -85q2 -22 2.5 -44t-0.5 -45t-3 -46t-7 -47
t-11.5 -48.5t-16.5 -48.5q-10 -25 -22.5 -49.5t-29.5 -47.5t-37.5 -45t-44.5 -41q-12 -9 -24.5 -17.5t-25.5 -16.5q-29 -16 -55 -27q-55 -22 -113 -30q-56 -9 -109 -6q-26 1 -51.5 3.5t-50.5 7.5q-12 2 -24 4.5t-24 5.5q-6 2 -12 3t-11 3l-12 3l-6 2h-3l-2 1
q-41 11 -72.5 36t-51 58.5t-26 73.5t4.5 81t36 73t59 51.5t74 25.5t81 -5q11 -3 21 -7t20 -9z" />
    <glyph glyph-name="B" unicode="B" 
d="M308 781l52 -702q3 -37 -9 -71t-34.5 -60t-54.5 -42.5t-69 -19.5q-38 -3 -71.5 8.5t-60 34.5t-43 54.5t-19.5 69.5q-2 24 3 48l136 690q3 18 13 32t23.5 23t30 12.5t34.5 0.5q29 -6 48 -28t21 -50zM305 305v-1h1q0 -1 2 -1q2 -2 5 -2q3 -2 11 -4q13 -5 23 -8
q62 -5 96.5 1t46 17.5t3 25t-32 23t-60 12.5t-79.5 -8l-30 3q-4 1 -7.5 1h-6.5l-8 1h-3q-2 0 -3 1l-11 194h1h1h3h6q3 0 6 0.5t6 0.5h12t13 1q30 -6 61 1.5t55.5 20.5t39 27.5t12 22t-26.5 4.5t-77 -25q-11 -6 -21.5 -12t-21.5 -13q-5 -3 -10.5 -6.5t-10.5 -6.5
q-2 -2 -5 -3.5t-5 -3.5l-5 -4l-5 -3l-2 -2q-19 -13 -41.5 -9t-35.5 23q-13 17 -10 38.5t18 35.5l6 5l6 5q3 2 5.5 4.5t5.5 4.5q6 5 11.5 9t11.5 9q23 19 47 34q12 8 24.5 15.5t25.5 14.5q14 8 27.5 14.5t29.5 12.5q8 3 15.5 5.5t15.5 4.5t17 4t18 3q10 2 19.5 2.5t20.5 -0.5
q20 0 44 -8q11 -3 22 -8.5t22 -12.5q21 -16 35 -33q13 -18 23 -37q2 -5 4 -9t4 -9q0 -2 0.5 -2.5t0.5 -2.5l1 -2v-1h1v-2q1 -2 1.5 -5t1.5 -5q3 -11 5 -23.5t1 -25.5q0 -14 -3 -27q-1 -7 -3 -13.5t-4 -12.5q-10 -25 -25 -44q-8 -9 -15.5 -17t-15.5 -14q-17 -15 -31 -23
q-16 -11 -31 -18q-15 -8 -30 -14t-30 -11q-14 -5 -29 -9.5t-29 -8.5q-15 -4 -29.5 -7.5t-28.5 -6.5q-14 -2 -28.5 -5t-29.5 -5q-7 -1 -14 -1.5t-15 -1.5q-4 -1 -7 -1.5t-7 -0.5l-8 -1h-4h-2l-2 -1l-12 195q3 1 6 1l5 1l9 1q5 1 9.5 1.5t9.5 0.5q12 -34 28 -51t34 -21t36 1.5
t35 17.5t31 27.5t23 30.5l40 -4t41 -7t42 -11t44 -15q11 -5 22.5 -10.5t23.5 -12.5q11 -7 23 -15t23 -18q22 -20 42 -45q20 -27 34 -57q13 -29 21 -62q2 -8 2.5 -15.5t2.5 -15.5q0 -4 0.5 -8t0.5 -8v-7l1 -4v-3v-3v-1v-1v-1v-2v-6v-14q0 -7 -0.5 -14t-1.5 -15
q-3 -31 -13 -61q-9 -32 -27 -62q-17 -31 -40 -57q-11 -13 -23.5 -24t-25.5 -21t-26 -18l-26 -16q-14 -7 -26.5 -13t-25.5 -11t-25 -9t-24 -7q-47 -13 -93 -19q-23 -3 -44.5 -5t-42.5 -3q-44 -2 -84 0l-42 3q-5 0 -10.5 0.5t-10.5 1.5q-3 0 -6 0.5t-6 0.5l-6 1l-3 1h-1h-2h-1
q-45 5 -83.5 27t-65 55.5t-39 75.5t-7.5 88q5 45 27 83t55.5 64.5t75.5 39t88 7.5q27 -3 51 -12h2z" />
    <glyph glyph-name="C" unicode="C" horiz-adv-x="918" 
d="M648 604l-1 1h-1v1h-1l-2 1q-2 1 -3 1t-2 1q-5 2 -11 4q-5 2 -10.5 4t-10.5 4q-11 3 -21.5 4.5t-21.5 3.5q-11 1 -21 1.5t-21 -0.5l-21 -3q-5 -1 -10 -1.5t-10 -2.5q-38 -10 -70 -34q-30 -23 -50 -53q-10 -15 -16.5 -31t-11.5 -32q-9 -32 -9 -63q0 -8 0.5 -15.5
t1.5 -15.5q1 -15 6 -30q4 -14 10 -27t14 -24q16 -24 35 -40q19 -18 42 -30q9 -5 22 -10q6 -3 12 -4.5t12 -3.5q8 -2 13 -3q8 -2 13 -2q7 -1 13.5 -1h13.5q13 0 28 3q4 1 14 3q2 1 3.5 1t3.5 1t3.5 1t3.5 1q29 10 58 30q7 5 14 10.5t14 12.5q13 12 25 28q14 17 23 33
q3 5 5.5 9.5t5.5 9.5q2 2 2.5 4.5t2.5 5.5l5 10l6 13q16 33 50 45t67 -4q19 -9 30.5 -24.5t16.5 -34.5q8 -35 8.5 -71.5t-5.5 -73.5q-8 -39 -21 -74q-14 -38 -34 -69q-20 -34 -47 -64t-59 -55q-10 -8 -17 -13q-4 -3 -8 -5.5t-9 -5.5q-8 -6 -17 -11t-19 -10
q-18 -10 -38 -17.5t-40 -13.5t-40.5 -10.5t-42.5 -6.5q-21 -3 -42 -3h-21.5t-21.5 1q-41 3 -85 14q-42 12 -81 30t-74 44q-17 13 -33 27t-31 29q-60 63 -93 140q-17 39 -27 79t-13 82q-3 41 0 81q2 20 5 40t8 40q10 40 26.5 76.5t39.5 69.5q44 65 108 111q16 11 32.5 21
t33.5 19q32 16 70 27l36 9l36 6q10 1 19 1.5t18 1.5h36q9 -1 18 -1.5t17 -2.5q19 -2 35 -6q34 -7 67 -20q17 -7 32 -15t29 -17q16 -9 28 -19q3 -2 6.5 -5t6.5 -5l6 -6l4 -3l1 -1l1 -1q20 -18 20.5 -44t-16.5 -45q-15 -16 -36 -19.5t-40 6.5z" />
    <glyph glyph-name="D" unicode="D" 
d="M306 781l52 -702q3 -37 -9 -71t-34.5 -60t-54.5 -42.5t-69 -19.5q-38 -3 -71.5 8.5t-60 34.5t-43 54.5t-19.5 69.5q-2 24 3 48l136 690q3 18 13 32t23.5 23t30 12.5t34.5 0.5q29 -6 48 -28t21 -50zM171 662l1 1q1 0 1 1h1l3 3l5 4q6 6 10 9q5 4 10 7.5t10 8.5
q11 8 21.5 15t21.5 14q24 16 46 27q12 7 24.5 12.5t25.5 11.5q28 11 55 18q15 4 30.5 6.5t31.5 4.5q8 1 17 1.5t17 0.5q9 -1 18 -1t18 -2q18 -2 37 -7.5t37 -13.5t35 -18.5t32 -22.5q31 -26 52 -55q11 -15 19.5 -30t16.5 -30q8 -14 14 -29t11 -29q5 -15 9 -29.5t8 -28.5
q3 -14 6 -27.5t5 -27.5t4 -27.5t4 -26.5l3 -27v-3v-4l1 -7v-14q2 -27 1.5 -56t-3.5 -59t-9.5 -61.5t-17.5 -63.5q-6 -17 -13 -33t-16 -32q-9 -17 -19.5 -33t-22.5 -31q-24 -30 -56 -57q-8 -7 -16 -13l-16 -12q-16 -10 -34 -20q-17 -10 -35 -17.5t-36 -13.5q-34 -12 -70 -18
q-17 -4 -33.5 -5.5t-33.5 -3.5q-17 -1 -33 -1t-32 2q-64 5 -119 22q-14 5 -27.5 10t-26.5 12q-7 3 -13.5 6t-13.5 7q-3 2 -6.5 4t-6.5 4l-4 2l-3 2l-4 3l-1 1h-1l-3 2q-31 13 -53.5 36t-34 51.5t-12 60.5t12.5 63t36 53t51.5 34t60.5 12.5t63 -12.5v1h2h2h2h8h9t9 -1
q9 0 18 -0.5t17 -1.5q17 -2 33.5 -3t31.5 -3q8 -1 15 -1t13 -1q7 -1 13.5 -1h12.5q5 0 10 0.5t10 1.5t9 1.5t7 1.5q5 1 13 5q3 1 5.5 2.5t5.5 3.5q6 4 12 12q6 7 12 18t11.5 24.5t9.5 29.5q9 31 12 70l1 10l1 4v3v1v1q1 5 1 10v10q1 10 1.5 19.5t0.5 19.5v18t-1 18
q0 17 -3 34q-1 8 -2 15t-3 14t-3.5 12.5t-3.5 10.5t-4 9l-4 8q-3 6 -8 11q-4 5 -14 10q-2 1 -4.5 2t-5.5 2q-8 2 -13 3q-7 1 -14.5 1.5t-15.5 0.5q-17 0 -35 -3q-10 -2 -19 -4t-19 -4t-19.5 -5t-19.5 -6t-19.5 -6.5t-19.5 -7.5q-5 -2 -9.5 -4t-9.5 -4l-10 -4l-4 -2l-2 -1
l-1 -1h-1l-1 -1q-27 -14 -55 -4t-42 36q-11 22 -6 45.5t22 39.5z" />
    <glyph glyph-name="E" unicode="E" horiz-adv-x="902" 
d="M235 860l517 -62q22 -3 40 -13.5t30.5 -26t18.5 -36t4 -42.5q-3 -22 -13.5 -40t-26.5 -31t-36.5 -19t-42.5 -3q-8 2 -12 2l-404 97l12 -161l193 39q22 4 42.5 -0.5t37.5 -15.5t29 -28.5t17 -39.5q4 -22 0 -42.5t-15.5 -37.5t-29 -29.5t-39.5 -16.5q-2 0 -4 -0.5t-4 -0.5
l-213 -25l3 -42l402 68q29 5 56.5 -2t50 -22.5t37.5 -39.5t20 -53q4 -26 -1 -51.5t-18 -46.5t-33 -37t-45 -24l-552 -177q-5 -2 -10.5 -3t-11.5 -2q-11 -4 -22.5 -6.5t-23.5 -3.5q-38 -3 -71.5 8.5t-60 34.5t-43 54.5t-19.5 69.5q-2 24 3 48l136 690q6 32 32 51.5t58 17.5
h12z" />
    <glyph glyph-name="F" unicode="F" horiz-adv-x="646" 
d="M227 793l179 -685q11 -41 5 -81.5t-26.5 -75t-52.5 -59.5t-74 -36q-41 -11 -81.5 -5t-75 26.5t-59.5 52.5t-36 74q-9 34 -6 69l57 705q1 18 9.5 33t21 25.5t28.5 16t34 4.5q29 -2 49.5 -20t27.5 -44zM148 860l517 -62q22 -3 40 -13.5t30.5 -26t18.5 -36t4 -42.5
q-3 -22 -13.5 -40t-26.5 -31t-36.5 -19t-42.5 -3q-8 2 -12 2l-505 122q-31 7 -47.5 33.5t-8.5 57.5q7 29 30.5 45t51.5 13zM126 503l302 61q22 4 42.5 -0.5t37.5 -15.5t29 -28.5t17 -39.5q4 -22 0 -42.5t-15.5 -37.5t-29 -29.5t-39.5 -16.5q-2 0 -4 -0.5t-4 -0.5l-306 -36
q-20 -3 -38 2.5t-32 16.5t-23.5 27t-11.5 36q-5 38 17 67.5t58 36.5z" />
    <glyph glyph-name="G" unicode="G" horiz-adv-x="954" 
d="M648 604l-1 1h-1l-1 1l-2 1q-2 1 -3 1t-2 1q-3 2 -5.5 2.5t-5.5 2.5q-5 2 -10.5 3.5t-10.5 3.5q-23 7 -43 8q-21 3 -42 1.5t-41 -6.5q-40 -11 -71 -33q-32 -24 -51 -53q-11 -15 -17.5 -31t-11.5 -32q-2 -7 -4 -17q-1 -4 -1.5 -7.5t-1.5 -8.5q-1 -8 -1.5 -16t-0.5 -16
q0 -16 3 -31q0 -5 2 -15q1 -4 2 -7.5t2 -7.5q9 -27 26 -51q2 -3 4.5 -5.5t4.5 -5.5q6 -6 9 -10q9 -10 20 -17q10 -8 20.5 -13.5t21.5 -10.5q5 -3 11 -4.5t11 -3.5q10 -4 22 -6q2 0 3 -0.5t3 -0.5q4 0 6 -1q8 0 12 -1h12t12 1q24 1 49 11q13 5 25.5 12t24.5 16l12 10l12 10
q5 6 10.5 12t10.5 13q21 28 36 64l4 -32v11v11v11q0 2 0.5 3t0.5 3v6q1 23 11.5 43t27 34t38 21.5t44.5 5.5q29 -2 52 -16.5t37 -37.5q1 -1 3 -5q2 -2 2 -4q2 -4 6 -10l5 -10q4 -6 5 -10l-2 5l6 -36q5 -38 4 -76.5t-10 -77.5q-8 -41 -24 -76q-14 -36 -38 -72
q-23 -35 -51.5 -65.5t-62.5 -55.5q-35 -26 -74 -44q-37 -18 -81 -31q-21 -6 -42.5 -10t-43.5 -6q-5 0 -10.5 -0.5t-11.5 -0.5h-5h-1h-1h-1h-3h-10h-22q-6 1 -11.5 1t-10.5 1q-46 5 -87 16q-21 7 -41 14.5t-40 18.5q-40 19 -74 46q-17 14 -33 28t-31 31q-58 64 -90 142
q-33 79 -38 161q-3 42 0 81q2 20 5.5 40t8.5 40q10 39 27 75q8 19 18 35q8 16 21 34q5 8 11 15.5t12 15.5q12 15 26 29q4 4 7 7.5t7 6.5t7 6.5t7 6.5l30 24q16 11 32 21t33 18q8 5 17 8.5t17 7.5l36 12q17 5 35 9t37 7q36 4 72 3q35 -1 70 -9q33 -7 67 -21q16 -7 31.5 -14.5
t29.5 -16.5q7 -5 14 -9.5t14 -9.5q3 -3 6.5 -5.5t6.5 -4.5l6 -6l4 -3l1 -1l1 -1q20 -18 20.5 -43.5t-16.5 -45.5q-15 -16 -36 -19.5t-40 6.5zM790 273l-331 57q-29 5 -45.5 28.5t-11.5 52.5q4 22 20 37.5t37 18.5l331 58q26 4 50.5 -2t44.5 -20t33.5 -35.5t18.5 -47.5
q4 -26 -1.5 -50.5t-19.5 -44.5t-35.5 -34t-47.5 -18q-11 -2 -21.5 -2t-21.5 2z" />
    <glyph glyph-name="H" unicode="H" horiz-adv-x="830" 
d="M612 803l227 -670q14 -41 10.5 -81.5t-21 -76t-48 -63t-70.5 -41.5q-41 -14 -82 -10.5t-76.5 21t-63 48t-41.5 71.5q-11 35 -11 68l8 707q0 36 25.5 61t61.5 25q29 -1 50.5 -17t30.5 -42zM310 781l52 -702q3 -37 -9 -71t-34.5 -60t-54.5 -42.5t-69 -19.5
q-38 -3 -71.5 8.5t-60 34.5t-43 54.5t-19.5 69.5q-2 24 3 48l136 690q3 18 13 32t23.5 23t30 12.5t34.5 0.5q29 -6 48 -28t21 -50zM574 261l-331 57q-29 5 -45.5 28.5t-11.5 52.5q4 23 20 38t37 19l331 57q26 4 50.5 -1.5t44.5 -20t33.5 -35.5t18.5 -47q4 -26 -1.5 -51
t-19.5 -45t-35.5 -34t-47.5 -18q-22 -3 -43 0z" />
    <glyph glyph-name="I" unicode="I" horiz-adv-x="397" 
d="M330 781l52 -762q3 -37 -9 -71t-34.5 -60t-54.5 -42.5t-69 -19.5q-38 -3 -71.5 8.5t-60 34.5t-43 54.5t-19.5 69.5q-2 24 3 48l136 750q3 18 13 32t23.5 23t30 12.5t34.5 0.5q29 -6 48 -28t21 -50z" />
    <glyph glyph-name="J" unicode="J" horiz-adv-x="408" 
d="M168 767q3 -6 5.5 -12t4.5 -12t5 -11.5t5 -11.5q5 -12 9 -23.5t9 -23.5q9 -23 18 -46.5t17 -47.5q17 -48 32.5 -95.5t29.5 -96.5t26.5 -98t23.5 -100q5 -26 9.5 -52t9.5 -52q8 -54 12 -107q4 -55 3 -113q-1 -15 -1.5 -30t-2.5 -30q-2 -16 -4 -31.5t-6 -31.5
q-6 -32 -18 -67q-6 -17 -13 -34.5t-17 -35.5q-10 -17 -22 -35t-26 -35q-31 -36 -69 -62q-20 -14 -40.5 -25t-42.5 -19t-43.5 -13.5t-41.5 -9.5q-42 -6 -80 -6q-19 0 -37 1t-35 3t-33.5 4.5t-32.5 6.5q-17 3 -32 6.5t-30 8.5q-61 17 -113 37l-6 2q-42 16 -72.5 46t-47.5 67.5
t-18.5 80t14.5 84.5t45.5 72.5t67.5 47.5t80.5 19t84.5 -14q17 -8 34 -17q32 -20 67 -37q17 -8 31.5 -14t28.5 -11q7 -2 13 -3.5t11 -3.5q6 -1 10.5 -2t7.5 -1q7 -1 10 -3q3 0 5 -2q3 -2 6 0q6 2 11 7q3 3 6 7.5t7 9.5q3 5 6.5 11.5t6.5 14.5q13 32 20 69q9 37 12 81
q2 21 3.5 42.5t1.5 44.5q1 23 0.5 45.5t-1.5 45.5q-2 46 -5.5 92t-8.5 93q-10 92 -27 188q-4 23 -8.5 47t-9.5 47q-2 11 -4.5 23t-4.5 23q-2 6 -3 12t-2 11q-2 6 -3 12t-2 11l-1 1q-8 33 10 62t51 37q30 7 56.5 -7t37.5 -41z" />
    <glyph glyph-name="K" unicode="K" horiz-adv-x="786" 
d="M296 781l51 -702q3 -37 -8.5 -71t-34.5 -60t-55 -42.5t-69 -19.5t-71 8.5t-60 34.5t-42.5 54.5t-19.5 69.5q-2 25 3 48l136 690q7 35 36 55t64 13q29 -6 48.5 -28t21.5 -50zM81 384l528 448q25 21 57.5 18.5t53.5 -27.5q19 -23 18.5 -51t-17.5 -50l-438 -536
q-19 -23 -44 -36t-52 -16t-54 5t-50 26q-23 19 -36 44t-16 52.5t5 54.5t26 50l9.5 9.5t9.5 8.5zM421 507l338 -353q23 -24 34.5 -54.5t10.5 -61.5t-13.5 -61t-36.5 -53t-54 -34.5t-61 -10.5t-61 13.5t-53 36.5q-21 23 -32 49l-190 451q-11 28 0 55.5t38 38.5q21 9 43 4
t37 -20z" />
    <glyph glyph-name="L" unicode="L" horiz-adv-x="720" 
d="M309 781l52 -702q3 -37 -9 -71t-34.5 -60t-54.5 -42.5t-69 -19.5q-38 -3 -71.5 8.5t-60 34.5t-43 54.5t-19.5 69.5q-2 25 3 48l136 690q3 18 13 32t23.5 23t30 12.5t34.5 0.5q29 -6 48 -28t21 -50zM202 244l475 1q31 0 52.5 -21.5t21.5 -53.5q0 -22 -11.5 -40t-30.5 -27
l-429 -203q-34 -16 -69.5 -17.5t-68.5 10t-60 35.5t-43 58t-17.5 69.5t10.5 68.5t35.5 60t57.5 43q39 17 77 17z" />
    <glyph glyph-name="M" unicode="M" horiz-adv-x="1014" 
d="M285 781l51 -702q3 -37 -8.5 -71t-34.5 -60t-55 -42.5t-69 -19.5t-71 8.5t-60 34.5t-42.5 54.5t-19.5 69.5q-2 25 3 48l136 690q7 35 36 55t64 13q29 -6 48.5 -28t21.5 -50zM828 800l199 -683q10 -36 6 -71.5t-21 -66t-44.5 -53.5t-63.5 -33q-36 -11 -71.5 -6.5t-66 21.5
t-53.5 44.5t-33 63.5q-4 13 -5.5 26t-1.5 25l3 711q0 32 23 55t55 23q26 -1 46.5 -16.5t27.5 -39.5zM381 268l300 543q14 24 40 32t50 -6q20 -11 28.5 -32t3.5 -42l-158 -601q-8 -29 -25.5 -51t-41 -36t-52 -18.5t-56.5 3.5q-29 8 -51 25.5t-36 41.5t-18.5 51.5t3.5 56.5
q2 8 5.5 16.5t7.5 16.5zM362 157l-222 582q-6 15 -5.5 30.5t7 29.5t17.5 24.5t26 16.5q27 11 53.5 1.5t41.5 -32.5l336 -524q16 -25 20.5 -53t-1.5 -54.5t-22 -50t-41 -39.5t-52.5 -20.5t-54.5 1.5t-50.5 21.5t-39.5 40.5q-4 6 -7 12.5t-6 13.5z" />
    <glyph glyph-name="N" unicode="N" 
d="M294 781l51 -702q3 -37 -8.5 -71t-34.5 -60t-55 -42.5t-69 -19.5t-71 8.5t-60 34.5t-42.5 54.5t-19.5 69.5q-2 25 3 48l136 690q7 35 36 55t64 13q29 -6 48.5 -28t21.5 -50zM630 792l207 -676q11 -36 7.5 -72t-20 -66.5t-44 -54t-63.5 -34.5t-72 -7t-66.5 20.5t-54 43.5
t-34.5 63q-5 15 -6.5 30t-1.5 30l24 706q1 26 20 44.5t45 16.5q21 -1 37 -13t22 -31zM497 0l-345 733q-7 15 -7.5 30.5t5 29.5t15.5 26t25 19q26 12 52.5 5t43.5 -28l501 -635q22 -28 31 -61t5 -66t-20.5 -62.5t-44.5 -51.5t-60.5 -31t-65.5 -5t-62.5 20t-51.5 44
q-6 8 -11.5 16.5t-9.5 16.5z" />
    <glyph glyph-name="O" unicode="O" 
d="M416 790q87 0 164 -37t134 -101t90 -150t33 -184t-33 -183.5t-90 -149.5t-134 -101t-164 -37t-163.5 37t-133.5 101t-90 149.5t-33 183.5t33 184t90 150t133.5 101t163.5 37zM426 360q34 0 63.5 13t51.5 35t35 51.5t13 63.5t-13 63.5t-35 51.5t-51.5 35t-63.5 13
t-63.5 -13t-51.5 -35t-35 -51.5t-13 -63.5t13 -63.5t35 -51.5t51.5 -35t63.5 -13z" />
    <glyph glyph-name="P" unicode="P" horiz-adv-x="700" 
d="M295 758l52 -702q3 -37 -9 -71t-34.5 -60t-54.5 -42.5t-69 -19.5q-38 -3 -71.5 8.5t-60 34.5t-43 54.5t-19.5 69.5q-2 24 3 48l136 690q3 18 13 32t23.5 23t30 12.5t34.5 0.5q29 -6 48 -28t21 -50zM236 713h1v1h1l2 2l4 3q4 2 7 5q4 2 7.5 5t7.5 5q14 9 31 19
q8 5 16.5 8.5t16.5 8.5l36 15q10 3 19.5 6t20.5 5q19 5 45 7q6 1 12 1h12q7 0 13 -0.5t13 -1.5q13 -2 26.5 -5t26.5 -8q25 -8 49 -26q11 -8 20 -16.5t17 -18.5q8 -9 14.5 -18.5t11.5 -18.5q11 -21 18 -37q7 -18 12 -36q3 -9 4.5 -18t3.5 -18q4 -16 6 -34q1 -5 1 -8.5t1 -8.5
v-2v-2l1 -4v-9q1 -17 0.5 -35t-2.5 -38q-2 -19 -6.5 -39t-12.5 -40q-10 -23 -21 -41q-6 -11 -14 -21l-16 -20q-17 -18 -41 -36q-5 -4 -11 -7.5t-12 -7.5t-12 -7l-12 -6q-28 -13 -51 -20q-13 -4 -25.5 -6.5t-25.5 -4.5q-12 -2 -24.5 -3.5t-24.5 -1.5q-23 -2 -46 0
q-43 3 -86 14q-10 3 -19.5 6t-19.5 8q-5 2 -9.5 4t-9.5 4q-2 2 -5 2.5t-5 2.5l-2 1l-3 2l-3 1v1h-1l-2 1q-23 8 -39 23t-24.5 33t-8.5 38t9 40q9 19 26 33t37.5 21.5t43.5 8t45 -7.5h1h2l1 1h6q5 -1 13 -1q7 0 13 -0.5t13 -1.5q12 -1 23.5 -1.5t22.5 -1.5q6 -1 11 -1t10 -1
h18q11 0 15 1q3 1 6 1t5 1q6 1 9 3q6 2 9 4q4 3 8 8l4.5 4.5t4.5 6.5q8 13 15 34q3 10 5 21.5t4 22.5l1 6v3v2v1q1 5 1 13q1 6 1 12v12v23q-1 6 -1 11.5t-1 10.5t-2 9.5t-2 8.5q-2 5 -3 8.5t-2 6.5q-2 4 -6 10q-4 5 -6 7q-3 4 -10 7q-1 0 -7 2q-2 1 -4.5 1t-4.5 1
q-5 1 -10.5 1h-11.5t-12.5 -0.5t-13.5 -1.5q-6 -1 -13 -1.5t-14 -2.5t-13.5 -4t-14.5 -4q-16 -3 -28 -9q-4 -1 -7 -2t-7 -3l-7 -2l-3 -2h-1h-1l-1 -1h-1q-19 -8 -39 -2.5t-30 22.5q-8 14 -4.5 28.5t15.5 25.5z" />
    <glyph glyph-name="Q" unicode="Q" horiz-adv-x="852" 
d="M414 790q87 0 164 -37t134 -101t90 -150t33 -184t-33 -183.5t-90 -149.5t-134 -101t-164 -37t-163.5 37t-133.5 101t-90 149.5t-33 183.5t33 184t90 150t133.5 101t163.5 37zM424 360q34 0 63.5 13t51.5 35t35 51.5t13 63.5t-13 63.5t-35 51.5t-51.5 35t-63.5 13
t-63.5 -13t-51.5 -35t-35 -51.5t-13 -63.5t13 -63.5t35 -51.5t51.5 -35t63.5 -13zM429 402q-10 29 3.5 56.5t42.5 37.5q22 8 44 1.5t36 -23.5l362 -424q24 -29 35 -63t8 -68.5t-19 -66.5t-44 -56t-62 -34.5t-68.5 -7.5t-66.5 18.5t-56 43.5q-22 26 -33 58z" />
    <glyph glyph-name="R" unicode="R" horiz-adv-x="770" 
d="M289 758l52 -702q3 -37 -9 -71t-34.5 -60t-54.5 -42.5t-69 -19.5q-38 -3 -71.5 8.5t-60 34.5t-43 54.5t-19.5 69.5q-2 24 3 48l136 690q3 18 13 32t23.5 23t30 12.5t34.5 0.5q29 -6 48 -28t21 -50zM230 713h1v1h1l2 2l4 3q4 2 7 5q4 2 7.5 5t7.5 5q14 9 31 19
q8 5 16.5 8.5t16.5 8.5l36 15q10 3 19.5 6t20.5 5q19 5 45 7q6 1 12 1h12q7 0 13 -0.5t13 -1.5q13 -2 26.5 -5t26.5 -8q25 -8 49 -26q11 -8 20 -16.5t17 -18.5q8 -9 14.5 -18.5t11.5 -18.5q11 -21 18 -37q7 -18 12 -36q3 -9 4.5 -18t3.5 -18q4 -16 6 -34q1 -5 1 -8.5t1 -8.5
v-2v-2l1 -4v-9q1 -17 0.5 -35t-2.5 -38q-2 -19 -6.5 -39t-12.5 -40q-10 -23 -21 -41q-6 -11 -14 -21l-16 -20q-17 -18 -41 -36q-5 -4 -11 -7.5t-12 -7.5t-12 -7l-12 -6q-28 -13 -51 -20q-13 -4 -25.5 -6.5t-25.5 -4.5q-12 -2 -24.5 -3.5t-24.5 -1.5q-23 -2 -46 0
q-43 3 -86 14q-10 3 -19.5 6t-19.5 8q-5 2 -9.5 4t-9.5 4q-2 2 -5 2.5t-5 2.5l-2 1l-3 2l-3 1v1h-1l-2 1q-23 8 -39 23t-24.5 33t-8.5 38t9 40q9 19 26 33t37.5 21.5t43.5 8t45 -7.5h1h2l1 1h6q2 0 -9.5 11t-25.5 24.5t-26 25t-10 11.5q3 0 21 -3.5t38.5 -8t38.5 -8.5t21 -4
q12 -1 23.5 -1.5t22.5 -1.5q6 -1 11 -1t10 -1h18q11 0 15 1q3 1 6 1t5 1q6 1 9 3q6 2 9 4q4 3 8 8l4.5 4.5t4.5 6.5q14 42 16 67t2 32q-1 6 -1 11.5t-1 10.5t-2 9.5t-2 8.5q-2 5 -3 8.5t-2 6.5q-2 4 -6 10q-4 5 -6 7q-3 4 -10 7q-1 0 -7 2q-2 1 -4.5 1t-4.5 1q-5 1 -10.5 1
h-11.5t-12.5 -0.5t-13.5 -1.5q-6 -1 -13 -1.5t-14 -2.5t-13.5 -4t-14.5 -4q-16 -3 -28 -9q-4 -1 -7 -2t-7 -3l-7 -2l-3 -2h-1h-1l-1 -1h-1q-19 -8 -39 -2.5t-30 22.5q-8 14 -4.5 28.5t15.5 25.5zM449 -71l-258 403q-17 26 -10.5 55.5t32.5 46.5q19 12 41 11.5t39 -11.5
l404 -255q32 -20 52.5 -49.5t28 -63.5t2 -69.5t-25.5 -66.5q-20 -32 -49.5 -52.5t-63.5 -28t-69.5 -2t-67.5 25.5q-36 23 -55 56z" />
    <glyph glyph-name="S" unicode="S" 
d="M702 590h-1l-1 1l-2 1q-3 3 -5 4q-2 2 -5 3t-5 3q-12 7 -23 13q-11 5 -23 10l-24 10q-48 16 -97 18q-12 1 -24 0h-12h-3q-2 -1 -4 -1h-7q-10 1 -25 -1.5t-30.5 -6t-28.5 -8.5t-18 -10t1 -9.5t28 -7.5q12 -4 25 -7.5t27 -7.5q14 -3 28.5 -6.5t28.5 -7.5l16 -4l8 -2l8 -2
q8 -2 16.5 -5t17.5 -5q17 -5 34.5 -12t35.5 -15q34 -16 73 -42q10 -7 19 -14.5t18 -15.5t18 -17t17 -20q16 -21 30 -45q7 -12 12 -24.5t10 -25.5t8.5 -25.5t5.5 -26.5q1 -6 2 -12.5t2 -12.5q0 -9 1 -13v-6v-4v-2v-1l1 -2v-1v-2v-7v-12q0 -7 -0.5 -13t-1.5 -13
q-1 -14 -3.5 -27.5t-6.5 -27.5q-8 -29 -21 -57q-8 -14 -16 -27t-18 -26q-11 -12 -21.5 -23t-22.5 -21q-11 -10 -23 -18l-24 -16q-23 -14 -46 -23q-12 -5 -23.5 -9t-22.5 -8q-22 -7 -43 -11.5t-41 -7.5q-10 -2 -20 -3l-20 -2q-5 -1 -9.5 -1t-9.5 -1h-10l-4 -1h-1h-1h-1h-1h-2
h-6h-6h-12q-6 0 -12 0.5t-12 0.5q-23 1 -45 6q-43 6 -86 20q-20 7 -39 14.5t-38 15.5t-36.5 17.5t-34.5 19.5q-16 9 -35 22l-8 6t-9 6l-9 6l-5 4l-3 2l-1 2h-1l-2 2q-30 27 -47 61.5t-19 72t9.5 74.5t38.5 67t62 47t72.5 19t74.5 -9.5t67 -38.5l-1 1q0 -1 1 -1q0 -1 2 -3
t3.5 -3t3.5 -3l15 -12q18 -15 33 -23q35 -22 63 -31q3 -1 6.5 -2t6.5 -2q2 0 3.5 -0.5t3.5 -0.5l3 -1h3h1l3 -1h6q2 0 5 -0.5t5 -0.5q5 0 10.5 -0.5t10.5 -0.5q36 8 42.5 23t-2.5 31t-26 29t-27 18q-6 2 -11.5 5t-11.5 5l-12 6l-4 1l-3 1l-7 3q-14 6 -28 11.5t-29 11.5
q-29 12 -60 27q-16 7 -32 15t-33 19q-9 5 -17.5 10.5t-17.5 13.5q-9 7 -18.5 14.5t-18.5 18.5q-9 7 -19 23q-10 13 -17 29q-4 8 -7.5 16.5t-5.5 18.5q-4 17 -4 39v3v1v1v1v2v8q1 5 1.5 8.5t1.5 7.5q1 16 9 33q3 8 6.5 15.5t7.5 15.5q9 13 20 26q5 5 10.5 10t10.5 10
q6 5 11.5 9t10.5 7q23 14 43 21q10 5 20 8t19 5q10 2 19.5 3.5t18.5 3.5q36 6 70 6q17 1 33.5 0.5t33.5 -1.5h8l4 -1h2h1h2q5 0 9 -0.5t9 -0.5l18 -2t18 -3q72 -14 133 -45q16 -8 31 -16.5t29 -18.5q7 -5 14 -10.5t14 -10.5q8 -6 13 -11q3 -2 7 -6l4 -3l4 -4
q19 -17 20.5 -42.5t-15.5 -44.5q-17 -20 -42.5 -21t-44.5 16z" />
    <glyph glyph-name="T" unicode="T" horiz-adv-x="707" 
d="M423 720l52 -642q3 -37 -8.5 -71t-34 -60.5t-54.5 -43.5t-69 -20q-38 -3 -72 8.5t-60 34t-43 54.5t-20 69q-2 14 -0.5 27t3.5 26l136 630q4 17 14 31t23.5 23t30.5 12.5t34 -0.5q29 -7 47.5 -28.5t20.5 -49.5zM-42 782l712 60q31 3 60 -7t51.5 -28.5t36.5 -45.5t17 -58
q3 -32 -7 -60.5t-28.5 -51t-45.5 -36.5t-58 -17h-24l-712 52q-41 3 -66.5 33t-23.5 70q3 36 28 61t60 28z" />
    <glyph glyph-name="U" unicode="U" horiz-adv-x="772" 
d="M270 703q0 -3 0.5 -6t0.5 -6l1 -13v-12.5t1 -12.5l2 -50q1 -25 1.5 -49.5t2.5 -48.5q1 -23 3 -46l4 -46q4 -45 12 -84q4 -20 9 -36l5.5 -16.5t5.5 -14.5l6 -12q2 -4 6 -10q3 -3 5 -7q2 -2 3 -2.5t2 -1.5q4 -3 6 -3h2h1l2 -1q2 0 4 -1q5 0 7 -1q6 0 10 -1h6h3h2h4h3h6
q2 1 4.5 1h4.5q3 1 7 1q2 1 5 1q1 0 1.5 0.5t1.5 0.5h2q2 0 3 1q1 0 2 1q1 0 2 1l4.5 4.5t5.5 6.5q7 10 12 22q13 28 20 67l4 20t4 21t3 21.5t2 21.5q3 23 4.5 46t3.5 47t3 48t2 50l2 50q1 6 1 12.5t1 12.5v13l1 6q0 5 1 6l2 13q5 23 25 36.5t44 8.5q11 -2 20 -8t15 -14
l9 -12l4 -6l4 -6q4 -5 7.5 -11t7.5 -12q8 -12 14.5 -24t13.5 -24q13 -25 24 -50.5t22 -51.5q20 -53 33 -109q6 -28 10.5 -57.5t6.5 -60.5q1 -16 1.5 -32t-1.5 -33q-1 -17 -2.5 -34t-5.5 -35t-8.5 -36.5t-12.5 -37.5t-17.5 -38t-23.5 -38q-25 -38 -64 -71q-9 -8 -19 -14.5
t-20 -13.5q-11 -6 -21.5 -11.5t-21.5 -10.5q-43 -19 -85 -26t-80 -7h-5h-5h-9q-5 1 -10 1t-10 1l-20 2t-21 3t-21 4.5t-21 5.5q-24 6 -43 16q-13 5 -22 10l-21 12q-11 6 -20.5 13t-19.5 15q-9 8 -18 16.5t-17 17.5q-8 8 -15 17.5t-14 18.5q-26 40 -41 77q-2 5 -3 9.5t-3 9.5
t-3 9.5t-3 9.5q-6 18 -9 36q-4 18 -5.5 35t-2.5 34q-2 17 -1.5 33t1.5 32q2 32 6 61t11 58q6 29 14 56t18 53q5 14 10.5 26.5t11.5 25.5l5 12q2 5 6 13l6 12t7 13q12 24 27 48q4 6 7.5 12t7.5 11l4 6l4 6l4 6l2 3l2 2l1 1q17 20 43.5 23t46.5 -14q21 -16 24 -42v-5z" />
    <glyph glyph-name="V" unicode="V" horiz-adv-x="640" 
d="M669 674l-205 -675q-11 -36 -34 -63.5t-54 -44t-66.5 -20.5t-71.5 7t-63 34t-43.5 54t-20.5 66.5t7 71.5q8 23 20 43l376 597q10 15 24 24.5t30 13.5t33 1t32 -12q25 -16 34.5 -43t1.5 -54zM167 766l282 -647q15 -34 15 -70t-12.5 -68t-37 -58.5t-58.5 -41.5
q-35 -15 -70.5 -15t-68 12.5t-58.5 37t-41 59.5q-5 11 -8 23t-5 23l-102 698q-2 18 2.5 34.5t14 29.5t24 22t32.5 11q29 5 54.5 -9.5t36.5 -40.5z" />
    <glyph glyph-name="W" unicode="W" horiz-adv-x="891" 
d="M948 674l-205 -675q-11 -36 -34 -63.5t-53.5 -44t-66 -20.5t-71.5 7t-63.5 34t-44 54t-20.5 66.5t7 71.5q8 23 20 43l377 597q9 15 23 24.5t30 13.5t33 1t32 -12q25 -16 34.5 -43t1.5 -54zM397 759l328 -628q17 -33 19.5 -69t-8 -69t-33 -61t-55.5 -45t-69 -19.5t-69 8
t-61 33t-45 55.5q-12 23 -16 45l-151 692q-8 35 11.5 64.5t54.5 37.5q29 7 55 -6t39 -38zM653 651l-233 -660q-12 -35 -36.5 -61.5t-55.5 -41.5t-67 -17t-71 10t-61.5 36.5t-41.5 55.5t-17.5 67t9.5 71q5 12 10.5 23t11.5 21l400 574q10 15 24.5 23.5t31 11.5t33 -0.5
t31.5 -13.5q24 -17 32.5 -44.5t-0.5 -54.5zM127 766l282 -647q15 -34 15 -70t-12.5 -68t-37 -58.5t-58.5 -41.5q-35 -15 -70.5 -15t-68 12.5t-58.5 37t-41 59.5q-10 21 -13 46l-102 698q-3 18 1.5 34.5t14.5 29.5t24.5 22t32.5 11q29 5 54.5 -9.5t36.5 -40.5z" />
    <glyph glyph-name="X" unicode="X" horiz-adv-x="741" 
d="M653 661l-361 -690q-17 -33 -45 -55.5t-61 -33t-68.5 -7.5t-68.5 20t-55.5 45t-33 61t-7.5 69t20 69q11 21 25 36l515 582q12 13 27 20.5t31.5 8.5t32.5 -4t30 -17q23 -20 28 -49t-9 -55zM215 788l502 -623q24 -29 33.5 -63.5t6 -69t-20.5 -66t-46 -54.5
q-29 -24 -63.5 -33.5t-69 -6t-66 20.5t-54.5 46q-13 16 -23 36l-343 722q-8 16 -8.5 33t5 32.5t17 28t27.5 20.5q27 14 56 7t47 -30z" />
    <glyph glyph-name="Y" unicode="Y" horiz-adv-x="466" 
d="M518 668l-173 -739q-8 -36 -30 -64.5t-52.5 -47t-67 -25.5t-75.5 1t-69.5 28t-50.5 48.5t-27 62.5t1 70q2 10 6 20.5t9 18.5l359 681q8 15 21.5 26t30 16t34.5 4.5t35 -8.5q29 -12 42 -38t7 -54zM45 761l278 -427q13 -20 16.5 -42.5t-2 -44t-20 -40t-36.5 -30.5
t-46.5 -15.5t-48 2t-44 18.5t-33.5 34q-2 5 -4.5 10t-4.5 10l-186 467q-5 13 -4.5 26.5t6.5 25t16.5 20.5t24.5 14q26 9 50 0.5t38 -28.5z" />
    <glyph glyph-name="Z" unicode="Z" horiz-adv-x="795" 
d="M693 661l-361 -690q-17 -33 -45 -55.5t-61 -33t-68.5 -7.5t-68.5 20t-55.5 45t-33 61t-7.5 69t20 69q11 21 25 36l515 582q12 13 27 20.5t31.5 8.5t32.5 -4t30 -17q23 -20 28 -49t-9 -55zM636 648l-492 -51q-22 -2 -42 4t-35.5 19t-26 31t-12.5 40t4 42t19 35.5t31 26
t40 12.5h16l495 -26q27 -2 46 -22t17 -48q-2 -25 -19 -43t-41 -20zM737 -39l-564 -83q-35 -4 -67.5 6t-58 31t-42 50.5t-20.5 64.5t6 67.5t31 58t50.5 42t64.5 20.5q7 0 13.5 0.5t13.5 -0.5l568 -42q22 -1 41 -10.5t33 -25t21.5 -35.5t6.5 -42q-2 -41 -30 -69.5t-67 -32.5z
" />
    <glyph glyph-name="zero" unicode="0" horiz-adv-x="696" 
d="M346 766q72 0 135 -36t110.5 -98.5t74.5 -146.5t27 -179t-27 -178.5t-74.5 -146t-110.5 -98.5t-135 -36t-135 36t-110 98.5t-74 146t-27 178.5t27 179t74 146.5t110 98.5t135 36zM359 365q28 0 52.5 9.5t42.5 25.5t28.5 37.5t10.5 46.5t-10.5 46.5t-28.5 38t-42.5 26
t-52.5 9.5t-52.5 -9.5t-42.5 -26t-28.5 -38t-10.5 -46.5t10.5 -46.5t28.5 -37.5t42.5 -25.5t52.5 -9.5z" />
    <glyph glyph-name="one" unicode="1" horiz-adv-x="395" 
d="M343 701l52 -702q3 -37 -9 -71t-34.5 -60t-54.5 -42.5t-69 -19.5q-38 -3 -71.5 8.5t-60 34.5t-43 54.5t-19.5 69.5q-2 25 3 48l136 690q3 18 13 32t23.5 23t30 12.5t34.5 0.5q29 -6 48 -28t21 -50zM-25 579l218 176q19 15 43 13t40 -21q12 -14 13 -32t-8 -33l-144 -237
q-12 -18 -29 -30.5t-37.5 -17.5t-41.5 -2.5t-40 13.5t-31.5 28t-18 36.5t-2.5 40t14 39.5q5 8 11 14.5t13 12.5z" />
    <glyph glyph-name="two" unicode="2" 
d="M-11 500l1 7q0 2 0.5 3t0.5 3q2 8 2 12q2 6 3 11.5t3 11.5q3 12 7 23.5t9 22.5t10.5 21.5t11.5 21.5q11 21 29 42q15 20 35 38q21 19 43 33q11 8 23 14t24 11q25 10 51 18q13 3 26 5.5t26 4.5q7 1 13.5 1t12.5 1q7 0 13.5 0.5t13.5 0.5q14 0 28 -1.5t29 -3.5
q14 -3 29.5 -7.5t31.5 -11.5q8 -4 15.5 -7.5t15.5 -8.5t15 -10.5t14 -11.5l13.5 -13.5t12.5 -14.5t11.5 -15.5t10.5 -15.5t8.5 -16.5t7.5 -16.5q3 -8 5.5 -17t4.5 -17q9 -33 9 -63q1 -16 1 -30.5t-2 -28.5t-3.5 -27t-4.5 -26q-5 -26 -11.5 -50t-14.5 -47t-17 -45t-19 -44
q-5 -11 -9.5 -21t-9.5 -21q-5 -10 -10.5 -20t-10.5 -20q-11 -20 -22 -39.5t-22 -39.5q-12 -20 -23.5 -38.5t-23.5 -37.5q-47 -72 -101 -143v-2q-21 -28 -50.5 -45t-62 -21.5t-66 3t-61.5 28.5q-29 21 -46 50.5t-21.5 62t3 65.5t28.5 62q5 5 9 10t9 9q28 28 55 56t53 57
q14 14 26.5 28.5t24.5 29.5q13 14 25 29t23 29q5 8 11 15t11 15l21 30q11 15 20.5 30t17.5 30q12 18 19 43.5t5 50.5t-13.5 46t-34.5 30.5t-59.5 3.5t-87.5 -36q-15 -12 -24 -22q-6 -6 -11.5 -12.5t-10.5 -13.5q-5 -8 -10 -15t-10 -15q-2 -4 -4 -7.5t-4 -7.5l-2 -4l-2 -4
l-2 -4v-1l-1 -1v-1l-1 -2q-7 -19 -25 -27.5t-37 -1.5q-17 6 -25 21t-6 32zM178 119l539 -11q29 -1 49 -22t20 -50q-1 -23 -15 -40.5t-34 -24.5l-515 -160q-31 -10 -62 -6.5t-58 17.5t-47.5 37.5t-30.5 54.5t-6.5 62.5t17.5 58.5t38 47t55 30q12 4 25 6t25 1z" />
    <glyph glyph-name="three" unicode="3" 
d="M90 610l1 4l2 4q0 2 2 6q4 8 5 12q3 7 6 12.5t6 11.5q12 24 30 45q8 11 18 21t21 19t23 17t26 15t28.5 11.5t28.5 7.5q15 2 30 3.5t30 0.5q14 -1 28 -3t28 -5q7 -2 13.5 -3.5t13.5 -3.5q13 -3 26 -9q28 -9 54 -28l14 -10t13 -12q7 -6 13 -13.5t12 -15.5q10 -14 18 -35
q8 -22 11 -39q2 -10 2 -19v-18q-1 -10 -1.5 -18.5t-2.5 -16.5t-7.5 -21.5t-13 -28t-14 -27t-9.5 -19.5q25 -26 44 -47.5t39 -53.5q20 -34 32 -70q13 -35 19 -76q2 -20 3.5 -40t-0.5 -41q-2 -20 -5.5 -41.5t-10.5 -42.5t-18 -43q-10 -21 -26 -42q-16 -22 -34 -39
q-10 -9 -20.5 -17t-22.5 -15q-23 -15 -48 -24q-13 -5 -25 -8.5t-25 -5.5q-6 -1 -12 -1.5t-13 -1.5q-3 0 -6 -0.5t-6 -0.5h-6h-3l-1 -1h-1h-1h-1h-2h-5h-9h-18q-18 0 -36.5 1.5t-37.5 3.5q-39 6 -78 18t-78 33q-39 22 -73 53q-9 8 -17.5 16.5t-16.5 18.5q-8 8 -16 21
q-5 5 -8 12q-2 2 -2.5 3.5t-2.5 3.5q-1 2 -1 2.5t-1 2.5l-2 2l-1 2l-1 2l-1 2q-14 29 -14.5 60t10 59t31.5 51t50 37q29 13 60 14t59 -9.5t51 -31.5t37 -50l-1 2q-2 4 -4 6h-1q5 -14 17.5 -24.5t25.5 -15.5q7 -4 15 -7l16 -6l18 -4t19 -4q19 -1 33 7.5t22.5 20t11.5 23
t1 16.5q0 17 -3 34q-7 36 -26 65q-5 7 -14 19t-21 25t-25.5 25.5t-27.5 20.5l-14 34q37 14 59.5 47t29.5 70.5t-1.5 72t-33.5 51.5t-67 9.5t-101 -53.5q-3 -4 -5.5 -7.5t-4.5 -7.5q-2 -2 -2.5 -4t-2.5 -4q0 -1 -2 -3v-2l-1 -1l-13 -14q-14 -15 -33.5 -16t-34.5 13
q-11 10 -14.5 24t1.5 27z" />
    <glyph glyph-name="four" unicode="4" horiz-adv-x="737" 
d="M633 701l52 -702q3 -37 -9 -71t-34.5 -60t-54.5 -42.5t-69 -19.5q-38 -3 -71.5 8.5t-60 34.5t-43 54.5t-19.5 69.5q-2 25 3 48l136 690q3 18 13 32t23.5 23t30 12.5t34.5 0.5q29 -6 48 -28t21 -50zM38 341l444 410q21 20 49 18.5t48 -22.5q17 -19 18.5 -43.5t-13.5 -44.5
l-358 -486q-16 -21 -37.5 -33.5t-45.5 -16.5t-48.5 2t-45.5 21q-21 16 -33.5 37.5t-16.5 45.5t2 48.5t21 45.5q4 5 8 9.5t8 8.5zM130 368l614 -57q29 -3 47 -24.5t15 -50.5q-2 -26 -20 -43.5t-42 -19.5l-614 -56q-26 -3 -50 5t-42.5 23.5t-30.5 37.5t-15 48q-2 26 5.5 49.5
t23.5 42.5t38 31t48 14q11 2 23 0z" />
    <glyph glyph-name="five" unicode="5" horiz-adv-x="737" 
d="M521 525l-362 116l96 53l-38 -270l-69 104l77 -11l76 -11l154 -22l38 -6l5 -1h2h1l1 -1h1h1h2l4 -1q2 -1 3.5 -1t3.5 -1q8 -2 14.5 -3.5t14.5 -3.5q14 -5 28 -11.5t28 -14.5q27 -16 52 -39q12 -11 22.5 -24t19.5 -27q18 -29 28 -58q10 -30 15 -60q4 -30 3 -60
q-2 -61 -22 -115q-5 -14 -11.5 -27.5t-14.5 -27.5q-8 -13 -17 -25.5t-19 -24.5q-21 -24 -47 -44q-14 -11 -28 -19t-29 -16q-28 -14 -63 -22q-31 -7 -64 -9h-2h-1h-1q-4 -1 1.5 -0.5t4.5 0.5h-2v-1h-1h-8q-4 0 -7.5 -0.5t-7.5 -0.5h-15t-15 1q-14 1 -28.5 3t-28.5 4
q-29 6 -55 14.5t-50 19.5q-50 23 -91 52q-23 15 -41 30q-5 5 -10 8.5t-10 8.5q-2 2 -5 4.5t-5 5.5q-3 2 -5 5l-3 3l-2 2l-1 1l-2 1q-21 24 -30.5 53.5t-7.5 59.5t15.5 58t37.5 49t53.5 30.5t59.5 7.5t58 -15t49 -37h-1v1v-1l2 -2q1 -1 1.5 -2t1.5 -2l9 -9q4 -5 8.5 -9.5
t9.5 -8.5q10 -9 20 -16.5t20 -14.5q11 -6 20.5 -10.5t18.5 -8.5q5 -2 9.5 -3t9.5 -2q2 -1 4.5 -1t4.5 -1h4l1 -1h1h1h1q-1 0 4.5 0.5t1.5 -0.5h1q3 0 6 -0.5t6 -0.5q2 1 5 1t5 1q5 0 10 3q5 2 11 7q12 10 20 25q9 14 12 33q3 16 1 33q-1 3 -1.5 6.5t-2.5 5.5q-1 3 -2 5.5
t-3 5.5q-4 6 -8 9q-2 2 -5 4t-7 4q-6 2 -9 4h-2v1h-1h-1l-1 1v-1v1h-1h-2l-5 2l-37 9l-149 40l-75 19l-74 20l-10 2q-33 9 -50.5 38.5t-8.5 62.5v1l70 262l2 8q8 28 32 42t51 7q3 -1 5.5 -2t5.5 -2l346 -156q19 -9 26 -28t-1 -39q-8 -17 -25.5 -24.5t-35.5 -2.5z" />
    <glyph glyph-name="six" unicode="6" horiz-adv-x="728" 
d="M158 312l1 2l2 2l3 3q4 4 6 7l13 13q6 6 12.5 12t13.5 12q28 25 61 46q4 2 8 5t8 5q5 2 9 5t9 5l18 9l10 4l10 4q20 8 41.5 13.5t46.5 7.5q12 1 24.5 1t26.5 -2q25 -1 54 -11q26 -9 52 -24q13 -8 24 -16.5t22 -18.5t20 -21t17 -22q15 -24 27 -48q21 -49 27 -101
q3 -26 2 -51.5t-6 -51.5t-13 -51t-22 -50q-6 -13 -14 -25t-17 -23q-9 -12 -19 -22q-5 -6 -10.5 -11t-11.5 -10q-11 -10 -23 -18.5t-26 -16.5t-27.5 -14t-27.5 -11t-28.5 -8.5t-28.5 -5.5q-8 -1 -14.5 -1.5t-14.5 -1.5q-3 0 -6.5 -0.5t-6.5 -0.5h-4h6h-1h-1h-2h-3l-5 -1h-5
h-11q-5 -1 -10.5 -1h-11.5q-22 0 -46 3q-12 1 -24 3t-26 5q-13 3 -26 7t-27 10q-14 5 -27 12.5t-27 15.5q-13 8 -24.5 18t-22.5 21t-20 22t-17 22q-17 22 -27 45q-11 24 -18 43q-4 9 -7 20q-2 5 -3 10t-3 10v1l-1 1v1v1l-1 1v2q-2 6 -2 8q-1 5 -3 13q-2 7 -2.5 13t-1.5 12
t-1.5 11.5t-1.5 10.5q0 6 -0.5 11.5t-0.5 10.5v41q1 10 1.5 20t1.5 20q2 20 4.5 39t6.5 39q2 10 4.5 19.5t4.5 18.5q2 10 5 19.5t6 18.5q12 38 28 75l8 18t9 18l9 18q3 5 5.5 8.5t5.5 8.5q21 34 48 66q25 29 58 56q30 26 67 45q9 5 17.5 9t17.5 9q20 8 37 14q18 6 36.5 10.5
t37.5 8.5q35 6 73 9q36 2 71.5 0t70.5 -7q20 -3 31.5 -18.5t8.5 -34.5q-2 -17 -14.5 -28t-28.5 -13h-1q-65 -5 -121 -19q-27 -6 -56 -17q-27 -11 -51 -24q-6 -4 -11.5 -7.5t-11.5 -7.5l-21 -15q-21 -18 -37 -37q-34 -38 -52 -87q-9 -24 -14.5 -50t-7.5 -52q-1 -7 -1 -13.5
v-13.5v-13.5t1 -13.5q1 -14 2 -27t3 -27q2 -7 2.5 -13t2.5 -13l3 -12q1 -3 1.5 -6.5t1.5 -5.5l2 -6l2 -6q1 -2 1.5 -5t2.5 -5q1 -3 3 -7l2 -2v-1v1l1 -1q13 -25 24 -37q2 -4 4.5 -6.5l4.5 -4.5q3 -2 7 -4l4 -2l5 -2q3 -2 9 -3q6 -2 15 -3q5 -1 10 -1.5t10 -0.5q3 0 5.5 -0.5
t5.5 -0.5h6h6h1h2h2h7h3q2 -1 5 -1q5 0 7 1h6q1 0 5 2q2 0 3 1t1.5 1t1.5 1l6 6q8 8 13 21q7 15 8 29q1 7 1 14v13q-1 3 -1 6t-1 6l-3 9q-2 6 -3 8q-1 3 -6 8q-2 2 -4 3.5t-5 3.5q-6 3 -15 6q-8 2 -19 3t-23 1q-8 0 -12 -1q-4 0 -7 -0.5t-6 -0.5q-4 -1 -7 -1t-7 -1
q-3 -1 -6.5 -1.5t-6.5 -1.5q-29 -6 -57 -15q-8 -2 -14.5 -5t-14.5 -5l-15 -6l-7 -2l-4 -2q-1 0 -2 -1h-2q-21 -8 -41 1t-28 29q-6 14 -3 28.5t12 25.5z" />
    <glyph glyph-name="seven" unicode="7" horiz-adv-x="551" 
d="M584 618l-215 -701q-11 -36 -34.5 -63t-54 -43.5t-66 -20.5t-71.5 7t-63 34.5t-43.5 54t-20 66t7.5 71.5q3 11 8 21.5t11 20.5l386 624q9 15 23 25t30 13.5t33 1t32 -11.5q26 -16 35.5 -43.5t1.5 -55.5zM81 729h411q29 0 49.5 -20t20.5 -49q0 -24 -14.5 -42t-36.5 -25
l-394 -113q-26 -8 -51 -4.5t-46 15t-37.5 31t-23.5 45.5q-7 25 -4 50t15 46.5t31.5 37.5t44.5 23q20 5 35 5z" />
    <glyph glyph-name="eight" unicode="8" horiz-adv-x="695" 
d="M347 468q72 0 135 -23.5t110.5 -63.5t74.5 -94t27 -115q0 -62 -27 -116t-74.5 -94t-110.5 -63.5t-135 -23.5t-135 23.5t-110 63.5t-74 94t-27 116q0 61 27 115t74 94t110 63.5t135 23.5zM370 168q28 0 52.5 6t42.5 16.5t28.5 24.5t10.5 30t-10.5 30t-28.5 24.5
t-42.5 16.5t-52.5 6t-52.5 -6t-42.5 -16.5t-28.5 -24.5t-10.5 -30t10.5 -30t28.5 -24.5t42.5 -16.5t52.5 -6zM370 726q52 0 97.5 -15.5t79.5 -42.5t53.5 -63.5t19.5 -77.5q0 -42 -19.5 -78.5t-53.5 -63.5t-79.5 -42.5t-97.5 -15.5t-97.5 15.5t-79.5 42.5t-53.5 63.5
t-19.5 78.5q0 41 19.5 77.5t53.5 63.5t79.5 42.5t97.5 15.5zM379 552q40 0 68.5 15t28.5 37q0 21 -28.5 36.5t-68.5 15.5q-41 0 -69 -15.5t-28 -36.5q0 -22 28 -37t69 -15z" />
    <glyph glyph-name="nine" unicode="9" horiz-adv-x="712" 
d="M570 343l-4 -2l-4 -2l-8 -5l-15 -9q-15 -9 -32 -18t-34 -17t-35 -15q-18 -8 -36.5 -13.5t-38.5 -10.5l-20 -4t-21 -3q-11 -2 -22 -2h-22q-20 0 -45 5q-12 2 -23.5 5.5t-22.5 8.5t-22 11t-21 13q-10 8 -19 16t-17 17q-18 18 -28 38q-13 21 -20 41q-8 21 -12 42.5t-6 43.5
q-2 45 7 85q3 11 6 21t7 21q4 10 8.5 20t10.5 20q5 10 11.5 19t14.5 18q13 17 32 33t39 26q20 11 43 19q11 4 22.5 6.5t22.5 4.5q5 1 11 1t11 1h11h3h-3h1h1l2 1h2h5h5q2 0 4.5 0.5t4.5 0.5h19h19.5t20.5 -2q11 -1 21 -2t21 -3q20 -4 43 -12q5 -2 11 -4.5t11 -4.5
q5 -3 11 -5.5t11 -5.5t10.5 -6.5t10.5 -6.5q5 -4 9.5 -7.5t9.5 -7.5q10 -8 18.5 -16t16.5 -17q8 -8 15 -17t13 -18q7 -9 13 -17.5t11 -17.5t10 -17.5t10 -16.5l1 -1v-1v-1l2 -4l3 -6q1 -4 5 -12q2 -6 3.5 -11.5t3.5 -10.5q8 -22 12 -40q3 -11 5 -20.5t4 -19.5l6 -39
q5 -40 4.5 -80t-6.5 -81q-3 -21 -7 -41.5t-10 -40.5q-6 -21 -13 -42t-17 -41q-9 -20 -19.5 -40t-24.5 -39q-13 -20 -27 -38t-31 -35t-35 -32.5t-37 -29.5q-39 -27 -81 -48q-20 -10 -41.5 -18t-42.5 -15q-42 -14 -84 -21q-11 -2 -21 -3.5t-21 -3.5q-11 -1 -21 -2l-20 -2
q-21 -2 -41 -2.5t-40 0.5h-3q-38 0 -70.5 15t-57 40t-38.5 58t-13 71q0 38 15 71t40 57.5t58 38t71 13.5q3 0 6.5 -0.5t5.5 -0.5q26 -2 51.5 -2.5t48.5 1.5q46 3 85 15q9 3 18 6.5t18 7.5q15 8 32 19q8 6 14.5 12t14.5 13q14 16 26 32q6 9 11.5 18.5t10.5 20.5q10 21 18 45
q5 12 8 24t6 25t5.5 26t4.5 26q2 7 2.5 13.5t1.5 13.5q0 3 0.5 6.5t0.5 6.5q1 3 1 6.5v6.5q1 6 1 12.5v11.5l1 11v3v2v1q-1 8 -2 14.5t-3 12.5l-6 24q-3 9 -8 20q-3 8 -9 16q-4 6 -5 7l-6 6q-8 7 -15 10q-16 9 -43 14q-6 1 -12.5 1.5t-13.5 1.5h-14h-7h-7h-2h-2h-5h-1h-6
h-10q-5 -1 -10 -1.5t-10 -2.5q-17 -4 -33 -17q-8 -5 -14.5 -13t-12.5 -17q-12 -20 -16 -41q-6 -21 -4 -45t9 -43t20 -33l6 -6t7 -5t7.5 -3.5t7.5 -3.5q5 -2 9 -3t9 -2t10 -1h10q11 1 22 2.5t23 5.5q24 7 49 20q13 6 25 13.5t24 15.5l12 8t12 9q8 6 11 9l6 5l6 5
q14 11 30.5 16t33 3.5t31.5 -9.5t27 -22q11 -14 16 -30t3.5 -32.5t-9.5 -32t-22 -26.5q-4 -4 -10 -7v-1z" />
    <glyph glyph-name="hyphen" unicode="-" horiz-adv-x="536" 
d="M86 372l302 61q22 4 42.5 -0.5t37.5 -15.5t29 -28.5t17 -39.5q4 -22 0 -42.5t-15.5 -37.5t-29 -29.5t-39.5 -16.5q-2 0 -4 -0.5t-4 -0.5l-306 -36q-20 -3 -38 2.5t-32 16.5t-23.5 27t-11.5 36q-5 38 17 67.5t58 36.5z" />
    <glyph glyph-name="endash" unicode="&#x2013;" horiz-adv-x="654" 
d="M86 372l417 61q22 4 42.5 -0.5t37.5 -15.5t29 -28.5t17 -39.5q4 -22 0 -42.5t-15.5 -37.5t-29 -29.5t-39.5 -16.5q-2 0 -4 -0.5t-4 -0.5l-421 -36q-20 -3 -38 2.5t-32 16.5t-23.5 27t-11.5 36q-5 38 17 67.5t58 36.5z" />
    <glyph glyph-name="emdash" unicode="&#x2014;" horiz-adv-x="807" 
d="M86 372l567 61q22 4 42.5 -0.5t37.5 -15.5t29 -28.5t17 -39.5q4 -22 0 -42.5t-15.5 -37.5t-29 -29.5t-39.5 -16.5q-2 0 -4 -0.5t-4 -0.5l-571 -36q-20 -3 -38 2.5t-32 16.5t-23.5 27t-11.5 36q-5 38 17 67.5t58 36.5z" />
    <glyph glyph-name="minus" unicode="&#x2212;" horiz-adv-x="654" 
d="M86 372l417 61q22 4 42.5 -0.5t37.5 -15.5t29 -28.5t17 -39.5q4 -22 0 -42.5t-15.5 -37.5t-29 -29.5t-39.5 -16.5q-2 0 -4 -0.5t-4 -0.5l-421 -36q-20 -3 -38 2.5t-32 16.5t-23.5 27t-11.5 36q-5 38 17 67.5t58 36.5z" />
    <glyph glyph-name="macron" unicode="&#xaf;" horiz-adv-x="654" 
d="M86 882l417 61q22 4 42.5 -0.5t37.5 -15.5t29 -28.5t17 -39.5q4 -22 0 -42.5t-15.5 -37.5t-29 -29.5t-39.5 -16.5q-2 0 -4 -0.5t-4 -0.5l-421 -36q-20 -3 -38 2.5t-32 16.5t-23.5 27t-11.5 36q-5 38 17 67.5t58 36.5z" />
    <glyph glyph-name="macron" unicode="&#x2c9;" horiz-adv-x="654" 
d="M86 882l417 61q22 4 42.5 -0.5t37.5 -15.5t29 -28.5t17 -39.5q4 -22 0 -42.5t-15.5 -37.5t-29 -29.5t-39.5 -16.5q-2 0 -4 -0.5t-4 -0.5l-421 -36q-20 -3 -38 2.5t-32 16.5t-23.5 27t-11.5 36q-5 38 17 67.5t58 36.5z" />
    <glyph glyph-name="breve" unicode="&#x2d8;" horiz-adv-x="425" 
d="M166 843v-3v-4q0 -4 1 -6l1 -14q0 -7 0.5 -13.5t0.5 -12.5q1 -7 1.5 -13t1.5 -12q2 -6 2.5 -12t2.5 -11q2 -4 4 -10q2 -2 2.5 -4t2.5 -4t2 -3l3 -3l2 -2l2 -1q2 -1 3 -1h1h1h2h1q1 0 1 -0.5t1 -0.5h4h2h2h2h1h3h4q1 1 3 1h2h1h1h1q1 0 1 1h1q1 0 4 3q4 4 5 6q6 7 9 18
q1 3 3 11t2 12q2 6 2.5 12t1.5 13q1 6 1 12.5t1 13.5l1 14q0 4 1 7v3v2v1l1 4q2 6 10.5 10t19.5 2q10 -2 14 -6l4 -3q2 -2 4 -3q4 -4 6 -7l6 -6t6 -7q5 -7 9.5 -13.5t9.5 -13.5q5 -8 8.5 -15t5.5 -15q3 -8 5 -15.5t3 -16.5v-17q-1 -5 -1.5 -9.5t-2.5 -9.5t-3.5 -10t-5.5 -10
q-3 -5 -7 -10t-10 -10q-10 -10 -27 -20q-4 -2 -8 -3.5t-9 -3.5l-18 -6q-18 -5 -36 -7t-34 -2h-2h-2h-4q-6 0 -9 1h-8t-9 1q-5 0 -9 1t-9 2t-9 1.5t-9 2.5l-9 3l-9 3q-5 2 -9 3.5t-8 3.5t-7.5 4.5t-7.5 5.5q-8 4 -12 9q-12 10 -18 21q-2 4 -2 5q-2 4 -3 5q-2 4 -4 10
q-3 10 -3 19q-2 9 0 17q1 18 7 33q4 15 14 29q2 4 4.5 7.5t4.5 6.5l2 3q1 2 3 4q1 2 2 3.5t3 3.5q3 3 5.5 6t6.5 7l6 6l3 3l2 2l1 1h1q8 6 19 7t19 -4q10 -5 11 -12v-1z" />
    <glyph glyph-name="ring" unicode="&#x2da;" horiz-adv-x="401" 
d="M200 865q30 0 56 -11.5t45.5 -31t31 -45.5t11.5 -56t-11.5 -56t-31 -45.5t-45.5 -30.5t-56 -11t-56 11t-45.5 30.5t-30.5 45.5t-11 56t11 56t30.5 45.5t45.5 31t56 11.5zM205 740q23 0 39.5 11t16.5 26q0 16 -16.5 26.5t-39.5 10.5t-39 -10.5t-16 -26.5q0 -15 16 -26
t39 -11z" />
    <glyph glyph-name="period" unicode="." horiz-adv-x="286" 
d="M-22 137q0 31 11.5 58.5t32 48.5t47.5 33t59 12q31 0 58.5 -12t48.5 -33t33 -48.5t12 -58.5q0 -32 -12 -59t-33 -47.5t-48.5 -32t-58.5 -11.5q-32 0 -59 11.5t-47.5 32t-32 47.5t-11.5 59z" />
    <glyph glyph-name="dotaccent" unicode="&#x2d9;" horiz-adv-x="286" 
d="M-22 743q0 31 11.5 58.5t32 48.5t47.5 33t59 12q31 0 58.5 -12t48.5 -33t33 -48.5t12 -58.5q0 -32 -12 -59t-33 -47.5t-48.5 -32t-58.5 -11.5q-32 0 -59 11.5t-47.5 32t-32 47.5t-11.5 59z" />
    <glyph glyph-name="periodcentered" unicode="&#xb7;" horiz-adv-x="286" 
d="M-22 368q0 31 11.5 58.5t32 48.5t47.5 33t59 12q31 0 58.5 -12t48.5 -33t33 -48.5t12 -58.5q0 -32 -12 -59t-33 -47.5t-48.5 -32t-58.5 -11.5q-32 0 -59 11.5t-47.5 32t-32 47.5t-11.5 59z" />
    <glyph glyph-name="periodcentered" unicode="&#x2219;" horiz-adv-x="286" 
d="M-22 368q0 31 11.5 58.5t32 48.5t47.5 33t59 12q31 0 58.5 -12t48.5 -33t33 -48.5t12 -58.5q0 -32 -12 -59t-33 -47.5t-48.5 -32t-58.5 -11.5q-32 0 -59 11.5t-47.5 32t-32 47.5t-11.5 59z" />
    <glyph glyph-name="bullet" unicode="&#x2022;" horiz-adv-x="286" 
d="M-22 368q0 31 11.5 58.5t32 48.5t47.5 33t59 12q31 0 58.5 -12t48.5 -33t33 -48.5t12 -58.5q0 -32 -12 -59t-33 -47.5t-48.5 -32t-58.5 -11.5q-32 0 -59 11.5t-47.5 32t-32 47.5t-11.5 59z" />
    <glyph glyph-name="degree" unicode="&#xb0;" horiz-adv-x="401" 
d="M200 865q30 0 56 -11.5t45.5 -31t31 -45.5t11.5 -56t-11.5 -56t-31 -45.5t-45.5 -30.5t-56 -11t-56 11t-45.5 30.5t-30.5 45.5t-11 56t11 56t30.5 45.5t45.5 31t56 11.5zM205 740q23 0 39.5 11t16.5 26q0 16 -16.5 26.5t-39.5 10.5t-39 -10.5t-16 -26.5q0 -15 16 -26
t39 -11z" />
    <glyph glyph-name="ordmasculine" unicode="&#xba;" horiz-adv-x="401" 
d="M200 865q30 0 56 -11.5t45.5 -31t31 -45.5t11.5 -56t-11.5 -56t-31 -45.5t-45.5 -30.5t-56 -11t-56 11t-45.5 30.5t-30.5 45.5t-11 56t11 56t30.5 45.5t45.5 31t56 11.5zM205 740q23 0 39.5 11t16.5 26q0 16 -16.5 26.5t-39.5 10.5t-39 -10.5t-16 -26.5q0 -15 16 -26
t39 -11z" />
    <glyph glyph-name="onesuperior" unicode="&#xb9;" horiz-adv-x="395" 
d="M156.327 429.061l17.9443 -242.513q1.03516 -12.7822 -3.10547 -24.5273q-4.14062 -11.7461 -11.9053 -20.7275q-7.76465 -8.98242 -18.8076 -14.6826t-23.8115 -6.73633q-13.1143 -1.03613 -24.6748 2.93652t-20.7051 11.918q-9.14453 7.94629 -14.8389 18.8281
t-6.72949 24.0098q-0.69043 8.63574 1.03516 16.582l46.9326 238.366q1.03516 6.21777 4.48633 11.0547t8.10938 7.94531q4.65918 3.10938 10.3535 4.31836q5.69336 1.20898 11.9053 0.172852q10.0078 -2.07227 16.5645 -9.67285t7.24707 -17.2725zM29.333 386.914
l75.2305 60.8008q6.55664 5.18164 14.8389 4.49121q8.28223 -0.691406 13.8037 -7.25488q4.14062 -4.83594 4.48633 -11.0547q0.344727 -6.21875 -2.76074 -11.4004l-49.6934 -81.873q-4.1416 -6.21875 -10.0078 -10.5371q-5.86719 -4.31836 -12.9414 -6.04492
q-7.07422 -1.72754 -14.3213 -0.864258q-7.24707 0.864258 -13.8037 4.66406t-10.8701 9.67285t-6.21191 12.6094t-0.862305 13.8184q1.03516 7.08203 4.83105 13.6455q1.72559 2.76367 3.7959 5.00879q2.07031 2.24609 4.48633 4.31836z" />
    <glyph glyph-name="threesuperior" unicode="&#xb3;" horiz-adv-x="407" 
d="M53.71 372.909l0.317383 1.27441l0.635742 1.27539q0 0.636719 0.635742 1.91211q1.27148 2.5498 1.58887 3.82422q0.954102 2.23145 1.90723 3.98438t1.90723 3.66602q3.81348 7.64844 9.53418 14.3418q2.54199 3.50586 5.7207 6.69336q3.17773 3.1875 6.67383 6.05566
q3.49609 2.86914 7.30957 5.41895t8.2627 4.78027q4.44922 2.23145 9.05762 3.66602q4.6084 1.43359 9.05762 2.38965q4.76758 0.637695 9.53418 1.11621q4.76758 0.477539 9.53418 0.15918q4.44922 -0.318359 8.89941 -0.956055q4.44922 -0.637695 8.89844 -1.59375
q2.22461 -0.637695 4.29004 -1.11523q2.06641 -0.478516 4.29102 -1.11621q4.13086 -0.956055 8.2627 -2.86816q8.89844 -2.86816 17.1621 -8.9248q2.22461 -1.59277 4.44922 -3.18652t4.13184 -3.8252q2.22461 -1.91211 4.13086 -4.30273
q1.90723 -2.39062 3.81348 -4.94043q3.17871 -4.46191 5.7207 -11.1553q2.54297 -7.01172 3.49609 -12.4297q0.635742 -3.1875 0.635742 -6.05664v-5.73633q-0.317383 -3.1875 -0.476562 -5.89648t-0.794922 -5.25879t-2.38379 -6.85254q-1.74707 -4.30273 -4.13086 -8.9248
q-2.38379 -4.62109 -4.44922 -8.60547q-2.06641 -3.98438 -3.01953 -6.21484q7.94531 -8.28711 13.9834 -15.1396q6.03906 -6.85254 12.3945 -17.0518q6.35645 -10.8369 10.1699 -22.3115q4.13184 -11.1553 6.03906 -24.2227q0.634766 -6.375 1.1123 -12.749
q0.476562 -6.37402 -0.15918 -13.0674q-0.635742 -6.375 -1.74805 -13.2275t-3.33691 -13.5459t-5.7207 -13.7051q-3.17773 -6.69336 -8.2627 -13.3867q-5.08496 -7.01172 -10.8057 -12.4297q-3.17871 -2.86914 -6.51562 -5.41895t-7.15039 -4.78027
q-7.30957 -4.78125 -15.2549 -7.64941q-4.13184 -1.59375 -7.94531 -2.70996q-3.81348 -1.11523 -7.94531 -1.75293q-1.90625 -0.318359 -3.81348 -0.477539t-4.13184 -0.478516q-0.953125 0 -1.90625 -0.15918q-0.954102 -0.15918 -1.90723 -0.15918h-1.90723h-0.953125
l-0.317383 -0.318359h-0.318359h-0.317383h-0.318359h-0.635742h-1.58887h-2.86035h-5.7207q-5.71973 0 -11.5996 0.477539q-5.87988 0.478516 -11.918 1.11523q-12.3945 1.91309 -24.7891 5.7373q-12.3945 3.8252 -24.7891 10.5176q-12.3945 7.0127 -23.2002 16.8926
q-2.86035 2.5498 -5.56152 5.25977q-2.70215 2.70898 -5.24414 5.89648q-2.54297 2.54883 -5.08496 6.69238q-1.58887 1.59375 -2.54297 3.8252q-0.634766 0.637695 -0.793945 1.11523q-0.15918 0.478516 -0.794922 1.11523q-0.317383 0.637695 -0.317383 0.796875
q0 0.160156 -0.318359 0.796875l-0.634766 0.637695l-0.318359 0.637695l-0.317383 0.637695l-0.318359 0.636719q-4.44922 9.24316 -4.6084 19.124q-0.158203 9.88086 3.17871 18.8047t10.0107 16.2549t15.8906 11.793q9.2168 4.14355 19.0684 4.46191
q9.85254 0.319336 18.751 -3.02734t16.208 -10.04t11.7588 -15.9365l-0.317383 0.637695q-0.635742 1.27441 -1.27148 1.91211h-0.317383q1.58887 -4.46191 5.56152 -7.80859t8.10449 -4.94043q2.22461 -1.27441 4.7666 -2.23047q2.54297 -0.957031 5.08496 -1.91309
q2.86035 -0.637695 5.7207 -1.27441q2.86035 -0.637695 6.03809 -1.27539q6.03906 -0.318359 10.4883 2.39062t7.15039 6.375q2.70117 3.66504 3.65527 7.33008q0.953125 3.66602 0.317383 5.25879q0 5.41895 -0.953125 10.8369q-2.22461 11.4746 -8.26367 20.7168
q-1.58887 2.23145 -4.44922 6.05664q-2.86035 3.82422 -6.67383 7.96777t-8.10449 8.12793q-4.29004 3.9834 -8.73926 6.5332l-4.44922 10.8369q11.7588 4.46191 18.9092 14.9805q7.15137 10.5176 9.37598 22.4697t-0.476562 22.9482q-2.70215 10.9961 -10.6475 16.4141
q-7.94434 5.41895 -21.293 3.02832q-13.3477 -2.39062 -32.0986 -17.0518q-0.953125 -1.27539 -1.74805 -2.39062t-1.42969 -2.39062q-0.635742 -0.637695 -0.794922 -1.27441q-0.15918 -0.637695 -0.794922 -1.27539q0 -0.318359 -0.634766 -0.956055v-0.637695
l-0.318359 -0.318359l-4.13184 -4.46191q-4.44922 -4.78125 -10.6465 -5.09961q-6.19727 -0.319336 -10.9639 4.14355q-3.49609 3.18652 -4.6084 7.64941q-1.1123 4.46191 0.476562 8.60547z" />
    <glyph glyph-name="twosuperior" unicode="&#xb2;" horiz-adv-x="416" 
d="M21.2334 346.373l0.336914 2.34863q0 0.671875 0.168945 1.00684q0.167969 0.335938 0.167969 1.00684q0.673828 2.68555 0.673828 4.02832q0.674805 2.01367 1.01172 3.85938t1.01074 3.85938q1.01172 4.02832 2.35938 7.8877q1.34766 3.86035 3.0332 7.55176
q1.68555 3.69238 3.53906 7.21582q1.85352 3.52441 3.87598 7.2168q3.70703 7.04785 9.77441 14.0967q5.05469 6.71191 11.7959 12.7539q7.07715 6.37695 14.4922 11.0752q3.70801 2.68555 7.75195 4.69922q4.04492 2.01367 8.08887 3.69238
q8.42578 3.35547 17.1895 6.04102q4.38086 1.00684 8.7627 1.8457q4.38086 0.838867 8.7627 1.51074q2.35938 0.334961 4.5498 0.334961t4.21289 0.335938q2.35938 0 4.5498 0.167969q2.19141 0.167969 4.55078 0.167969q4.71777 0 9.43652 -0.503906
q4.71875 -0.50293 9.77441 -1.1748q4.71875 -1.00684 9.94238 -2.5166q5.22363 -1.51074 10.6162 -3.86035q2.69629 -1.3418 5.22461 -2.5166q2.52734 -1.1748 5.22363 -2.85352q2.69629 -1.67773 5.05566 -3.52344q2.35938 -1.84668 4.71875 -3.86035
q2.35938 -2.34961 4.5498 -4.53125q2.19043 -2.18066 4.21289 -4.86621t3.87598 -5.20215q1.85352 -2.51758 3.53906 -5.20215q1.68555 -2.68555 2.86426 -5.53809q1.17969 -2.85254 2.52832 -5.53809q1.01074 -2.68555 1.85352 -5.70605t1.5166 -5.70508
q3.0332 -11.0762 3.0332 -21.1455q0.336914 -5.37012 0.336914 -10.2363q0 -4.86719 -0.673828 -9.56543q-0.673828 -4.69922 -1.17969 -9.0625t-1.5166 -8.72656q-1.68457 -8.72656 -3.87598 -16.7812q-2.19043 -8.05566 -4.88672 -15.7744
q-2.69629 -7.71973 -5.72949 -15.1035t-6.4043 -14.7686q-1.68457 -3.69141 -3.20117 -7.04785t-3.20215 -7.04785q-1.68555 -3.35645 -3.53906 -6.71289t-3.53906 -6.71289q-3.70703 -6.71289 -7.41406 -13.2578q-3.70801 -6.54395 -7.41504 -13.2568
q-4.04492 -6.71289 -7.9209 -12.9219q-3.875 -6.20898 -7.91992 -12.5859q-15.8408 -24.166 -34.041 -47.9961v-0.670898q-7.07715 -9.39746 -17.0195 -15.1035q-9.94336 -5.70605 -20.8965 -7.21582q-10.9541 -1.51074 -22.2441 1.00684q-11.291 2.5166 -20.7285 9.56543
q-9.77344 7.04785 -15.5029 16.9492t-7.24707 20.8096q-1.5166 10.9072 1.01172 21.9834q2.52734 11.0762 9.60547 20.8096q1.68555 1.67773 3.0332 3.35645q1.34766 1.67773 3.0332 3.02051q9.4375 9.39746 18.5371 18.7949q9.09961 9.39844 17.8633 19.1318
q4.71777 4.69824 8.93066 9.56543q4.21387 4.86621 8.25781 9.90039q4.38184 4.69922 8.42578 9.7334q4.04492 5.03516 7.75195 9.7334q1.68555 2.68555 3.70703 5.03516q2.02246 2.34863 3.70801 5.03418l7.07715 10.0684q3.70801 5.03516 6.90918 10.0693
q3.20215 5.03418 5.89844 10.0693q4.04492 6.04102 6.4043 14.5996q2.3584 8.55859 1.68457 16.9492q-0.673828 8.3916 -4.5498 15.4395t-11.6279 10.2363q-7.75195 3.18945 -20.0537 1.1748q-12.3018 -2.01367 -29.4902 -12.082q-5.05566 -4.02832 -8.08887 -7.38379
q-2.02246 -2.01465 -3.87598 -4.19629t-3.53906 -4.53027q-1.68555 -2.68555 -3.37012 -5.03516q-1.68555 -2.34961 -3.37012 -5.03418q-0.674805 -1.34277 -1.34863 -2.51758t-1.34863 -2.5166q-0.336914 -0.671875 -0.673828 -1.34277t-0.673828 -1.34277
l-0.673828 -1.34277v-0.334961l-0.336914 -0.335938v-0.335938l-0.336914 -0.670898q-2.35938 -6.37695 -8.42676 -9.22949q-6.06641 -2.85352 -12.4697 -0.503906q-5.72949 2.01367 -8.42578 7.04883q-2.69629 5.03418 -2.02246 10.7402zM84.9336 218.497l181.662 -3.69238
q9.77344 -0.335938 16.5146 -7.38379q6.74121 -7.04883 6.74121 -16.7822q-0.337891 -7.71875 -5.05566 -13.5928q-4.71875 -5.87305 -11.46 -8.22266l-173.573 -53.7012q-10.4482 -3.35645 -20.8965 -2.18164t-19.5479 5.87305q-9.09961 4.69922 -16.0088 12.5869
q-6.90918 7.88672 -10.2803 18.292q-3.37012 10.4043 -2.19043 20.9766t5.89844 19.6348q4.71777 9.06152 12.8066 15.7744t18.5371 10.0693q4.04492 1.34277 8.42578 2.01367q4.38184 0.670898 8.42676 0.335938z" />
    <glyph glyph-name="dotlessi" unicode="&#x131;" horiz-adv-x="373" 
d="M284 529l89 -504q6 -34 -3 -65.5t-29 -57.5t-50 -43.5t-67 -23.5t-71.5 2t-62.5 26.5t-47 46.5t-25 62q-2 14 -2 27.5t2 25.5l89 504q6 34 35.5 53.5t67.5 14.5q29 -4 49.5 -23.5t24.5 -44.5z" />
    <glyph glyph-name="caron" unicode="&#x2c7;" horiz-adv-x="426" 
d="M121 831l147 -132q19 -17 15 -37.5t-30 -33.5q-25 -12 -55.5 -9t-48.5 20q-8 7 -11 12l-83 156q-5 11 1.5 20t21.5 13q26 6 43 -9zM363 807l-83 -156q-11 -19 -38.5 -28t-57.5 -2q-29 8 -42.5 26t-2.5 38q2 5 5 8l6 6l147 132q10 9 25 10.5t28 -5.5q23 -10 13 -29z" />
    <glyph glyph-name="Zcaron" unicode="&#x17d;" horiz-adv-x="795" 
d="M693 661l-361 -690q-17 -33 -45 -55.5t-61 -33t-68.5 -7.5t-68.5 20t-55.5 45t-33 61t-7.5 69t20 69q11 21 25 36l515 582q12 13 27 20.5t31.5 8.5t32.5 -4t30 -17q23 -20 28 -49t-9 -55zM636 648l-492 -51q-22 -2 -42 4t-35.5 19t-26 31t-12.5 40t4 42t19 35.5t31 26
t40 12.5h16l495 -26q27 -2 46 -22t17 -48q-2 -25 -19 -43t-41 -20zM737 -39l-564 -83q-35 -4 -67.5 6t-58 31t-42 50.5t-20.5 64.5t6 67.5t31 58t50.5 42t64.5 20.5q7 0 13.5 0.5t13.5 -0.5l568 -42q22 -1 41 -10.5t33 -25t21.5 -35.5t6.5 -42q-2 -41 -30 -69.5t-67 -32.5z
M310 980l147 -132q19 -17 15 -37.5t-30 -33.5q-25 -12 -55.5 -9t-48.5 20q-8 7 -11 12l-83 156q-5 11 1.5 20t21.5 13q26 6 43 -9zM552 956l-83 -156q-11 -19 -38.5 -28t-57.5 -2q-29 8 -42.5 26t-2.5 38q2 5 5 8l6 6l147 132q10 9 25 10.5t28 -5.5q23 -10 13 -29z" />
    <glyph glyph-name="zcaron" unicode="&#x17e;" horiz-adv-x="823" 
d="M112 675l596 -63q22 -2 35.5 -19t11.5 -39q-2 -19 -15.5 -32t-31.5 -15l-596 -62q-24 -3 -46 4t-39.5 21t-28.5 34t-14 44q-2 24 5 45.5t21 39t34 28.5t44 14q12 1 24 0zM744 509l-475 -537q-20 -23 -46 -35t-54 -14t-55.5 7t-50.5 29t-35 46t-13.5 54t7.5 55.5t29 50.5
q5 6 12 12t14 11l589 409q20 14 44 9.5t38 -24.5q12 -17 10.5 -37.5t-14.5 -35.5zM152 206l500 43q40 3 77 -9t66 -36.5t47.5 -58.5t21.5 -74q3 -41 -9 -77.5t-36.5 -65.5t-59 -47.5t-74.5 -21.5q-17 -2 -33 0l-500 43q-32 3 -58.5 17t-45 36.5t-28.5 51t-7 60.5
q2 28 14 52.5t30.5 43t43 30t51.5 13.5zM324 831l147 -132q19 -17 15 -37.5t-30 -33.5q-25 -12 -55.5 -9t-48.5 20q-8 7 -11 12l-83 156q-5 11 1.5 20t21.5 13q26 6 43 -9zM566 807l-83 -156q-11 -19 -38.5 -28t-57.5 -2q-29 8 -42.5 26t-2.5 38q2 5 5 8l6 6l147 132
q10 9 25 10.5t28 -5.5q23 -10 13 -29z" />
    <glyph glyph-name="Scaron" unicode="&#x160;" 
d="M702 590h-1l-1 1l-2 1q-3 3 -5 4q-2 2 -5 3t-5 3q-12 7 -23 13q-11 5 -23 10l-24 10q-48 16 -97 18q-12 1 -24 0h-12h-3q-2 -1 -4 -1h-7q-10 1 -25 -1.5t-30.5 -6t-28.5 -8.5t-18 -10t1 -9.5t28 -7.5q12 -4 25 -7.5t27 -7.5q14 -3 28.5 -6.5t28.5 -7.5l16 -4l8 -2l8 -2
q8 -2 16.5 -5t17.5 -5q17 -5 34.5 -12t35.5 -15q34 -16 73 -42q10 -7 19 -14.5t18 -15.5t18 -17t17 -20q16 -21 30 -45q7 -12 12 -24.5t10 -25.5t8.5 -25.5t5.5 -26.5q1 -6 2 -12.5t2 -12.5q0 -9 1 -13v-6v-4v-2v-1l1 -2v-1v-2v-7v-12q0 -7 -0.5 -13t-1.5 -13
q-1 -14 -3.5 -27.5t-6.5 -27.5q-8 -29 -21 -57q-8 -14 -16 -27t-18 -26q-11 -12 -21.5 -23t-22.5 -21q-11 -10 -23 -18l-24 -16q-23 -14 -46 -23q-12 -5 -23.5 -9t-22.5 -8q-22 -7 -43 -11.5t-41 -7.5q-10 -2 -20 -3l-20 -2q-5 -1 -9.5 -1t-9.5 -1h-10l-4 -1h-1h-1h-1h-1h-2
h-6h-6h-12q-6 0 -12 0.5t-12 0.5q-23 1 -45 6q-43 6 -86 20q-20 7 -39 14.5t-38 15.5t-36.5 17.5t-34.5 19.5q-16 9 -35 22l-8 6t-9 6l-9 6l-5 4l-3 2l-1 2h-1l-2 2q-30 27 -47 61.5t-19 72t9.5 74.5t38.5 67t62 47t72.5 19t74.5 -9.5t67 -38.5l-1 1q0 -1 1 -1q0 -1 2 -3
t3.5 -3t3.5 -3l15 -12q18 -15 33 -23q35 -22 63 -31q3 -1 6.5 -2t6.5 -2q2 0 3.5 -0.5t3.5 -0.5l3 -1h3h1l3 -1h6q2 0 5 -0.5t5 -0.5q5 0 10.5 -0.5t10.5 -0.5q36 8 42.5 23t-2.5 31t-26 29t-27 18q-6 2 -11.5 5t-11.5 5l-12 6l-4 1l-3 1l-7 3q-14 6 -28 11.5t-29 11.5
q-29 12 -60 27q-16 7 -32 15t-33 19q-9 5 -17.5 10.5t-17.5 13.5q-9 7 -18.5 14.5t-18.5 18.5q-9 7 -19 23q-10 13 -17 29q-4 8 -7.5 16.5t-5.5 18.5q-4 17 -4 39v3v1v1v1v2v8q1 5 1.5 8.5t1.5 7.5q1 16 9 33q3 8 6.5 15.5t7.5 15.5q9 13 20 26q5 5 10.5 10t10.5 10
q6 5 11.5 9t10.5 7q23 14 43 21q10 5 20 8t19 5q10 2 19.5 3.5t18.5 3.5q36 6 70 6q17 1 33.5 0.5t33.5 -1.5h8l4 -1h2h1h2q5 0 9 -0.5t9 -0.5l18 -2t18 -3q72 -14 133 -45q16 -8 31 -16.5t29 -18.5q7 -5 14 -10.5t14 -10.5q8 -6 13 -11q3 -2 7 -6l4 -3l4 -4
q19 -17 20.5 -42.5t-15.5 -44.5q-17 -20 -42.5 -21t-44.5 16zM361 1006l147 -132q19 -17 15 -37.5t-30 -33.5q-25 -12 -55.5 -9t-48.5 20q-8 7 -11 12l-83 156q-5 11 1.5 20t21.5 13q26 6 43 -9zM603 982l-83 -156q-11 -19 -38.5 -28t-57.5 -2q-29 8 -42.5 26t-2.5 38
q2 5 5 8l6 6l147 132q10 9 25 10.5t28 -5.5q23 -10 13 -29z" />
    <glyph glyph-name="scaron" unicode="&#x161;" horiz-adv-x="855" 
d="M602 435q0 1 0.5 0t0.5 0v-1l-1 1l-3 3q-4 4 -6 5q-2 2 -3.5 3t-3.5 3q-6 4 -9 5q-17 11 -37 17q-41 12 -88 9q-3 0 -6 -0.5t-6 -0.5l-12 -1q-3 -1 -6 -1t-6 -1q-3 0 -5.5 -0.5t-5.5 -0.5q-27 -5 -33 -10t-1 -8.5t16 -6.5t18 -3q14 -4 28 -7l28 -6q14 -4 28 -7.5t29 -7.5
q14 -4 28.5 -7.5t30.5 -8.5q15 -5 30.5 -10.5t32.5 -11.5q16 -7 33 -15t35 -19q19 -11 37 -25q9 -8 18.5 -16t18.5 -18q17 -17 33 -44q16 -26 25 -52q5 -14 8.5 -27t5.5 -27q3 -14 3 -26q0 -4 0.5 -7t0.5 -6v-1v-1v-1v-1v-3v-3q0 -7 -1 -10q-2 -25 -7 -44q-4 -11 -8 -21.5
t-9 -20.5q-11 -20 -24 -36q-11 -13 -26 -27q-13 -12 -25.5 -20.5t-24.5 -15.5q-22 -12 -46 -22q-11 -4 -21 -7.5t-20 -5.5q-10 -3 -19.5 -5.5t-18.5 -4.5q-19 -4 -36.5 -6.5t-34.5 -4.5t-33.5 -3t-33.5 -1q-8 -1 -16.5 -1h-16.5h-8h-2h-2h-1h-1h-3h-10.5t-10.5 1
q-20 2 -39 4t-37 6q-36 8 -68 18q-33 11 -62 24q-16 6 -30.5 12.5t-29.5 14.5l-14 8l-14 8q-4 2 -7.5 4.5t-6.5 4.5l-4 2l-4 2l-4 3l-2 1l-1 1l-1 1q-28 15 -46.5 38.5t-27 51.5t-6 58t17.5 58t38.5 46.5t51.5 27t58 6t58 -17.5h1q1 0 1.5 -0.5t1.5 -0.5q2 -1 2.5 -1t2.5 -1
l11 -4l23 -7q11 -5 22.5 -8.5t22.5 -7.5q11 -3 21.5 -6.5t21.5 -6.5t21 -6t20 -5t19 -3.5t17 -2.5q2 0 3.5 -0.5t3.5 -0.5h1h1h1h2l6 -1q20 4 24.5 8t-1.5 8.5t-19 9t-26 8t-24 6t-12 3.5q-13 5 -25.5 10t-26.5 10l-26 10t-27 10q-8 3 -14.5 5.5t-14.5 5.5q-8 4 -15.5 7
t-16.5 7l-18 9q-5 3 -10.5 6t-12.5 7q-6 5 -12.5 10t-14.5 12q-4 3 -7.5 7t-7.5 9q-3 5 -6.5 10t-6.5 10q-6 11 -11 22q-5 12 -6 22q-3 10 -3 19q0 2 -0.5 4.5t-0.5 4.5v4v4v1v3v4q0 2 0.5 4t0.5 4q0 5 2 15q1 8 3 15l4 14t5 13.5t6 13.5q6 11 14 23q4 6 8 11l8 10
q9 10 18 18q19 16 39 27q10 6 19.5 10.5t18.5 8.5q39 13 75 18q18 2 34.5 3t33.5 1t33 -1t33 -3q33 -5 66 -12q8 -2 16.5 -4.5t16.5 -5.5t16.5 -6t16.5 -7q33 -16 62 -36q7 -5 14 -11t14 -13l14 -14q2 -2 3 -4t3 -4q3 -3 4 -5q1 -1 1 -1.5t1 -1.5l1 -1l1 -1l1 -1
q14 -23 9.5 -49t-27.5 -41q-22 -15 -48 -10t-41 27zM340 831l147 -132q19 -17 15 -37.5t-30 -33.5q-25 -12 -55.5 -9t-48.5 20q-8 7 -11 12l-83 156q-5 11 1.5 20t21.5 13q26 6 43 -9zM582 807l-83 -156q-11 -19 -38.5 -28t-57.5 -2q-29 8 -42.5 26t-2.5 38q2 5 5 8l6 6
l147 132q10 9 25 10.5t28 -5.5q23 -10 13 -29z" />
    <glyph glyph-name="dieresis" unicode="&#xa8;" horiz-adv-x="426" 
d="M-6 716q0 23 8.5 43.5t23.5 36t35.5 24.5t43.5 9t43.5 -9t36 -24.5t24.5 -36t9 -43.5t-9 -43.5t-24.5 -35.5t-36 -23.5t-43.5 -8.5t-43.5 8.5t-35.5 23.5t-23.5 35.5t-8.5 43.5zM199 716q0 23 8.5 43.5t23.5 36t35.5 24.5t43.5 9t43.5 -9t36 -24.5t24.5 -36t9 -43.5
t-9 -43.5t-24.5 -35.5t-36 -23.5t-43.5 -8.5t-43.5 8.5t-35.5 23.5t-23.5 35.5t-8.5 43.5z" />
    <glyph glyph-name="Adieresis" unicode="&#xc4;" horiz-adv-x="948" 
d="M940 163q22 -35 27.5 -74t-3 -76t-31.5 -69t-58 -54q-35 -21 -74 -27t-76 3t-69 31.5t-54 57.5q-18 29 -24 61l-167 748q-6 29 9 53t44 30q23 5 43.5 -4t31.5 -27zM331 19q-11 -36 -33.5 -63.5t-53 -44t-66 -21t-71.5 6.5q-36 10 -63.5 33t-44 53.5t-21 65.5t6.5 71
q3 11 8 21.5t10 19.5l388 659q18 31 52 39.5t65 -9.5q26 -15 36.5 -42.5t2.5 -55.5zM686 296q27 2 52.5 -6.5t45 -25t32 -40t14.5 -50.5t-6.5 -52.5t-25 -45t-40 -32t-50.5 -14.5q-11 -2 -22 0l-502 42q-38 3 -62.5 31.5t-21.5 66.5q3 35 27 58t57 26zM249 896
q0 23 8.5 43.5t23.5 36t35.5 24.5t43.5 9t43.5 -9t36 -24.5t24.5 -36t9 -43.5t-9 -43.5t-24.5 -35.5t-36 -23.5t-43.5 -8.5t-43.5 8.5t-35.5 23.5t-23.5 35.5t-8.5 43.5zM454 896q0 23 8.5 43.5t23.5 36t35.5 24.5t43.5 9t43.5 -9t36 -24.5t24.5 -36t9 -43.5t-9 -43.5
t-24.5 -35.5t-36 -23.5t-43.5 -8.5t-43.5 8.5t-35.5 23.5t-23.5 35.5t-8.5 43.5z" />
    <glyph glyph-name="Aring" unicode="&#xc5;" horiz-adv-x="948" 
d="M940 163q22 -35 27.5 -74t-3 -76t-31.5 -69t-58 -54q-35 -21 -74 -27t-76 3t-69 31.5t-54 57.5q-18 29 -24 61l-167 748q-6 29 9 53t44 30q23 5 43.5 -4t31.5 -27zM331 19q-11 -36 -33.5 -63.5t-53 -44t-66 -21t-71.5 6.5q-36 10 -63.5 33t-44 53.5t-21 65.5t6.5 71
q3 11 8 21.5t10 19.5l388 659q18 31 52 39.5t65 -9.5q26 -15 36.5 -42.5t2.5 -55.5zM686 296q27 2 52.5 -6.5t45 -25t32 -40t14.5 -50.5t-6.5 -52.5t-25 -45t-40 -32t-50.5 -14.5q-11 -2 -22 0l-502 42q-38 3 -62.5 31.5t-21.5 66.5q3 35 27 58t57 26zM473 1065
q30 0 56 -11.5t45.5 -31t31 -45.5t11.5 -56t-11.5 -56t-31 -45.5t-45.5 -30.5t-56 -11t-56 11t-45.5 30.5t-30.5 45.5t-11 56t11 56t30.5 45.5t45.5 31t56 11.5zM478 940q23 0 39.5 11t16.5 26q0 16 -16.5 26.5t-39.5 10.5t-39 -10.5t-16 -26.5q0 -15 16 -26t39 -11z" />
    <glyph glyph-name="aring" unicode="&#xe5;" horiz-adv-x="885" 
d="M396 411q82 0 154.5 -21t126.5 -57.5t85 -85.5t31 -104q0 -56 -31 -104.5t-85 -85t-126.5 -57.5t-154.5 -21t-154 21t-126 57.5t-85 85t-31 104.5q0 55 31 104t85 85.5t126 57.5t154 21zM410 177q32 0 60 5.5t49 15t33 22t12 27.5q0 14 -12 26.5t-33 22t-49 15t-60 5.5
t-59.5 -5.5t-48.5 -15t-33 -22t-12 -26.5q0 -15 12 -27.5t33 -22t48.5 -15t59.5 -5.5zM115 584h1l1 1l2 2l4 3l4 2t4 3q7 5 16 10q14 10 31 20q35 19 67 33q17 8 35.5 14.5t37.5 12.5q19 5 39 9t41 7q42 5 89 0q23 -3 46 -8.5t46 -14.5t43.5 -21.5t40.5 -26.5q38 -29 67 -66
q15 -17 27 -35.5t23 -36.5q21 -38 36 -75t26 -74t19 -73q9 -37 14.5 -73t10.5 -71q9 -72 12 -142v-2q2 -36 -10 -67.5t-34 -56t-52.5 -39.5t-66.5 -17q-35 -2 -67 10t-56.5 34t-39.5 52.5t-17 65.5q-1 8 -0.5 15t1.5 14q3 30 5.5 59.5t4.5 58.5q3 58 0 114q-2 28 -5 54
t-8 51q-11 49 -29 84q-8 17 -20 30q-10 12 -24 22q-7 5 -14.5 9t-16.5 7q-18 5 -41 7q-11 2 -23 1.5t-25 -2.5q-25 -1 -52 -9q-13 -3 -26 -7t-27 -9t-26 -10q-3 -2 -6 -2.5t-6 -2.5l-6 -3l-6 -2l-4 -2q-16 -8 -32.5 -8.5t-31.5 5t-27.5 16.5t-19.5 27q-14 27 -6.5 56
t30.5 46zM442 865q30 0 56 -11.5t45.5 -31t31 -45.5t11.5 -56t-11.5 -56t-31 -45.5t-45.5 -30.5t-56 -11t-56 11t-45.5 30.5t-30.5 45.5t-11 56t11 56t30.5 45.5t45.5 31t56 11.5zM447 740q23 0 39.5 11t16.5 26q0 16 -16.5 26.5t-39.5 10.5t-39 -10.5t-16 -26.5
q0 -15 16 -26t39 -11z" />
    <glyph glyph-name="adieresis" unicode="&#xe4;" horiz-adv-x="885" 
d="M396 411q82 0 154.5 -21t126.5 -57.5t85 -85.5t31 -104q0 -56 -31 -104.5t-85 -85t-126.5 -57.5t-154.5 -21t-154 21t-126 57.5t-85 85t-31 104.5q0 55 31 104t85 85.5t126 57.5t154 21zM410 177q32 0 60 5.5t49 15t33 22t12 27.5q0 14 -12 26.5t-33 22t-49 15t-60 5.5
t-59.5 -5.5t-48.5 -15t-33 -22t-12 -26.5q0 -15 12 -27.5t33 -22t48.5 -15t59.5 -5.5zM115 584h1l1 1l2 2l4 3l4 2t4 3q7 5 16 10q14 10 31 20q35 19 67 33q17 8 35.5 14.5t37.5 12.5q19 5 39 9t41 7q42 5 89 0q23 -3 46 -8.5t46 -14.5t43.5 -21.5t40.5 -26.5q38 -29 67 -66
q15 -17 27 -35.5t23 -36.5q21 -38 36 -75t26 -74t19 -73q9 -37 14.5 -73t10.5 -71q9 -72 12 -142v-2q2 -36 -10 -67.5t-34 -56t-52.5 -39.5t-66.5 -17q-35 -2 -67 10t-56.5 34t-39.5 52.5t-17 65.5q-1 8 -0.5 15t1.5 14q3 30 5.5 59.5t4.5 58.5q3 58 0 114q-2 28 -5 54
t-8 51q-11 49 -29 84q-8 17 -20 30q-10 12 -24 22q-7 5 -14.5 9t-16.5 7q-18 5 -41 7q-11 2 -23 1.5t-25 -2.5q-25 -1 -52 -9q-13 -3 -26 -7t-27 -9t-26 -10q-3 -2 -6 -2.5t-6 -2.5l-6 -3l-6 -2l-4 -2q-16 -8 -32.5 -8.5t-31.5 5t-27.5 16.5t-19.5 27q-14 27 -6.5 56
t30.5 46zM228 741q0 23 8.5 43.5t23.5 36t35.5 24.5t43.5 9t43.5 -9t36 -24.5t24.5 -36t9 -43.5t-9 -43.5t-24.5 -35.5t-36 -23.5t-43.5 -8.5t-43.5 8.5t-35.5 23.5t-23.5 35.5t-8.5 43.5zM433 741q0 23 8.5 43.5t23.5 36t35.5 24.5t43.5 9t43.5 -9t36 -24.5t24.5 -36
t9 -43.5t-9 -43.5t-24.5 -35.5t-36 -23.5t-43.5 -8.5t-43.5 8.5t-35.5 23.5t-23.5 35.5t-8.5 43.5z" />
    <glyph glyph-name="odieresis" unicode="&#xf6;" horiz-adv-x="795" 
d="M394 640q82 0 154.5 -31t126.5 -85t85 -126.5t31 -154.5t-31 -154t-85 -126t-126.5 -85t-154.5 -31t-154 31t-126 85t-85 126t-31 154t31 154.5t85 126.5t126 85t154 31zM408 294q32 0 60 8t49 22t33 33t12 40t-12 40t-33 33t-49 22t-60 8t-59.5 -8t-48.5 -22t-33 -33
t-12 -40t12 -40t33 -33t48.5 -22t59.5 -8zM183 716q0 23 8.5 43.5t23.5 36t35.5 24.5t43.5 9t43.5 -9t36 -24.5t24.5 -36t9 -43.5t-9 -43.5t-24.5 -35.5t-36 -23.5t-43.5 -8.5t-43.5 8.5t-35.5 23.5t-23.5 35.5t-8.5 43.5zM388 716q0 23 8.5 43.5t23.5 36t35.5 24.5t43.5 9
t43.5 -9t36 -24.5t24.5 -36t9 -43.5t-9 -43.5t-24.5 -35.5t-36 -23.5t-43.5 -8.5t-43.5 8.5t-35.5 23.5t-23.5 35.5t-8.5 43.5z" />
    <glyph glyph-name="Odieresis" unicode="&#xd6;" 
d="M416 790q87 0 164 -37t134 -101t90 -150t33 -184t-33 -183.5t-90 -149.5t-134 -101t-164 -37t-163.5 37t-133.5 101t-90 149.5t-33 183.5t33 184t90 150t133.5 101t163.5 37zM426 360q34 0 63.5 13t51.5 35t35 51.5t13 63.5t-13 63.5t-35 51.5t-51.5 35t-63.5 13
t-63.5 -13t-51.5 -35t-35 -51.5t-13 -63.5t13 -63.5t35 -51.5t51.5 -35t63.5 -13zM202 832q0 23 8.5 43.5t23.5 36t35.5 24.5t43.5 9t43.5 -9t36 -24.5t24.5 -36t9 -43.5t-9 -43.5t-24.5 -35.5t-36 -23.5t-43.5 -8.5t-43.5 8.5t-35.5 23.5t-23.5 35.5t-8.5 43.5zM407 832
q0 23 8.5 43.5t23.5 36t35.5 24.5t43.5 9t43.5 -9t36 -24.5t24.5 -36t9 -43.5t-9 -43.5t-24.5 -35.5t-36 -23.5t-43.5 -8.5t-43.5 8.5t-35.5 23.5t-23.5 35.5t-8.5 43.5z" />
    <glyph glyph-name="grave" unicode="`" horiz-adv-x="366" 
d="M309 708q10 -8 12 -19.5t-5 -21.5q-5 -7 -12.5 -10.5t-15.5 -1.5l-206 37q-30 6 -47.5 31t-12.5 55t30.5 47.5t54.5 12.5q17 -5 29 -12z" />
    <glyph glyph-name="acute" unicode="&#xb4;" horiz-adv-x="366" 
d="M53 663q-11 -3 -22 2.5t-15 16.5q-2 8 0 16.5t8 13.5l154 142q11 10 25 15t28 4t27.5 -7t23.5 -17t15 -25t4.5 -28t-6 -27.5t-16.5 -23.5q-7 -5 -13.5 -9t-13.5 -6z" />
    <glyph glyph-name="Egrave" unicode="&#xc8;" horiz-adv-x="902" 
d="M235 860l517 -62q22 -3 40 -13.5t30.5 -26t18.5 -36t4 -42.5q-3 -22 -13.5 -40t-26.5 -31t-36.5 -19t-42.5 -3q-8 2 -12 2l-404 97l12 -161l193 39q22 4 42.5 -0.5t37.5 -15.5t29 -28.5t17 -39.5q4 -22 0 -42.5t-15.5 -37.5t-29 -29.5t-39.5 -16.5q-2 0 -4 -0.5t-4 -0.5
l-213 -25l3 -42l402 68q29 5 56.5 -2t50 -22.5t37.5 -39.5t20 -53q4 -26 -1 -51.5t-18 -46.5t-33 -37t-45 -24l-552 -177q-5 -2 -10.5 -3t-11.5 -2q-11 -4 -22.5 -6.5t-23.5 -3.5q-38 -3 -71.5 8.5t-60 34.5t-43 54.5t-19.5 69.5q-2 24 3 48l136 690q6 32 32 51.5t58 17.5
h12zM590 908q10 -8 12 -19.5t-5 -21.5q-5 -7 -12.5 -10.5t-15.5 -1.5l-206 37q-30 6 -47.5 31t-12.5 55t30.5 47.5t54.5 12.5q17 -5 29 -12z" />
    <glyph glyph-name="Eacute" unicode="&#xc9;" horiz-adv-x="902" 
d="M235 860l517 -62q22 -3 40 -13.5t30.5 -26t18.5 -36t4 -42.5q-3 -22 -13.5 -40t-26.5 -31t-36.5 -19t-42.5 -3q-8 2 -12 2l-404 97l12 -161l193 39q22 4 42.5 -0.5t37.5 -15.5t29 -28.5t17 -39.5q4 -22 0 -42.5t-15.5 -37.5t-29 -29.5t-39.5 -16.5q-2 0 -4 -0.5t-4 -0.5
l-213 -25l3 -42l402 68q29 5 56.5 -2t50 -22.5t37.5 -39.5t20 -53q4 -26 -1 -51.5t-18 -46.5t-33 -37t-45 -24l-552 -177q-5 -2 -10.5 -3t-11.5 -2q-11 -4 -22.5 -6.5t-23.5 -3.5q-38 -3 -71.5 8.5t-60 34.5t-43 54.5t-19.5 69.5q-2 24 3 48l136 690q6 32 32 51.5t58 17.5
h12zM342 863q-11 -3 -22 2.5t-15 16.5q-2 8 0 16.5t8 13.5l154 142q11 10 25 15t28 4t27.5 -7t23.5 -17t15 -25t4.5 -28t-6 -27.5t-16.5 -23.5q-7 -5 -13.5 -9t-13.5 -6z" />
    <glyph glyph-name="eacute" unicode="&#xe9;" horiz-adv-x="839" 
d="M423 177q9 -4 17 -5q3 -1 5.5 -1.5t5.5 -1.5h3l1 -1h5l3 -1q5 -1 11 -1.5t12 -0.5q22 -1 47 2q12 2 24 5t24 8q11 4 23 11q6 4 11.5 7t10.5 8t10.5 9.5t10.5 9.5q3 3 5.5 6t4.5 6q2 2 2.5 3t2.5 3t2.5 3.5t2.5 3.5l15 22q10 15 24.5 24t31 12t33.5 -0.5t32 -13.5
q26 -18 34 -49q2 -7 4 -17t2 -16q1 -8 1.5 -17t0.5 -17q-2 -35 -9 -68q-9 -36 -25 -66q-14 -29 -36 -59q-44 -56 -103 -94l-30 -18q-8 -4 -16 -7.5t-16 -7.5q-16 -7 -32.5 -12.5t-33.5 -9.5q-17 -5 -34 -8t-34 -5q-6 0 -9 -1h-13l-4 -1h-44q-35 2 -70.5 9t-69.5 21
q-34 13 -66 31.5t-61 43.5t-53 55t-42 65q-5 8 -9 17t-8 19q-4 9 -7.5 18t-6.5 19q-11 39 -15 78q-1 11 -1 20.5v19.5t0.5 19.5t1.5 19.5q2 20 6.5 39t10.5 38q12 37 32 69q19 33 44 59q25 27 53 47.5t57 35.5q30 15 61 25t62 15q8 2 15.5 2.5t15.5 1.5t15 1t15 1h15t15 -1
q8 0 15 -0.5t15 -1.5q32 -3 58 -10q27 -7 55 -18t52 -25l24 -15q3 -2 5.5 -4.5t5.5 -4.5q4 -2 6 -4l3 -2v-1h1l1 -1q20 -17 22.5 -41.5t-12.5 -44.5v-1l-2 -2q-2 -2 -2.5 -3t-1.5 -2q0 -1 -0.5 -1t-0.5 -1zM450 423q-35 -9 -61 -27q-26 -17 -43 -40q-9 -11 -14.5 -22.5
t-8.5 -22.5q-2 -5 -3 -10t-1 -10q-2 -9 0 -17q0 -8 3 -15q0 -3 2 -7l3 -6q3 -8 7 -12l172 196q-14 -1 -28 -2.5t-28 -4.5zM311 663q-11 -3 -22 2.5t-15 16.5q-2 8 0 16.5t8 13.5l154 142q11 10 25 15t28 4t27.5 -7t23.5 -17t15 -25t4.5 -28t-6 -27.5t-16.5 -23.5
q-7 -5 -13.5 -9t-13.5 -6z" />
    <glyph glyph-name="egrave" unicode="&#xe8;" horiz-adv-x="839" 
d="M423 177q9 -4 17 -5q3 -1 5.5 -1.5t5.5 -1.5h3l1 -1h5l3 -1q5 -1 11 -1.5t12 -0.5q22 -1 47 2q12 2 24 5t24 8q11 4 23 11q6 4 11.5 7t10.5 8t10.5 9.5t10.5 9.5q3 3 5.5 6t4.5 6q2 2 2.5 3t2.5 3t2.5 3.5t2.5 3.5l15 22q10 15 24.5 24t31 12t33.5 -0.5t32 -13.5
q26 -18 34 -49q2 -7 4 -17t2 -16q1 -8 1.5 -17t0.5 -17q-2 -35 -9 -68q-9 -36 -25 -66q-14 -29 -36 -59q-44 -56 -103 -94l-30 -18q-8 -4 -16 -7.5t-16 -7.5q-16 -7 -32.5 -12.5t-33.5 -9.5q-17 -5 -34 -8t-34 -5q-6 0 -9 -1h-13l-4 -1h-44q-35 2 -70.5 9t-69.5 21
q-34 13 -66 31.5t-61 43.5t-53 55t-42 65q-5 8 -9 17t-8 19q-4 9 -7.5 18t-6.5 19q-11 39 -15 78q-1 11 -1 20.5v19.5t0.5 19.5t1.5 19.5q2 20 6.5 39t10.5 38q12 37 32 69q19 33 44 59q25 27 53 47.5t57 35.5q30 15 61 25t62 15q8 2 15.5 2.5t15.5 1.5t15 1t15 1h15t15 -1
q8 0 15 -0.5t15 -1.5q32 -3 58 -10q27 -7 55 -18t52 -25l24 -15q3 -2 5.5 -4.5t5.5 -4.5q4 -2 6 -4l3 -2v-1h1l1 -1q20 -17 22.5 -41.5t-12.5 -44.5v-1l-2 -2q-2 -2 -2.5 -3t-1.5 -2q0 -1 -0.5 -1t-0.5 -1zM450 423q-35 -9 -61 -27q-26 -17 -43 -40q-9 -11 -14.5 -22.5
t-8.5 -22.5q-2 -5 -3 -10t-1 -10q-2 -9 0 -17q0 -8 3 -15q0 -3 2 -7l3 -6q3 -8 7 -12l172 196q-14 -1 -28 -2.5t-28 -4.5zM558 708q10 -8 12 -19.5t-5 -21.5q-5 -7 -12.5 -10.5t-15.5 -1.5l-206 37q-30 6 -47.5 31t-12.5 55t30.5 47.5t54.5 12.5q17 -5 29 -12z" />
    <glyph glyph-name="quoteright" unicode="&#x2019;" horiz-adv-x="191" 
d="M167 748l-49 -204q-4 -11 -14.5 -17t-21.5 -4q-19 5 -21 22l-38 206q-5 30 12 55.5t47 31.5q15 3 29.5 -0.5t26 -11.5t19.5 -20t11 -27q2 -19 -1 -31z" />
    <glyph glyph-name="quoteleft" unicode="&#x2018;" horiz-adv-x="191" 
d="M167 748l-49 -204q-4 -11 -14.5 -17t-21.5 -4q-19 5 -21 22l-38 206q-5 30 12 55.5t47 31.5q15 3 29.5 -0.5t26 -11.5t19.5 -20t11 -27q2 -19 -1 -31z" />
    <glyph glyph-name="quotesingle" unicode="'" horiz-adv-x="191" 
d="M167 748l-49 -204q-4 -11 -14.5 -17t-21.5 -4q-19 5 -21 22l-38 206q-5 30 12 55.5t47 31.5q15 3 29.5 -0.5t26 -11.5t19.5 -20t11 -27q2 -19 -1 -31z" />
    <glyph glyph-name="quotedblleft" unicode="&#x201c;" horiz-adv-x="291" 
d="M167 748l-49 -204q-4 -11 -14.5 -17t-21.5 -4q-19 5 -21 22l-38 206q-5 30 12 55.5t47 31.5q15 3 29.5 -0.5t26 -11.5t19.5 -20t11 -27q2 -19 -1 -31zM267 748l-49 -204q-4 -11 -14.5 -17t-21.5 -4q-19 5 -21 22l-38 206q-5 30 12 55.5t47 31.5q15 3 29.5 -0.5t26 -11.5
t19.5 -20t11 -27q2 -19 -1 -31z" />
    <glyph glyph-name="quotedblright" unicode="&#x201d;" horiz-adv-x="291" 
d="M167 748l-49 -204q-4 -11 -14.5 -17t-21.5 -4q-19 5 -21 22l-38 206q-5 30 12 55.5t47 31.5q15 3 29.5 -0.5t26 -11.5t19.5 -20t11 -27q2 -19 -1 -31zM267 748l-49 -204q-4 -11 -14.5 -17t-21.5 -4q-19 5 -21 22l-38 206q-5 30 12 55.5t47 31.5q15 3 29.5 -0.5t26 -11.5
t19.5 -20t11 -27q2 -19 -1 -31z" />
    <glyph glyph-name="quotedbl" unicode="&#x22;" horiz-adv-x="291" 
d="M167 748l-49 -204q-4 -11 -14.5 -17t-21.5 -4q-19 5 -21 22l-38 206q-5 30 12 55.5t47 31.5q15 3 29.5 -0.5t26 -11.5t19.5 -20t11 -27q2 -19 -1 -31zM267 748l-49 -204q-4 -11 -14.5 -17t-21.5 -4q-19 5 -21 22l-38 206q-5 30 12 55.5t47 31.5q15 3 29.5 -0.5t26 -11.5
t19.5 -20t11 -27q2 -19 -1 -31z" />
    <glyph glyph-name="Edieresis" unicode="&#xcb;" horiz-adv-x="902" 
d="M235 860l517 -62q22 -3 40 -13.5t30.5 -26t18.5 -36t4 -42.5q-3 -22 -13.5 -40t-26.5 -31t-36.5 -19t-42.5 -3q-8 2 -12 2l-404 97l12 -161l193 39q22 4 42.5 -0.5t37.5 -15.5t29 -28.5t17 -39.5q4 -22 0 -42.5t-15.5 -37.5t-29 -29.5t-39.5 -16.5q-2 0 -4 -0.5t-4 -0.5
l-213 -25l3 -42l402 68q29 5 56.5 -2t50 -22.5t37.5 -39.5t20 -53q4 -26 -1 -51.5t-18 -46.5t-33 -37t-45 -24l-552 -177q-5 -2 -10.5 -3t-11.5 -2q-11 -4 -22.5 -6.5t-23.5 -3.5q-38 -3 -71.5 8.5t-60 34.5t-43 54.5t-19.5 69.5q-2 24 3 48l136 690q6 32 32 51.5t58 17.5
h12zM248 878q0 23 8.5 43.5t23.5 36t35.5 24.5t43.5 9t43.5 -9t36 -24.5t24.5 -36t9 -43.5t-9 -43.5t-24.5 -35.5t-36 -23.5t-43.5 -8.5t-43.5 8.5t-35.5 23.5t-23.5 35.5t-8.5 43.5zM453 878q0 23 8.5 43.5t23.5 36t35.5 24.5t43.5 9t43.5 -9t36 -24.5t24.5 -36t9 -43.5
t-9 -43.5t-24.5 -35.5t-36 -23.5t-43.5 -8.5t-43.5 8.5t-35.5 23.5t-23.5 35.5t-8.5 43.5z" />
    <glyph glyph-name="edieresis" unicode="&#xeb;" horiz-adv-x="839" 
d="M423 177q9 -4 17 -5q3 -1 5.5 -1.5t5.5 -1.5h3l1 -1h5l3 -1q5 -1 11 -1.5t12 -0.5q22 -1 47 2q12 2 24 5t24 8q11 4 23 11q6 4 11.5 7t10.5 8t10.5 9.5t10.5 9.5q3 3 5.5 6t4.5 6q2 2 2.5 3t2.5 3t2.5 3.5t2.5 3.5l15 22q10 15 24.5 24t31 12t33.5 -0.5t32 -13.5
q26 -18 34 -49q2 -7 4 -17t2 -16q1 -8 1.5 -17t0.5 -17q-2 -35 -9 -68q-9 -36 -25 -66q-14 -29 -36 -59q-44 -56 -103 -94l-30 -18q-8 -4 -16 -7.5t-16 -7.5q-16 -7 -32.5 -12.5t-33.5 -9.5q-17 -5 -34 -8t-34 -5q-6 0 -9 -1h-13l-4 -1h-44q-35 2 -70.5 9t-69.5 21
q-34 13 -66 31.5t-61 43.5t-53 55t-42 65q-5 8 -9 17t-8 19q-4 9 -7.5 18t-6.5 19q-11 39 -15 78q-1 11 -1 20.5v19.5t0.5 19.5t1.5 19.5q2 20 6.5 39t10.5 38q12 37 32 69q19 33 44 59q25 27 53 47.5t57 35.5q30 15 61 25t62 15q8 2 15.5 2.5t15.5 1.5t15 1t15 1h15t15 -1
q8 0 15 -0.5t15 -1.5q32 -3 58 -10q27 -7 55 -18t52 -25l24 -15q3 -2 5.5 -4.5t5.5 -4.5q4 -2 6 -4l3 -2v-1h1l1 -1q20 -17 22.5 -41.5t-12.5 -44.5v-1l-2 -2q-2 -2 -2.5 -3t-1.5 -2q0 -1 -0.5 -1t-0.5 -1zM450 423q-35 -9 -61 -27q-26 -17 -43 -40q-9 -11 -14.5 -22.5
t-8.5 -22.5q-2 -5 -3 -10t-1 -10q-2 -9 0 -17q0 -8 3 -15q0 -3 2 -7l3 -6q3 -8 7 -12l172 196q-14 -1 -28 -2.5t-28 -4.5zM186 686q0 23 8.5 43.5t23.5 36t35.5 24.5t43.5 9t43.5 -9t36 -24.5t24.5 -36t9 -43.5t-9 -43.5t-24.5 -35.5t-36 -23.5t-43.5 -8.5t-43.5 8.5
t-35.5 23.5t-23.5 35.5t-8.5 43.5zM391 686q0 23 8.5 43.5t23.5 36t35.5 24.5t43.5 9t43.5 -9t36 -24.5t24.5 -36t9 -43.5t-9 -43.5t-24.5 -35.5t-36 -23.5t-43.5 -8.5t-43.5 8.5t-35.5 23.5t-23.5 35.5t-8.5 43.5z" />
    <glyph glyph-name="udieresis" unicode="&#xfc;" horiz-adv-x="707" 
d="M554 568l177 -467q13 -37 11.5 -74t-16.5 -70t-42 -59t-63 -40t-73.5 -12.5t-70.5 16.5t-59 42t-40 63q-16 44 -11 86l51 497q3 29 25.5 47.5t51.5 15.5q21 -2 36.5 -14.5t22.5 -30.5zM295 528l-9 -27q-2 -7 -4.5 -13t-4.5 -13t-4 -13.5t-4 -13.5t-4 -13t-4 -13
q-7 -24 -12 -52q-3 -12 -4.5 -24.5t-3.5 -24.5q-1 -6 -1 -11.5v-11.5q-1 -12 0 -22q0 -19 5 -39q1 -5 2 -8.5t3 -7.5q2 -3 3 -6.5t3 -5.5q5 -10 14 -17q2 -2 4 -3t4 -3q2 -1 8 -3q4 -3 9 -3l9 -3q5 -1 11 -1t12 -1q5 0 11.5 0.5t11.5 1.5q6 1 11.5 2t10.5 3t8.5 3.5t5.5 2.5
q4 2 5 2h3q1 0 2.5 -0.5t4.5 0.5l150 40q42 11 78.5 -10t47.5 -63q6 -24 2 -46q-2 -7 -3.5 -13.5t-3.5 -13.5q-1 -4 -2 -7t-3 -7q-2 -6 -5 -13q-13 -29 -28 -51q-18 -24 -37 -42q-11 -10 -21.5 -18.5t-21.5 -16.5q-22 -14 -45.5 -24.5t-46.5 -18.5q-46 -13 -95 -15
q-47 -2 -94 9q-47 9 -90 33q-11 5 -21 11.5t-21 13.5q-10 8 -19.5 16t-18.5 17q-20 18 -34 38q-15 19 -27 42t-19.5 45.5t-12.5 45.5q-2 12 -3.5 23t-1.5 22q-1 22 0 43t4 41t8 38q3 10 5.5 19t5.5 17q3 9 6.5 17.5t6.5 16.5q14 33 31.5 62.5t36.5 55.5q5 7 10 13.5t10 13.5
l10 12t10 13l21 24l6 5l5 6l6 6l3 3l2 2q19 18 45 18t44 -19q14 -14 17 -31t-2 -34zM139 736q0 23 8.5 43.5t23.5 36t35.5 24.5t43.5 9t43.5 -9t36 -24.5t24.5 -36t9 -43.5t-9 -43.5t-24.5 -35.5t-36 -23.5t-43.5 -8.5t-43.5 8.5t-35.5 23.5t-23.5 35.5t-8.5 43.5zM344 736
q0 23 8.5 43.5t23.5 36t35.5 24.5t43.5 9t43.5 -9t36 -24.5t24.5 -36t9 -43.5t-9 -43.5t-24.5 -35.5t-36 -23.5t-43.5 -8.5t-43.5 8.5t-35.5 23.5t-23.5 35.5t-8.5 43.5z" />
    <glyph glyph-name="Udieresis" unicode="&#xdc;" horiz-adv-x="772" 
d="M270 703q0 -3 0.5 -6t0.5 -6l1 -13v-12.5t1 -12.5l2 -50q1 -25 1.5 -49.5t2.5 -48.5q1 -23 3 -46l4 -46q4 -45 12 -84q4 -20 9 -36l5.5 -16.5t5.5 -14.5l6 -12q2 -4 6 -10q3 -3 5 -7q2 -2 3 -2.5t2 -1.5q4 -3 6 -3h2h1l2 -1q2 0 4 -1q5 0 7 -1q6 0 10 -1h6h3h2h4h3h6
q2 1 4.5 1h4.5q3 1 7 1q2 1 5 1q1 0 1.5 0.5t1.5 0.5h2q2 0 3 1q1 0 2 1q1 0 2 1l4.5 4.5t5.5 6.5q7 10 12 22q13 28 20 67l4 20t4 21t3 21.5t2 21.5q3 23 4.5 46t3.5 47t3 48t2 50l2 50q1 6 1 12.5t1 12.5v13l1 6q0 5 1 6l2 13q5 23 25 36.5t44 8.5q11 -2 20 -8t15 -14
l9 -12l4 -6l4 -6q4 -5 7.5 -11t7.5 -12q8 -12 14.5 -24t13.5 -24q13 -25 24 -50.5t22 -51.5q20 -53 33 -109q6 -28 10.5 -57.5t6.5 -60.5q1 -16 1.5 -32t-1.5 -33q-1 -17 -2.5 -34t-5.5 -35t-8.5 -36.5t-12.5 -37.5t-17.5 -38t-23.5 -38q-25 -38 -64 -71q-9 -8 -19 -14.5
t-20 -13.5q-11 -6 -21.5 -11.5t-21.5 -10.5q-43 -19 -85 -26t-80 -7h-5h-5h-9q-5 1 -10 1t-10 1l-20 2t-21 3t-21 4.5t-21 5.5q-24 6 -43 16q-13 5 -22 10l-21 12q-11 6 -20.5 13t-19.5 15q-9 8 -18 16.5t-17 17.5q-8 8 -15 17.5t-14 18.5q-26 40 -41 77q-2 5 -3 9.5t-3 9.5
t-3 9.5t-3 9.5q-6 18 -9 36q-4 18 -5.5 35t-2.5 34q-2 17 -1.5 33t1.5 32q2 32 6 61t11 58q6 29 14 56t18 53q5 14 10.5 26.5t11.5 25.5l5 12q2 5 6 13l6 12t7 13q12 24 27 48q4 6 7.5 12t7.5 11l4 6l4 6l4 6l2 3l2 2l1 1q17 20 43.5 23t46.5 -14q21 -16 24 -42v-5zM171 916
q0 23 8.5 43.5t23.5 36t35.5 24.5t43.5 9t43.5 -9t36 -24.5t24.5 -36t9 -43.5t-9 -43.5t-24.5 -35.5t-36 -23.5t-43.5 -8.5t-43.5 8.5t-35.5 23.5t-23.5 35.5t-8.5 43.5zM376 916q0 23 8.5 43.5t23.5 36t35.5 24.5t43.5 9t43.5 -9t36 -24.5t24.5 -36t9 -43.5t-9 -43.5
t-24.5 -35.5t-36 -23.5t-43.5 -8.5t-43.5 8.5t-35.5 23.5t-23.5 35.5t-8.5 43.5z" />
    <glyph glyph-name="ydieresis" unicode="&#xff;" horiz-adv-x="670" 
d="M292 523l-11 -23q-2 -6 -5 -12t-5 -11q-2 -6 -4.5 -12t-4.5 -11q-2 -6 -4 -11.5t-4 -11.5q-4 -11 -7.5 -21.5t-6.5 -21.5t-4.5 -16t-3.5 -15q-1 -5 -1 -9.5v-9.5q-6 -24 9 -38t40.5 -19t57.5 -1t59.5 16t46.5 32.5t19 47.5l114 -74q18 -12 21.5 -20.5t1 -18t-8.5 -23
t-7 -34.5q0 -5 8 -12t17.5 -14t16.5 -14t5 -11q-2 -3 1.5 -6t7.5 -6t7 -5.5t1 -5.5q-1 -1 -11 -2t-22.5 -2t-22.5 -2.5t-11 -2.5t7.5 -2.5t19 -2.5t19 -2.5t7.5 -2.5q-8 -10 -16 -18.5t-16 -16.5q-35 -31 -71 -50q-38 -20 -75 -30q-20 -6 -38.5 -9.5t-38.5 -5.5
q-19 -2 -38 -2t-39 2q-38 3 -79 15q-39 10 -78 33q-10 5 -19.5 11t-19.5 14q-9 8 -18.5 16t-17.5 17t-16 19t-15 21q-13 21 -23 45q-5 12 -8.5 24t-5.5 24t-3 24t-1 23q0 22 3 43t9 39q10 36 27 67q8 16 16.5 29.5t17.5 26.5q19 25 39 48l21 21l21 21q5 5 10.5 9.5t11.5 9.5
l5 4l6 5q2 1 3 2t3 2l2 3l3 2q21 15 47 11t42 -25q11 -14 12.5 -31t-5.5 -32v-1zM129 -39l2 -1v-1h1q1 0 1 -1h1l1 -1l6 -3l12 -6l12 -6t11 -6q12 -5 23 -9l22 -8q20 -6 40 -9q9 -1 17.5 -1.5t16.5 -0.5q8 1 14.5 2t13.5 3q7 3 14 6.5t14 8.5q16 12 28 29q15 20 25 43
q5 12 9.5 25.5t9.5 27.5q7 28 12 60t6.5 65t0.5 67q-2 69 -12 139q-11 70 -27 140v1q-3 15 -0.5 29t9.5 25.5t18.5 20t25.5 12.5q26 6 48.5 -5t33.5 -34q17 -35 32.5 -71t29.5 -73q14 -38 26.5 -76t22.5 -78t17 -81t10 -85q2 -22 2.5 -44t-0.5 -45t-3 -46t-7 -47
t-11.5 -48.5t-16.5 -48.5q-10 -25 -22.5 -49.5t-29.5 -47.5t-37.5 -45t-44.5 -41q-12 -9 -24.5 -17.5t-25.5 -16.5q-29 -16 -55 -27q-55 -22 -113 -30q-56 -9 -109 -6q-26 1 -51.5 3.5t-50.5 7.5q-12 2 -24 4.5t-24 5.5q-6 2 -12 3t-11 3l-12 3l-6 2h-3l-2 1
q-41 11 -72.5 36t-51 58.5t-26 73.5t4.5 81t36 73t59 51.5t74 25.5t81 -5q11 -3 21 -7t20 -9zM130 740q0 23 8.5 43.5t23.5 36t35.5 24.5t43.5 9t43.5 -9t36 -24.5t24.5 -36t9 -43.5t-9 -43.5t-24.5 -35.5t-36 -23.5t-43.5 -8.5t-43.5 8.5t-35.5 23.5t-23.5 35.5t-8.5 43.5z
M335 740q0 23 8.5 43.5t23.5 36t35.5 24.5t43.5 9t43.5 -9t36 -24.5t24.5 -36t9 -43.5t-9 -43.5t-24.5 -35.5t-36 -23.5t-43.5 -8.5t-43.5 8.5t-35.5 23.5t-23.5 35.5t-8.5 43.5z" />
    <glyph glyph-name="Ydieresis" unicode="&#x178;" horiz-adv-x="466" 
d="M518 668l-173 -739q-8 -36 -30 -64.5t-52.5 -47t-67 -25.5t-75.5 1t-69.5 28t-50.5 48.5t-27 62.5t1 70q2 10 6 20.5t9 18.5l359 681q8 15 21.5 26t30 16t34.5 4.5t35 -8.5q29 -12 42 -38t7 -54zM45 761l278 -427q13 -20 16.5 -42.5t-2 -44t-20 -40t-36.5 -30.5
t-46.5 -15.5t-48 2t-44 18.5t-33.5 34q-2 5 -4.5 10t-4.5 10l-186 467q-5 13 -4.5 26.5t6.5 25t16.5 20.5t24.5 14q26 9 50 0.5t38 -28.5zM18 916q0 23 8.5 43.5t23.5 36t35.5 24.5t43.5 9t43.5 -9t36 -24.5t24.5 -36t9 -43.5t-9 -43.5t-24.5 -35.5t-36 -23.5t-43.5 -8.5
t-43.5 8.5t-35.5 23.5t-23.5 35.5t-8.5 43.5zM223 916q0 23 8.5 43.5t23.5 36t35.5 24.5t43.5 9t43.5 -9t36 -24.5t24.5 -36t9 -43.5t-9 -43.5t-24.5 -35.5t-36 -23.5t-43.5 -8.5t-43.5 8.5t-35.5 23.5t-23.5 35.5t-8.5 43.5z" />
    <glyph glyph-name="Igrave" unicode="&#xcc;" horiz-adv-x="397" 
d="M330 781l52 -762q3 -37 -9 -71t-34.5 -60t-54.5 -42.5t-69 -19.5q-38 -3 -71.5 8.5t-60 34.5t-43 54.5t-19.5 69.5q-2 24 3 48l136 750q3 18 13 32t23.5 23t30 12.5t34.5 0.5q29 -6 48 -28t21 -50zM337 908q10 -8 12 -19.5t-5 -21.5q-5 -7 -12.5 -10.5t-15.5 -1.5
l-206 37q-30 6 -47.5 31t-12.5 55t30.5 47.5t54.5 12.5q17 -5 29 -12z" />
    <glyph glyph-name="Iacute" unicode="&#xcd;" horiz-adv-x="397" 
d="M330 781l52 -762q3 -37 -9 -71t-34.5 -60t-54.5 -42.5t-69 -19.5q-38 -3 -71.5 8.5t-60 34.5t-43 54.5t-19.5 69.5q-2 24 3 48l136 750q3 18 13 32t23.5 23t30 12.5t34.5 0.5q29 -6 48 -28t21 -50zM90 863q-11 -3 -22 2.5t-15 16.5q-2 8 0 16.5t8 13.5l154 142
q11 10 25 15t28 4t27.5 -7t23.5 -17t15 -25t4.5 -28t-6 -27.5t-16.5 -23.5q-7 -5 -13.5 -9t-13.5 -6z" />
    <glyph glyph-name="igrave" unicode="&#xec;" horiz-adv-x="373" 
d="M284 529l89 -504q6 -34 -3 -65.5t-29 -57.5t-50 -43.5t-67 -23.5t-71.5 2t-62.5 26.5t-47 46.5t-25 62q-2 14 -2 27.5t2 25.5l89 504q6 34 35.5 53.5t67.5 14.5q29 -4 49.5 -23.5t24.5 -44.5zM325 708q10 -8 12 -19.5t-5 -21.5q-5 -7 -12.5 -10.5t-15.5 -1.5l-206 37
q-30 6 -47.5 31t-12.5 55t30.5 47.5t54.5 12.5q17 -5 29 -12z" />
    <glyph glyph-name="iacute" unicode="&#xed;" horiz-adv-x="373" 
d="M284 529l89 -504q6 -34 -3 -65.5t-29 -57.5t-50 -43.5t-67 -23.5t-71.5 2t-62.5 26.5t-47 46.5t-25 62q-2 14 -2 27.5t2 25.5l89 504q6 34 35.5 53.5t67.5 14.5q29 -4 49.5 -23.5t24.5 -44.5zM78 663q-11 -3 -22 2.5t-15 16.5q-2 8 0 16.5t8 13.5l154 142q11 10 25 15
t28 4t27.5 -7t23.5 -17t15 -25t4.5 -28t-6 -27.5t-16.5 -23.5q-7 -5 -13.5 -9t-13.5 -6z" />
    <glyph glyph-name="circumflex" unicode="&#x2c6;" horiz-adv-x="436" 
d="M207 877q10 6 21.5 4t19.5 -10q5 -7 6 -15.5t-3 -14.5l-97 -186q-15 -27 -44 -36.5t-56 4.5q-14 7 -23 18.5t-13.5 25.5t-3.5 28.5t8 27.5q5 7 10 13t10 10zM199 843q-4 11 0.5 22.5t14.5 16.5q8 4 16.5 2.5t13.5 -6.5l159 -136q23 -21 26 -51.5t-17 -53.5
q-10 -12 -23.5 -18t-28 -7t-28.5 3t-25 14q-12 12 -18 24z" />
    <glyph glyph-name="Ecircumflex" unicode="&#xca;" horiz-adv-x="902" 
d="M235 860l517 -62q22 -3 40 -13.5t30.5 -26t18.5 -36t4 -42.5q-3 -22 -13.5 -40t-26.5 -31t-36.5 -19t-42.5 -3q-8 2 -12 2l-404 97l12 -161l193 39q22 4 42.5 -0.5t37.5 -15.5t29 -28.5t17 -39.5q4 -22 0 -42.5t-15.5 -37.5t-29 -29.5t-39.5 -16.5q-2 0 -4 -0.5t-4 -0.5
l-213 -25l3 -42l402 68q29 5 56.5 -2t50 -22.5t37.5 -39.5t20 -53q4 -26 -1 -51.5t-18 -46.5t-33 -37t-45 -24l-552 -177q-5 -2 -10.5 -3t-11.5 -2q-11 -4 -22.5 -6.5t-23.5 -3.5q-38 -3 -71.5 8.5t-60 34.5t-43 54.5t-19.5 69.5q-2 24 3 48l136 690q6 32 32 51.5t58 17.5
h12zM460 1119q10 6 21.5 4t19.5 -10q5 -7 6 -15.5t-3 -14.5l-97 -186q-15 -27 -44 -36.5t-56 4.5q-14 7 -23 18.5t-13.5 25.5t-3.5 28.5t8 27.5q5 7 10 13t10 10zM452 1085q-4 11 0.5 22.5t14.5 16.5q8 4 16.5 2.5t13.5 -6.5l159 -136q23 -21 26 -51.5t-17 -53.5
q-10 -12 -23.5 -18t-28 -7t-28.5 3t-25 14q-12 12 -18 24z" />
    <glyph glyph-name="ecircumflex" unicode="&#xea;" horiz-adv-x="839" 
d="M423 177q9 -4 17 -5q3 -1 5.5 -1.5t5.5 -1.5h3l1 -1h5l3 -1q5 -1 11 -1.5t12 -0.5q22 -1 47 2q12 2 24 5t24 8q11 4 23 11q6 4 11.5 7t10.5 8t10.5 9.5t10.5 9.5q3 3 5.5 6t4.5 6q2 2 2.5 3t2.5 3t2.5 3.5t2.5 3.5l15 22q10 15 24.5 24t31 12t33.5 -0.5t32 -13.5
q26 -18 34 -49q2 -7 4 -17t2 -16q1 -8 1.5 -17t0.5 -17q-2 -35 -9 -68q-9 -36 -25 -66q-14 -29 -36 -59q-44 -56 -103 -94l-30 -18q-8 -4 -16 -7.5t-16 -7.5q-16 -7 -32.5 -12.5t-33.5 -9.5q-17 -5 -34 -8t-34 -5q-6 0 -9 -1h-13l-4 -1h-44q-35 2 -70.5 9t-69.5 21
q-34 13 -66 31.5t-61 43.5t-53 55t-42 65q-5 8 -9 17t-8 19q-4 9 -7.5 18t-6.5 19q-11 39 -15 78q-1 11 -1 20.5v19.5t0.5 19.5t1.5 19.5q2 20 6.5 39t10.5 38q12 37 32 69q19 33 44 59q25 27 53 47.5t57 35.5q30 15 61 25t62 15q8 2 15.5 2.5t15.5 1.5t15 1t15 1h15t15 -1
q8 0 15 -0.5t15 -1.5q32 -3 58 -10q27 -7 55 -18t52 -25l24 -15q3 -2 5.5 -4.5t5.5 -4.5q4 -2 6 -4l3 -2v-1h1l1 -1q20 -17 22.5 -41.5t-12.5 -44.5v-1l-2 -2q-2 -2 -2.5 -3t-1.5 -2q0 -1 -0.5 -1t-0.5 -1zM450 423q-35 -9 -61 -27q-26 -17 -43 -40q-9 -11 -14.5 -22.5
t-8.5 -22.5q-2 -5 -3 -10t-1 -10q-2 -9 0 -17q0 -8 3 -15q0 -3 2 -7l3 -6q3 -8 7 -12l172 196q-14 -1 -28 -2.5t-28 -4.5zM405 877q10 6 21.5 4t19.5 -10q5 -7 6 -15.5t-3 -14.5l-97 -186q-15 -27 -44 -36.5t-56 4.5q-14 7 -23 18.5t-13.5 25.5t-3.5 28.5t8 27.5q5 7 10 13
t10 10zM397 843q-4 11 0.5 22.5t14.5 16.5q8 4 16.5 2.5t13.5 -6.5l159 -136q23 -21 26 -51.5t-17 -53.5q-10 -12 -23.5 -18t-28 -7t-28.5 3t-25 14q-12 12 -18 24z" />
    <glyph glyph-name="cedilla" unicode="&#xb8;" horiz-adv-x="200" 
d="M84 90q5 11 15.5 16t21.5 3q19 -7 19 -24l21 -181q23 -12 43 -31.5t32 -42.5t13.5 -48t-13.5 -49q-7 -11 -17 -19t-20 -17q-25 -21 -45.5 -32.5t-41 -15t-44 -1t-55.5 9.5q-3 0 -6 0.5t-6 0.5q-32 7 -45.5 27t-11 41t21 36.5t50.5 13.5q19 -1 36.5 -5.5t35.5 -7.5
q8 2 16.5 7.5t16.5 13.5l-11 11q-2 -1 -5 -1t-5 -1q-31 -3 -55 16.5t-28 48.5q0 19 4 30z" />
    <glyph glyph-name="Ccedilla" unicode="&#xc7;" horiz-adv-x="918" 
d="M648 604l-1 1h-1v1h-1l-2 1q-2 1 -3 1t-2 1q-5 2 -11 4q-5 2 -10.5 4t-10.5 4q-11 3 -21.5 4.5t-21.5 3.5q-11 1 -21 1.5t-21 -0.5l-21 -3q-5 -1 -10 -1.5t-10 -2.5q-38 -10 -70 -34q-30 -23 -50 -53q-10 -15 -16.5 -31t-11.5 -32q-9 -32 -9 -63q0 -8 0.5 -15.5
t1.5 -15.5q1 -15 6 -30q4 -14 10 -27t14 -24q16 -24 35 -40q19 -18 42 -30q9 -5 22 -10q6 -3 12 -4.5t12 -3.5q8 -2 13 -3q8 -2 13 -2q7 -1 13.5 -1h13.5q13 0 28 3q4 1 14 3q2 1 3.5 1t3.5 1t3.5 1t3.5 1q29 10 58 30q7 5 14 10.5t14 12.5q13 12 25 28q14 17 23 33
q3 5 5.5 9.5t5.5 9.5q2 2 2.5 4.5t2.5 5.5l5 10l6 13q16 33 50 45t67 -4q19 -9 30.5 -24.5t16.5 -34.5q8 -35 8.5 -71.5t-5.5 -73.5q-8 -39 -21 -74q-14 -38 -34 -69q-20 -34 -47 -64t-59 -55q-10 -8 -17 -13q-4 -3 -8 -5.5t-9 -5.5q-8 -6 -17 -11t-19 -10
q-18 -10 -38 -17.5t-40 -13.5t-40.5 -10.5t-42.5 -6.5q-21 -3 -42 -3h-21.5t-21.5 1q-41 3 -85 14q-42 12 -81 30t-74 44q-17 13 -33 27t-31 29q-60 63 -93 140q-17 39 -27 79t-13 82q-3 41 0 81q2 20 5 40t8 40q10 40 26.5 76.5t39.5 69.5q44 65 108 111q16 11 32.5 21
t33.5 19q32 16 70 27l36 9l36 6q10 1 19 1.5t18 1.5h36q9 -1 18 -1.5t17 -2.5q19 -2 35 -6q34 -7 67 -20q17 -7 32 -15t29 -17q16 -9 28 -19q3 -2 6.5 -5t6.5 -5l6 -6l4 -3l1 -1l1 -1q20 -18 20.5 -44t-16.5 -45q-15 -16 -36 -19.5t-40 6.5zM447 -22q5 11 15.5 16t21.5 3
q19 -7 19 -24l21 -181q23 -12 43 -31.5t32 -42.5t13.5 -48t-13.5 -49q-7 -11 -17 -19t-20 -17q-25 -21 -45.5 -32.5t-41 -15t-44 -1t-55.5 9.5q-3 0 -6 0.5t-6 0.5q-32 7 -45.5 27t-11 41t21 36.5t50.5 13.5q19 -1 36.5 -5.5t35.5 -7.5q8 2 16.5 7.5t16.5 13.5l-11 11
q-2 -1 -5 -1t-5 -1q-31 -3 -55 16.5t-28 48.5q0 19 4 30z" />
    <glyph glyph-name="ccedilla" unicode="&#xe7;" horiz-adv-x="847" 
d="M600 415l-2 1h-1q-1 0 -1 0.5t-1 0.5q-2 0 -2.5 0.5t-2.5 0.5q-2 1 -4 1.5t-4 1.5q-5 2 -9 2.5t-9 1.5q-9 2 -18.5 3t-18.5 2q-18 1 -35.5 -1t-34.5 -6q-35 -9 -61 -27q-14 -8 -24.5 -18.5t-19.5 -21.5q-8 -11 -13.5 -22.5t-8.5 -22.5q-4 -9 -4 -20q-2 -9 0 -17
q0 -5 0.5 -8t1.5 -7q1 -3 3 -7q0 -1 2 -7q7 -11 17 -21q5 -5 11 -10t14 -10t15.5 -9t16.5 -9q9 -4 19 -8t21 -6q3 -1 5.5 -1.5t5.5 -1.5h3l1 -1h1h1h1h2l2 -1q6 -1 12 -1.5t12 -0.5q11 -1 23 -0.5t24 2.5t24 5t24 8q6 2 11.5 5t11.5 6q5 4 11 7t11 8q5 4 10.5 9t10.5 10
q2 3 5 6t5 6q2 2 2.5 3t2.5 3q2 4 5 7l15 22q10 15 24.5 24t31 12t33 -0.5t31.5 -13.5q27 -18 35 -49q2 -7 4 -17q1 -4 1 -8t1 -8q1 -8 1.5 -17t0.5 -17q-2 -37 -10 -68q-8 -35 -24 -66q-16 -34 -37 -59q-42 -56 -102 -94l-30 -18q-8 -4 -16 -7.5t-16 -7.5
q-16 -7 -32.5 -12.5t-33.5 -10.5q-33 -8 -69 -12q-5 0 -8 -1h-5h-2h-1h-1h-1h-1h-2l-5 -1h-8h-35q-35 2 -70.5 9t-69.5 21q-71 26 -127 75q-29 25 -53 55t-43 65q-5 8 -8.5 17t-7.5 19q-4 9 -7.5 18t-6.5 19q-5 19 -9 38.5t-6 39.5q-1 11 -1.5 20.5t-0.5 19.5q1 10 1 19.5
t2 19.5q2 20 6.5 39t10.5 38q12 37 32 69q10 17 21 31t23 28q25 27 53 47.5t57 35.5q58 29 123 40q8 1 15 2t15 2t15.5 1t15.5 1h15t15 -1q8 0 15 -0.5t15 -1.5q14 -2 29 -4t29 -6q27 -7 55 -18q14 -5 26.5 -11.5t25.5 -13.5l24 -15q3 -3 11 -9q4 -2 6 -4l3 -2v-1h1l1 -1
q20 -17 22 -43t-15 -46q-14 -16 -33.5 -21t-37.5 3zM412 -50q5 11 15.5 16t21.5 3q19 -7 19 -24l21 -181q23 -12 43 -31.5t32 -42.5t13.5 -48t-13.5 -49q-7 -11 -17 -19t-20 -17q-25 -21 -45.5 -32.5t-41 -15t-44 -1t-55.5 9.5q-3 0 -6 0.5t-6 0.5q-32 7 -45.5 27t-11 41
t21 36.5t50.5 13.5q19 -1 36.5 -5.5t35.5 -7.5q8 2 16.5 7.5t16.5 13.5l-11 11q-2 -1 -5 -1t-5 -1q-31 -3 -55 16.5t-28 48.5q0 19 4 30z" />
    <glyph glyph-name="AE" unicode="&#xc6;" horiz-adv-x="1850" 
d="M1142 274q33 -2 49.5 -19t17.5 -38t-15 -39.5t-48 -22.5q-93 2 -184.5 9.5t-184.5 13.5l-129 -154q-27 -32 -60.5 -50t-67.5 -20.5t-66 9.5t-56 40q-25 29 -36.5 66.5t-10 77t16 79t41.5 72.5q9 10 18.5 19t20.5 17l662 500q30 22 63 14.5t49 -41.5q14 -29 8.5 -62.5
t-25.5 -57.5l-333 -397q68 -5 135 -9.5t135 -6.5zM1183 860l517 -62q22 -3 40 -13.5t30.5 -26t18.5 -36t4 -42.5q-3 -22 -13.5 -40t-26.5 -31t-36.5 -19t-42.5 -3q-8 2 -12 2l-404 97l12 -161l193 39q22 4 42.5 -0.5t37.5 -15.5t29 -28.5t17 -39.5q4 -22 0 -42.5
t-15.5 -37.5t-29 -29.5t-39.5 -16.5q-2 0 -4 -0.5t-4 -0.5l-213 -25l3 -42l402 68q29 5 56.5 -2t50 -22.5t37.5 -39.5t20 -53q4 -26 -1 -51.5t-18 -46.5t-33 -37t-45 -24l-552 -177q-5 -2 -10.5 -3t-11.5 -2q-11 -4 -22.5 -6.5t-23.5 -3.5q-38 -3 -71.5 8.5t-60 34.5
t-43 54.5t-19.5 69.5q-2 24 3 48l136 690q6 32 32 51.5t58 17.5h12z" />
    <glyph glyph-name="ae" unicode="&#xe6;" horiz-adv-x="1724" 
d="M396 411q82 0 154.5 -21t126.5 -57.5t85 -85.5t31 -104q0 -56 -31 -104.5t-85 -85t-126.5 -57.5t-154.5 -21t-154 21t-126 57.5t-85 85t-31 104.5q0 55 31 104t85 85.5t126 57.5t154 21zM410 177q32 0 60 5.5t49 15t33 22t12 27.5q0 14 -12 26.5t-33 22t-49 15t-60 5.5
t-59.5 -5.5t-48.5 -15t-33 -22t-12 -26.5q0 -15 12 -27.5t33 -22t48.5 -15t59.5 -5.5zM115 584h1l1 1l2 2l4 3l4 2t4 3q7 5 16 10q14 10 31 20q35 19 67 33q17 8 35.5 14.5t37.5 12.5q19 5 39 9t41 7q42 5 89 0q23 -3 46 -8.5t46 -14.5t43.5 -21.5t40.5 -26.5q38 -29 67 -66
q15 -17 27 -35.5t23 -36.5q21 -38 36 -75t26 -74t19 -73q9 -37 14.5 -73t10.5 -71q9 -72 12 -142v-2q1 -24 -4.5 -24t-16.5 14t-27.5 36.5t-36 44t-41.5 36.5t-46 14t-45 -18.5t-40 -40.5t-34 -47.5t-26.5 -39.5t-18 -16t-7.5 23q-1 8 -0.5 15t1.5 14q3 30 5.5 59.5
t4.5 58.5q3 58 0 114q-2 28 -5 54t-8 51q-11 49 -29 84q-8 17 -20 30q-10 12 -24 22q-7 5 -14.5 9t-16.5 7q-18 5 -41 7q-11 2 -23 1.5t-25 -2.5q-25 -1 -52 -9q-13 -3 -26 -7t-27 -9t-26 -10q-3 -2 -6 -2.5t-6 -2.5l-6 -3l-6 -2l-4 -2q-16 -8 -32.5 -8.5t-31.5 5
t-27.5 16.5t-19.5 27q-14 27 -6.5 56t30.5 46zM983 239q9 -4 17 -5q3 -1 5.5 -1.5t5.5 -1.5h3l1 -1h5l3 -1q5 -1 11 -1.5t12 -0.5q22 -1 47 2q12 2 24 5t24 8q11 4 23 11q6 4 11.5 7t10.5 8t10.5 9.5t10.5 9.5q3 3 5.5 6t4.5 6q2 2 2.5 3t2.5 3t2.5 3.5t2.5 3.5l15 22
q10 15 24.5 24t31 12t33.5 -0.5t32 -13.5q26 -18 34 -49q2 -7 4 -17t2 -16q1 -8 1.5 -17t0.5 -17q-2 -35 -9 -68q-9 -36 -25 -66q-14 -29 -36 -59q-44 -56 -103 -94l-30 -18q-8 -4 -16 -7.5t-16 -7.5q-16 -7 -32.5 -12.5t-33.5 -9.5q-17 -5 -34 -8t-34 -5q-6 0 -9 -1h-13
l-4 -1h-44q-35 2 -70.5 9t-69.5 21q-34 13 -66 31.5t-61 43.5t-53 55t-42 65q-5 8 -9 17t-8 19q-4 9 -7.5 18t-6.5 19q-11 39 -15 78q-1 11 -1 20.5v19.5t0.5 19.5t1.5 19.5q2 20 6.5 39t10.5 38q12 37 32 69q19 33 44 59q25 27 53 47.5t57 35.5q30 15 61 25t62 15
q8 2 15.5 2.5t15.5 1.5t15 1t15 1h15t15 -1q8 0 15 -0.5t15 -1.5q32 -3 58 -10q27 -7 55 -18t52 -25l24 -15q3 -2 5.5 -4.5t5.5 -4.5q4 -2 6 -4l3 -2v-1h1l1 -1q20 -17 22.5 -41.5t-12.5 -44.5v-1l-2 -2q-2 -2 -2.5 -3t-1.5 -2q0 -1 -0.5 -1t-0.5 -1zM1010 485
q-35 -9 -61 -27q-26 -17 -43 -40q-9 -11 -14.5 -22.5t-8.5 -22.5q-2 -5 -3 -10t-1 -10q-2 -9 0 -17q0 -8 3 -15q0 -3 2 -7l3 -6q3 -8 7 -12l172 196q-14 -1 -28 -2.5t-28 -4.5z" />
    <glyph glyph-name="icircumflex" unicode="&#xee;" horiz-adv-x="373" 
d="M284 529l89 -504q6 -34 -3 -65.5t-29 -57.5t-50 -43.5t-67 -23.5t-71.5 2t-62.5 26.5t-47 46.5t-25 62q-2 14 -2 27.5t2 25.5l89 504q6 34 35.5 53.5t67.5 14.5q29 -4 49.5 -23.5t24.5 -44.5zM173 877q10 6 21.5 4t19.5 -10q5 -7 6 -15.5t-3 -14.5l-97 -186
q-15 -27 -44 -36.5t-56 4.5q-14 7 -23 18.5t-13.5 25.5t-3.5 28.5t8 27.5q5 7 10 13t10 10zM165 843q-4 11 0.5 22.5t14.5 16.5q8 4 16.5 2.5t13.5 -6.5l159 -136q23 -21 26 -51.5t-17 -53.5q-10 -12 -23.5 -18t-28 -7t-28.5 3t-25 14q-12 12 -18 24z" />
    <glyph glyph-name="idieresis" unicode="&#xef;" horiz-adv-x="373" 
d="M284 529l89 -504q6 -34 -3 -65.5t-29 -57.5t-50 -43.5t-67 -23.5t-71.5 2t-62.5 26.5t-47 46.5t-25 62q-2 14 -2 27.5t2 25.5l89 504q6 34 35.5 53.5t67.5 14.5q29 -4 49.5 -23.5t24.5 -44.5zM-28 716q0 23 8.5 43.5t23.5 36t35.5 24.5t43.5 9t43.5 -9t36 -24.5t24.5 -36
t9 -43.5t-9 -43.5t-24.5 -35.5t-36 -23.5t-43.5 -8.5t-43.5 8.5t-35.5 23.5t-23.5 35.5t-8.5 43.5zM177 716q0 23 8.5 43.5t23.5 36t35.5 24.5t43.5 9t43.5 -9t36 -24.5t24.5 -36t9 -43.5t-9 -43.5t-24.5 -35.5t-36 -23.5t-43.5 -8.5t-43.5 8.5t-35.5 23.5t-23.5 35.5
t-8.5 43.5z" />
    <glyph glyph-name="Icircumflex" unicode="&#xce;" horiz-adv-x="397" 
d="M330 781l52 -762q3 -37 -9 -71t-34.5 -60t-54.5 -42.5t-69 -19.5q-38 -3 -71.5 8.5t-60 34.5t-43 54.5t-19.5 69.5q-2 24 3 48l136 750q3 18 13 32t23.5 23t30 12.5t34.5 0.5q29 -6 48 -28t21 -50zM225 1095q10 6 21.5 4t19.5 -10q5 -7 6 -15.5t-3 -14.5l-97 -186
q-15 -27 -44 -36.5t-56 4.5q-14 7 -23 18.5t-13.5 25.5t-3.5 28.5t8 27.5q5 7 10 13t10 10zM217 1061q-4 11 0.5 22.5t14.5 16.5q8 4 16.5 2.5t13.5 -6.5l159 -136q23 -21 26 -51.5t-17 -53.5q-10 -12 -23.5 -18t-28 -7t-28.5 3t-25 14q-12 12 -18 24z" />
    <glyph glyph-name="Idieresis" unicode="&#xcf;" horiz-adv-x="397" 
d="M330 781l52 -762q3 -37 -9 -71t-34.5 -60t-54.5 -42.5t-69 -19.5q-38 -3 -71.5 8.5t-60 34.5t-43 54.5t-19.5 69.5q-2 24 3 48l136 750q3 18 13 32t23.5 23t30 12.5t34.5 0.5q29 -6 48 -28t21 -50zM49 971q0 23 8.5 43.5t23.5 36t35.5 24.5t43.5 9t43.5 -9t36 -24.5
t24.5 -36t9 -43.5t-9 -43.5t-24.5 -35.5t-36 -23.5t-43.5 -8.5t-43.5 8.5t-35.5 23.5t-23.5 35.5t-8.5 43.5zM254 971q0 23 8.5 43.5t23.5 36t35.5 24.5t43.5 9t43.5 -9t36 -24.5t24.5 -36t9 -43.5t-9 -43.5t-24.5 -35.5t-36 -23.5t-43.5 -8.5t-43.5 8.5t-35.5 23.5
t-23.5 35.5t-8.5 43.5z" />
    <glyph glyph-name="Eth" unicode="&#xd0;" 
d="M306 781l52 -702q3 -37 -9 -71t-34.5 -60t-54.5 -42.5t-69 -19.5q-38 -3 -71.5 8.5t-60 34.5t-43 54.5t-19.5 69.5q-2 24 3 48l136 690q3 18 13 32t23.5 23t30 12.5t34.5 0.5q29 -6 48 -28t21 -50zM171 662l1 1q1 0 1 1h1l3 3l5 4q6 6 10 9q5 4 10 7.5t10 8.5
q11 8 21.5 15t21.5 14q24 16 46 27q12 7 24.5 12.5t25.5 11.5q28 11 55 18q15 4 30.5 6.5t31.5 4.5q8 1 17 1.5t17 0.5q9 -1 18 -1t18 -2q18 -2 37 -7.5t37 -13.5t35 -18.5t32 -22.5q31 -26 52 -55q11 -15 19.5 -30t16.5 -30q8 -14 14 -29t11 -29q5 -15 9 -29.5t8 -28.5
q3 -14 6 -27.5t5 -27.5t4 -27.5t4 -26.5l3 -27v-3v-4l1 -7v-14q2 -27 1.5 -56t-3.5 -59t-9.5 -61.5t-17.5 -63.5q-6 -17 -13 -33t-16 -32q-9 -17 -19.5 -33t-22.5 -31q-24 -30 -56 -57q-8 -7 -16 -13l-16 -12q-16 -10 -34 -20q-17 -10 -35 -17.5t-36 -13.5q-34 -12 -70 -18
q-17 -4 -33.5 -5.5t-33.5 -3.5q-17 -1 -33 -1t-32 2q-64 5 -119 22q-14 5 -27.5 10t-26.5 12q-7 3 -13.5 6t-13.5 7q-3 2 -6.5 4t-6.5 4l-4 2l-3 2l-4 3l-1 1h-1l-3 2q-31 13 -53.5 36t-34 51.5t-12 60.5t12.5 63t36 53t51.5 34t60.5 12.5t63 -12.5v1h2h2h2h8h9t9 -1
q9 0 18 -0.5t17 -1.5q17 -2 33.5 -3t31.5 -3q8 -1 15 -1t13 -1q7 -1 13.5 -1h12.5q5 0 10 0.5t10 1.5t9 1.5t7 1.5q5 1 13 5q3 1 5.5 2.5t5.5 3.5q6 4 12 12q6 7 12 18t11.5 24.5t9.5 29.5q9 31 12 70l1 10l1 4v3v1v1q1 5 1 10v10q1 10 1.5 19.5t0.5 19.5v18t-1 18
q0 17 -3 34q-1 8 -2 15t-3 14t-3.5 12.5t-3.5 10.5t-4 9l-4 8q-3 6 -8 11q-4 5 -14 10q-2 1 -4.5 2t-5.5 2q-8 2 -13 3q-7 1 -14.5 1.5t-15.5 0.5q-17 0 -35 -3q-10 -2 -19 -4t-19 -4t-19.5 -5t-19.5 -6t-19.5 -6.5t-19.5 -7.5q-5 -2 -9.5 -4t-9.5 -4l-10 -4l-4 -2l-2 -1
l-1 -1h-1l-1 -1q-27 -14 -55 -4t-42 36q-11 22 -6 45.5t22 39.5zM67 451l302 61q22 4 42.5 -0.5t37.5 -15.5t29 -28.5t17 -39.5q4 -22 0 -42.5t-15.5 -37.5t-29 -29.5t-39.5 -16.5q-2 0 -4 -0.5t-4 -0.5l-306 -36q-20 -3 -38 2.5t-32 16.5t-23.5 27t-11.5 36q-5 38 17 67.5
t58 36.5z" />
    <glyph glyph-name="eth" unicode="&#xf0;" horiz-adv-x="582" 
d="M288 453q-29 -3 -48 7.5t-25.5 28.5t0.5 38.5t30 37.5q6 2 12 5t13 5q-3 2 -5.5 4.5t-5.5 4.5q-10 5 -19.5 10t-20.5 10q-25 10 -45 14q-44 13 -96 16h-1q-13 2 -22.5 11t-11.5 24q-2 16 7 29t25 15q27 4 55.5 6t57.5 0q14 -1 29 -3t29 -4q15 -3 29.5 -7t29.5 -9l14 -6
t15 -6q7 -4 13.5 -7t14.5 -8q11 -7 22 -14.5t22 -16.5q14 7 27.5 14t27.5 15q27 8 47.5 0.5t30 -24t6 -38t-23.5 -41.5l-33 -18q3 -5 5.5 -9t5.5 -9q2 -4 4.5 -7t4.5 -7t3.5 -7.5t3.5 -8.5l7.5 -15t6.5 -15q6 -16 11.5 -31t10.5 -32q2 -8 4.5 -16t4.5 -16t3.5 -16t3.5 -16
q6 -33 9 -66q0 -8 0.5 -17t1.5 -17v-34q0 -5 -0.5 -9.5t-0.5 -9.5q-1 -5 -1 -9t-1 -9l-3 -21q-1 -3 -1.5 -5.5t-1.5 -5.5q0 -2 -0.5 -3.5t-0.5 -3.5v-2l-1 -1v-1l-1 -1v-1q-2 -5 -2.5 -8.5t-2.5 -8.5q-1 -5 -2 -8.5t-3 -8.5q-6 -17 -15 -36q-7 -17 -21 -38q-13 -20 -29 -37
q-9 -9 -18 -17.5t-20 -15.5t-21.5 -12.5t-21.5 -10.5t-21 -8.5t-21 -6.5q-11 -2 -20.5 -4t-19.5 -2q-18 -3 -36 -3h-9t-9 1h-12l-4 1h-6q-3 0 -5 0.5t-4 0.5q-6 0 -11.5 0.5t-11.5 1.5q-11 2 -22.5 4.5t-22.5 7.5q-11 4 -22 9.5t-22 11.5q-20 11 -39 29l-9 9t-8 9
q-10 10 -15 19q-16 19 -25 40q-11 21 -17.5 42.5t-10.5 42.5q-8 43 -3 87q4 43 21 85q10 20 22 41q7 9 14 18.5t15 17.5q18 18 37 29q19 13 41 21q23 8 43 9q19 3 41 1q38 -4 70 -18q4 -2 7.5 -3.5t8.5 -3.5q3 -2 6.5 -3.5t7.5 -3.5t7 -4.5t7 -4.5q3 -2 6.5 -4t6.5 -4l8 -6
l8 -6q-2 20 -6 39.5t-10 37.5l-12 27q-17 -7 -33 -14zM372 245q0 2 1 3q-4 2 -7 3t-7 3q-11 4 -22.5 7t-22.5 6q-2 1 -5 1t-5 1q-3 1 -5.5 1t-5.5 1q-3 0 -5.5 0.5t-5.5 0.5q-3 1 -9 1q-22 0 -34 -4q-4 -1 -12 -5q-3 -2 -7 -6t-5 -7q0 -2 -2 -6q-2 -6 -2 -8q-1 -2 -1 -5
t-1 -5v-11t1 -12q2 -14 6 -24q5 -12 11 -18q1 -2 2 -2.5t2 -2.5q1 -1 1.5 -1t1.5 -1h2l4 -2h5q1 -1 5 -1q3 0 4 1h22q2 0 4 0.5t5 0.5q4 0 8 0.5t8 0.5q8 2 11 3l4.5 1.5t3.5 0.5l4 2q0 1 1 1l2 1q1 1 5 3q5 5 7 9q5 6 10 14t10 18v1q1 0 2 1q2 4 2 6q2 3 4 9q0 2 1 4.5
t2 5.5q0 2 2 10z" />
    <glyph glyph-name="Thorn" unicode="&#xde;" 
d="M517 780q82 0 154.5 -31t126.5 -85t85 -126.5t31 -154.5t-31 -154t-85 -126t-126.5 -85t-154.5 -31t-154 31t-126 85t-85 126t-31 154t31 154.5t85 126.5t126 85t154 31zM531 434q32 0 60 8t49 22t33 33t12 40t-12 40t-33 33t-49 22t-60 8t-59.5 -8t-48.5 -22t-33 -33
t-12 -40t12 -40t33 -33t48.5 -22t59.5 -8zM407 71q3 -45 -12 -85t-43 -71t-66 -50t-83 -22q-45 -2 -85 12.5t-71 42.5t-50 66t-22 83q-2 33 6 62l163 687q5 23 18.5 41t32 29.5t41 15.5t45.5 -1q38 -9 61.5 -38.5t25.5 -66.5z" />
    <glyph glyph-name="thorn" unicode="&#xfe;" horiz-adv-x="938" 
d="M547 640q82 0 154.5 -31t126.5 -85t85 -126.5t31 -154.5t-31 -154t-85 -126t-126.5 -85t-154.5 -31t-154 31t-126 85t-85 126t-31 154t31 154.5t85 126.5t126 85t154 31zM561 294q32 0 60 8t49 22t33 33t12 40t-12 40t-33 33t-49 22t-60 8t-59.5 -8t-48.5 -22t-33 -33
t-12 -40t12 -40t33 -33t48.5 -22t59.5 -8zM407 -209q3 -45 -12 -85t-43 -71t-66 -50t-83 -22q-45 -2 -85 12.5t-71 42.5t-50 66t-22 83q-2 33 6 62l163 967q5 23 18.5 41t32 29.5t41 15.5t45.5 -1q38 -9 61.5 -38.5t25.5 -66.5z" />
    <glyph glyph-name="germandbls" unicode="&#xdf;" 
d="M360 79q4 -59 -19.5 -99.5t-62 -63t-85 -26t-88.5 13t-71.5 54t-34.5 95.5q-1 12 -1.5 24.5t4.5 23.5l190 521l127 -38zM394 391q46 24 74.5 51t32 49.5t-21.5 37.5t-86 16q22 9 43.5 23.5t36 29.5t19 27.5t-6 17t-39.5 -1.5t-82 -28q-11 -6 -21.5 -12t-21.5 -13
q-5 -3 -10.5 -6.5t-10.5 -6.5q-2 -2 -5 -3.5t-5 -3.5l-5 -4l-5 -3l-48 16q-11 4 -15 0t-5.5 -8t-3 -4.5t-7.5 8.5q-13 17 -10 38.5t18 35.5l6 5l6 5q3 2 5.5 4.5t5.5 4.5q6 5 11.5 9t11.5 9q23 19 47 34q12 8 24.5 15.5t25.5 14.5q14 8 27.5 14.5t29.5 12.5q8 3 15.5 5.5
t15.5 4.5t17 4t18 3q10 2 19.5 2.5t20.5 -0.5q20 0 44 -8q11 -3 22 -8.5t22 -12.5q21 -16 35 -33q13 -18 23 -37q2 -5 4 -9t4 -9q0 -2 0.5 -2.5t0.5 -2.5l1 -2v-1h1v-2q1 -2 1.5 -5t1.5 -5q3 -11 5 -23.5t1 -25.5q0 -14 -3 -27q-1 -7 -3 -13.5t-4 -12.5q-10 -25 -25 -44
q-8 -9 -15.5 -17t-15.5 -14q-17 -15 -31 -23q-16 -11 -31 -18q-15 -8 -30 -14t-30 -11q-14 -5 -29 -9.5t-29 -8.5q-15 -4 -29.5 -6.5t-28.5 -7.5q-7 -3 -14.5 10.5t-11.5 35t-2 47t15 47.5t39 36t71 12l40 -4t41 -7t42 -11t44 -15q11 -5 22.5 -10.5t23.5 -12.5q11 -7 23 -15
t23 -18q22 -20 42 -45q20 -27 34 -57q13 -29 21 -62q2 -8 2.5 -15.5t2.5 -15.5q0 -4 0.5 -8t0.5 -8v-7l1 -4v-3v-3v-1v-1v-1v-2v-6v-14q0 -7 -0.5 -14t-1.5 -15q-3 -31 -13 -61q-9 -32 -27 -62q-17 -31 -40 -57q-11 -13 -22.5 -26.5t-26.5 -18.5q-124 -44 -196.5 -53.5
t-107 5.5t-38 49t11.5 76.5t41 88.5t50 85t38.5 66t7.5 32z" />
    <glyph glyph-name="Ograve" unicode="&#xd2;" 
d="M416 790q87 0 164 -37t134 -101t90 -150t33 -184t-33 -183.5t-90 -149.5t-134 -101t-164 -37t-163.5 37t-133.5 101t-90 149.5t-33 183.5t33 184t90 150t133.5 101t163.5 37zM426 360q34 0 63.5 13t51.5 35t35 51.5t13 63.5t-13 63.5t-35 51.5t-51.5 35t-63.5 13
t-63.5 -13t-51.5 -35t-35 -51.5t-13 -63.5t13 -63.5t35 -51.5t51.5 -35t63.5 -13zM555 908q10 -8 12 -19.5t-5 -21.5q-5 -7 -12.5 -10.5t-15.5 -1.5l-206 37q-30 6 -47.5 31t-12.5 55t30.5 47.5t54.5 12.5q17 -5 29 -12z" />
    <glyph glyph-name="ograve" unicode="&#xf2;" horiz-adv-x="795" 
d="M394 640q82 0 154.5 -31t126.5 -85t85 -126.5t31 -154.5t-31 -154t-85 -126t-126.5 -85t-154.5 -31t-154 31t-126 85t-85 126t-31 154t31 154.5t85 126.5t126 85t154 31zM408 294q32 0 60 8t49 22t33 33t12 40t-12 40t-33 33t-49 22t-60 8t-59.5 -8t-48.5 -22t-33 -33
t-12 -40t12 -40t33 -33t48.5 -22t59.5 -8zM536 708q10 -8 12 -19.5t-5 -21.5q-5 -7 -12.5 -10.5t-15.5 -1.5l-206 37q-30 6 -47.5 31t-12.5 55t30.5 47.5t54.5 12.5q17 -5 29 -12z" />
    <glyph glyph-name="oacute" unicode="&#xf3;" horiz-adv-x="795" 
d="M394 640q82 0 154.5 -31t126.5 -85t85 -126.5t31 -154.5t-31 -154t-85 -126t-126.5 -85t-154.5 -31t-154 31t-126 85t-85 126t-31 154t31 154.5t85 126.5t126 85t154 31zM408 294q32 0 60 8t49 22t33 33t12 40t-12 40t-33 33t-49 22t-60 8t-59.5 -8t-48.5 -22t-33 -33
t-12 -40t12 -40t33 -33t48.5 -22t59.5 -8zM289 663q-11 -3 -22 2.5t-15 16.5q-2 8 0 16.5t8 13.5l154 142q11 10 25 15t28 4t27.5 -7t23.5 -17t15 -25t4.5 -28t-6 -27.5t-16.5 -23.5q-7 -5 -13.5 -9t-13.5 -6z" />
    <glyph glyph-name="Oacute" unicode="&#xd3;" 
d="M416 790q87 0 164 -37t134 -101t90 -150t33 -184t-33 -183.5t-90 -149.5t-134 -101t-164 -37t-163.5 37t-133.5 101t-90 149.5t-33 183.5t33 184t90 150t133.5 101t163.5 37zM426 360q34 0 63.5 13t51.5 35t35 51.5t13 63.5t-13 63.5t-35 51.5t-51.5 35t-63.5 13
t-63.5 -13t-51.5 -35t-35 -51.5t-13 -63.5t13 -63.5t35 -51.5t51.5 -35t63.5 -13zM308 863q-11 -3 -22 2.5t-15 16.5q-2 8 0 16.5t8 13.5l154 142q11 10 25 15t28 4t27.5 -7t23.5 -17t15 -25t4.5 -28t-6 -27.5t-16.5 -23.5q-7 -5 -13.5 -9t-13.5 -6z" />
    <glyph glyph-name="Ocircumflex" unicode="&#xd4;" 
d="M416 790q87 0 164 -37t134 -101t90 -150t33 -184t-33 -183.5t-90 -149.5t-134 -101t-164 -37t-163.5 37t-133.5 101t-90 149.5t-33 183.5t33 184t90 150t133.5 101t163.5 37zM426 360q34 0 63.5 13t51.5 35t35 51.5t13 63.5t-13 63.5t-35 51.5t-51.5 35t-63.5 13
t-63.5 -13t-51.5 -35t-35 -51.5t-13 -63.5t13 -63.5t35 -51.5t51.5 -35t63.5 -13zM402 1077q10 6 21.5 4t19.5 -10q5 -7 6 -15.5t-3 -14.5l-97 -186q-15 -27 -44 -36.5t-56 4.5q-14 7 -23 18.5t-13.5 25.5t-3.5 28.5t8 27.5q5 7 10 13t10 10zM394 1043q-4 11 0.5 22.5
t14.5 16.5q8 4 16.5 2.5t13.5 -6.5l159 -136q23 -21 26 -51.5t-17 -53.5q-10 -12 -23.5 -18t-28 -7t-28.5 3t-25 14q-12 12 -18 24z" />
    <glyph glyph-name="ocircumflex" unicode="&#xf4;" horiz-adv-x="795" 
d="M394 640q82 0 154.5 -31t126.5 -85t85 -126.5t31 -154.5t-31 -154t-85 -126t-126.5 -85t-154.5 -31t-154 31t-126 85t-85 126t-31 154t31 154.5t85 126.5t126 85t154 31zM408 294q32 0 60 8t49 22t33 33t12 40t-12 40t-33 33t-49 22t-60 8t-59.5 -8t-48.5 -22t-33 -33
t-12 -40t12 -40t33 -33t48.5 -22t59.5 -8zM383 877q10 6 21.5 4t19.5 -10q5 -7 6 -15.5t-3 -14.5l-97 -186q-15 -27 -44 -36.5t-56 4.5q-14 7 -23 18.5t-13.5 25.5t-3.5 28.5t8 27.5q5 7 10 13t10 10zM375 843q-4 11 0.5 22.5t14.5 16.5q8 4 16.5 2.5t13.5 -6.5l159 -136
q23 -21 26 -51.5t-17 -53.5q-10 -12 -23.5 -18t-28 -7t-28.5 3t-25 14q-12 12 -18 24z" />
    <glyph glyph-name="tilde" unicode="&#x2dc;" horiz-adv-x="429" 
d="M13 690l2 2v2q2 3 2 4.5t1 4.5q3 3 7 13q3 7 7.5 13t9.5 13q4 7 10 12.5t13 10.5q7 7 14 11t16 8q15 7 36 7q5 0 9.5 -0.5t7.5 -0.5q6 -1 9 -2t8 -3q8 -2 14.5 -4.5t13.5 -4.5q6 -4 12 -6t11 -5q11 -5 20.5 -9.5t19.5 -7.5q5 -2 9 -3.5t7 -1.5q4 -1 7.5 -1h6.5q7 0 9 1
q3 0 4.5 1.5t5.5 3.5q2 1 8 7l10 10q17 22 42 23.5t44 -18.5q20 -18 20.5 -45.5t-16.5 -50.5q-1 -1 -3 -2.5t-4 -4.5l-1 -1l-14 -10.5t-14 -9.5q-7 -5 -15 -9l-16 -8q-9 -3 -17.5 -5.5t-18.5 -2.5q-10 -1 -18.5 -0.5t-17.5 2.5q-19 3 -32 10q-7 2 -13.5 5.5t-13.5 7.5
q-12 7 -23 13.5t-20 13.5q-5 4 -9.5 6t-8.5 6q-5 2 -8 4.5t-7 4.5q-4 0 -6 4q-4 0 -5 1h-10q-5 0 -11 -5q-7 -2 -12 -9q-6 -4 -12 -13q-1 -1 -1.5 -3.5t-2.5 -4.5l-2 -2l-1 -1l-1 -3v-1h-1q-7 -14 -19.5 -20t-25.5 2q-12 5 -17 19t1 29v3z" />
    <glyph glyph-name="asciitilde" unicode="~" horiz-adv-x="443" 
d="M25 284v3l2 1v2q2 2 2 3.5t1 3.5q2 3 6 11q6 10 15 21q4 5 9.5 9.5t11.5 9.5q10 9 27 15q15 6 32 6q5 0 9 -0.5t7 -0.5q8 -1 15 -4q8 -2 13.5 -3.5t11.5 -3.5q5 -3 10.5 -5t10.5 -4q10 -5 18.5 -8.5t17.5 -5.5q10 -4 14 -4q5 -1 13 -1q6 0 8 1q3 0 4.5 1l4.5 3q4 2 7 6
q7 4 9 8q16 17 38.5 18.5t39.5 -14.5q17 -15 18 -37.5t-15 -40.5l-6 -6l-1 -1q-7 -5 -12.5 -8.5t-12.5 -7.5q-6 -5 -13 -8t-15 -6l-16 -4t-16 -2q-19 -2 -33 1q-8 2 -15 3.5t-14 4.5q-6 2 -12 5l-12 6q-21 10 -39 22q-4 3 -8 5t-8 5l-7 3.5t-6 3.5q-3 0 -6 3q-3 0 -4 1h-9
q-5 0 -10 -4q-6 -2 -11 -7q-5 -3 -11 -11q-1 -1 -1.5 -2.5t-1.5 -3.5l-2 -2l-1 -1l-1 -2v-1h-1q-6 -11 -17.5 -16t-22.5 1q-11 5 -15.5 16t0.5 23z" />
    <glyph glyph-name="asciicircum" unicode="^" horiz-adv-x="436" 
d="M42 746l165 131q10 6 21.5 4t19.5 -10q5 -7 6 -15.5t-3 -14.5l-97 -186q-15 -27 -44 -36.5t-56 4.5q-14 7 -23 18.5t-13.5 25.5t-3.5 28.5t8 27.5q5 7 10 13t10 10zM289 653l-90 190q-4 11 0.5 22.5t14.5 16.5q8 4 16.5 2.5t13.5 -6.5l159 -136q23 -21 26 -51.5
t-17 -53.5q-10 -12 -23.5 -18t-28 -7t-28.5 3t-25 14q-12 12 -18 24z" />
    <glyph glyph-name="slash" unicode="/" horiz-adv-x="691" 
d="M687 631l-391 -656q-19 -32 -48 -53t-63 -29.5t-69.5 -4t-67.5 23.5t-53 47.5t-30 62.5t-4.5 69.5t23.5 68.5q13 22 30 37l539 539q26 26 61 25.5t61 -26.5q20 -22 23 -51t-11 -53z" />
    <glyph glyph-name="fraction" unicode="&#x2044;" horiz-adv-x="500" 
d="M617 621l-391 -656q-19 -32 -48 -53t-63 -29.5t-69.5 -4t-67.5 23.5t-53 47.5t-30 62.5t-4.5 69.5t23.5 68.5q13 22 30 37l539 539q26 26 61 25.5t61 -26.5q20 -22 23 -51t-11 -53z" />
    <glyph glyph-name="fraction" unicode="&#x2215;" horiz-adv-x="500" 
d="M617 621l-391 -656q-19 -32 -48 -53t-63 -29.5t-69.5 -4t-67.5 23.5t-53 47.5t-30 62.5t-4.5 69.5t23.5 68.5q13 22 30 37l539 539q26 26 61 25.5t61 -26.5q20 -22 23 -51t-11 -53z" />
    <glyph glyph-name="onequarter" unicode="&#xbc;" horiz-adv-x="874" 
d="M250.467 686.988l32.9736 -445.306q1.90234 -23.4697 -5.70703 -45.0381q-7.60938 -21.5674 -21.876 -38.0596q-14.2676 -16.4932 -34.5586 -26.96t-43.752 -12.3691q-24.0957 -1.90332 -45.3379 5.3916t-38.0459 21.8848t-27.2666 34.5713
q-10.4619 19.9814 -12.3643 44.0869q-1.26855 15.8584 1.90234 30.4482l86.2363 437.693q1.90234 11.418 8.24316 20.2988q6.3418 8.88086 14.9014 14.5898q8.56055 5.70898 19.0234 7.92871q10.4619 2.2207 21.876 0.317383q18.3887 -3.80566 30.4365 -17.7617
q12.0479 -13.9551 13.3154 -31.7168zM17.1201 609.6l138.233 111.644q12.0469 9.51465 27.2656 8.24609t25.3633 -13.3213q7.60938 -8.88086 8.24414 -20.2988q0.633789 -11.418 -5.07324 -20.9336l-91.3096 -150.338q-7.60938 -11.418 -18.3887 -19.3467
q-10.7793 -7.92969 -23.7783 -11.1016t-26.3154 -1.58594q-13.3154 1.58594 -25.3633 8.56348q-12.0479 6.97852 -19.9746 17.7617q-7.92578 10.7842 -11.4131 23.1533q-3.4873 12.3701 -1.58496 25.374t8.87695 25.0557q3.16992 5.0752 6.97461 9.19824t8.24316 7.92969z
M739 631l-391 -656q-19 -32 -48 -53t-63 -29.5t-69.5 -4t-67.5 23.5t-53 47.5t-30 62.5t-4.5 69.5t23.5 68.5q13 22 30 37l539 539q26 26 61 25.5t61 -26.5q20 -22 23 -51t-11 -53zM636.425 398.364l32.9951 -445.306q1.9043 -23.4697 -5.71094 -45.0381
q-7.61328 -21.5674 -21.8906 -38.0596q-14.2764 -16.4932 -34.5811 -26.96q-20.3047 -10.4658 -43.7822 -12.3691q-24.1113 -1.90332 -45.3682 5.3916t-38.0713 21.8848t-27.2842 34.5713t-12.374 44.0869q-1.26855 15.8584 1.9043 30.4482l86.2949 437.693
q1.90332 11.418 8.24805 20.2988q6.3457 8.88086 14.9121 14.5898q8.56543 5.70898 19.0352 7.92871q10.4697 2.2207 21.8906 0.317383q18.4014 -3.80566 30.457 -17.7617q12.0566 -13.9551 13.3252 -31.7168zM258.885 170.003l281.728 260.078
q13.3252 12.6875 31.0918 11.7354q17.7666 -0.951172 30.457 -14.2725q10.7861 -12.0527 11.7383 -27.5938t-8.56543 -28.2275l-227.159 -308.289q-10.1523 -13.3213 -23.7949 -21.25q-13.6416 -7.92969 -28.8701 -10.4668t-30.7744 1.26855
q-15.5459 3.80664 -28.8711 13.3213q-13.3252 10.1494 -21.2559 23.7881q-7.93164 13.6377 -10.4697 28.8623q-2.53809 15.2236 1.26855 30.7656q3.80762 15.541 13.3252 28.8623q2.53809 3.1709 5.07617 6.02539t5.07617 5.39258zM317.261 187.13l389.597 -36.1572
q18.4004 -1.90332 29.8223 -15.541q11.4209 -13.6387 9.51758 -32.0342q-1.26953 -16.4932 -12.6904 -27.5938q-11.4209 -11.1016 -26.6494 -12.3701l-389.597 -35.5225q-16.4971 -1.90332 -31.7256 3.17188q-15.2285 5.07422 -26.9678 14.9062
q-11.7383 9.83301 -19.3525 23.7881t-9.51758 30.4482q-1.26953 16.4932 3.48926 31.3994q4.75879 14.9072 14.9111 26.96q10.1523 12.0518 24.1123 19.6641q13.959 7.6123 30.457 8.88086q6.97949 1.26855 14.5938 0z" />
    <glyph glyph-name="onehalf" unicode="&#xbd;" horiz-adv-x="907" 
d="M207.22 587.432l28.4307 -383.606q1.64062 -20.2188 -4.9209 -38.7979q-6.56055 -18.5791 -18.8623 -32.7871q-12.3027 -14.207 -29.7988 -23.2236t-37.7256 -10.6562q-20.7764 -1.63867 -39.0928 4.64551q-18.3164 6.2832 -32.8057 18.8516
q-14.4883 12.5684 -23.5098 29.7822q-9.02148 17.2129 -10.6621 37.9775q-1.09277 13.6611 1.64062 26.2295l74.3584 377.049q1.64062 9.83594 7.10742 17.4863q5.46777 7.65039 12.8486 12.5684q7.38184 4.91797 16.4033 6.83105q9.02148 1.91211 18.8623 0.273438
q15.8564 -3.2793 26.2441 -15.3008q10.3887 -12.0225 11.4824 -27.3223zM6.01465 520.765l119.191 96.1748q10.3887 8.19727 23.5107 7.10352q13.1221 -1.09277 21.8701 -11.4746q6.56152 -7.65039 7.10742 -17.4863q0.546875 -9.83691 -4.37402 -18.0332l-78.7324 -129.508
q-6.56055 -9.83594 -15.8555 -16.667t-20.5029 -9.5625q-11.209 -2.73242 -22.6904 -1.36621q-11.4824 1.36621 -21.8701 7.37695q-10.3887 6.01074 -17.2227 15.3008q-6.83496 9.28906 -9.8418 19.9453q-3.00684 10.6553 -1.36719 21.8574q1.64062 11.2021 7.65527 21.585
q2.7334 4.37109 6.01367 7.92383q3.28125 3.55176 7.1084 6.83008zM731 631l-391 -656q-19 -32 -48 -53t-63 -29.5t-69.5 -4t-67.5 23.5t-53 47.5t-30 62.5t-4.5 69.5t23.5 68.5q13 22 30 37l539 539q26 26 61 25.5t61 -26.5q20 -22 23 -51t-11 -53zM286.061 281.16
l0.612305 4.28711q0 1.22559 0.306641 1.83789q0.305664 0.613281 0.305664 1.83789q1.22559 4.90039 1.22559 7.35059q1.22461 3.6748 1.83691 7.04395q0.613281 3.36914 1.83789 7.04492q1.83789 7.35059 4.28809 14.3945q2.4502 7.04492 5.5127 13.7822
q3.0625 6.73828 6.43164 13.1699t7.04492 13.1699q6.73828 12.8633 17.7637 25.7275q9.18848 12.25 21.4395 23.2764q12.8633 11.6387 26.3398 20.2139q6.7373 4.90039 14.0879 8.57617q7.35059 3.6748 14.7012 6.73828q15.3145 6.125 31.2402 11.0254
q7.96289 1.83789 15.9258 3.36914q7.96387 1.53125 15.9268 2.75586q4.28809 0.613281 8.26953 0.613281t7.65723 0.612305q4.28711 0 8.26855 0.306641q3.98145 0.305664 8.26953 0.305664q8.57617 0 17.1514 -0.918945q8.57617 -0.918945 17.7637 -2.14355
q8.57617 -1.83789 18.0703 -4.59375q9.49512 -2.75684 19.2959 -7.04492q4.90039 -2.4502 9.49414 -4.59375q4.59473 -2.14453 9.49512 -5.20703t9.1875 -6.43164q4.28809 -3.36914 8.57617 -7.04395q4.28711 -4.28809 8.26953 -8.26953q3.98145 -3.98145 7.65625 -8.88184
q3.67578 -4.90039 7.04492 -9.49512q3.36914 -4.59375 6.43164 -9.49414t5.20605 -10.1074q2.14453 -5.20605 4.59473 -10.1064q1.83789 -4.90039 3.36914 -10.4141q1.53125 -5.5127 2.75586 -10.4131q5.51367 -20.2139 5.51367 -38.5908
q0.612305 -9.80078 0.612305 -18.6826t-1.22559 -17.457q-1.22461 -8.57617 -2.14355 -16.5391t-2.75684 -15.9268q-3.0625 -15.9258 -7.04395 -30.627t-8.88184 -28.79t-10.4141 -27.5645q-5.5127 -13.4756 -11.6377 -26.9521q-3.06348 -6.73828 -5.81934 -12.8633
q-2.75684 -6.12598 -5.81934 -12.8633q-3.0625 -6.12598 -6.43164 -12.252q-3.36914 -6.125 -6.43164 -12.25q-6.73828 -12.252 -13.4766 -24.1963q-6.7373 -11.9443 -13.4756 -24.1953q-7.35059 -12.251 -14.3955 -23.583q-7.04395 -11.332 -14.3945 -22.9707
q-28.79 -44.1035 -61.8672 -87.5947v-1.22559q-12.8643 -17.1504 -30.9336 -27.5645q-18.0703 -10.4131 -37.9785 -13.1699q-19.9072 -2.75586 -40.4277 1.83789t-37.6719 17.458q-17.7646 12.8633 -28.1777 30.9336t-13.1699 37.9775q-2.75586 19.9082 1.83789 40.1221
q4.59473 20.2139 17.458 37.9785q3.0625 3.0625 5.5127 6.125q2.4502 3.06348 5.5127 5.5127q17.1514 17.1523 33.6904 34.3027q16.5391 17.1523 32.4648 34.916q8.57617 8.5752 16.2324 17.457q7.65723 8.88281 15.0078 18.0703q7.96289 8.57617 15.3135 17.7637
q7.35059 9.18848 14.0889 17.7646q3.0625 4.90039 6.73828 9.18848q3.6748 4.28711 6.7373 9.1875l12.8643 18.377q6.7373 9.1875 12.5566 18.376t10.7197 18.377q7.35059 11.0254 11.6387 26.6455t3.0625 30.9336q-1.22461 15.3145 -8.26953 28.1777
q-7.04395 12.8633 -21.1328 18.6826q-14.0879 5.81934 -36.4463 2.14355q-22.3584 -3.6748 -53.5986 -22.0518q-9.1875 -7.35059 -14.7012 -13.4756q-3.6748 -3.67578 -7.04395 -7.65723t-6.43164 -8.26953q-3.0625 -4.90039 -6.12598 -9.18848
q-3.0625 -4.28711 -6.125 -9.1875q-1.22461 -2.4502 -2.4502 -4.59473q-1.22559 -2.14355 -2.4502 -4.59375q-0.612305 -1.22559 -1.22461 -2.4502q-0.613281 -1.22461 -1.22559 -2.4502l-1.22559 -2.4502v-0.612305l-0.612305 -0.612305v-0.613281l-0.612305 -1.22461
q-4.28809 -11.6387 -15.3135 -16.8457q-11.0264 -5.20605 -22.665 -0.917969q-10.4131 3.6748 -15.3135 12.8633q-4.90039 9.1875 -3.6748 19.6016zM401.832 47.7793l330.164 -6.73828q17.7637 -0.613281 30.0146 -13.4766t12.251 -30.627
q-0.612305 -14.0889 -9.18848 -24.8086q-8.5752 -10.7197 -20.8262 -15.0078l-315.463 -98.0078q-18.9893 -6.125 -37.9775 -3.98145q-18.9893 2.14453 -35.5283 10.7197q-16.5391 8.57617 -29.0957 22.9707q-12.5576 14.3945 -18.6826 33.3838
q-6.12598 18.9893 -3.98242 38.2842q2.14453 19.2959 10.7197 35.834q8.57617 16.5391 23.2773 28.79t33.6904 18.377q7.34961 2.4502 15.3135 3.6748q7.96289 1.22559 15.3135 0.613281z" />
    <glyph glyph-name="threequarters" unicode="&#xbe;" horiz-adv-x="956" 
d="M78.6348 576.432l0.574219 2.29883l1.14746 2.29883q0 1.14844 1.14746 3.44727q2.29688 4.59766 2.87012 6.89648q1.72168 4.02344 3.44434 7.18457q1.72168 3.16113 3.44336 6.6084q6.8877 13.793 17.2197 25.8623q4.5918 6.32129 10.3311 12.0693
q5.74023 5.74609 12.0537 10.9189t13.2012 9.77051t14.9238 8.62012q8.03516 4.02246 16.3584 6.60938q8.32227 2.58594 16.3574 4.30957q8.61035 1.15039 17.2197 2.01172q8.60938 0.862305 17.2197 0.287109q8.03516 -0.574219 16.0703 -1.72363
q8.03613 -1.14941 16.0723 -2.87402q4.01758 -1.14844 7.74805 -2.01074t7.74902 -2.01172q7.46191 -1.72363 14.9229 -5.17285q16.0713 -5.17188 30.9951 -16.0918l8.03516 -5.74609q4.01855 -2.87402 7.46191 -6.89648q4.01758 -3.44922 7.46191 -7.75879
q3.44336 -4.31055 6.8877 -8.9082q5.73926 -8.0459 10.3311 -20.1143q4.5918 -12.6445 6.31348 -22.4141q1.14844 -5.74707 1.14844 -10.9199v-10.3438q-0.574219 -5.74805 -0.861328 -10.6328t-1.43457 -9.48242t-4.30469 -12.3564t-7.46191 -16.0918t-8.03516 -15.5166
q-3.73145 -7.18359 -5.45312 -11.207q14.3496 -14.9424 25.2549 -27.2988q10.9053 -12.3555 22.3848 -30.7461q11.4795 -19.541 18.3672 -40.2305q7.46191 -20.1143 10.9053 -43.6777q1.14844 -11.4941 2.00977 -22.9883q0.860352 -11.4941 -0.287109 -23.5625
q-1.14844 -11.4941 -3.15723 -23.8506t-6.02637 -24.4248t-10.332 -24.7129q-5.73926 -12.0684 -14.9229 -24.1367q-9.18359 -12.6445 -19.5156 -22.4141q-5.73926 -5.17188 -11.7666 -9.76953q-6.02637 -4.59766 -12.9141 -8.62109q-13.2012 -8.62109 -27.5508 -13.793
q-7.46191 -2.87305 -14.3496 -4.88477t-14.3496 -3.16113q-3.44336 -0.575195 -6.88672 -0.862305q-3.44434 -0.287109 -7.46191 -0.861328q-1.72168 0 -3.44434 -0.288086q-1.72168 -0.287109 -3.44336 -0.287109h-3.44434h-1.72168l-0.574219 -0.575195h-0.574219
h-0.573242h-0.574219h-1.14746h-2.87012h-5.16602h-10.3311q-10.332 0 -20.9502 0.862305q-10.6191 0.862305 -21.5244 2.01172q-22.3848 3.44824 -44.7695 10.3447q-22.3857 6.89648 -44.7705 18.9648q-22.3848 12.6445 -41.9004 30.46q-5.16504 4.59766 -10.0439 9.48242
q-4.87891 4.88574 -9.4707 10.6318q-4.5918 4.59766 -9.18359 12.0693q-2.87012 2.87402 -4.5918 6.89648q-1.14844 1.14941 -1.43555 2.01172t-1.43457 2.01074q-0.574219 1.15039 -0.574219 1.4375t-0.573242 1.43652l-1.14844 1.14941l-0.574219 1.14941
l-0.574219 1.14941l-0.573242 1.14941q-8.03613 16.667 -8.32324 34.4824t5.74023 33.9072q6.02637 16.0918 18.0801 29.3105t28.6992 21.2637q16.6445 7.47168 34.4375 8.04688q17.7939 0.574219 33.8652 -5.45996t29.2725 -18.1035t21.2373 -28.7354l-0.574219 1.14941
q-1.14844 2.29883 -2.2959 3.44824h-0.574219q2.87012 -8.0459 10.0449 -14.0801q7.1748 -6.03516 14.6357 -8.9082q4.01855 -2.29883 8.61035 -4.02344l9.18359 -3.44727q5.16504 -1.15039 10.3311 -2.29883q5.16602 -1.15039 10.9062 -2.29883
q10.9053 -0.575195 18.9404 4.30957q8.03613 4.88574 12.915 11.4941q4.87891 6.60938 6.60059 13.2188q1.72168 6.6084 0.573242 9.48242q0 9.77051 -1.72168 19.54q-4.01758 20.6895 -14.9229 37.3555q-2.87012 4.02344 -8.03613 10.9199
q-5.16504 6.89648 -12.0537 14.3672q-6.88672 7.47168 -14.6357 14.6553q-7.74902 7.18457 -15.7842 11.7822l-8.03613 19.5391q21.2373 8.04688 34.1514 27.0117q12.915 18.9648 16.9326 40.5166t-0.861328 41.3789q-4.87793 19.8271 -19.2275 29.5977t-38.457 5.45996
q-24.1064 -4.31055 -57.9707 -30.7471q-1.72266 -2.29883 -3.15723 -4.31055q-1.43457 -2.01074 -2.58301 -4.30957q-1.14746 -1.15039 -1.43457 -2.29883q-0.287109 -1.15039 -1.43457 -2.29883q0 -0.575195 -1.14844 -1.72461v-1.14941l-0.574219 -0.575195
l-7.46094 -8.04492q-8.03613 -8.62109 -19.2285 -9.19531q-11.1924 -0.575195 -19.8027 7.4707q-6.31348 5.74707 -8.32227 13.793t0.861328 15.5176zM841 631l-391 -656q-19 -32 -48 -53t-63 -29.5t-69.5 -4t-67.5 23.5t-53 47.5t-30 62.5t-4.5 69.5t23.5 68.5q13 22 30 37
l539 539q26 26 61 25.5t61 -26.5q20 -22 23 -51t-11 -53zM716.574 403.852l33.998 -459.487q1.96094 -24.2178 -5.88477 -46.4727t-22.5557 -39.2725q-14.7109 -17.0176 -35.6328 -27.8184q-20.9219 -10.7998 -45.1123 -12.7637q-24.8457 -1.96289 -46.748 5.56445
t-39.2285 22.5811q-17.3262 15.0547 -28.1133 35.6729q-10.7881 20.6182 -12.75 45.4902q-1.30664 16.3633 1.96191 31.418l88.918 451.634q1.96191 11.7812 8.49902 20.9453q6.53906 9.16309 15.3652 15.0537q8.82617 5.8916 19.6143 8.18262
q10.7881 2.29004 22.5557 0.327148q18.9609 -3.92773 31.3828 -18.3271q12.4229 -14.4004 13.7305 -32.7275zM327.559 168.217l290.291 268.362q13.7295 13.0908 32.0361 12.1084q18.3066 -0.981445 31.3828 -14.7266q11.1143 -12.4365 12.0957 -28.4727
q0.980469 -16.0361 -8.82715 -29.127l-234.062 -318.107q-10.4609 -13.7451 -24.5186 -21.9268q-14.0566 -8.18164 -29.748 -10.7998t-31.71 1.30859q-16.0176 3.92773 -29.748 13.7461q-13.7305 10.4727 -21.9023 24.5449q-8.17285 14.0723 -10.7881 29.7812
t1.30762 31.7451t13.7305 29.7822q2.61523 3.27246 5.23047 6.21777t5.23047 5.56348zM387.709 185.89l401.438 -37.3086q18.9609 -1.96387 30.7295 -16.0361q11.7686 -14.0732 9.80762 -33.0547q-1.30859 -17.0176 -13.0762 -28.4727q-11.7695 -11.4541 -27.4609 -12.7637
l-401.438 -36.6543q-17 -1.96289 -32.6914 3.27344t-27.7861 15.3809q-12.0957 10.1455 -19.9414 24.5459q-7.8457 14.3994 -9.80762 31.418q-1.30664 17.0176 3.59668 32.3994t15.3643 27.8184q10.4609 12.4355 24.8447 20.291q14.3838 7.85352 31.3828 9.16309
q7.19238 1.30957 15.0381 0z" />
    <glyph glyph-name="hungarumlaut" unicode="&#x2dd;" horiz-adv-x="518" 
d="M252 730l-199 -67q-11 -3 -22 2.5t-15 16.5q-2 8 0 16.5t8 13.5l154 142q11 10 25 15t28 4t27.5 -7t23.5 -17t15 -25t4.5 -28t-6 -27.5t-16.5 -23.5q-7 -5 -13.5 -9t-13.5 -6zM490 730l-199 -67q-11 -3 -22 2.5t-15 16.5q-2 8 0 16.5t8 13.5l154 142q11 10 25 15t28 4
t27.5 -7t23.5 -17t15 -25t4.5 -28t-6 -27.5t-16.5 -23.5q-7 -5 -13.5 -9t-13.5 -6z" />
    <glyph glyph-name="ogonek" unicode="&#x2db;" horiz-adv-x="200" 
d="M178 -58q3 -6 4 -14t1 -16q-2 -14 -10.5 -26.5t-21.5 -21t-29 -13t-34 -2.5q-2 1 -5.5 1t-5.5 1l-12 -11q8 -7 18 -12.5t19 -7.5q20 3 40.5 7.5t41.5 5.5q37 1 58 -14t24 -35.5t-13 -40t-52 -26.5h-13q-36 -7 -63 -10t-50.5 1t-47 15t-51.5 32q-11 8 -23 16t-20 19
q-17 23 -15 47.5t15.5 47t36.5 41t49 30.5l24 177q0 16 22 23q11 2 24 -3t18 -15z" />
    <glyph glyph-name="fi" unicode="&#xfb01;" horiz-adv-x="688" 
d="M617 461l89 -504q6 -34 -3 -65.5t-29 -57.5t-50 -43.5t-67 -23.5t-71.5 2t-62.5 26.5t-47 46.5t-25 62q-2 14 -2 27.5t2 25.5l89 504q6 34 35.5 53.5t67.5 14.5q29 -4 49.5 -23.5t24.5 -44.5zM-15 -3l36 258l18 129l2 16l1 8l1 4v2v1v1v-6v1v1v1v1l1 3v6q0 2 0.5 5t0.5 5
q1 5 1.5 10t1.5 10q3 20 6.5 38.5t8.5 38.5q5 19 11 38t13 38q15 39 37 77q6 9 12 18.5t14 18.5q14 21 31 36q9 9 18.5 16.5t20.5 15.5t22 14t22 11q12 5 24 8.5t25 5.5q12 3 24 4t23 1h12t11 -1h6h1h1l1 -1h1h1h3h2q2 -1 6 -1q11 -2 22 -4.5t22 -5.5q11 -4 21.5 -8.5
t21.5 -10.5q23 -13 39 -29q19 -18 31 -38q4 -5 6.5 -10.5t5.5 -11.5q1 -2 2 -5l2 -6q2 -6 2 -7q1 -1 1 -4l2 -5q6 -23 -5 -43t-34 -26t-43 5t-26 34v-1v-1l-1 1l-3 3q-2 2 -3 2.5t-3 2.5q-7 5 -14 8q-16 6 -33 5h-10.5t-10.5 -2h-2h-2l-1 -1h-1h-1h-1l-2 -1q-3 -1 -5.5 -1
t-4.5 -2q-10 -3 -15 -7q-4 -2 -6.5 -4.5t-5.5 -4.5q-6 -8 -8 -12l-4 -6t-4 -7q-3 -8 -6 -16.5t-5 -19.5q-2 -10 -3.5 -21.5t-3.5 -23.5q-1 -24 0 -50q0 -13 1 -25.5t3 -25.5q1 -3 1 -6.5t1 -6.5q1 -2 1 -5q0 -1 0.5 -1.5t0.5 -1.5v-1h1v-6v-1v-1v-2l1 -4l1 -8l2 -16l18 -129
l36 -258q6 -41 -5 -79.5t-34 -69t-57.5 -51t-75.5 -26.5t-79.5 4.5t-69 34t-51 57.5t-26.5 75q-3 27 0 55zM92 290l362 203q20 11 43 4.5t35 -26.5q8 -15 7 -32t-11 -30l-247 -333q-18 -24 -43 -39t-52.5 -19t-56 2.5t-52.5 24.5t-39 43t-19 53t2.5 56t24.5 52q19 25 46 41z
" />
    <glyph glyph-name="fl" unicode="&#xfb02;" horiz-adv-x="870" 
d="M-15 -3l36 258l18 129l2 16l1 8l1 4v2v1v1v-6v1v1v1v1l1 3v6q0 2 0.5 5t0.5 5q1 5 1.5 10t1.5 10q3 20 6.5 38.5t8.5 38.5q5 19 11 38t13 38q15 39 37 77q6 9 12 18.5t14 18.5q14 21 31 36q9 9 18.5 16.5t20.5 15.5t22 14t22 11q12 5 24 8.5t25 5.5q12 3 24 4t23 1h12
t11 -1h6h1h1l1 -1h1h1h3h2q2 -1 6 -1q11 -2 22 -4.5t22 -5.5q11 -4 21.5 -8.5t21.5 -10.5q23 -13 39 -29q19 -18 31 -38q4 -5 6.5 -10.5t5.5 -11.5q1 -2 2 -5l2 -6q2 -6 2 -7q1 -1 1 -4l2 -5q6 -23 -5 -43t-34 -26t-43 5t-26 34v-1v-1l-1 1l-3 3q-2 2 -3 2.5t-3 2.5
q-7 5 -14 8q-16 6 -33 5h-10.5t-10.5 -2h-2h-2l-1 -1h-1h-1h-1l-2 -1q-3 -1 -5.5 -1t-4.5 -2q-10 -3 -15 -7q-4 -2 -6.5 -4.5t-5.5 -4.5q-6 -8 -8 -12l-4 -6t-4 -7q-3 -8 -6 -16.5t-5 -19.5q-2 -10 -3.5 -21.5t-3.5 -23.5q-1 -24 0 -50q0 -13 1 -25.5t3 -25.5q1 -3 1 -6.5
t1 -6.5q1 -2 1 -5q0 -1 0.5 -1.5t0.5 -1.5v-1h1v-6v-1v-1v-2l1 -4l1 -8l2 -16l18 -129l36 -258q6 -41 -5 -79.5t-34 -69t-57.5 -51t-75.5 -26.5t-79.5 4.5t-69 34t-51 57.5t-26.5 75q-3 27 0 55zM92 290l362 203q20 11 43 4.5t35 -26.5q8 -15 7 -32t-11 -30l-247 -333
q-18 -24 -43 -39t-52.5 -19t-56 2.5t-52.5 24.5t-39 43t-19 53t2.5 56t24.5 52q19 25 46 41zM811 737l39 -705q2 -45 -12.5 -85t-42.5 -71t-66 -50t-83 -22q-45 -2 -85 12.5t-71 42.5t-50 66t-22 83q-2 32 6 62l162 687q6 23 19.5 41t32 29.5t41 15.5t45.5 -1
q38 -9 61.5 -38.5t25.5 -66.5z" />
    <glyph glyph-name="Lslash" unicode="&#x141;" horiz-adv-x="720" 
d="M309 781l52 -702q3 -37 -9 -71t-34.5 -60t-54.5 -42.5t-69 -19.5q-38 -3 -71.5 8.5t-60 34.5t-43 54.5t-19.5 69.5q-2 25 3 48l136 690q3 18 13 32t23.5 23t30 12.5t34.5 0.5q29 -6 48 -28t21 -50zM202 244l475 1q31 0 52.5 -21.5t21.5 -53.5q0 -22 -11.5 -40t-30.5 -27
l-429 -203q-34 -16 -69.5 -17.5t-68.5 10t-60 35.5t-43 58t-17.5 69.5t10.5 68.5t35.5 60t57.5 43q39 17 77 17zM74 513l417 61q22 4 42.5 -0.5t37.5 -15.5t29 -28.5t17 -39.5q4 -22 0 -42.5t-15.5 -37.5t-29 -29.5t-39.5 -16.5q-2 0 -4 -0.5t-4 -0.5l-421 -36
q-20 -3 -38 2.5t-32 16.5t-23.5 27t-11.5 36q-5 38 17 67.5t58 36.5z" />
    <glyph glyph-name="lslash" unicode="&#x142;" horiz-adv-x="466" 
d="M402 776l39 -705q2 -45 -12.5 -85t-42.5 -71t-66 -50t-83 -22q-45 -2 -85 12.5t-71 42.5t-50 66t-22 83q-2 32 6 62l162 687q6 23 19.5 41t32 29.5t41 15.5t45.5 -1q38 -9 61.5 -38.5t25.5 -66.5zM-3 441l417 61q22 4 42.5 -0.5t37.5 -15.5t29 -28.5t17 -39.5
q4 -22 0 -42.5t-15.5 -37.5t-29 -29.5t-39.5 -16.5q-2 0 -4 -0.5t-4 -0.5l-421 -36q-20 -3 -38 2.5t-32 16.5t-23.5 27t-11.5 36q-5 38 17 67.5t58 36.5z" />
    <glyph glyph-name="equal" unicode="=" horiz-adv-x="466" 
d="M84 304l250 26q36 3 64.5 -16t33.5 -50q5 -32 -16.5 -56t-57.5 -27q-2 0 -3.5 -0.5t-3.5 -0.5l-251 -7q-16 -1 -30.5 3.5t-25.5 13t-18 20.5t-8 26q-2 26 17.5 46t48.5 22zM71 454l247 43q36 6 66 -11t37 -48q8 -31 -12.5 -56.5t-55.5 -31.5q-2 0 -3.5 -0.5t-3.5 -0.5
l-250 -25q-32 -4 -57 13t-29 44q-4 26 14 47t47 26z" />
    <glyph glyph-name="numbersign" unicode="#" horiz-adv-x="506" 
d="M474 295q33 -2 49.5 -19t17.5 -38t-15 -39.5t-48 -22.5q-19 -1 -37 -2t-37 -3q-1 -29 -2 -57t-2 -57v-2h-1q-4 -27 -19 -42t-34 -17t-37 9.5t-28 37.5q0 4 -0.5 7t-0.5 7v12l3 87q-14 -2 -27 -3t-26 -3q-8 -1 -16 -1.5t-16 -0.5v-4q-4 -31 -22 -46.5t-38.5 -16t-38 14.5
t-21.5 44q-16 -2 -31.5 -6t-29.5 -10q-29 -3 -48 7.5t-25.5 28.5t0.5 38.5t30 37.5q26 11 53 16t56 8q1 13 1.5 25.5t2.5 25.5q-26 -2 -52.5 -4t-52.5 -3q-28 6 -42 22.5t-15 35t12.5 36t40.5 25.5q58 1 117 9q1 14 1 28t1 28q8 28 26 41t37 12t35 -15.5t22 -42.5
q-1 -9 -1 -18v-17q18 2 36 4.5t37 4.5v81q8 28 26 41t37 12t35 -15.5t22 -42.5v-64q11 1 22.5 1.5t23.5 1.5q33 -2 49.5 -19t17.5 -38t-15 -39.5t-48 -22.5l-51 -3v-30t-1 -30q17 2 33.5 3t33.5 2zM208 326q-2 -15 -2.5 -29.5t-1.5 -28.5q5 0 10.5 0.5t11.5 1.5q15 2 30.5 3
t30.5 3v30.5t1 30.5q-20 -2 -40 -5z" />
    <glyph glyph-name="plus" unicode="+" horiz-adv-x="474" 
d="M23 218q-28 6 -42 22.5t-15 35t12.5 36t40.5 25.5h139q1 30 -1 53t-8 32q-11 27 -5 48t22 32t38 9.5t43 -20.5q14 -17 19 -34t7 -40q2 -15 2.5 -39t0.5 -41h108q33 -2 49.5 -19t17.5 -38t-15 -39.5t-48 -22.5h-116q0 -8 -0.5 -15.5t-0.5 -15.5q0 -18 0.5 -37.5t-3 -36.5
t-13.5 -31.5t-32 -21.5q-22 -3 -38.5 3.5t-26.5 17.5t-12 26.5t5 30.5q-2 14 -1.5 35t2.5 45h-129v0z" />
    <glyph glyph-name="comma" unicode="," horiz-adv-x="191" 
d="M158 65l-89 -190q-6 -11 -17 -15t-22 1q-8 4 -13 11t-4 15l4 209q1 31 22.5 52.5t52.5 21.5q31 -1 52.5 -23t20.5 -52q-1 -8 -3 -16t-4 -14z" />
    <glyph glyph-name="asterisk" unicode="*" horiz-adv-x="344" 
d="M300 434q19 -21 18.5 -43.5t-13 -37.5t-35.5 -18.5t-49 12.5q-9 7 -15.5 15.5t-14.5 16.5q-11 10 -26 21.5t-29 24.5q-6 -7 -11 -14.5t-8 -16.5q-15 -29 -37.5 -37.5t-42 -0.5t-30 29.5t-1.5 52.5q7 20 23 43q-12 5 -20.5 8t-8.5 4q-26 3 -40.5 18.5t-16 35t11 38
t41.5 26.5q21 4 48 -2.5t53 -17.5q1 14 3.5 27.5t7.5 27.5q17 23 38 29.5t38.5 0t28 -25.5t6.5 -48q-2 -4 -2 -9v-2q17 3 34 4.5t32 2.5q33 -2 49.5 -19t17.5 -38t-15 -39.5t-48 -22.5q-8 0 -14 -0.5t-14 -1.5q5 -4 9 -7t8 -7q6 -5 11 -12t11 -13q-1 0 -3 2q1 -3 4 -4
q-1 0 -1 2q1 -1 3.5 -3t0.5 -1h-2zM27 495h-4h4zM6 493h-2h4h-2z" />
    <glyph glyph-name="colon.001" 
 />
    <glyph glyph-name="colon" unicode=":" horiz-adv-x="222" 
d="M0 83q0 21 7.5 39t21 32t31.5 22t39 8t39 -8t32 -22t22 -32t8 -39t-8 -39t-22 -31.5t-32 -21t-39 -7.5q-42 0 -70.5 28.5t-28.5 70.5zM0 414q0 20 7.5 38.5t21 32t31.5 21.5t39 8t39 -8t32 -21.5t22 -32t8 -38.5q0 -21 -8 -39.5t-22 -32t-32 -21t-39 -7.5t-39 7.5
t-31.5 21t-21 32t-7.5 39.5z" />
    <glyph glyph-name="semicolon" unicode=";" horiz-adv-x="222" 
d="M0 414q0 20 7.5 38.5t21 32t31.5 21.5t39 8t39 -8t32 -21.5t22 -32t8 -38.5q0 -21 -8 -39.5t-22 -32t-32 -21t-39 -7.5t-39 7.5t-31.5 21t-21 32t-7.5 39.5zM158 65l-89 -190q-6 -11 -17 -15t-22 1q-8 4 -13 11t-4 15l4 209q1 31 22.5 52.5t52.5 21.5q31 -1 52.5 -23
t20.5 -52q-1 -8 -3 -16t-4 -14z" />
    <glyph glyph-name="parenleft" unicode="(" horiz-adv-x="270" 
d="M177 730q25 -1 41 -12t22 -26t2 -32.5t-19 -31.5q-1 -2 -2 -3.5t-3 -5.5q-8 -14 -16.5 -28.5t-16.5 -29.5q-2 -4 -5.5 -10.5t-6.5 -11.5q-2 -4 -3 -8t-3 -9q-3 -12 -6 -24.5t-6 -25.5q-4 -22 -5.5 -45.5t-1.5 -46.5q0 -30 1.5 -58t5.5 -58q1 -11 9.5 -43.5t19.5 -70.5
t23.5 -73.5t23.5 -51.5q17 -14 19 -39t-19 -50l3 3l-8 -8q2 3 5 5q-19 -14 -37.5 -15t-41.5 13q-15 15 -25.5 33.5t-18 38.5t-14 40.5t-13.5 39.5q-42 112 -51 228.5t20 232.5q5 18 17.5 48t30 59t38 51t41.5 25zM240 -56q-4 -4 -6 -5q4 4 6 5z" />
    <glyph glyph-name="parenright" unicode=")" horiz-adv-x="301" 
d="M28 687q15 19 32.5 26.5t33 5t28 -13.5t16.5 -27q3 -2 9 -8q12 -11 16.5 -25.5t8.5 -31.5q13 -48 32.5 -92t30.5 -92q8 -31 10.5 -64t3.5 -65q1 -42 -1.5 -82.5t-4.5 -82.5q-2 -39 -5.5 -68.5t-12.5 -55t-25 -50.5t-43 -55q-14 -17 -31 -35.5t-39 -23.5q-24 -2 -38.5 3.5
t-30.5 23.5q0 2 -2 4q-14 35 -0.5 58.5t36.5 29.5q0 2 2 2q8 10 17 19.5t17 18.5q13 16 20.5 31.5t10.5 32t3.5 33.5t0.5 37q2 65 5.5 129t-8.5 127q-5 25 -13 50t-18 49t-19.5 48.5t-15.5 50.5q-20 18 -30.5 42t4.5 51zM130 686h-1q3 -2 5 -5q-1 2 -2 2.5t-2 2.5z" />
    <glyph glyph-name="ampersand" unicode="&#x26;" horiz-adv-x="731" 
d="M525 596q4 -12 1 -25t-13 -22q-13 -12 -30.5 -11.5t-29.5 14.5l-12 13l-1 1v2l-2 2q-2 2 -2 4t-2 4q-2 3 -4.5 6.5t-4.5 6.5q-53 43 -90 49.5t-57.5 -11t-24 -53t10.5 -77t45 -83t81 -70.5q47 -30 100 -57t105.5 -57.5t100.5 -67t84 -83.5q14 -24 12 -46t-15.5 -35
t-35.5 -15.5t-46 12.5q-21 18 -42 36.5t-42 36.5l-2 -2l-2 -4q-2 -5 -4 -7q-3 -9 -7 -11q-8 -13 -14 -19q-8 -9 -15.5 -17t-15.5 -15q-31 -30 -64 -49q-37 -20 -70 -30q-18 -5 -35.5 -9.5t-34.5 -7.5q-17 -2 -33 -3t-33 -1h-33l-1 1h-8q-2 0 -5 0.5t-5 0.5q-6 1 -12 1.5
t-11 0.5q-11 2 -22 5.5t-23 7.5q-23 9 -43 22q-11 6 -19.5 14t-17.5 16t-16.5 17t-14.5 18q-14 19 -23 38q-5 10 -9 20t-7 20q-13 41 -14 77q-2 20 -1 38t3 36q3 18 7 35t10 35q6 17 13 33t16 31q18 29 35 49t38 43q-3 6 -8.5 17.5t-11.5 25t-11.5 25.5t-6.5 20
q-2 8 -2.5 15.5t-1.5 16.5v16.5t2 17.5t4.5 18t5.5 18q8 20 15 32q11 15 23 26q5 6 11.5 11t12.5 10q23 17 48 25q13 7 23 8q7 2 13 3.5t12 3.5q12 2 24.5 4t25.5 3q14 1 26.5 -0.5t26.5 -3.5q26 -5 51 -17q12 -6 22.5 -13.5t21.5 -15.5q10 -9 18.5 -18t16.5 -19t14.5 -20
t11.5 -21q3 -5 6 -10.5t5 -11.5q1 -3 5 -11q1 -1 1 -6l2 -4zM375 220q-29 14 -56.5 31t-51.5 41q-15 6 -28 16q-2 -3 -3.5 -5.5t-3.5 -4.5q-17 -26 -23 -60q-3 -15 -3 -31q-2 -5 1 -15t10.5 -20.5t20 -18.5t29.5 -8q9 2 17 4l16 4t15 5t12 7z" />
    <glyph glyph-name="percent" unicode="%" horiz-adv-x="780" 
d="M57 604q0 31 11.5 58.5t32 48.5t47.5 33t59 12q31 0 58.5 -12t48.5 -33t33 -48.5t12 -58.5q0 -32 -12 -59t-33 -47.5t-48.5 -32t-58.5 -11.5q-32 0 -59 11.5t-47.5 32t-32 47.5t-11.5 59zM430 109q0 31 11.5 58.5t32 48.5t47.5 33t59 12q31 0 58.5 -12t48.5 -33t33 -48.5
t12 -58.5q0 -32 -12 -59t-33 -47.5t-48.5 -32t-58.5 -11.5q-32 0 -59 11.5t-47.5 32t-32 47.5t-11.5 59zM695 621l-391 -656q-19 -32 -48 -53t-63 -29.5t-69.5 -4t-67.5 23.5t-53 47.5t-30 62.5t-4.5 69.5t23.5 68.5q13 22 30 37l539 539q26 26 61 25.5t61 -26.5
q20 -22 23 -51t-11 -53z" />
    <glyph glyph-name="perthousand" unicode="&#x2030;" horiz-adv-x="921" 
d="M57 604q0 31 11.5 58.5t32 48.5t47.5 33t59 12q31 0 58.5 -12t48.5 -33t33 -48.5t12 -58.5q0 -32 -12 -59t-33 -47.5t-48.5 -32t-58.5 -11.5q-32 0 -59 11.5t-47.5 32t-32 47.5t-11.5 59zM430 109q0 31 11.5 58.5t32 48.5t47.5 33t59 12q31 0 58.5 -12t48.5 -33t33 -48.5
t12 -58.5q0 -32 -12 -59t-33 -47.5t-48.5 -32t-58.5 -11.5q-32 0 -59 11.5t-47.5 32t-32 47.5t-11.5 59zM630 109q0 31 11.5 58.5t32 48.5t47.5 33t59 12q31 0 58.5 -12t48.5 -33t33 -48.5t12 -58.5q0 -32 -12 -59t-33 -47.5t-48.5 -32t-58.5 -11.5q-32 0 -59 11.5t-47.5 32
t-32 47.5t-11.5 59zM695 621l-391 -656q-19 -32 -48 -53t-63 -29.5t-69.5 -4t-67.5 23.5t-53 47.5t-30 62.5t-4.5 69.5t23.5 68.5q13 22 30 37l539 539q26 26 61 25.5t61 -26.5q20 -22 23 -51t-11 -53z" />
    <glyph glyph-name="less" unicode="&#x3c;" horiz-adv-x="373" 
d="M184 57l-130 167q-6 10 -4 21.5t10 19.5q17 12 31 2l184 -98q27 -15 36 -44.5t-5 -55.5q-14 -27 -43.5 -36.5t-56.5 4.5l-12 10t-10 10zM278 304l-190 -88q-11 -4 -22.5 0.5t-16.5 14.5q-4 8 -2.5 16.5t6.5 13.5l137 158q22 23 52 25.5t53 -17.5q12 -10 18 -23.5t7 -28
t-3 -28.5t-14 -25q-12 -12 -25 -18z" />
    <glyph glyph-name="guilsinglleft" unicode="&#x2039;" horiz-adv-x="373" 
d="M184 57l-130 167q-6 10 -4 21.5t10 19.5q17 12 31 2l184 -98q27 -15 36 -44.5t-5 -55.5q-14 -27 -43.5 -36.5t-56.5 4.5l-12 10t-10 10zM278 304l-190 -88q-11 -4 -22.5 0.5t-16.5 14.5q-4 8 -2.5 16.5t6.5 13.5l137 158q22 23 52 25.5t53 -17.5q12 -10 18 -23.5t7 -28
t-3 -28.5t-14 -25q-12 -12 -25 -18z" />
    <glyph glyph-name="guillemotleft" unicode="&#xab;" horiz-adv-x="566" 
d="M184 57l-130 167q-6 10 -4 21.5t10 19.5q17 12 31 2l184 -98q27 -15 36 -44.5t-5 -55.5q-14 -27 -43.5 -36.5t-56.5 4.5l-12 10t-10 10zM278 304l-190 -88q-11 -4 -22.5 0.5t-16.5 14.5q-4 8 -2.5 16.5t6.5 13.5l137 158q22 23 52 25.5t53 -17.5q12 -10 18 -23.5t7 -28
t-3 -28.5t-14 -25q-12 -12 -25 -18zM384 55l-130 167q-6 10 -4 21.5t10 19.5q17 12 31 2l184 -98q27 -15 36 -44.5t-5 -55.5q-14 -27 -43.5 -36.5t-56.5 4.5l-12 10t-10 10zM478 302l-190 -88q-11 -4 -22.5 0.5t-16.5 14.5q-4 8 -2.5 16.5t6.5 13.5l137 158q22 23 52 25.5
t53 -17.5q12 -10 18 -23.5t7 -28t-3 -28.5t-14 -25q-12 -12 -25 -18z" />
    <glyph glyph-name="guillemotright" unicode="&#xbb;" horiz-adv-x="527" 
d="M358 413l130 -167q6 -10 4 -21.5t-10 -19.5q-17 -12 -31 -2l-184 98q-27 15 -36 44.5t5 55.5q14 27 43.5 36.5t56.5 -4.5l12 -10t10 -10zM264 166l190 88q11 4 22.5 -0.5t16.5 -14.5q4 -8 2.5 -16.5t-6.5 -13.5l-137 -158q-22 -23 -52 -25.5t-53 17.5q-12 10 -18 23.5
t-7 28t3 28.5t14 25q12 12 25 18zM158 415l130 -167q6 -10 4 -21.5t-10 -19.5q-17 -12 -31 -2l-184 98q-27 15 -36 44.5t5 55.5q14 27 43.5 36.5t56.5 -4.5l12 -10t10 -10zM64 168l190 88q11 4 22.5 -0.5t16.5 -14.5q4 -8 2.5 -16.5t-6.5 -13.5l-137 -158q-22 -23 -52 -25.5
t-53 17.5q-12 10 -18 23.5t-7 28t3 28.5t14 25q12 12 25 18z" />
    <glyph glyph-name="guilsinglright" unicode="&#x203a;" horiz-adv-x="319" 
d="M158 415l130 -167q6 -10 4 -21.5t-10 -19.5q-17 -12 -31 -2l-184 98q-27 15 -36 44.5t5 55.5q14 27 43.5 36.5t56.5 -4.5l12 -10t10 -10zM64 168l190 88q11 4 22.5 -0.5t16.5 -14.5q4 -8 2.5 -16.5t-6.5 -13.5l-137 -158q-22 -23 -52 -25.5t-53 17.5q-12 10 -18 23.5
t-7 28t3 28.5t14 25q12 12 25 18z" />
    <glyph glyph-name="greater" unicode="&#x3e;" horiz-adv-x="319" 
d="M158 415l130 -167q6 -10 4 -21.5t-10 -19.5q-17 -12 -31 -2l-184 98q-27 15 -36 44.5t5 55.5q14 27 43.5 36.5t56.5 -4.5l12 -10t10 -10zM64 168l190 88q11 4 22.5 -0.5t16.5 -14.5q4 -8 2.5 -16.5t-6.5 -13.5l-137 -158q-22 -23 -52 -25.5t-53 17.5q-12 10 -18 23.5
t-7 28t3 28.5t14 25q12 12 25 18z" />
    <glyph glyph-name="exclam" unicode="!" horiz-adv-x="292" 
d="M-22 54q0 -29 10.5 -53.5t28.5 -42.5t42.5 -28.5t53.5 -10.5q28 0 52.5 10.5t43 28.5t29.5 42.5t11 53.5q0 28 -11 52.5t-29.5 43t-43 29.5t-52.5 11q-29 0 -53.5 -11t-42.5 -29.5t-28.5 -43t-10.5 -52.5zM225 914l35 -518q1 -26 -7 -49t-23 -40.5t-36.5 -29t-46.5 -12.5
q-26 -2 -49 5.5t-41 23t-29 37t-13 47.5q-1 15 2 33l92 510q5 24 25 37.5t44 8.5q20 -5 32.5 -19.5t14.5 -33.5z" />
    <glyph glyph-name="dollar" unicode="$" 
d="M701 590l-1 1l-2 1q-3 3 -5 4q-2 2 -5 3t-5 3q-12 7 -23 13q-11 5 -23 10l-24 10q-48 16 -97 18q-12 1 -24 0h-15q-2 -1 -4 -1h-7q-10 1 -25 -1.5t-30.5 -6t-28.5 -8.5t-18 -10t1 -9.5t28 -7.5q12 -4 25 -7.5t27 -7.5q14 -3 28.5 -6.5t28.5 -7.5l16 -4l8 -2l8 -2
q8 -2 16.5 -5t17.5 -5q17 -5 34.5 -12t35.5 -15q34 -16 73 -42q10 -7 19 -14.5t18 -15.5t18 -17t17 -20q16 -21 30 -45q7 -12 12 -24.5t10 -25.5t8.5 -25.5t5.5 -26.5q1 -6 2 -12.5t2 -12.5q0 -9 1 -13v-13l1 -2v-22q0 -7 -0.5 -13t-1.5 -13q-1 -14 -3.5 -27.5t-6.5 -27.5
q-8 -29 -21 -57q-8 -14 -16 -27t-18 -26q-11 -12 -21.5 -23t-22.5 -21q-11 -10 -23 -18l-24 -16q-23 -14 -46 -23q-12 -5 -23.5 -9t-22.5 -8q-22 -7 -43 -11.5t-41 -7.5q-10 -2 -20 -3l-20 -2q-5 -1 -9.5 -1t-9.5 -1h-10l-4 -1h-30q-6 0 -12 0.5t-12 0.5q-11 1 -20.5 2
t-19.5 3q-4 -14 -7 -29t-6 -31q-1 -4 -2 -10.5t-2 -12.5l-1.5 -9t-0.5 1t1 7q-7 -28 -25.5 -41t-39 -10.5t-36.5 19t-17 47.5q0 24 5.5 49.5t13.5 49.5q-14 5 -26 10.5t-25 10.5q-19 8 -36.5 17.5t-34.5 19.5q-16 9 -35 22l-8 6t-9 6l-9 6l-5 4l-3 2l-1 2h-1l-2 2
q-30 27 -47 61.5t-19 72t9.5 74.5t38.5 67t61.5 46.5t72 19t74.5 -9t67 -37.5l1 -1q0 -1 2 -3t3.5 -3t3.5 -3l15 -12q18 -15 33 -23q35 -22 63 -31q3 -1 6.5 -2t6.5 -2q2 0 3.5 -0.5t3.5 -0.5l3 -1h4l3 -1h6q2 0 5 -0.5t5 -0.5q5 0 10.5 -0.5t10.5 -0.5q36 8 42.5 23
t-2.5 31t-26 29t-27 18q-6 2 -11.5 5t-11.5 5l-12 6l-4 1l-3 1l-7 3q-14 6 -28 11.5t-29 11.5q-29 12 -60 27q-16 7 -32 15t-33 19q-9 5 -17.5 10.5t-17.5 13.5q-9 7 -18.5 14.5t-18.5 18.5q-9 7 -19 23q-10 13 -17 29q-4 8 -7.5 16.5t-5.5 18.5q-4 17 -4 39v16q1 5 1.5 8.5
t1.5 7.5q1 16 9 33q3 8 6.5 15.5t7.5 15.5q9 13 20 26q5 5 10.5 10t10.5 10q6 5 11.5 9t10.5 7q23 14 43 21q10 5 20 8t19 5q10 2 19.5 3.5t18.5 3.5q36 6 70 6q14 1 27.5 0.5t27.5 -1.5q5 23 15 43t22 34q29 20 55 14.5t43 -35.5l2 -4q7 -40 -14 -63q0 -4 -1 -5
q48 -13 94 -36q16 -8 31 -16.5t29 -18.5q7 -5 14 -10.5t14 -10.5q8 -6 13 -11q3 -2 7 -6l4 -3l4 -4q19 -17 20.5 -42.5t-15.5 -44.5q-17 -20 -42.5 -21t-44.5 16h-1z" />
    <glyph glyph-name="daggerdbl" unicode="&#x2021;" horiz-adv-x="500" 
d="M144 310q0 5 0.5 9.5t0.5 9.5l-49 -5q-32 -4 -57 13t-29 44q-4 26 14 47t47 26l84 14v10t1 10q1 13 1 25v24q-6 13 -4 27.5t10.5 26t24 18.5t37.5 6q24 -5 36.5 -21.5t16.5 -39.5v-8.5t-1 -10.5q-1 -8 -1 -20t-1 -26l43 8q36 6 66 -11t37 -48q8 -31 -12.5 -56.5
t-55.5 -31.5q-2 0 -3.5 -0.5t-3.5 -0.5l-80 -8q-1 -5 -1 -9v-9l69 7q36 3 64.5 -16t33.5 -50q5 -32 -16.5 -56t-57.5 -27q-2 0 -3.5 -0.5t-3.5 -0.5l-84 -3q3 -39 14 -82q6 -32 -6.5 -52.5t-32.5 -26.5t-42 5t-34 41q-8 28 -12.5 56t-6.5 56l-47 -1q-16 -1 -30.5 3.5
t-25.5 13t-18 20.5t-8 26q-2 26 17.5 46t48.5 22zM212 496q0 1 -2 1z" />
    <glyph glyph-name="dagger" unicode="&#x2020;" horiz-adv-x="500" 
d="M237 569q23 7 41.5 2.5t29.5 -16.5t13.5 -29t-6.5 -35l3 -72l70 14q22 4 42.5 -0.5t37.5 -15.5t29 -28.5t17 -39.5q4 -22 0 -42.5t-15.5 -37.5t-29 -29.5t-39.5 -16.5q-2 0 -4 -0.5t-4 -0.5l-97 -12q2 -70 3.5 -139t6.5 -139l3 -12q0 -5 -0.5 -8.5t-0.5 -8.5v-1v-2h-1
q-4 -27 -19 -42t-34 -16.5t-37 10t-28 37.5q-4 50 -4.5 99t-2.5 98q-1 28 -2 55t-2 55l-91 -10q-20 -3 -38 2.5t-32 16.5t-23.5 27t-11.5 36q-5 38 17 67.5t58 36.5l112 22q0 16 -0.5 32t-0.5 32v33t3 30t11.5 26t25.5 22z" />
    <glyph glyph-name="florin" unicode="&#x192;" horiz-adv-x="499" 
d="M-15 -103l36 358l18 129l2 16l1 8l1 4v2v1v1v-6v1v1v1v1l1 3v6q0 2 0.5 5t0.5 5q1 5 1.5 10t1.5 10q3 20 6.5 38.5t8.5 38.5q5 19 11 38t13 38q15 39 37 77q6 9 12 18.5t14 18.5q14 21 31 36q9 9 18.5 16.5t20.5 15.5t22 14t22 11q12 5 24 8.5t25 5.5q12 3 24 4t23 1h12
t11 -1h6h1h1l1 -1h1h1h3h2q2 -1 6 -1q11 -2 22 -4.5t22 -5.5q11 -4 21.5 -8.5t21.5 -10.5q23 -13 39 -29q19 -18 31 -38q4 -5 6.5 -10.5t5.5 -11.5q1 -2 2 -5l2 -6q2 -6 2 -7q1 -1 1 -4l2 -5q6 -23 -5 -43t-34 -26t-43 5t-26 34v-1v-1l-1 1l-3 3q-2 2 -3 2.5t-3 2.5
q-7 5 -14 8q-16 6 -33 5h-10.5t-10.5 -2h-2h-2l-1 -1h-1h-1h-1l-2 -1q-3 -1 -5.5 -1t-4.5 -2q-10 -3 -15 -7q-4 -2 -6.5 -4.5t-5.5 -4.5q-6 -8 -8 -12l-4 -6t-4 -7q-3 -8 -6 -16.5t-5 -19.5q-2 -10 -3.5 -21.5t-3.5 -23.5q-1 -24 0 -50q0 -13 1 -25.5t3 -25.5q1 -3 1 -6.5
t1 -6.5q1 -2 1 -5q0 -1 0.5 -1.5t0.5 -1.5v-1h1v-6v-1v-1v-2l1 -4l1 -8l2 -16l18 -129l36 -358q6 -41 -5 -79.5t-34 -69t-57.5 -51t-75.5 -26.5t-79.5 4.5t-69 34t-51 57.5t-26.5 75q-3 27 0 55zM92 290l362 203q20 11 43 4.5t35 -26.5q8 -15 7 -32t-11 -30l-247 -333
q-18 -24 -43 -39t-52.5 -19t-56 2.5t-52.5 24.5t-39 43t-19 53t2.5 56t24.5 52q19 25 46 41z" />
    <glyph glyph-name="Euro.001" horiz-adv-x="696" 
 />
    <glyph glyph-name="Euro" unicode="&#x20ac;" horiz-adv-x="918" 
d="M463 399q33 -2 49.5 -19t17.5 -38t-15 -39.5t-48 -22.5q-26 0 -51.5 1t-51.5 3q12 -15 26 -26q19 -18 42 -30q9 -5 22 -10q6 -3 12 -4.5t12 -3.5q8 -2 13 -3q8 -2 13 -2q7 -1 13.5 -1h13.5q13 0 28 3q4 1 14 3q2 1 3.5 1t3.5 1t3.5 1t3.5 1q29 10 58 30q7 5 14 10.5
t14 12.5q13 12 25 28q14 17 23 33q3 5 5.5 9.5t5.5 9.5q2 2 2.5 4.5t2.5 5.5l5 10l6 13q16 33 50 45t67 -4q19 -9 30.5 -24.5t16.5 -34.5q8 -35 8.5 -71.5t-5.5 -73.5q-8 -39 -21 -74q-14 -38 -34 -69q-20 -34 -47 -64t-59 -55q-10 -8 -17 -13q-4 -3 -8 -5.5t-9 -5.5
q-8 -6 -17 -11t-19 -10q-18 -10 -38 -17.5t-40 -13.5t-40.5 -10.5t-42.5 -6.5q-21 -3 -42 -3h-21.5t-21.5 1q-41 3 -85 14q-42 12 -81 30t-74 44q-17 13 -33 27t-31 29q-60 63 -93 140q-17 39 -27 79t-13 82q-3 41 0 81q2 20 5 40t8 40q10 40 26.5 76.5t39.5 69.5
q44 65 108 111q16 11 32.5 21t33.5 19q32 16 70 27l36 9l36 6q10 1 19 1.5t18 1.5h36q9 -1 18 -1.5t17 -2.5q19 -2 35 -6q34 -7 67 -20q17 -7 32 -15t29 -17q16 -9 28 -19q3 -2 6.5 -5t6.5 -5l6 -6l4 -3l2 -2q20 -18 20.5 -44t-16.5 -45q-15 -16 -36 -19.5t-40 6.5l-1 1h-1
v1h-1l-2 1q-2 1 -3 1t-2 1q-5 2 -11 4q-5 2 -10.5 4t-10.5 4q-11 3 -21.5 4.5t-21.5 3.5q-11 1 -21 1.5t-21 -0.5l-21 -3q-5 -1 -10 -1.5t-10 -2.5q-38 -10 -70 -34q-11 -9 -21.5 -18.5t-18.5 -20.5q17 -1 34.5 -1h34.5q33 -2 49.5 -19t17.5 -38t-15 -39.5t-48 -22.5
q-30 0 -60 0.5t-59 1.5q-1 -5 -1 -11v-11v-4l70 -4t70 -3z" />
    <glyph glyph-name="cent" unicode="&#xa2;" horiz-adv-x="847" 
d="M348 658q-1 33 15 51t37 20.5t41 -11.5t26 -46q0 -14 1.5 -31.5t1.5 -35.5l20 -4t21 -4q27 -7 55 -18q14 -5 26.5 -11.5t25.5 -13.5l24 -15q3 -3 11 -9q4 -2 6 -4l3 -2v-1h1l1 -1q20 -17 22 -43t-15 -46q-14 -16 -33.5 -21t-37.5 3l-2 1h-1q-1 0 -1 0.5t-1 0.5
q-2 0 -2.5 0.5t-2.5 0.5q-2 1 -4 1.5t-4 1.5q-5 2 -9 2.5t-9 1.5q-9 2 -18.5 3t-18.5 2q-18 1 -35.5 -1t-34.5 -6q-35 -9 -61 -27q-14 -8 -24.5 -18.5t-19.5 -21.5q-8 -11 -13.5 -22.5t-8.5 -22.5q-4 -9 -4 -20q-2 -9 0 -17q0 -5 0.5 -8t1.5 -7q1 -3 3 -7q0 -1 2 -7
q7 -11 17 -21q5 -5 11 -10t14 -10t15.5 -9t16.5 -9q9 -4 19 -8t21 -6q3 -1 5.5 -1.5t5.5 -1.5h3l1 -1h5l2 -1q6 -1 12 -1.5t12 -0.5q11 -1 23 -0.5t24 2.5t24 5t24 8q6 2 11.5 5t11.5 6q5 4 11 7t11 8q5 4 10.5 9t10.5 10q2 3 5 6t5 6q2 2 2.5 3t2.5 3q2 4 5 7l15 22
q10 15 24.5 24t31 12t33 -0.5t31.5 -13.5q27 -18 35 -49q2 -7 4 -17q1 -4 1 -8t1 -8q1 -8 1.5 -17t0.5 -17q-2 -37 -10 -68q-8 -35 -24 -66q-16 -34 -37 -59q-42 -56 -102 -94l-30 -18q-8 -4 -16 -7.5t-16 -7.5q-16 -7 -32.5 -12.5t-33.5 -10.5q-11 -2 -22.5 -4t-22.5 -4
q2 -11 3 -22l2 -22q-4 -29 -19 -44.5t-34 -17.5t-37.5 10t-28.5 38q-1 14 -2.5 27.5t-3.5 27.5q-29 3 -57.5 9.5t-55.5 17.5q-71 26 -127 75q-29 25 -53 55t-43 65q-5 8 -8.5 17t-7.5 19q-4 9 -7.5 18t-6.5 19q-5 19 -9 38.5t-6 39.5q-1 11 -1.5 20.5t-0.5 19.5q1 10 1 19.5
t2 19.5q2 20 6.5 39t10.5 38q12 37 32 69q10 17 21 31t23 28q25 27 53 47.5t57 35.5q58 29 123 40q5 0 15 2q1 2 1 4.5v4.5q0 11 0.5 21.5t-0.5 21.5z" />
    <glyph glyph-name="at" unicode="@" horiz-adv-x="632" 
d="M356 367q10 -18 11.5 -34.5t-4 -29.5t-16.5 -21.5t-25 -11.5q-3 -3 -6.5 -7t-5.5 -8q0 -5 4 -7q9 -6 20 -6t20 4q2 2 2.5 5t1.5 5q17 23 39 30t39 -1q6 -2 12.5 -4t11.5 -6q0 1 3.5 -1.5t5.5 -3.5t2.5 -1.5t2.5 -1.5q0 6 1 10q0 6 -3 21.5t-7.5 32t-10 30.5t-9.5 18
q-29 11 -65 21.5t-73 13.5t-71.5 -5.5t-58.5 -35.5q-28 -31 -35.5 -68.5t0 -75.5t27.5 -73t47 -61q1 -1 5.5 -5t10.5 -8.5t13 -9t12 -5.5q15 -3 32.5 1.5t36.5 12t37 15t35 10.5q28 -1 45 -14.5t21 -32t-6.5 -38t-35.5 -32.5q-26 -4 -50 -13.5t-48.5 -17.5t-50 -11t-52.5 6
q-46 15 -83.5 48t-64.5 77.5t-41 96t-13 102.5t18 97.5t54 81.5q40 38 88.5 56t102.5 20q25 1 57 -1.5t64 -9.5t62 -18.5t50 -26.5q27 -21 46 -60.5t26.5 -84.5t2.5 -88.5t-25 -71.5q-13 -18 -33.5 -29.5t-43.5 -10.5q-9 1 -24 7t-32 15q-27 -25 -62.5 -30.5t-70.5 4.5
t-63.5 32.5t-41 53.5t-4.5 68t47 75q15 14 29.5 22t33.5 13q19 -1 29 -5t24 -16l3 -3v0z" />
    <glyph glyph-name="bracketleft" unicode="[" horiz-adv-x="308" 
d="M200 605q33 -2 49.5 -19t17.5 -38t-15 -39.5t-48 -22.5q-14 0 -29.5 2t-31.5 2q-3 -29 -3 -60.5t1.5 -63t4 -62t3.5 -56.5q2 -44 4.5 -87t2.5 -88q0 -17 -1 -33t0 -32q15 4 29 1.5t24.5 -12.5t16 -26t2.5 -37q-12 -32 -38.5 -45t-56 -9t-55.5 24t-36 55q-8 33 -7 69t2 70
q-5 95 -9.5 189.5t-2.5 189.5q0 12 0.5 26.5t3 29.5t7.5 28.5t15 22.5q14 14 32.5 19t39 5.5t40.5 -1.5t38 -2zM124 -12l2 2q-1 0 -1 -1z" />
    <glyph glyph-name="bracketright" unicode="]" horiz-adv-x="328" 
d="M74 454q-32 -4 -51.5 10.5t-24 35t7.5 41.5t44 30q33 8 73.5 5.5t72.5 -10.5q23 -8 33 -20.5t15 -35.5q8 -102 14.5 -203t13.5 -203q2 -32 6 -69.5t-3 -71.5q-8 -16 -16 -24t-25 -16q-15 -5 -31.5 -6.5t-33.5 -1t-34 2t-32 2.5q-28 6 -42 22.5t-15 35t12.5 36t40.5 25.5
q14 -1 28 -1.5t28 -0.5q-1 14 -1 26.5t-1 26.5q-6 91 -12 181.5t-13 181.5q-24 3 -47 3q-2 -1 -3.5 -1t-3.5 -1z" />
    <glyph glyph-name="backslash" unicode="\" horiz-adv-x="474" 
d="M98 390q-16 33 -32 68.5t-38 66.5q-14 7 -23 22.5t-10 38.5q1 2 1 4q16 54 72 51q21 -3 39 -22.5t33 -44t26 -50t19 -41.5q31 -64 59 -130t56.5 -131.5t60.5 -129t73 -122.5q16 -28 11 -51.5t-22.5 -35.5t-41.5 -9.5t-45 27.5q-39 57 -70.5 117t-59 122t-53.5 125
t-55 125z" />
    <glyph glyph-name="bar" unicode="|" horiz-adv-x="206" 
d="M30 722q-1 7 -1 14t-1 14q-6 12 -6 29q1 4 1 7.5v6.5q7 24 21 37t31 15t34 -7.5t29 -30.5q17 -69 16.5 -142t-2.5 -143q-2 -68 -6 -139t-4.5 -141.5t6 -140.5t26.5 -137q6 -32 -6.5 -52.5t-32.5 -26.5t-42 5t-34 41q-24 84 -31 178.5t-5.5 192.5t6.5 195.5t4 186.5v2
q0 18 -3 36z" />
    <glyph glyph-name="braceleft" unicode="{" horiz-adv-x="289" 
d="M-3 186q-27 6 -41.5 22t-15.5 34.5t11.5 35.5t38.5 26q8 15 20.5 23t27.5 9q7 19 7.5 39t-1 40.5t-2.5 41t2 40.5q6 33 27.5 61t51 45t62.5 19t63 -18q23 -20 27.5 -40.5t-9.5 -46.5l-2 -2q-20 -20 -41.5 -23.5t-38.5 6.5q-3 -1 -6.5 -2t-7.5 -2q-8 -12 -10 -27t-1 -31
t3 -32t2 -29q1 -30 -7 -58.5t-22 -55.5q-1 -2 -2 -3t-2 -3q20 -26 24.5 -66t2.5 -93q-1 -23 1 -42.5t10 -40.5q1 -3 1.5 -6.5t2.5 -6.5q23 9 42.5 2.5t29.5 -23t7.5 -38.5t-23.5 -43q-29 -23 -54.5 -26.5t-46.5 7.5t-38 32.5t-28.5 48t-17.5 55t-6 52.5q0 29 3 57t-2 55
q-1 4 -7 6t-13.5 2t-14 -0.5t-7.5 -0.5z" />
    <glyph glyph-name="braceright" unicode="}" horiz-adv-x="303" 
d="M37 520q-18 22 -19.5 44t9.5 37t32 20.5t48 -4.5q25 -20 42 -34.5t28 -30t17 -37t9 -54.5q15 -39 9 -77t-20 -76q-4 -11 -8.5 -21.5t-5.5 -21.5h6q15 -2 28 -4t27 -9q17 -8 26 -21t10.5 -28t-4 -30t-17.5 -27q-10 -17 -28 -32q-3 -2 -6 -4.5t-5 -4.5l3 -11q2 -8 4 -17
t4 -17q8 -34 12 -70.5t-7 -71.5q-9 -34 -36.5 -60.5t-60.5 -37.5t-65.5 -2.5t-52.5 45.5q-10 26 -4.5 46.5t20 32t34 12t37.5 -13.5q5 1 9 2t5.5 5.5t1.5 14.5t-2 29q-3 20 -9 41t-10.5 42t-5 42t8.5 41l2 4l2 4q-6 4 -9 7q-29 22 -34 50.5t1 59t16.5 61t14.5 56.5
q1 6 -0.5 16.5t-4 22.5t-5.5 24t-5 21q-5 3 -11.5 9l-13 12t-11.5 10.5t-6 5.5zM118 -75q2 -5 7 -11l-1 1q-2 4 -4.5 7t-4.5 6zM186 144h-1h1z" />
    <glyph glyph-name="underscore" unicode="_" horiz-adv-x="534" 
d="M45 13q4 0 7 -0.5t7 -1.5v1q14 -2 28 -2t28 -2q85 -1 170 9t170 19q33 -2 49.5 -19t17.5 -38t-15 -39.5t-48 -22.5q-51 -6 -103 -12.5t-104 -11.5t-104.5 -5.5t-103.5 5.5q-28 6 -42 22.5t-14.5 35.5t12.5 36.5t40 25.5h5zM81 9q5 -1 9.5 -1h9.5q-9 1 -16.5 1t-2.5 0z
" />
    <glyph glyph-name="oe" unicode="&#x153;" horiz-adv-x="1325" 
d="M394 640q82 0 154.5 -31t126.5 -85t85 -126.5t31 -154.5t-31 -154t-85 -126t-126.5 -85t-154.5 -31t-154 31t-126 85t-85 126t-31 154t31 154.5t85 126.5t126 85t154 31zM408 294q32 0 60 8t49 22t33 33t12 40t-12 40t-33 33t-49 22t-60 8t-59.5 -8t-48.5 -22t-33 -33
t-12 -40t12 -40t33 -33t48.5 -22t59.5 -8zM905 177q9 -4 17 -5q3 -1 5.5 -1.5t5.5 -1.5h3l1 -1h5l3 -1q5 -1 11 -1.5t12 -0.5q22 -1 47 2q12 2 24 5t24 8q11 4 23 11q6 4 11.5 7t10.5 8t10.5 9.5t10.5 9.5q3 3 5.5 6t4.5 6q2 2 2.5 3t2.5 3t2.5 3.5t2.5 3.5l15 22
q10 15 24.5 24t31 12t33.5 -0.5t32 -13.5q26 -18 34 -49q2 -7 4 -17t2 -16q1 -8 1.5 -17t0.5 -17q-2 -35 -9 -68q-9 -36 -25 -66q-14 -29 -36 -59q-44 -56 -103 -94l-30 -18q-8 -4 -16 -7.5t-16 -7.5q-16 -7 -32.5 -12.5t-33.5 -9.5q-17 -5 -34 -8t-34 -5q-6 0 -9 -1h-13
l-4 -1h-44q-35 2 -70.5 9t-69.5 21q-34 13 -66 31.5t-61 43.5t-53 55t-42 65q-5 8 -9 17t-8 19q-4 9 -7.5 18t-6.5 19q-11 39 -15 78q-1 11 -1 20.5v19.5t0.5 19.5t1.5 19.5q2 20 6.5 39t10.5 38q12 37 32 69q19 33 44 59q25 27 53 47.5t57 35.5q30 15 61 25t62 15
q8 2 15.5 2.5t15.5 1.5t15 1t15 1h15t15 -1q8 0 15 -0.5t15 -1.5q32 -3 58 -10q27 -7 55 -18t52 -25l24 -15q3 -2 5.5 -4.5t5.5 -4.5q4 -2 6 -4l3 -2v-1h1l1 -1q20 -17 22.5 -41.5t-12.5 -44.5v-1l-2 -2q-2 -2 -2.5 -3t-1.5 -2q0 -1 -0.5 -1t-0.5 -1zM932 423
q-35 -9 -61 -27q-26 -17 -43 -40q-9 -11 -14.5 -22.5t-8.5 -22.5q-2 -5 -3 -10t-1 -10q-2 -9 0 -17q0 -8 3 -15q0 -3 2 -7l3 -6q3 -8 7 -12l172 196q-14 -1 -28 -2.5t-28 -4.5z" />
    <glyph glyph-name="OE" unicode="&#x152;" horiz-adv-x="1377" 
d="M416 790q87 0 164 -37t134 -101t90 -150t33 -184t-33 -183.5t-90 -149.5t-134 -101t-164 -37t-163.5 37t-133.5 101t-90 149.5t-33 183.5t33 184t90 150t133.5 101t163.5 37zM426 360q34 0 63.5 13t51.5 35t35 51.5t13 63.5t-13 63.5t-35 51.5t-51.5 35t-63.5 13
t-63.5 -13t-51.5 -35t-35 -51.5t-13 -63.5t13 -63.5t35 -51.5t51.5 -35t63.5 -13zM747 831l517 -62q22 -3 40 -13.5t30.5 -26t18.5 -36t4 -42.5q-3 -22 -13.5 -40t-26.5 -31t-36.5 -19t-42.5 -3q-8 2 -12 2l-404 97l12 -161l193 39q22 4 42.5 -0.5t37.5 -15.5t29 -28.5
t17 -39.5q4 -22 0 -42.5t-15.5 -37.5t-29 -29.5t-39.5 -16.5q-2 0 -4 -0.5t-4 -0.5l-213 -25l3 -42l402 68q29 5 56.5 -2t50 -22.5t37.5 -39.5t20 -53q4 -26 -1 -51.5t-18 -46.5t-33 -37t-45 -24l-552 -177q-5 -2 -10.5 -3t-11.5 -2q-11 -4 -22.5 -6.5t-23.5 -3.5
q-38 -3 -71.5 8.5t-60 34.5t-43 54.5t-19.5 69.5q-2 24 3 48l136 690q6 32 32 51.5t58 17.5h12z" />
    <glyph glyph-name="quotedblbase.001" 
 />
    <glyph glyph-name="quotedblbase" unicode="&#x201e;" horiz-adv-x="291" 
d="M167 68l-49 -204q-4 -11 -14.5 -17t-21.5 -4q-19 5 -21 22l-38 206q-5 30 12 55.5t47 31.5q15 3 29.5 -0.5t26 -11.5t19.5 -20t11 -27q2 -19 -1 -31zM267 68l-49 -204q-4 -11 -14.5 -17t-21.5 -4q-19 5 -21 22l-38 206q-5 30 12 55.5t47 31.5q15 3 29.5 -0.5t26 -11.5
t19.5 -20t11 -27q2 -19 -1 -31z" />
    <glyph glyph-name="quotesinglbase" unicode="&#x201a;" horiz-adv-x="191" 
d="M167 68l-49 -204q-4 -11 -14.5 -17t-21.5 -4q-19 5 -21 22l-38 206q-5 30 12 55.5t47 31.5q15 3 29.5 -0.5t26 -11.5t19.5 -20t11 -27q2 -19 -1 -31z" />
    <glyph glyph-name="ellipsis" unicode="&#x2026;" horiz-adv-x="858" 
d="M-22 137q0 31 11.5 58.5t32 48.5t47.5 33t59 12q31 0 58.5 -12t48.5 -33t33 -48.5t12 -58.5q0 -32 -12 -59t-33 -47.5t-48.5 -32t-58.5 -11.5q-32 0 -59 11.5t-47.5 32t-32 47.5t-11.5 59zM264 137q0 31 11.5 58.5t32 48.5t47.5 33t59 12q31 0 58.5 -12t48.5 -33
t33 -48.5t12 -58.5q0 -32 -12 -59t-33 -47.5t-48.5 -32t-58.5 -11.5q-32 0 -59 11.5t-47.5 32t-32 47.5t-11.5 59zM550 137q0 31 11.5 58.5t32 48.5t47.5 33t59 12q31 0 58.5 -12t48.5 -33t33 -48.5t12 -58.5q0 -32 -12 -59t-33 -47.5t-48.5 -32t-58.5 -11.5q-32 0 -59 11.5
t-47.5 32t-32 47.5t-11.5 59z" />
    <glyph glyph-name="question" unicode="?" horiz-adv-x="520" 
d="M-117 603v1v1v1v4v5v11q0 6 0.5 11.5t0.5 10.5q2 11 3.5 21.5t3.5 21.5q5 21 13 42.5t20 41.5q13 21 27 38q8 9 16.5 17t17.5 16t19 14.5t20 12.5q11 6 21.5 11t21.5 9q21 8 43 13.5t44 8.5l21 3h11l3 1h1h1h3h1h2h5h6q4 1 11 1q6 -1 12 -1h11q12 -2 24 -3.5t24 -4.5
q26 -5 49 -15t47 -26q22 -17 42 -36q19 -21 33 -45q15 -23 24 -48q10 -26 14 -50q3 -13 4.5 -25.5t2.5 -24.5q2 -26 0 -50q-1 -13 -3 -25t-4 -25q-3 -13 -6 -25t-8 -25q-8 -23 -24 -50q-8 -13 -17 -25.5t-21 -25.5q-2 -2 -3.5 -3t-3.5 -3l-3 -3l-2 -2l-1 -1l-3 -3l-3 -3
l-6 -6t-6 -5q-24 -24 -45 -48q-5 -6 -9.5 -11.5t-9.5 -11.5t-9 -11.5t-7 -10.5q-4 -6 -5 -9q-3 -3 -3 -6h1q1 0 1 1t1 2q0 1 1 3t2 5q1 2 1 4.5t1 4.5q0 2 0.5 5t0.5 7q0 -27 -10.5 -51.5t-28.5 -42.5t-42.5 -28.5t-51.5 -10.5t-51.5 10.5t-42.5 28.5t-28.5 42.5t-10.5 51.5
q0 6 0.5 11t1.5 10t1.5 9t1.5 8q2 8 4.5 14.5t4.5 12.5q2 5 4.5 9.5t4.5 9.5t4.5 8.5t4.5 7.5q9 13 18 24q7 10 17 20q8 9 16 17l16 16t16 14.5t16 13.5q16 14 31.5 26t31.5 24q4 2 7.5 5t8.5 6l4 3l3 3h1h1q2 0 7 5q2 3 5 6t5 8t4.5 9.5t4.5 9.5q5 11 7 22l4 22t1.5 22
t-2.5 21q-5 20 -13 34q-5 7 -11 13.5t-14 11.5q-17 11 -43 17q-8 2 -13 3q-2 0 -3 0.5t-3 0.5h-4l-3 1h-1h-1h-2h-1h-1h-2q-2 1 -7 1h-15q-28 1 -55 -5q-54 -11 -86 -51q-17 -20 -28 -48q-2 -7 -4.5 -13.5t-4.5 -14.5q-1 -4 -1.5 -7t-1.5 -7q0 -5 -1 -7v-3v-2v-1
q-2 -21 -17 -35t-36 -12q-19 1 -32 14t-15 31zM43 -10q0 27 10 51.5t28 42.5t42 28.5t52 10.5q27 0 51 -10.5t42.5 -28.5t29 -42.5t10.5 -51.5q0 -28 -10.5 -52t-29 -42t-42.5 -28t-51 -10q-28 0 -52 10t-42 28t-28 42t-10 52z" />
    <glyph glyph-name="trademark" unicode="&#x2122;" horiz-adv-x="566" 
d="M400 617q8 28 26 41t37 12t35 -15.5t22 -42.5q2 -49 6 -98t14 -97q1 -3 4.5 -11t6.5 -14.5t3.5 -10t-4.5 2.5h-1q9 -22 4.5 -41t-18.5 -30t-34.5 -12t-42.5 13q-17 17 -27.5 47t-16.5 66q-17 -7 -37 -2t-38 26q-3 5 -7 12.5t-9 15.5q1 -16 1.5 -32t1.5 -32
q-4 -32 -23 -47.5t-40 -14.5t-38.5 18t-18.5 49v14q0 7 -0.5 15.5t-1.5 19.5q-2 11 -2.5 22t-1.5 22q-8 -1 -14.5 -1.5t-14.5 -1.5q2 -24 3 -48t2 -47q-4 -32 -23 -47.5t-40 -14.5t-38.5 18t-18.5 49q-1 23 -2 46.5t-3 46.5q-42 6 -79 19q-24 15 -32.5 35t-3 38t23 30
t46.5 11q12 -4 24 -7l24 -6q2 -1 7 -1.5t8 -0.5q18 17 41 16.5t40 -18.5q23 1 49 6q4 0 7 -0.5t7 -1.5q18 21 43 20.5t42 -20.5q18 1 40 -6q18 -7 33.5 -21.5t29.5 -31.5q-1 13 -1 23.5v19.5z" />
    <glyph glyph-name="mu" unicode="&#xb5;" horiz-adv-x="343" 
d="M4 464q6 19 16 31t23 17.5t26 4t25 -9.5q14 -5 25.5 -18.5t16.5 -35.5q3 -66 3.5 -132.5t8.5 -132.5q5 -29 10 -57t16 -57q0 -2 1 -3t2 -3q13 7 19 19.5t6.5 27.5t-1.5 30.5t-4 27.5q-6 45 -9.5 86t-5.5 86q-2 -2 -1.5 11.5t0.5 20.5q-1 17 -1 33t-3 32q-1 33 15 51
t37 20.5t41 -11.5t26 -46q8 -45 5.5 -91.5t2.5 -92.5q3 -28 7.5 -55.5t7.5 -56.5q2 -5 4 -15q2 -4 4 -10t4 -9q9 -13 19.5 -24.5t19.5 -25.5q15 -26 11 -48.5t-19 -35t-36.5 -13.5t-42.5 17q1 -1 1 -1.5t-1 0.5t-1 2v-1q0 1 -1 2l1 -1q-2 0 -2 2q-26 -27 -61.5 -42.5
t-69.5 -10.5q2 -35 3.5 -71t6.5 -71q8 -23 -7 -47.5t-53 -29.5h-1q-23 5 -35 15.5t-21 32.5q-10 68 -10.5 136t-5.5 136q-7 106 -14.5 209t-7.5 208z" />
    <glyph glyph-name="mu" unicode="&#x3bc;" horiz-adv-x="343" 
d="M4 464q6 19 16 31t23 17.5t26 4t25 -9.5q14 -5 25.5 -18.5t16.5 -35.5q3 -66 3.5 -132.5t8.5 -132.5q5 -29 10 -57t16 -57q0 -2 1 -3t2 -3q13 7 19 19.5t6.5 27.5t-1.5 30.5t-4 27.5q-6 45 -9.5 86t-5.5 86q-2 -2 -1.5 11.5t0.5 20.5q-1 17 -1 33t-3 32q-1 33 15 51
t37 20.5t41 -11.5t26 -46q8 -45 5.5 -91.5t2.5 -92.5q3 -28 7.5 -55.5t7.5 -56.5q2 -5 4 -15q2 -4 4 -10t4 -9q9 -13 19.5 -24.5t19.5 -25.5q15 -26 11 -48.5t-19 -35t-36.5 -13.5t-42.5 17q1 -1 1 -1.5t-1 0.5t-1 2v-1q0 1 -1 2l1 -1q-2 0 -2 2q-26 -27 -61.5 -42.5
t-69.5 -10.5q2 -35 3.5 -71t6.5 -71q8 -23 -7 -47.5t-53 -29.5h-1q-23 5 -35 15.5t-21 32.5q-10 68 -10.5 136t-5.5 136q-7 106 -14.5 209t-7.5 208z" />
    <glyph glyph-name="copyright" unicode="&#xa9;" horiz-adv-x="680" 
d="M192 565q16 8 47.5 16t66 11t66.5 -2.5t50 -24.5q1 0 2 -1q-1 2 5.5 0.5t10.5 -2.5q8 -2 15 -2.5t14 -1.5q21 -3 42.5 -11t35.5 -26q35 -47 58 -94.5t34.5 -97t10.5 -103.5t-15 -115q-6 -29 -18.5 -60t-31.5 -59t-43.5 -50t-54.5 -32q-28 -9 -46.5 -13.5t-36 -6t-37 0.5
t-50.5 5q-51 5 -95 29.5t-78.5 61t-58.5 81.5t-35 92q-7 30 -8.5 57t0.5 53t6.5 52.5t10.5 55.5q6 32 20.5 63.5t36.5 54.5q18 19 35.5 38.5t40.5 30.5zM383 454q-4 2 -6.5 4t-5.5 4q-5 2 -10.5 3.5t-10.5 5.5q-27 0 -51 1.5t-51 -14.5t-45.5 -46.5t-26.5 -58.5
q-18 -60 -13 -123t33 -114t79 -81.5t123 -25.5q36 2 60.5 20.5t39 46.5t21 62.5t7.5 70t-2.5 68.5t-7.5 58q-5 25 -19 45.5t-28 40.5q-1 1 -4 6.5t-7 11.5q-18 7 -37.5 7t-37.5 8zM436 381q21 -18 26 -39.5t-3.5 -38.5t-28 -26t-47.5 -3q-2 0 -10 4q-7 -7 -12 -15t-4 -16
q0 -6 6.5 -8.5t14.5 -4.5q12 6 25 6t25 -7t21 -19.5t13 -31.5q0 -35 -21 -50.5t-49.5 -17.5t-58.5 7.5t-48 25.5q-32 28 -41.5 68t1 79t38.5 69t71 39q22 5 42.5 -4t39.5 -17zM347 202l1 1q0 -1 -2 -3q1 1 1 2z" />
    <glyph glyph-name="registered" unicode="&#xae;" horiz-adv-x="650" 
d="M264 616q14 -2 21 -4q12 3 28 3q1 -1 3 -1h15q17 2 31 -0.5t29 -9.5q35 -14 64.5 -38t52.5 -54q45 -60 73 -133.5t30 -148.5t-27 -144t-98 -118q-29 -20 -63.5 -29t-67.5 -20q-17 -5 -34 -4.5t-35 3.5t-35.5 7.5t-35.5 6.5q-26 4 -52.5 19t-50.5 37.5t-44.5 50.5
t-35 57.5t-22 59t-5.5 55.5q5 52 10 103l10 102q5 41 29 76t58.5 61.5t74.5 42.5t77 20zM338 495q-15 -2 -28.5 -1t-27.5 6q-4 -1 -7 -2t-7 -1q-40 -4 -69.5 -26.5t-48.5 -57.5t-26.5 -77.5t-4 -86t18.5 -84.5t41.5 -71t64 -46t87.5 -10q39 4 71 22.5t54 46.5t31.5 63.5
t3.5 75.5q-17 110 -81 197q-9 13 -23 25t-28 19q-5 2 -8.5 4t-8.5 4h-4zM162 380q-3 10 -3 24q10 37 26 51t37 15t45 -7t49 -15q28 -8 55 -16t47 -30q15 -15 23 -36t10 -44t-2.5 -45.5t-14.5 -41.5q-5 -9 -12 -15q27 -10 38 -28.5t8.5 -37t-18.5 -33.5t-44 -18
q-32 2 -64 11.5t-55 30.5q-7 -27 -26 -39.5t-38.5 -10t-35.5 19.5t-17 48q0 15 0.5 29.5t0.5 28.5q-1 19 -4 38t-6 37.5t-4 37t2 37.5zM287 282q0 -3 0.5 -5.5t0.5 -5.5q2 4 8 12q2 2 12.5 9t21.5 13q0 3 -0.5 6.5t-0.5 8.5q-13 5 -26 9.5t-27 9.5q0 -1 -0.5 -1t-0.5 -1v-1
q1 -6 3 -14.5l4 -17t3.5 -15t1.5 -7.5z" />
    <glyph glyph-name="yen" unicode="&#xa5;" horiz-adv-x="466" 
d="M518 668l-173 -739q-8 -36 -30 -64.5t-52.5 -47t-67 -25.5t-75.5 1t-69.5 28t-50.5 48.5t-27 62.5t1 70q2 10 6 20.5t9 18.5l359 681q8 15 21.5 26t30 16t34.5 4.5t35 -8.5q29 -12 42 -38t7 -54zM45 761l278 -427q13 -20 16.5 -42.5t-2 -44t-20 -40t-36.5 -30.5
t-46.5 -15.5t-48 2t-44 18.5t-33.5 34q-2 5 -4.5 10t-4.5 10l-186 467q-5 13 -4.5 26.5t6.5 25t16.5 20.5t24.5 14q26 9 50 0.5t38 -28.5zM17 224l369 23q26 1 50.5 -2.5t44 -11.5t33 -19.5t16.5 -25.5q4 -14 -2.5 -27t-21.5 -23t-36.5 -17t-48.5 -8q-3 0 -5 -0.5t-5 -0.5
l-371 -6q-48 -2 -82.5 14.5t-38.5 42.5q-2 23 26 41t72 20zM-3 359l365 39q27 3 52 0t45.5 -10t35 -18t19.5 -25q11 -28 -18.5 -51t-81.5 -29q-4 0 -5.5 -0.5t-5.5 -0.5l-369 -22q-24 -2 -45.5 1.5t-38.5 10.5t-28.5 17t-14.5 22q-5 24 21 43t69 23z" />
    <glyph glyph-name="currency" unicode="&#xa4;" horiz-adv-x="456" 
d="M242 506q18 -4 41 -14q10 11 21.5 21t22.5 22q23 17 45 16.5t36 -13t18 -34t-9 -46.5q-10 -11 -20 -20.5t-21 -19.5q12 -17 19.5 -37t9.5 -43q1 -48 -25 -87q8 -5 15 -10.5t15 -11.5q25 -21 27.5 -45.5t-10 -41.5t-36 -22t-51.5 12q-14 11 -28 21t-26 22
q-7 -3 -13.5 -5.5t-13.5 -4.5q-15 -5 -37.5 -0.5t-36.5 9.5q-10 3 -19 8.5t-19 12.5q-4 -6 -7 -9q0 -1 -0.5 -1t-0.5 -1v-1q-2 -2 -2.5 -4.5t-2.5 -4.5q-4 -6 -3 -4q-14 -19 -32.5 -25.5t-35 -1.5t-28.5 21.5t-13 43.5q5 20 18 43.5t31 40.5q-11 23 -16 47t-2 44q1 9 3 17
l4 16q-13 14 -25 27.5t-23 27.5q-11 27 -5 48t22 32t38 9.5t43 -20.5q8 -10 16.5 -19.5t17.5 -19.5q8 7 19 14q39 17 73 -3zM211 392q-5 1 -13 3q-9 -6 -17 -13t-8 -12q0 -9 7 -25t17 -30.5t22.5 -23t23.5 -3.5q9 7 17.5 12.5t17.5 11.5q7 15 2.5 28.5t-15.5 24t-26 18
t-28 9.5z" />
    <glyph glyph-name="exclamdown.001" horiz-adv-x="292" 
d="M-22 54q0 -29 10.5 -53.5t28.5 -42.5t42.5 -28.5t53.5 -10.5q28 0 52.5 10.5t43 28.5t29.5 42.5t11 53.5q0 28 -11 52.5t-29.5 43t-43 29.5t-52.5 11q-29 0 -53.5 -11t-42.5 -29.5t-28.5 -43t-10.5 -52.5zM225 914l35 -518q1 -26 -7 -49t-23 -40.5t-36.5 -29t-46.5 -12.5
q-26 -2 -49 5.5t-41 23t-29 37t-13 47.5q-1 15 2 33l92 510q5 24 25 37.5t44 8.5q20 -5 32.5 -19.5t14.5 -33.5z" />
    <glyph glyph-name="exclamdown" unicode="&#xa1;" horiz-adv-x="373" 
d="M279 376l89 -504q6 -34 -3 -65.5t-29 -57.5t-50 -43.5t-67 -23.5t-71.5 2t-62.5 26.5t-47 46.5t-25 62q-2 14 -2 27.5t2 25.5l89 504q6 34 35.5 53.5t67.5 14.5q29 -4 49.5 -23.5t24.5 -44.5zM302 520q0 -21 -9 -40t-24 -33t-35.5 -22t-43.5 -8t-43.5 8t-35.5 22t-24 33
t-9 40q0 22 9 41t24 33t35.5 22t43.5 8t43.5 -8t35.5 -22t24 -33t9 -41z" />
    <glyph glyph-name="questiondown" unicode="&#xbf;" horiz-adv-x="520" 
d="M571.965 -60.9961v-1v-1v-1v-4v-4.99902v-11q0 -5.99902 -0.5 -11.499t-0.5 -10.499q-2 -11 -3.49902 -21.499q-1.5 -10.499 -3.5 -21.499q-5 -20.998 -12.999 -42.4971q-8 -21.499 -19.999 -41.4971q-12.999 -20.999 -26.999 -37.998q-7.99902 -8.99902 -16.498 -16.999
q-8.5 -8 -17.499 -15.999q-9 -7.99902 -18.999 -14.499q-10 -6.5 -19.999 -12.499q-10.999 -6 -21.499 -11q-10.499 -4.99902 -21.498 -8.99902q-20.999 -8 -42.998 -13.499q-21.998 -5.5 -43.9971 -8.5l-20.999 -2.99902h-10.999l-3 -1h-1h-0.999023h-3h-1h-2h-5h-5.99902
q-4 -1 -11 -1q-5.99902 1 -11.999 1h-10.999q-12 1.99902 -23.999 3.49902t-23.998 4.5q-25.999 5 -48.9971 14.999q-22.999 10 -46.9971 25.998q-21.999 16.999 -41.998 35.998q-18.998 20.999 -32.998 44.9971q-14.999 22.999 -23.998 47.9971q-10 25.999 -13.999 49.9971
q-3 12.999 -4.5 25.499q-1.5 12.499 -2.5 24.498q-2 25.999 0 49.9971q1 12.999 3 24.999q2 11.999 4 24.998q3 12.999 5.99902 24.998q3 12 8 24.999q7.99902 22.998 23.998 49.9971q8 12.999 16.999 25.498q9 12.499 20.999 25.498q2 2 3.5 3t3.5 3l2.99902 3l2 2l1 1l3 3
l3 2.99902q3 3 5.99902 6q3 3 6 5q23.999 23.998 44.9971 47.9971q5 5.99902 9.5 11.499q4.49902 5.5 9.49902 11.499q5 6 9 11.5q3.99902 5.49902 6.99902 10.499q4 5.99902 5 8.99902q3 3 3 6h-1q-1 0 -1 -1t-1 -2q0 -1 -1 -3t-2 -4.99902q-1 -2 -1 -4.5t-1 -4.5
q0 -2 -0.5 -4.99902q-0.5 -3 -0.5 -7q0 26.998 10.499 51.4971q10.5 24.498 28.499 42.4971t42.4971 28.498q24.498 10.5 51.4971 10.5q26.998 0 51.4971 -10.5q24.498 -10.499 42.4971 -28.498t28.498 -42.4971q10.499 -24.499 10.499 -51.4971q0 -6 -0.499023 -10.999
q-0.5 -5 -1.5 -10q-1 -4.99902 -1.5 -8.99902t-1.5 -8q-2 -7.99902 -4.5 -14.499q-2.5 -6.49902 -4.5 -12.499q-1.99902 -5 -4.49902 -9.49902q-2.5 -4.5 -4.5 -9.5q-2 -4.99902 -4.5 -8.49902t-4.5 -7.5q-8.99902 -12.999 -17.998 -23.998q-7 -10 -16.999 -19.999
q-8 -8.99902 -15.999 -16.999l-15.999 -15.999q-8 -7.99902 -15.999 -14.499q-8 -6.5 -15.999 -13.499q-15.999 -13.999 -31.498 -25.999q-15.499 -11.999 -31.498 -23.998q-4 -2 -7.5 -5t-8.49902 -5.99902l-4 -3l-3 -3h-1h-1q-2 0 -6.99902 -5q-2 -3 -5 -5.99902
q-3 -3 -5 -8t-4.49902 -9.49902q-2.5 -4.5 -4.5 -9.5q-5 -10.999 -7 -21.998q-2 -11 -4 -21.999q-1.99902 -10.999 -1.49902 -21.999q0.5 -10.999 2.49902 -20.998q5 -19.999 13 -33.998q4.99902 -7 10.999 -13.499q6 -6.5 13.999 -11.5q16.999 -10.999 42.9971 -16.998
q8 -2 13 -3q1.99902 0 2.99902 -0.5t3 -0.5h4l3 -1h1h1h2h0.999023h1h2q2 -1 7 -1h14.999q27.998 -1 54.9961 5q53.9971 10.999 85.9951 50.9961q16.999 19.999 27.998 47.9971q2 7 4.5 13.5q2.5 6.49902 4.5 14.499q1 3.99902 1.5 6.99902t1.5 7
q0 4.99902 0.999023 6.99902v3v2v1q2 20.999 16.999 34.998t35.998 11.999q18.999 -1 31.998 -13.999t14.999 -30.998zM411.975 551.967q0 -26.999 -9.99902 -51.4971q-9.99902 -24.499 -27.998 -42.498t-41.998 -28.498q-23.998 -10.499 -51.9971 -10.499
q-26.998 0 -50.9961 10.499q-23.999 10.499 -42.498 28.498q-18.498 17.999 -28.998 42.498q-10.499 24.498 -10.499 51.4971q0 27.998 10.499 51.9961q10.5 23.999 28.998 41.998q18.499 17.998 42.498 27.998q23.998 9.99902 50.9961 9.99902q27.999 0 51.9971 -9.99902
q23.999 -10 41.998 -27.998q17.999 -17.999 27.998 -41.998q9.99902 -23.998 9.99902 -51.9961z" />
    <glyph glyph-name="plusminus" unicode="&#xb1;" horiz-adv-x="601" 
d="M197 195v30t1 31h-24q-24 -11 -45 -6t-32.5 19.5t-11.5 36t17 43.5q15 15 40.5 21t55.5 7q0 4 -0.5 8t-0.5 8q-8 23 0 50l3 9q15 20 33 28t34.5 4.5t29 -17.5t17.5 -39q2 -15 3 -30t2 -31q25 -4 45.5 -8t35.5 -7q27 -10 38.5 -28.5t9 -37.5t-18.5 -34t-44 -18
q-17 3 -33.5 6t-33.5 6q-1 -14 -1 -28v-28q-4 -32 -23 -47.5t-40 -14.5t-38.5 18t-18.5 49zM72 48q7 23 20 35.5t28.5 16t30.5 -2t25 -18.5l40.5 4.5t33.5 4.5q49 7 97 10t97 5q33 -2 49.5 -19t17.5 -38t-15 -39.5t-48 -22.5q-28 -1 -42.5 -1.5t-26.5 -1t-26 -1.5t-41 -4
q-23 -2 -49.5 -7.5t-54 -9t-54 -2.5t-47.5 13q-20 12 -28.5 26t-9.5 37z" />
    <glyph glyph-name="section" unicode="&#xa7;" horiz-adv-x="435" 
d="M375 510q6 -32 -6.5 -52.5t-32.5 -26.5t-42 5t-34 41q-2 6 -3 12.5t-4 12.5q-6 15 -26 23t-39.5 6.5t-32 -15.5t-3.5 -44q8 -25 29.5 -43t50 -33t59 -29.5t55.5 -32.5t41.5 -42t15.5 -58q-1 -20 -11 -37.5t-24 -31.5q-5 -5 -10 -9t-11 -8q2 -1 2.5 -2t2.5 -3
q27 -35 28.5 -78.5t-11.5 -83.5q-4 -12 -9 -17.5t-14 -14.5q-8 -7 -15 -14t-15 -14q-20 -15 -48 -20.5t-57.5 -2.5t-56.5 13.5t-44 27.5q-16 16 -26 29t-17 27t-11.5 30.5t-9.5 37.5q-1 28 11.5 46t30.5 23.5t38 -3t35 -33.5q2 -11 4 -22.5t6 -22.5q5 -12 20.5 -20
t31.5 -10.5t28 2t10 18.5q-2 9 -4.5 17.5t-4.5 16.5q-2 5 -6.5 6t-8.5 3q-31 17 -61 33t-59 33q-27 17 -53.5 43t-34.5 59q-8 35 2 70t33 61q0 1 -0.5 1.5t-0.5 1.5q-17 27 -23.5 48.5t-10.5 53.5q-6 48 14 83t54 54.5t77 23.5t83 -9.5t72.5 -45.5t45.5 -84zM267 240
q-26 17 -55 32t-58 32l-2 -4l-2 -4q-2 -6 -2 -13t4 -10q14 -15 31 -26t36 -20q1 1 2 1t3 1q13 2 22 4t21 7zM153 305q-1 -1 -1 -2q0 1 0.5 1t0.5 1z" />
    <glyph glyph-name="sterling" unicode="&#xa3;" horiz-adv-x="720" 
d="M396 832q74 -46 113.5 -76.5t54 -50t8 -28.5t-26 -11.5t-47.5 1t-55.5 9t-51 11.5t-34.5 10q-34 13 -45 6t-10 -33t8.5 -70.5t9.5 -107.5l192 20q20 12 36 2t21 -28t-4.5 -37.5t-40.5 -25.5q-2 0 -4 -0.5t-4 -0.5l-189 -22l16 -156l334 1q31 0 52.5 -21.5t21.5 -53.5
q0 -22 -11.5 -40t-30.5 -27l-429 -203q-55 -25 -113 -14q-33 2 -62 15.5t-51.5 36t-36.5 52t-17 63.5q-2 25 3 48l127 569q20 35 51.5 72.5t67.5 64.5t74 36.5t73 -11.5z" />
    <glyph glyph-name="brokenbar" unicode="&#xa6;" horiz-adv-x="283" 
d="M199 362q-4 -32 -23 -47.5t-40 -14.5t-38.5 18t-18.5 49v295q8 28 26 41t37 12t35 -15.5t22 -42.5v-295zM183 207q4 -5 7.5 -11.5t5.5 -14.5q1 -2 1.5 -5t1.5 -5v-284q-4 -32 -23 -47.5t-40 -14.5t-38.5 18t-18.5 49v284q1 2 1.5 5t1.5 5q2 4 3 5q5 11 13 20l3 3
q1 1 2 1.5t2 1.5t1.5 1t1.5 1q3 2 7 4q3 1 7 3q6 2 8 2q1 0 1.5 0.5t2.5 0.5q7 0 11 -1q2 0 4 -0.5t4 -0.5q1 -1 3 -1q2 -1 4 -1.5t4 -1.5q2 -2 3 -2q6 -4 7 -5z" />
    <glyph glyph-name="ordfeminine" unicode="&#xaa;" horiz-adv-x="557" 
d="M215.94 414.014q41.8613 0 78.8721 -10.7207q37.0117 -10.7197 64.5781 -29.3535q27.5664 -18.6328 43.3926 -43.6475q15.8252 -25.0146 15.8252 -53.0918q0 -28.5879 -15.8252 -53.3467q-15.8262 -24.7598 -43.3926 -43.3926t-64.5781 -29.3535
q-37.0107 -10.7207 -78.8721 -10.7207q-41.8604 0 -78.6162 10.7207t-64.3232 29.3535q-27.5664 18.6328 -43.3916 43.3926q-15.8262 24.7588 -15.8262 53.3467q0 28.0771 15.8262 53.0918q15.8252 25.0146 43.3916 43.6475q27.5674 18.6338 64.3232 29.3535
q36.7559 10.7207 78.6162 10.7207zM223.088 294.558q16.3359 0 30.6299 2.80762t25.0146 7.65723q10.7197 4.84961 16.8457 11.2314q6.12598 6.38086 6.12598 14.0381q0 7.14746 -6.12598 13.5283t-16.8457 11.2314q-10.7207 4.84961 -25.0146 7.65723t-30.6299 2.80762
t-30.375 -2.80762t-24.7588 -7.65723q-10.7207 -4.85059 -16.8467 -11.2314t-6.12598 -13.5283q0 -7.65723 6.12598 -14.0381q6.12598 -6.38184 16.8467 -11.2314q10.7197 -4.84961 24.7588 -7.65723t30.375 -2.80762zM72.4902 502.33h0.510742l0.510742 0.510742
l1.02148 1.02051l2.04102 1.53125l2.04297 1.02148q1.02051 0.510742 2.04102 1.53125q3.57422 2.55273 8.16797 5.10547q7.14746 5.10449 15.8262 10.21q17.8672 9.69922 34.2031 16.8467q8.67871 4.08398 18.123 7.40137q9.44336 3.31836 19.1436 6.38184
q9.69922 2.55273 19.9092 4.59375q10.21 2.04297 20.9307 3.57422q21.4404 2.55273 45.4346 0q11.7412 -1.53125 23.4824 -4.33984q11.7412 -2.80762 23.4824 -7.40234q11.7422 -4.59375 22.207 -10.9756q10.4648 -6.38086 20.6758 -13.5283
q19.3984 -14.8037 34.2031 -33.6924q7.65723 -8.67871 13.7832 -18.123t11.7412 -18.6328q10.7207 -19.3994 18.3779 -38.2871q7.6582 -18.8887 13.2734 -37.7773q5.61523 -18.8877 9.69922 -37.2666q4.59473 -18.8877 7.40234 -37.2656t5.36035 -36.2461
q4.59473 -36.7559 6.12598 -72.4902v-1.02148q1.02051 -18.377 -5.10547 -34.458t-17.3564 -28.5879q-11.2314 -12.5068 -26.8018 -20.165q-15.5703 -7.65723 -33.9473 -8.67773q-17.8682 -1.02148 -34.2041 5.10449t-28.8428 17.3564q-12.5078 11.2314 -20.165 26.8018
t-8.67871 33.4375q-0.509766 4.08398 -0.254883 7.65723q0.254883 3.57422 0.765625 7.14746q1.53223 15.3145 2.80762 30.374q1.27637 15.0605 2.29785 29.8643q1.53125 29.6094 0 58.1973q-1.02148 14.2939 -2.55273 27.5664q-1.53125 13.2734 -4.08398 26.0361
q-5.61523 25.0137 -14.8047 42.8809q-4.08398 8.67871 -10.21 15.3154q-5.10449 6.12598 -12.252 11.2314q-3.57324 2.55176 -7.40234 4.59375q-3.82812 2.04199 -8.42285 3.57422q-9.18848 2.55176 -20.9307 3.57324q-5.61523 1.02051 -11.7412 0.765625t-12.7627 -1.27637
q-12.7617 -0.510742 -26.5459 -4.59473q-6.63574 -1.53125 -13.2725 -3.57324t-13.7832 -4.59473q-7.14746 -2.55176 -13.2734 -5.10449q-1.53125 -1.02148 -3.0625 -1.27637q-1.53223 -0.254883 -3.06348 -1.27637l-3.06348 -1.53125l-3.0625 -1.02148l-2.04199 -1.02051
q-8.16797 -4.08398 -16.5908 -4.33984q-8.42383 -0.254883 -16.0811 2.55273t-14.0391 8.42285q-6.38086 5.61621 -9.9541 13.7842q-7.14746 13.7832 -3.31836 28.5879q3.82812 14.8037 15.5703 23.4824z" />
    <glyph glyph-name="logicalnot" unicode="&#xac;" horiz-adv-x="474" 
d="M70 466q5 0 15 -2v1q3 -1 10.5 -2.5t16 -3.5t16.5 -3.5t14 -2.5q6 1 10.5 1.5t10.5 1.5q12 3 23.5 8t23.5 10q21 7 43 13.5t43.5 8.5t42.5 -1.5t42 -16.5q15 -3 26 -13t15 -23t1 -29t-15 -31q-1 -8 0 -17l2 -18q2 -23 5 -46.5t5 -46.5q-4 -29 -19 -44.5t-34 -17.5
t-37.5 10t-28.5 38q-2 32 -8.5 67t-4.5 69q-26 -5 -53.5 -18.5t-47.5 -18.5q-23 -5 -43.5 -5t-43.5 5q-5 1 -9 2t-9 2q-4 0 -10 2q15 -2 16 -1.5t-5.5 1.5t-16 2.5t-14.5 2.5q-21 13 -30.5 30t-7 34t15.5 31t37 21h3zM70 345q-1 0 -1 0.5t-1 0.5h1z" />
    <glyph glyph-name="Ugrave" unicode="&#xd9;" horiz-adv-x="772" 
d="M270 703q0 -3 0.5 -6t0.5 -6l1 -13v-12.5t1 -12.5l2 -50q1 -25 1.5 -49.5t2.5 -48.5q1 -23 3 -46l4 -46q4 -45 12 -84q4 -20 9 -36l5.5 -16.5t5.5 -14.5l6 -12q2 -4 6 -10q3 -3 5 -7q2 -2 3 -2.5t2 -1.5q4 -3 6 -3h2h1l2 -1q2 0 4 -1q5 0 7 -1q6 0 10 -1h6h3h2h4h3h6
q2 1 4.5 1h4.5q3 1 7 1q2 1 5 1q1 0 1.5 0.5t1.5 0.5h2q2 0 3 1q1 0 2 1q1 0 2 1l4.5 4.5t5.5 6.5q7 10 12 22q13 28 20 67l4 20t4 21t3 21.5t2 21.5q3 23 4.5 46t3.5 47t3 48t2 50l2 50q1 6 1 12.5t1 12.5v13l1 6q0 5 1 6l2 13q5 23 25 36.5t44 8.5q11 -2 20 -8t15 -14
l9 -12l4 -6l4 -6q4 -5 7.5 -11t7.5 -12q8 -12 14.5 -24t13.5 -24q13 -25 24 -50.5t22 -51.5q20 -53 33 -109q6 -28 10.5 -57.5t6.5 -60.5q1 -16 1.5 -32t-1.5 -33q-1 -17 -2.5 -34t-5.5 -35t-8.5 -36.5t-12.5 -37.5t-17.5 -38t-23.5 -38q-25 -38 -64 -71q-9 -8 -19 -14.5
t-20 -13.5q-11 -6 -21.5 -11.5t-21.5 -10.5q-43 -19 -85 -26t-80 -7h-5h-5h-9q-5 1 -10 1t-10 1l-20 2t-21 3t-21 4.5t-21 5.5q-24 6 -43 16q-13 5 -22 10l-21 12q-11 6 -20.5 13t-19.5 15q-9 8 -18 16.5t-17 17.5q-8 8 -15 17.5t-14 18.5q-26 40 -41 77q-2 5 -3 9.5t-3 9.5
t-3 9.5t-3 9.5q-6 18 -9 36q-4 18 -5.5 35t-2.5 34q-2 17 -1.5 33t1.5 32q2 32 6 61t11 58q6 29 14 56t18 53q5 14 10.5 26.5t11.5 25.5l5 12q2 5 6 13l6 12t7 13q12 24 27 48q4 6 7.5 12t7.5 11l4 6l4 6l4 6l2 3l2 2l1 1q17 20 43.5 23t46.5 -14q21 -16 24 -42v-5zM525 908
q10 -8 12 -19.5t-5 -21.5q-5 -7 -12.5 -10.5t-15.5 -1.5l-206 37q-30 6 -47.5 31t-12.5 55t30.5 47.5t54.5 12.5q17 -5 29 -12z" />
    <glyph glyph-name="Uacute" unicode="&#xda;" horiz-adv-x="772" 
d="M270 703q0 -3 0.5 -6t0.5 -6l1 -13v-12.5t1 -12.5l2 -50q1 -25 1.5 -49.5t2.5 -48.5q1 -23 3 -46l4 -46q4 -45 12 -84q4 -20 9 -36l5.5 -16.5t5.5 -14.5l6 -12q2 -4 6 -10q3 -3 5 -7q2 -2 3 -2.5t2 -1.5q4 -3 6 -3h2h1l2 -1q2 0 4 -1q5 0 7 -1q6 0 10 -1h6h3h2h4h3h6
q2 1 4.5 1h4.5q3 1 7 1q2 1 5 1q1 0 1.5 0.5t1.5 0.5h2q2 0 3 1q1 0 2 1q1 0 2 1l4.5 4.5t5.5 6.5q7 10 12 22q13 28 20 67l4 20t4 21t3 21.5t2 21.5q3 23 4.5 46t3.5 47t3 48t2 50l2 50q1 6 1 12.5t1 12.5v13l1 6q0 5 1 6l2 13q5 23 25 36.5t44 8.5q11 -2 20 -8t15 -14
l9 -12l4 -6l4 -6q4 -5 7.5 -11t7.5 -12q8 -12 14.5 -24t13.5 -24q13 -25 24 -50.5t22 -51.5q20 -53 33 -109q6 -28 10.5 -57.5t6.5 -60.5q1 -16 1.5 -32t-1.5 -33q-1 -17 -2.5 -34t-5.5 -35t-8.5 -36.5t-12.5 -37.5t-17.5 -38t-23.5 -38q-25 -38 -64 -71q-9 -8 -19 -14.5
t-20 -13.5q-11 -6 -21.5 -11.5t-21.5 -10.5q-43 -19 -85 -26t-80 -7h-5h-5h-9q-5 1 -10 1t-10 1l-20 2t-21 3t-21 4.5t-21 5.5q-24 6 -43 16q-13 5 -22 10l-21 12q-11 6 -20.5 13t-19.5 15q-9 8 -18 16.5t-17 17.5q-8 8 -15 17.5t-14 18.5q-26 40 -41 77q-2 5 -3 9.5t-3 9.5
t-3 9.5t-3 9.5q-6 18 -9 36q-4 18 -5.5 35t-2.5 34q-2 17 -1.5 33t1.5 32q2 32 6 61t11 58q6 29 14 56t18 53q5 14 10.5 26.5t11.5 25.5l5 12q2 5 6 13l6 12t7 13q12 24 27 48q4 6 7.5 12t7.5 11l4 6l4 6l4 6l2 3l2 2l1 1q17 20 43.5 23t46.5 -14q21 -16 24 -42v-5zM277 863
q-11 -3 -22 2.5t-15 16.5q-2 8 0 16.5t8 13.5l154 142q11 10 25 15t28 4t27.5 -7t23.5 -17t15 -25t4.5 -28t-6 -27.5t-16.5 -23.5q-7 -5 -13.5 -9t-13.5 -6z" />
    <glyph glyph-name="Ucircumflex" unicode="&#xdb;" horiz-adv-x="772" 
d="M270 703q0 -3 0.5 -6t0.5 -6l1 -13v-12.5t1 -12.5l2 -50q1 -25 1.5 -49.5t2.5 -48.5q1 -23 3 -46l4 -46q4 -45 12 -84q4 -20 9 -36l5.5 -16.5t5.5 -14.5l6 -12q2 -4 6 -10q3 -3 5 -7q2 -2 3 -2.5t2 -1.5q4 -3 6 -3h2h1l2 -1q2 0 4 -1q5 0 7 -1q6 0 10 -1h6h3h2h4h3h6
q2 1 4.5 1h4.5q3 1 7 1q2 1 5 1q1 0 1.5 0.5t1.5 0.5h2q2 0 3 1q1 0 2 1q1 0 2 1l4.5 4.5t5.5 6.5q7 10 12 22q13 28 20 67l4 20t4 21t3 21.5t2 21.5q3 23 4.5 46t3.5 47t3 48t2 50l2 50q1 6 1 12.5t1 12.5v13l1 6q0 5 1 6l2 13q5 23 25 36.5t44 8.5q11 -2 20 -8t15 -14
l9 -12l4 -6l4 -6q4 -5 7.5 -11t7.5 -12q8 -12 14.5 -24t13.5 -24q13 -25 24 -50.5t22 -51.5q20 -53 33 -109q6 -28 10.5 -57.5t6.5 -60.5q1 -16 1.5 -32t-1.5 -33q-1 -17 -2.5 -34t-5.5 -35t-8.5 -36.5t-12.5 -37.5t-17.5 -38t-23.5 -38q-25 -38 -64 -71q-9 -8 -19 -14.5
t-20 -13.5q-11 -6 -21.5 -11.5t-21.5 -10.5q-43 -19 -85 -26t-80 -7h-5h-5h-9q-5 1 -10 1t-10 1l-20 2t-21 3t-21 4.5t-21 5.5q-24 6 -43 16q-13 5 -22 10l-21 12q-11 6 -20.5 13t-19.5 15q-9 8 -18 16.5t-17 17.5q-8 8 -15 17.5t-14 18.5q-26 40 -41 77q-2 5 -3 9.5t-3 9.5
t-3 9.5t-3 9.5q-6 18 -9 36q-4 18 -5.5 35t-2.5 34q-2 17 -1.5 33t1.5 32q2 32 6 61t11 58q6 29 14 56t18 53q5 14 10.5 26.5t11.5 25.5l5 12q2 5 6 13l6 12t7 13q12 24 27 48q4 6 7.5 12t7.5 11l4 6l4 6l4 6l2 3l2 2l1 1q17 20 43.5 23t46.5 -14q21 -16 24 -42v-5z
M372 1077q10 6 21.5 4t19.5 -10q5 -7 6 -15.5t-3 -14.5l-97 -186q-15 -27 -44 -36.5t-56 4.5q-14 7 -23 18.5t-13.5 25.5t-3.5 28.5t8 27.5q5 7 10 13t10 10zM364 1043q-4 11 0.5 22.5t14.5 16.5q8 4 16.5 2.5t13.5 -6.5l159 -136q23 -21 26 -51.5t-17 -53.5
q-10 -12 -23.5 -18t-28 -7t-28.5 3t-25 14q-12 12 -18 24z" />
    <glyph glyph-name="Yacute" unicode="&#xdd;" horiz-adv-x="466" 
d="M518 668l-173 -739q-8 -36 -30 -64.5t-52.5 -47t-67 -25.5t-75.5 1t-69.5 28t-50.5 48.5t-27 62.5t1 70q2 10 6 20.5t9 18.5l359 681q8 15 21.5 26t30 16t34.5 4.5t35 -8.5q29 -12 42 -38t7 -54zM45 761l278 -427q13 -20 16.5 -42.5t-2 -44t-20 -40t-36.5 -30.5
t-46.5 -15.5t-48 2t-44 18.5t-33.5 34q-2 5 -4.5 10t-4.5 10l-186 467q-5 13 -4.5 26.5t6.5 25t16.5 20.5t24.5 14q26 9 50 0.5t38 -28.5zM124 863q-11 -3 -22 2.5t-15 16.5q-2 8 0 16.5t8 13.5l154 142q11 10 25 15t28 4t27.5 -7t23.5 -17t15 -25t4.5 -28t-6 -27.5
t-16.5 -23.5q-7 -5 -13.5 -9t-13.5 -6z" />
    <glyph glyph-name="yacute" unicode="&#xfd;" horiz-adv-x="670" 
d="M292 523l-11 -23q-2 -6 -5 -12t-5 -11q-2 -6 -4.5 -12t-4.5 -11q-2 -6 -4 -11.5t-4 -11.5q-4 -11 -7.5 -21.5t-6.5 -21.5t-4.5 -16t-3.5 -15q-1 -5 -1 -9.5v-9.5q-6 -24 9 -38t40.5 -19t57.5 -1t59.5 16t46.5 32.5t19 47.5l114 -74q18 -12 21.5 -20.5t1 -18t-8.5 -23
t-7 -34.5q0 -5 8 -12t17.5 -14t16.5 -14t5 -11q-2 -3 1.5 -6t7.5 -6t7 -5.5t1 -5.5q-1 -1 -11 -2t-22.5 -2t-22.5 -2.5t-11 -2.5t7.5 -2.5t19 -2.5t19 -2.5t7.5 -2.5q-8 -10 -16 -18.5t-16 -16.5q-35 -31 -71 -50q-38 -20 -75 -30q-20 -6 -38.5 -9.5t-38.5 -5.5
q-19 -2 -38 -2t-39 2q-38 3 -79 15q-39 10 -78 33q-10 5 -19.5 11t-19.5 14q-9 8 -18.5 16t-17.5 17t-16 19t-15 21q-13 21 -23 45q-5 12 -8.5 24t-5.5 24t-3 24t-1 23q0 22 3 43t9 39q10 36 27 67q8 16 16.5 29.5t17.5 26.5q19 25 39 48l21 21l21 21q5 5 10.5 9.5t11.5 9.5
l5 4l6 5q2 1 3 2t3 2l2 3l3 2q21 15 47 11t42 -25q11 -14 12.5 -31t-5.5 -32v-1zM129 -39l2 -1v-1h1q1 0 1 -1h1l1 -1l6 -3l12 -6l12 -6t11 -6q12 -5 23 -9l22 -8q20 -6 40 -9q9 -1 17.5 -1.5t16.5 -0.5q8 1 14.5 2t13.5 3q7 3 14 6.5t14 8.5q16 12 28 29q15 20 25 43
q5 12 9.5 25.5t9.5 27.5q7 28 12 60t6.5 65t0.5 67q-2 69 -12 139q-11 70 -27 140v1q-3 15 -0.5 29t9.5 25.5t18.5 20t25.5 12.5q26 6 48.5 -5t33.5 -34q17 -35 32.5 -71t29.5 -73q14 -38 26.5 -76t22.5 -78t17 -81t10 -85q2 -22 2.5 -44t-0.5 -45t-3 -46t-7 -47
t-11.5 -48.5t-16.5 -48.5q-10 -25 -22.5 -49.5t-29.5 -47.5t-37.5 -45t-44.5 -41q-12 -9 -24.5 -17.5t-25.5 -16.5q-29 -16 -55 -27q-55 -22 -113 -30q-56 -9 -109 -6q-26 1 -51.5 3.5t-50.5 7.5q-12 2 -24 4.5t-24 5.5q-6 2 -12 3t-11 3l-12 3l-6 2h-3l-2 1
q-41 11 -72.5 36t-51 58.5t-26 73.5t4.5 81t36 73t59 51.5t74 25.5t81 -5q11 -3 21 -7t20 -9zM226 663q-11 -3 -22 2.5t-15 16.5q-2 8 0 16.5t8 13.5l154 142q11 10 25 15t28 4t27.5 -7t23.5 -17t15 -25t4.5 -28t-6 -27.5t-16.5 -23.5q-7 -5 -13.5 -9t-13.5 -6z" />
    <glyph glyph-name="ucircumflex" unicode="&#xfb;" horiz-adv-x="707" 
d="M554 568l177 -467q13 -37 11.5 -74t-16.5 -70t-42 -59t-63 -40t-73.5 -12.5t-70.5 16.5t-59 42t-40 63q-16 44 -11 86l51 497q3 29 25.5 47.5t51.5 15.5q21 -2 36.5 -14.5t22.5 -30.5zM295 528l-9 -27q-2 -7 -4.5 -13t-4.5 -13t-4 -13.5t-4 -13.5t-4 -13t-4 -13
q-7 -24 -12 -52q-3 -12 -4.5 -24.5t-3.5 -24.5q-1 -6 -1 -11.5v-11.5q-1 -12 0 -22q0 -19 5 -39q1 -5 2 -8.5t3 -7.5q2 -3 3 -6.5t3 -5.5q5 -10 14 -17q2 -2 4 -3t4 -3q2 -1 8 -3q4 -3 9 -3l9 -3q5 -1 11 -1t12 -1q5 0 11.5 0.5t11.5 1.5q6 1 11.5 2t10.5 3t8.5 3.5t5.5 2.5
q4 2 5 2h3q1 0 2.5 -0.5t4.5 0.5l150 40q42 11 78.5 -10t47.5 -63q6 -24 2 -46q-2 -7 -3.5 -13.5t-3.5 -13.5q-1 -4 -2 -7t-3 -7q-2 -6 -5 -13q-13 -29 -28 -51q-18 -24 -37 -42q-11 -10 -21.5 -18.5t-21.5 -16.5q-22 -14 -45.5 -24.5t-46.5 -18.5q-46 -13 -95 -15
q-47 -2 -94 9q-47 9 -90 33q-11 5 -21 11.5t-21 13.5q-10 8 -19.5 16t-18.5 17q-20 18 -34 38q-15 19 -27 42t-19.5 45.5t-12.5 45.5q-2 12 -3.5 23t-1.5 22q-1 22 0 43t4 41t8 38q3 10 5.5 19t5.5 17q3 9 6.5 17.5t6.5 16.5q14 33 31.5 62.5t36.5 55.5q5 7 10 13.5t10 13.5
l10 12t10 13l21 24l6 5l5 6l6 6l3 3l2 2q19 18 45 18t44 -19q14 -14 17 -31t-2 -34zM342 902q10 6 21.5 4t19.5 -10q5 -7 6 -15.5t-3 -14.5l-97 -186q-15 -27 -44 -36.5t-56 4.5q-14 7 -23 18.5t-13.5 25.5t-3.5 28.5t8 27.5q5 7 10 13t10 10zM334 868q-4 11 0.5 22.5
t14.5 16.5q8 4 16.5 2.5t13.5 -6.5l159 -136q23 -21 26 -51.5t-17 -53.5q-10 -12 -23.5 -18t-28 -7t-28.5 3t-25 14q-12 12 -18 24z" />
    <glyph glyph-name="uacute" unicode="&#xfa;" horiz-adv-x="707" 
d="M554 568l177 -467q13 -37 11.5 -74t-16.5 -70t-42 -59t-63 -40t-73.5 -12.5t-70.5 16.5t-59 42t-40 63q-16 44 -11 86l51 497q3 29 25.5 47.5t51.5 15.5q21 -2 36.5 -14.5t22.5 -30.5zM295 528l-9 -27q-2 -7 -4.5 -13t-4.5 -13t-4 -13.5t-4 -13.5t-4 -13t-4 -13
q-7 -24 -12 -52q-3 -12 -4.5 -24.5t-3.5 -24.5q-1 -6 -1 -11.5v-11.5q-1 -12 0 -22q0 -19 5 -39q1 -5 2 -8.5t3 -7.5q2 -3 3 -6.5t3 -5.5q5 -10 14 -17q2 -2 4 -3t4 -3q2 -1 8 -3q4 -3 9 -3l9 -3q5 -1 11 -1t12 -1q5 0 11.5 0.5t11.5 1.5q6 1 11.5 2t10.5 3t8.5 3.5t5.5 2.5
q4 2 5 2h3q1 0 2.5 -0.5t4.5 0.5l150 40q42 11 78.5 -10t47.5 -63q6 -24 2 -46q-2 -7 -3.5 -13.5t-3.5 -13.5q-1 -4 -2 -7t-3 -7q-2 -6 -5 -13q-13 -29 -28 -51q-18 -24 -37 -42q-11 -10 -21.5 -18.5t-21.5 -16.5q-22 -14 -45.5 -24.5t-46.5 -18.5q-46 -13 -95 -15
q-47 -2 -94 9q-47 9 -90 33q-11 5 -21 11.5t-21 13.5q-10 8 -19.5 16t-18.5 17q-20 18 -34 38q-15 19 -27 42t-19.5 45.5t-12.5 45.5q-2 12 -3.5 23t-1.5 22q-1 22 0 43t4 41t8 38q3 10 5.5 19t5.5 17q3 9 6.5 17.5t6.5 16.5q14 33 31.5 62.5t36.5 55.5q5 7 10 13.5t10 13.5
l10 12t10 13l21 24l6 5l5 6l6 6l3 3l2 2q19 18 45 18t44 -19q14 -14 17 -31t-2 -34zM245 663q-11 -3 -22 2.5t-15 16.5q-2 8 0 16.5t8 13.5l154 142q11 10 25 15t28 4t27.5 -7t23.5 -17t15 -25t4.5 -28t-6 -27.5t-16.5 -23.5q-7 -5 -13.5 -9t-13.5 -6z" />
    <glyph glyph-name="ugrave" unicode="&#xf9;" horiz-adv-x="707" 
d="M554 568l177 -467q13 -37 11.5 -74t-16.5 -70t-42 -59t-63 -40t-73.5 -12.5t-70.5 16.5t-59 42t-40 63q-16 44 -11 86l51 497q3 29 25.5 47.5t51.5 15.5q21 -2 36.5 -14.5t22.5 -30.5zM295 528l-9 -27q-2 -7 -4.5 -13t-4.5 -13t-4 -13.5t-4 -13.5t-4 -13t-4 -13
q-7 -24 -12 -52q-3 -12 -4.5 -24.5t-3.5 -24.5q-1 -6 -1 -11.5v-11.5q-1 -12 0 -22q0 -19 5 -39q1 -5 2 -8.5t3 -7.5q2 -3 3 -6.5t3 -5.5q5 -10 14 -17q2 -2 4 -3t4 -3q2 -1 8 -3q4 -3 9 -3l9 -3q5 -1 11 -1t12 -1q5 0 11.5 0.5t11.5 1.5q6 1 11.5 2t10.5 3t8.5 3.5t5.5 2.5
q4 2 5 2h3q1 0 2.5 -0.5t4.5 0.5l150 40q42 11 78.5 -10t47.5 -63q6 -24 2 -46q-2 -7 -3.5 -13.5t-3.5 -13.5q-1 -4 -2 -7t-3 -7q-2 -6 -5 -13q-13 -29 -28 -51q-18 -24 -37 -42q-11 -10 -21.5 -18.5t-21.5 -16.5q-22 -14 -45.5 -24.5t-46.5 -18.5q-46 -13 -95 -15
q-47 -2 -94 9q-47 9 -90 33q-11 5 -21 11.5t-21 13.5q-10 8 -19.5 16t-18.5 17q-20 18 -34 38q-15 19 -27 42t-19.5 45.5t-12.5 45.5q-2 12 -3.5 23t-1.5 22q-1 22 0 43t4 41t8 38q3 10 5.5 19t5.5 17q3 9 6.5 17.5t6.5 16.5q14 33 31.5 62.5t36.5 55.5q5 7 10 13.5t10 13.5
l10 12t10 13l21 24l6 5l5 6l6 6l3 3l2 2q19 18 45 18t44 -19q14 -14 17 -31t-2 -34zM492 708q10 -8 12 -19.5t-5 -21.5q-5 -7 -12.5 -10.5t-15.5 -1.5l-206 37q-30 6 -47.5 31t-12.5 55t30.5 47.5t54.5 12.5q17 -5 29 -12z" />
    <glyph glyph-name="oslash" unicode="&#xf8;" horiz-adv-x="795" 
d="M241 -73q-20 -30 -44.5 -47.5t-50.5 -22t-51 4.5t-46 32q-21 22 -31.5 53.5t-11.5 66t8.5 70t28.5 65.5q12 18 28 34l485 474q23 22 48.5 17t40.5 -34q11 -24 8.5 -53.5t-16.5 -51.5zM394 640q82 0 154.5 -31t126.5 -85t85 -126.5t31 -154.5t-31 -154t-85 -126
t-126.5 -85t-154.5 -31t-154 31t-126 85t-85 126t-31 154t31 154.5t85 126.5t126 85t154 31zM408 294q-32 0 -59.5 8t-48.5 22t-33 33t-12 40t12 40t33 33t48.5 22t59.5 8t60 -8t49 -22t33 -33t12 -40t-12 -40t-33 -33t-49 -22t-60 -8z" />
    <glyph glyph-name="Oslash" unicode="&#xd8;" 
d="M278 21q-19 -32 -48 -53t-63 -29.5t-69.5 -4t-67.5 23.5t-53 47.5t-30 62.5t-4.5 69.5t23.5 68.5q13 22 30 37l539 539q26 26 61 25.5t61 -26.5q20 -22 23 -51t-11 -53zM428 813q87 0 164 -37t134 -101t90 -150t33 -184t-33 -183.5t-90 -149.5t-134 -101t-164 -37
t-163.5 37t-133.5 101t-90 149.5t-33 183.5t33 184t90 150t133.5 101t163.5 37zM438 383q-34 0 -63.5 13t-51.5 35t-35 51.5t-13 63.5t13 63.5t35 51.5t51.5 35t63.5 13t63.5 -13t51.5 -35t35 -51.5t13 -63.5t-13 -63.5t-35 -51.5t-51.5 -35t-63.5 -13z" />
    <glyph glyph-name="multiply" unicode="&#xd7;" horiz-adv-x="398" 
d="M23 414q-11 27 -5 48t22 32t38 9.5t43 -20.5q11 -20 24.5 -37t27.5 -34q14 16 28.5 30t31.5 28q26 19 50 16t37.5 -19t12.5 -40.5t-24 -47.5q-25 -21 -49 -48q40 -33 84 -63q25 -21 27.5 -45.5t-10 -41.5t-36 -22t-51.5 12q-22 15 -43 30.5t-42 32.5q-8 -12 -15 -24
l-14 -24q-20 -20 -41.5 -23.5t-37.5 6.5t-23.5 30.5t0.5 47.5q10 17 20.5 34t21.5 34q-22 23 -41.5 47.5t-35.5 51.5z" />
    <glyph glyph-name="divide" unicode="&#xf7;" horiz-adv-x="222" 
d="M287 385q22 4 42.5 -0.5t37.5 -15.5t29 -28.5t17 -39.5q4 -22 0 -42.5t-15.5 -37.5t-29 -29.5t-39.5 -16.5q-2 0 -4 -0.5t-4 -0.5l-421 -36q-20 -3 -38 2.5t-32 16.5t-23.5 27t-11.5 36q-5 38 17 67.5t58 36.5zM0 83q0 21 7.5 39t21 32t31.5 22t39 8t39 -8t32 -22t22 -32
t8 -39t-8 -39t-22 -31.5t-32 -21t-39 -7.5q-42 0 -70.5 28.5t-28.5 70.5zM0 414q0 20 7.5 38.5t21 32t31.5 21.5t39 8t39 -8t32 -21.5t22 -32t8 -38.5q0 -21 -8 -39.5t-22 -32t-32 -21t-39 -7.5t-39 7.5t-31.5 21t-21 32t-7.5 39.5z" />
    <glyph glyph-name="otilde" unicode="&#xf5;" horiz-adv-x="795" 
d="M394 640q82 0 154.5 -31t126.5 -85t85 -126.5t31 -154.5t-31 -154t-85 -126t-126.5 -85t-154.5 -31t-154 31t-126 85t-85 126t-31 154t31 154.5t85 126.5t126 85t154 31zM408 294q32 0 60 8t49 22t33 33t12 40t-12 40t-33 33t-49 22t-60 8t-59.5 -8t-48.5 -22t-33 -33
t-12 -40t12 -40t33 -33t48.5 -22t59.5 -8zM201 672l2 2v2q2 3 2 4.5t1 4.5q3 3 7 13q3 7 7.5 13t9.5 13q4 7 10 12.5t13 10.5q7 7 14 11t16 8q15 7 36 7q5 0 9.5 -0.5t7.5 -0.5q6 -1 9 -2t8 -3q8 -2 14.5 -4.5t13.5 -4.5q6 -4 12 -6t11 -5q11 -5 20.5 -9.5t19.5 -7.5
q5 -2 9 -3.5t7 -1.5q4 -1 7.5 -1h6.5q7 0 9 1q3 0 4.5 1.5t5.5 3.5q2 1 8 7l10 10q17 22 42 23.5t44 -18.5q20 -18 20.5 -45.5t-16.5 -50.5q-1 -1 -3 -2.5t-4 -4.5l-1 -1l-14 -10.5t-14 -9.5q-7 -5 -15 -9l-16 -8q-9 -3 -17.5 -5.5t-18.5 -2.5q-10 -1 -18.5 -0.5t-17.5 2.5
q-19 3 -32 10q-7 2 -13.5 5.5t-13.5 7.5q-12 7 -23 13.5t-20 13.5q-5 4 -9.5 6t-8.5 6q-5 2 -8 4.5t-7 4.5q-4 0 -6 4q-4 0 -5 1h-10q-5 0 -11 -5q-7 -2 -12 -9q-6 -4 -12 -13q-1 -1 -1.5 -3.5t-2.5 -4.5l-2 -2l-1 -1l-1 -3v-1h-1q-7 -14 -19.5 -20t-25.5 2q-12 5 -17 19
t1 29v3z" />
    <glyph glyph-name="Otilde" unicode="&#xd5;" 
d="M416 790q87 0 164 -37t134 -101t90 -150t33 -184t-33 -183.5t-90 -149.5t-134 -101t-164 -37t-163.5 37t-133.5 101t-90 149.5t-33 183.5t33 184t90 150t133.5 101t163.5 37zM426 360q34 0 63.5 13t51.5 35t35 51.5t13 63.5t-13 63.5t-35 51.5t-51.5 35t-63.5 13
t-63.5 -13t-51.5 -35t-35 -51.5t-13 -63.5t13 -63.5t35 -51.5t51.5 -35t63.5 -13zM217 865l2 2v2q2 3 2 4.5t1 4.5q3 3 7 13q3 7 7.5 13t9.5 13q4 7 10 12.5t13 10.5q7 7 14 11t16 8q15 7 36 7q5 0 9.5 -0.5t7.5 -0.5q6 -1 9 -2t8 -3q8 -2 14.5 -4.5t13.5 -4.5q6 -4 12 -6
t11 -5q11 -5 20.5 -9.5t19.5 -7.5q5 -2 9 -3.5t7 -1.5q4 -1 7.5 -1h6.5q7 0 9 1q3 0 4.5 1.5t5.5 3.5q2 1 8 7l10 10q17 22 42 23.5t44 -18.5q20 -18 20.5 -45.5t-16.5 -50.5q-1 -1 -3 -2.5t-4 -4.5l-1 -1l-14 -10.5t-14 -9.5q-7 -5 -15 -9l-16 -8q-9 -3 -17.5 -5.5
t-18.5 -2.5q-10 -1 -18.5 -0.5t-17.5 2.5q-19 3 -32 10q-7 2 -13.5 5.5t-13.5 7.5q-12 7 -23 13.5t-20 13.5q-5 4 -9.5 6t-8.5 6q-5 2 -8 4.5t-7 4.5q-4 0 -6 4q-4 0 -5 1h-10q-5 0 -11 -5q-7 -2 -12 -9q-6 -4 -12 -13q-1 -1 -1.5 -3.5t-2.5 -4.5l-2 -2l-1 -1l-1 -3v-1h-1
q-7 -14 -19.5 -20t-25.5 2q-12 5 -17 19t1 29v3z" />
    <glyph glyph-name="Ntilde" unicode="&#xd1;" 
d="M294 781l51 -702q3 -37 -8.5 -71t-34.5 -60t-55 -42.5t-69 -19.5t-71 8.5t-60 34.5t-42.5 54.5t-19.5 69.5q-2 25 3 48l136 690q7 35 36 55t64 13q29 -6 48.5 -28t21.5 -50zM630 792l207 -676q11 -36 7.5 -72t-20 -66.5t-44 -54t-63.5 -34.5t-72 -7t-66.5 20.5t-54 43.5
t-34.5 63q-5 15 -6.5 30t-1.5 30l24 706q1 26 20 44.5t45 16.5q21 -1 37 -13t22 -31zM497 0l-345 733q-7 15 -7.5 30.5t5 29.5t15.5 26t25 19q26 12 52.5 5t43.5 -28l501 -635q22 -28 31 -61t5 -66t-20.5 -62.5t-44.5 -51.5t-60.5 -31t-65.5 -5t-62.5 20t-51.5 44
q-6 8 -11.5 16.5t-9.5 16.5zM217 890l2 2v2q2 3 2 4.5t1 4.5q3 3 7 13q3 7 7.5 13t9.5 13q4 7 10 12.5t13 10.5q7 7 14 11t16 8q15 7 36 7q5 0 9.5 -0.5t7.5 -0.5q6 -1 9 -2t8 -3q8 -2 14.5 -4.5t13.5 -4.5q6 -4 12 -6t11 -5q11 -5 20.5 -9.5t19.5 -7.5q5 -2 9 -3.5t7 -1.5
q4 -1 7.5 -1h6.5q7 0 9 1q3 0 4.5 1.5t5.5 3.5q2 1 8 7l10 10q17 22 42 23.5t44 -18.5q20 -18 20.5 -45.5t-16.5 -50.5q-1 -1 -3 -2.5t-4 -4.5l-1 -1l-14 -10.5t-14 -9.5q-7 -5 -15 -9l-16 -8q-9 -3 -17.5 -5.5t-18.5 -2.5q-10 -1 -18.5 -0.5t-17.5 2.5q-19 3 -32 10
q-7 2 -13.5 5.5t-13.5 7.5q-12 7 -23 13.5t-20 13.5q-5 4 -9.5 6t-8.5 6q-5 2 -8 4.5t-7 4.5q-4 0 -6 4q-4 0 -5 1h-10q-5 0 -11 -5q-7 -2 -12 -9q-6 -4 -12 -13q-1 -1 -1.5 -3.5t-2.5 -4.5l-2 -2l-1 -1l-1 -3v-1h-1q-7 -14 -19.5 -20t-25.5 2q-12 5 -17 19t1 29v3z" />
    </font>
</defs>
</svg>
