<?xml version="1.0" standalone="no"?>
<!DOCTYPE svg PUBLIC "-//W3C//DTD SVG 1.1//EN" "http://www.w3.org/Graphics/SVG/1.1/DTD/svg11.dtd" >
<svg xmlns="http://www.w3.org/2000/svg" xmlns:xlink="http://www.w3.org/1999/xlink" version="1.1">
<metadata>
Created by FontForge 20170731 at Tue May 26 20:06:55 1992
 By Aleksey,,,
Generated by Fontographer 3.5
</metadata>
<defs>
<font id="SherwoodRegular" horiz-adv-x="0" >
  <font-face 
    font-family="Sherwood"
    font-weight="5"
    font-stretch="normal"
    units-per-em="1000"
    panose-1="0 0 0 0 0 0 0 0 0 0"
    ascent="800"
    descent="-200"
    x-height="424"
    cap-height="628"
    bbox="-70.9474 -229 1194 868"
    underline-thickness="20"
    underline-position="-230"
    unicode-range="U+0020-F002"
  />
<missing-glyph horiz-adv-x="800" 
d="M50 0v800h700v-800h-700zM700 50v700h-600v-700h600z" />
    <glyph glyph-name=".notdef" horiz-adv-x="800" 
d="M50 0v800h700v-800h-700zM700 50v700h-600v-700h600z" />
    <glyph glyph-name=".null" 
 />
    <glyph glyph-name="nonmarkingreturn" horiz-adv-x="360" 
 />
    <glyph glyph-name="space" unicode=" " horiz-adv-x="360" 
 />
    <glyph glyph-name="exclam" unicode="!" horiz-adv-x="261" 
d="M214 657q0 -117 -12.5 -236t-24.5 -235q-26 -10 -52.5 -13.5t-63.5 -3.5q0 3 -3 8q0 74 7.5 231.5t7.5 234.5q35 7 70 12.5t66 5.5q3 0 5 -4zM235 2h-5l-128 -14h-14q-6 1 -9 1q-24 42 -36 78q0 4 9 4q32 3 57.5 6.5t73.5 11.5q12 -6 21.5 -20.5t12.5 -27.5
q6 -11 10.5 -20t7.5 -19z" />
    <glyph glyph-name="quotedbl" unicode="&#x22;" horiz-adv-x="403" 
d="M373 605q-16 -31 -24 -64t-13 -76q-16 -6 -38 -10.5t-51 -10.5l-4 5q6 47 6 107q0 13 -0.5 28.5t-3.5 36.5q14 4 37 6t42 2q21 0 31.5 -2t17.5 -22zM213 605q-16 -31 -24 -64t-13 -76q-16 -6 -38 -10.5t-51 -10.5l-4 5q6 47 6 107q0 13 -0.5 28.5t-3.5 36.5q14 4 37 6
t42 2q21 0 31.5 -2t17.5 -22z" />
    <glyph glyph-name="numbersign" unicode="#" horiz-adv-x="588" 
d="M576 432q-1 -8 -3 -8q-15 -13 -23.5 -39.5t-21.5 -38.5l-10 -2l-66 3l-27 -78l107 3l-2 -6q-15 -12 -25 -40t-28 -41q-14 0 -42.5 2.5t-36.5 2.5l-65 -186q-22 -3 -48 -5.5t-46 -2.5l72 196l-118 -2l-64 -186q-22 -3 -48 -5.5t-46 -2.5l71 193q-45 0 -64 -0.5t-36 -2.5
q1 8 3 8q22 39 45 78l10 2q12 0 36 -2t36 -2l27 79l-113 -3l2 6q15 12 25 40t28 41q12 0 41 -3t46 -3q30 83 49.5 138t19.5 61q0 3 25.5 4t35.5 1h22l16 -6q-41 -91 -83 -199l119 2q30 81 49.5 136t19.5 62q0 3 25.5 4t35.5 1h22l16 -6q-40 -89 -81 -196q42 0 60 0.5t33 2.5
zM368 349l-118 2l-29 -83l117 -1z" />
    <glyph glyph-name="dollar" unicode="$" horiz-adv-x="641" 
d="M624 631l-89 -139l-46 38l-68 -101q101 -43 127 -64t26 -113q0 -99 -66 -126t-137.5 -36t-97.5 -16t-64 -7l-22 -22h-124l13 31l-46 21l-12 142l124 -59l89 136q-63 0 -110 40t-47 102q0 13 4.5 47t74.5 73t148 39q21 0 55 4t54 4l19 34l160 22l-33 -50h68zM375 555
q-24 12 -48 12q-41 0 -64 -26t-35.5 -45t-12.5 -35q0 -23 23.5 -34.5t36.5 -11.5q9 0 16 4t13 8q28 40 53.5 81t17.5 47zM409 291q-7 13 -13 26q-9 14 -19 14q-8 0 -17.5 -9.5t-22.5 -30.5l-84 -140q14 -9 25 -12.5t26 -3.5q44 0 78 41t34 85q0 17 -7 30z" />
    <glyph glyph-name="percent" unicode="%" horiz-adv-x="954" 
d="M425 381q-19 -50 -66 -78t-105 -36q-42 -10 -78 -10q-45 0 -82 15t-62 50q-26 39 -26 98q0 51 19 88q27 60 83.5 84t133.5 24q18 2 26 2q45 0 85 -18.5t63.5 -54t23.5 -90.5q0 -20 -4 -38t-11 -36zM720 640q-39 -66 -125.5 -207.5t-139.5 -234.5t-100 -190q0 -2 -4 -2
t-4 -2q-7 0 -15.5 0.5t-11.5 0.5q-24 0 -51.5 -3t-53.5 -6q0 6 2 9t30.5 41t71 108t110 188.5t100.5 173.5q13 26 24.5 52t18 44t8.5 20q62 5 124 11zM925 136q-31 -60 -85.5 -77t-167.5 -32q-83 0 -116 44.5t-40.5 69.5t-7.5 54q0 45 18 81q26 61 87 86.5t141 25.5
q50 0 91 -13.5t62.5 -41t28.5 -53t7 -56.5q0 -49 -18 -88zM331 508q-18 29 -38.5 42.5t-46.5 19.5q-8 1 -13 1q-56 0 -91 -44q-40 -40 -40 -98q0 -17 6.5 -43t36 -49.5t48.5 -25.5t29 -2q28 0 53 16.5t44 43.5q26 43 26 87q0 30 -14 52zM840 272q-13 28 -33 43.5t-49 26.5
q-37 0 -65.5 -10.5t-51.5 -36.5q-36 -36 -36 -95q0 -18 5.5 -45t34.5 -50t59 -23q12 -3 23 -3q26 0 47.5 13.5t45.5 39.5q29 42 29 93q0 26 -9 47z" />
    <glyph glyph-name="ampersand" unicode="&#x26;" horiz-adv-x="656" 
d="M634 3q-26 0 -86 -2t-65 -2h-21q-21 0 -32 2.5t-22 14.5q-9 0 -25.5 -6.5t-21.5 -6.5q-15 -3 -39 -5t-42 -2q-28 0 -57 3q-33 -5 -63 -5q-41 0 -72.5 12t-49.5 43q-26 40 -26 90q0 42 19 74q8 24 23.5 44.5t42.5 46.5q-2 12 -16 31.5t-17 28.5q-22 42 -22 98q0 31 8.5 59
t38.5 65.5t90 37.5q17 0 32 -4q9 -4 16 -5t18 -1q22 1 34 1q13 0 48.5 -9t63.5 -62q14 -33 14 -76q0 -27 -5 -49.5t-18 -42.5q-15 -27 -39 -51t-57 -49q-2 -13 9.5 -24.5t23.5 -22.5q9 -5 28 -21t35 -16q48 76 48 165v15v12q-2 9 -2 13q5 0 5 5q18 -2 26 -2q16 0 31.5 1
t30.5 2q14 0 21 -1q4 -8 4 -22q-1 -18 -1 -27q0 -10 1 -15q0 -55 -16 -106.5t-47 -102.5v-8q77 -56 151 -118zM278 499q-3 33 -16.5 45t-38.5 18q-12 -5 -20.5 -9t-17.5 -13q-19 -25 -19 -60q0 -22 6.5 -46t13.5 -38t13 -20t12 -4q67 45 67 127zM290 95q-20 20 -49.5 43.5
t-55.5 45.5q-4 3 1 -1.5t5 -5.5q-1 0 -2 0.5t-13 10.5q-20 -22 -20 -47q-3 -23 6.5 -41.5t30.5 -38.5q15 -9 33 -9q16 0 30 6q13 10 23.5 19.5t10.5 17.5z" />
    <glyph glyph-name="quotesingle" unicode="'" horiz-adv-x="275" 
d="M213 605q-16 -31 -24 -64t-13 -76q-16 -6 -38 -10.5t-51 -10.5l-4 5q6 47 6 107q0 13 -0.5 28.5t-3.5 36.5q14 4 37 6t42 2q21 0 31.5 -2t17.5 -22z" />
    <glyph glyph-name="parenleft" unicode="(" horiz-adv-x="348" 
d="M333 -116q-21 -17 -40.5 -28t-60.5 -31q-75 20 -135 88t-71 126t-14.5 89.5t-3.5 65.5q0 70 17 122t51.5 114t88 108.5t111.5 78.5q23 11 47 22q-89 -94 -146.5 -208t-57.5 -237q0 -99 29 -167t87.5 -96t97.5 -47z" />
    <glyph glyph-name="parenright" unicode=")" horiz-adv-x="354" 
d="M320 401q15 -80 15 -137q0 -70 -16.5 -120t-51 -113t-90 -111t-110.5 -78q-24 -10 -47 -21q88 92 146.5 206.5t58.5 237.5q0 99 -29 167.5t-88 96t-98 47.5q19 16 41.5 28t59.5 30q76 -19 135 -87t74 -146z" />
    <glyph glyph-name="asterisk" unicode="*" horiz-adv-x="385" 
d="M346 511q-25 -4 -41.5 -6.5t-17.5 -5.5q1 -5 14.5 -16t13.5 -20l-46 -22q-7 2 -23.5 10.5t-18.5 6.5v-42q0 -17 -1 -24q-27 12 -43.5 22t-16.5 38q-9 -5 -17 -9q-21 -15 -30 -19q-3 16 -7 30t-8 29l6 22q-5 5 -17 5q-6 0 -14 0.5t-13 12.5q-9 14 -14 23t-5 17q8 3 35.5 5
t27.5 4q-7 11 -17.5 20t-12.5 17q18 11 31.5 18.5t24.5 2.5q4 -1 12.5 -7.5t14.5 -4.5q4 9 5 27t3 26q12 -5 28 -18t20 -19q4 -10 8 -19q9 2 24 13.5t18 12.5q9 -2 15 -15.5t11 -18.5q2 -7 -6.5 -17.5t-8.5 -12.5q0 -4 6.5 -6.5t23.5 -3.5t22 -17t14 -39z" />
    <glyph glyph-name="plus" unicode="+" horiz-adv-x="500" 
d="M484 354q-10 -17 -12 -50t-11 -49q-4 0 -6.5 -1.5t-2.5 -2.5q-30 3 -74.5 6t-74.5 3q0 -30 3 -92t3 -93h-7q-12 8 -29 8q-10 0 -28.5 -2.5t-21.5 -2.5q-18 0 -30 9q11 71 11 173q-41 0 -104 -2.5t-73 -2.5v7q9 13 13.5 50.5t16.5 52.5q67 -10 147 -10q0 74 -0.5 107.5
t-2.5 63.5h9q7 -4 18.5 -6.5t21.5 -2.5h22q13 0 20 -1t17 -7q0 -4 1.5 -6.5t2.5 -2.5q-3 -29 -6 -72t-3 -72q67 0 107.5 2t72.5 5v-9z" />
    <glyph glyph-name="comma" unicode="," horiz-adv-x="295" 
d="M270 143q3 -15 -46.5 -88t-94.5 -112q-9 -1 -20 -1h-17q-12 0 -27 0.5t-34 0.5q25 42 49.5 102t40.5 102q20 2 44.5 3t51.5 1q28 0 39.5 -1.5t13.5 -6.5z" />
    <glyph glyph-name="hyphen" unicode="-" horiz-adv-x="348" 
d="M326 351q-6 -16 -20.5 -38.5t-32.5 -49.5q-19 -1 -47 -1.5t-56 -0.5h-26h-23h-20h-16h-13h-31t-20 1l55 91q35 0 110.5 2.5t83.5 2.5q42 0 48 -1z" />
    <glyph glyph-name="hyphen" unicode="&#xad;" horiz-adv-x="348" 
d="M326 351q-6 -16 -20.5 -38.5t-32.5 -49.5q-19 -1 -47 -1.5t-56 -0.5h-26h-23h-20h-16h-13h-31t-20 1l55 91q35 0 110.5 2.5t83.5 2.5q42 0 48 -1z" />
    <glyph glyph-name="period" unicode="." horiz-adv-x="260" 
d="M222 64q-4 -5 -24.5 -33t-36.5 -41q-46 16 -72 24.5t-59 23.5q0 8 9 16t11 13q25 28 33.5 37t21.5 20q34 -15 58 -27t35.5 -17.5t18 -7.5t5.5 -8z" />
    <glyph glyph-name="slash" unicode="/" horiz-adv-x="520" 
d="M487 643q-95 -157 -183 -317t-128.5 -242t-79.5 -85t-65 -3q39 93 91 197.5t135.5 265t85.5 167.5q3 4 63 12t72 8q3 0 6.5 -0.5t2.5 -2.5z" />
    <glyph glyph-name="zero" unicode="0" horiz-adv-x="860" 
d="M788 493q36 -68 36 -153q0 -57 -16 -110t-60 -112t-127.5 -94t-185.5 -35q-35 -7 -57.5 -9.5t-53.5 -2.5q-64 0 -117 18.5t-91.5 62.5t-60 101.5t-21.5 119.5q0 59 23.5 126.5t99.5 129.5t163 75q37 3 74.5 7.5t61.5 12.5t42.5 10t36.5 2q79 0 148 -41.5t105 -107.5z
M633 449q-34 56 -71 78.5t-75.5 31.5t-60.5 9q-37 0 -72 -17.5t-74 -49.5q-90 -90 -90 -214q0 -54 23.5 -110.5t83.5 -94.5t131 -38q122 19 168 84t58 106.5t12 84.5q0 74 -33 130z" />
    <glyph glyph-name="one" unicode="1" horiz-adv-x="535" 
d="M512 66q-6 -9 -9 -38t-13 -41q-94 0 -266.5 4.5t-191.5 4.5q-3 6 -3 11t3.5 14.5t3.5 13.5q2 6 4 28t14 34q41 -6 70.5 -9.5t54.5 -3.5q17 0 17 13q0 86 4.5 243.5t4.5 174.5q-6 15 -14 18q-20 0 -77 -9t-82 -9q-5 2 -2.5 10.5t2.5 11.5q4 14 11.5 47t10.5 44q4 0 8 5
q73 -7 163 -7q89 0 162 7v-5q-21 -113 -28 -246.5t-7 -294.5q3 -5 7 -6.5t10 -1.5q8 -1 16.5 -1h17.5q22 0 42.5 1t41.5 2q9 0 25 -2v-13z" />
    <glyph glyph-name="two" unicode="2" horiz-adv-x="768" 
d="M745 100q-7 -9 -34 -46.5t-39 -56.5q-12 -4 -27 -4q-20 1 -31 1q-14 0 -21 -1q-75 0 -181.5 2t-212.5 4t-182 2v4q132 69 180 96.5t110.5 74.5t117.5 115q0 3 -1 5t-3 3q-30 -12 -59 -18.5t-60 -6.5q-29 0 -51.5 6.5t-48.5 28.5t-41 58.5t-15 79.5q0 23 5.5 56t53.5 77
t107 57q23 0 69 4t70 4q22 0 43 -3h18.5t18.5 1q34 0 57.5 -17.5t53 -73t29.5 -103.5q0 -55 -25 -106.5t-59 -93t-61 -66.5t-101 -83q0 -4 5 -7t9 -5q57 0 170.5 6t130.5 6h5zM494 416q5 18 5 34q0 18 -4 37t-17.5 44.5t-28.5 36t-32 13t-23 2.5q-25 0 -46 -13t-36 -37
q-15 -29 -15 -69q0 -30 10.5 -50t30 -32.5t38.5 -12.5q14 -2 21 -2q30 0 54 12.5t43 36.5z" />
    <glyph glyph-name="three" unicode="3" horiz-adv-x="661" 
d="M646 620q-6 -5 -41 -32.5t-103.5 -88t-137.5 -126.5q0 -11 12 -11q10 1 15 1q6 0 11 -3q60 -7 107.5 -39t60.5 -85q3 -18 3 -34q0 -33 -13 -62t-52.5 -67.5t-112 -61.5t-156.5 -23q-53 0 -106 7.5t-108 22.5q-4 4 -4 13q0 22 0.5 43.5t3.5 46.5q2 3 5 3
q108 -42 147 -54.5t101 -12.5q34 6 66 29t37 42.5t6 26.5t1 13q0 26 -13 48t-37 41q-28 16 -58 22.5t-66 6.5q-34 0 -83.5 -7.5t-92.5 -13.5q-2 2 -1.5 4t1.5 5l256 257q0 8 -7 8q-39 0 -129.5 -2t-98.5 -2l-3 4q19 54 38 99q3 4 8 4q129 0 336.5 -9t207.5 -13z" />
    <glyph glyph-name="four" unicode="4" horiz-adv-x="737" 
d="M706 232l-47 -102l-4 -5h-104q-10 -14 -10 -36q0 -6 1 -18.5t1 -17.5v-14v-20q-3 -13 -4 -18q-10 -1 -18 -1.5t-14 -0.5q-10 0 -32.5 1t-34.5 1q-18 -1 -28 -1q-17 0 -28 5q0 16 5 55.5t5 55.5q0 4 -10 14h-373v17q66 75 113 132.5t149 187t129 163.5q4 2 4 5
q18 -2 31 -2q22 0 66 4t60 4q32 0 32 -11q0 -16 -8.5 -43t-14 -69t-15.5 -124t-10 -154q4 -3 9 -3q13 -1 22.5 -1.5t15.5 -0.5q27 0 67.5 2.5t44.5 2.5q3 -2 0 -8zM415 485v25t-2 15q-1 0 -3 -14.5t-19.5 -33t-46 -56t-77.5 -106.5t-49 -74t4 -9q26 0 96 -2t76 -2q4 4 8 9z
" />
    <glyph glyph-name="five" unicode="5" horiz-adv-x="665" 
d="M655 367q0 -4 -9 -4h-144q-16 17 -47 62t-47 63h-9l-94 -116q4 -9 17.5 -11t46 -6t71.5 -33.5t52 -75.5q12 -27 12 -57q0 -61 -43 -110q-43 -44 -104 -62.5t-134 -18.5q-42 0 -74.5 3t-66 7.5t-46 7t-15.5 14.5q8 43 8 84q0 1 5 7q38 -21 79.5 -34t82.5 -13q44 0 75.5 17
t49 42t14.5 53q0 23 -14.5 42t-39.5 36q-23 13 -48 17.5t-60 4.5q-26 0 -70 -2.5t-52 -2.5q0 4 28 35.5t75 88.5t88.5 112t84.5 112h37t39 1q36 0 60.5 -2t44.5 -30.5t59 -90.5t88 -140z" />
    <glyph glyph-name="six" unicode="6" horiz-adv-x="789" 
d="M779 513q-106 0 -165 -1.5t-126.5 -9t-132.5 -24.5q-49 -10 -90.5 -51.5t-57.5 -89t-16 -91.5q0 -48 15.5 -88t46 -65.5t57 -37t54.5 -11.5q8 1 12 1q46 13 79.5 53.5t38 73.5t4.5 50q0 99 -86 146q-21 9 -46.5 13t-86.5 4q-2 5 4.5 11.5t12.5 11.5q43 26 95.5 37
t112.5 11q63 -27 104.5 -87t41.5 -125q0 -70 -36 -128t-92.5 -86.5t-119.5 -35t-158 -6.5q-56 6 -101.5 33.5t-70.5 76.5q-35 58 -35 139q0 48 12 92t56 104.5t134.5 109.5t156.5 68t99.5 27.5t44.5 11.5q3 0 6 -1t13.5 -7.5t111.5 -65.5t108 -63z" />
    <glyph glyph-name="seven" unicode="7" horiz-adv-x="772" 
d="M758 629q-5 -4 -5 -9q-138 -140 -261.5 -295t-246.5 -333q-11 -7 -29 -7q-9 0 -25 1.5t-17 1.5h-150v8q151 161 196 211t105 130.5t105 172.5q3 4 1.5 8.5t-4.5 8.5q-60 0 -196 -2t-145 -2v9q28 48 56 97q0 3 6 5q44 -4 117 -6t148 -2q76 0 158 1t170 3h12.5t4.5 -1z" />
    <glyph glyph-name="eight" unicode="8" horiz-adv-x="648" 
d="M603 562q18 -35 18 -75q0 -36 -11.5 -68.5t-29 -56t-44.5 -41t-35 -23.5t-8 -11q33 -28 52.5 -60t19.5 -70q0 -14 -6 -43t-40 -66t-65.5 -49t-56.5 -15t-50 -3q-33 0 -94 4.5t-67 4.5q-54 6 -98 35.5t-52 58t-8 36.5v13q0 60 43 96q19 10 31.5 17t21.5 18q-5 9 -22 25
t-37 44.5t-20 97.5q0 53 23.5 101t76.5 81.5t116 40.5h160q59 0 108 -22.5t74 -69.5zM452 420q6 19 7.5 30.5t1.5 28.5t-4 32t-30 48t-76 33q-39 -7 -71.5 -25t-48.5 -50q-20 -31 -20 -67q0 -29 15.5 -59t49 -45.5t74.5 -15.5q32 4 58.5 30t43.5 60zM389 171
q-5 19 -25.5 29.5t-44.5 14.5q-23 1 -45 3q-25 0 -45 -6.5t-35 -23.5q-13 -23 -13 -53q0 -16 7 -34.5t30 -35t48 -23.5q32 4 58.5 15t48.5 34q20 27 20 57q0 14 -4 23z" />
    <glyph glyph-name="nine" unicode="9" horiz-adv-x="750" 
d="M701 280q-47 -106 -150 -176t-236 -115q-10 -1 -36 -10t-40 -9q-78 37 -125 59t-107 46q0 5 9 5l196 24.5t173 33.5t121 80t52 97t4.5 45.5t0.5 12.5q0 56 -21.5 103t-66.5 80q-25 14 -44.5 21t-43.5 7q-11 0 -36 -5.5t-58.5 -44t-39.5 -74t-6 -54.5q0 -76 50 -122
q20 -21 51 -31.5t64 -10.5q22 0 35 2t37 8q0 -9 -7 -16t-21 -16q-67 -53 -157 -53q-41 0 -84.5 16t-74 60.5t-47.5 103.5q-5 27 -5 49q0 50 21.5 94.5t84.5 98.5t181 54q47 10 88 10q63 0 114.5 -19t81 -57t44.5 -88t15 -102q0 -54 -17 -107z" />
    <glyph glyph-name="colon" unicode=":" horiz-adv-x="328" 
d="M302 355q1 -1 -1 -7q-38 -35 -76 -69q-2 -1 -12 0q-23 11 -71 27t-71 25q2 5 2 9q17 13 48.5 43.5t41.5 38.5q38 -16 72.5 -33t66.5 -34zM238 69q-19 -26 -33.5 -44t-29.5 -30q-72 27 -151 63q0 8 9.5 15.5t11.5 13.5q26 31 55 58q18 -9 68 -35.5t54 -28t10.5 -4
t5.5 -8.5z" />
    <glyph glyph-name="semicolon" unicode=";" horiz-adv-x="333" 
d="M314 303q1 -1 -4 -6l-81 -53q-7 0 -9 0.5t-3 2.5q-25 14 -76 38t-61 29v4q23 14 56.5 30t38.5 18l14 -2q19 -11 68.5 -34t56.5 -27zM275 167q-39 -76 -64.5 -111t-57.5 -74.5t-37 -39.5q-18 0 -52.5 -2.5t-43.5 -2.5l-3 5q75 115 151 230q19 3 49.5 4t57.5 1q4 -5 0 -10z
" />
    <glyph glyph-name="less" unicode="&#x3c;" horiz-adv-x="755" 
d="M703 131q-30 -21 -37.5 -29.5t-17.5 -25t-20.5 -37t-19.5 -29.5q-93 55 -180.5 103t-174 92t-224.5 115q2 8 1 11.5t108 58t236.5 119t212.5 112.5q6 1 8 -1q5 -23 31.5 -62.5t47.5 -55.5l4 -9q-93 -35 -180 -77t-164 -90q-3 -2 -2.5 -4t95.5 -57t272 -128z" />
    <glyph glyph-name="equal" unicode="=" horiz-adv-x="500" 
d="M484 456q-10 -17 -12 -50t-11 -49q-5 0 -9 -4q-45 5 -82.5 6t-98.5 1q-60 0 -151.5 -1.5t-92.5 -1.5q-2 1 0 7q9 13 13.5 50.5t16.5 52.5q33 -5 79.5 -7t97.5 -2q68 0 139 2.5t111 4.5v-9zM481 254q-9 -13 -13.5 -50.5t-16.5 -52.5q-33 5 -79.5 7t-97.5 2
q-69 0 -130.5 -2.5t-119.5 -4.5v9q10 17 12 50t11 49q5 0 9 4q45 -4 82.5 -5.5t98.5 -1.5q60 0 151.5 1.5t92.5 1.5q2 -1 0 -7z" />
    <glyph glyph-name="greater" unicode="&#x3e;" horiz-adv-x="755" 
d="M717 320q-103 -52 -198.5 -101t-185.5 -98t-195 -111q-9 9 -19.5 29.5t-19.5 35.5t-19 25.5t-37 30.5q-1 3 0.5 4t48.5 20.5t137 64.5t138 73t48 30l-3 3q-153 94 -344 167l4 9q21 16 47.5 55.5t31.5 62.5q2 2 8 1q75 -42 206.5 -109t241.5 -122t109 -57q2 -8 1 -13z" />
    <glyph glyph-name="question" unicode="?" horiz-adv-x="400" 
d="M362 229q-69 -45 -113.5 -62t-81.5 -17q-49 0 -88 28q-9 9 -16 18.5t-10 20.5q0 47 24.5 86t40 59.5t43 55t27.5 64.5q0 14 -6 29q-15 14 -37 14q-15 0 -36.5 -7.5t-39.5 -13.5q-7 10 -10.5 32.5t-5.5 27.5l4 7q49 37 100.5 58.5t108.5 21.5q32 -13 41 -17.5t28 -27.5
t19 -61q0 -16 -8 -35t-30.5 -43.5t-43.5 -46.5l-9 -4q-15 -24 -31 -51t-16 -49q0 -20 11 -38q17 -18 45 -18l17 2q17 2 35.5 11.5t35.5 18.5q4 -13 4 -34q0 -8 -1 -16.5t-1 -12.5zM335 80q-49 -48 -111 -89q-49 10 -91.5 21t-98.5 27v4l135 80q42 -9 90.5 -21.5t72.5 -19.5z
" />
    <glyph glyph-name="at" unicode="@" horiz-adv-x="744" 
d="M722 415q0 -90 -45 -159t-105.5 -91.5t-82.5 -22.5q-25 0 -39 14t-14 39v7q-43 -55 -110 -55q-69 0 -111 47t-42 125q0 96 55 159t138 63q86 0 123 -76l12 62h59l-52 -279l-5 -36q0 -19 21 -19q15 0 37.5 13t51 39t47.5 70t19 90q0 117 -83 192t-211 75
q-134 0 -225.5 -91.5t-91.5 -227.5t92.5 -227.5t228.5 -91.5q75 0 126 27t103 79h60q-36 -45 -55.5 -63.5t-48.5 -36.5q-36 -25 -85.5 -38t-103.5 -13q-162 0 -268.5 102.5t-106.5 260.5q0 157 106 262t266 105q147 0 243.5 -86.5t96.5 -217.5zM465 373q0 48 -24.5 74.5
t-68.5 26.5q-54 0 -91 -43t-37 -107q0 -52 28 -84t74 -32q54 0 86.5 45.5t32.5 119.5z" />
    <glyph glyph-name="A" unicode="A" horiz-adv-x="645" 
d="M642 -4l-4 -3q-48 0 -93 1l-90 2q-8 16 -16 56.5t-15 57.5q-15 53 -18 61t-16 21q-19 3 -51 4t-36 1q-25 0 -50 -0.5t-49 -0.5q-10 0 -15.5 -9t-18 -53t-36.5 -128q0 -3 -4 -5h-121q-2 3 -2 4t-2 1q65 143 117.5 275.5t102.5 279.5q3 17 -10 38t-16 29q0 2 2.5 2.5
t2.5 2.5q50 0 100 -2t85 -3q6 0 7 -1t25.5 -95.5t81 -245.5t139.5 -290zM364 287q-7 27 -13 44.5t-25.5 70t-21.5 53.5q-1 -3 -5 -3q-14 -25 -24.5 -49.5t-44.5 -115.5q0 -13 4 -13q35 -7 72 -7q24 0 50 3q6 3 8.5 8.5t-0.5 8.5z" />
    <glyph glyph-name="B" unicode="B" horiz-adv-x="605" 
d="M558 221q7 -25 7 -56q0 -77 -47 -123q-28 -32 -70 -45.5t-93 -13.5q-22 0 -48 1.5t-56 5.5q-38 0 -120.5 2t-92.5 2q3 17 9.5 41t10 55t6 88t2.5 133q0 42 -1 126t-1 125l-18 66q0 2 4 4q29 0 58 -0.5t59 -0.5q56 0 104 2t90 8q58 0 111 -17.5t73 -47.5q21 -37 21 -85
q0 -45 -21 -78q-9 -22 -30.5 -42t-49.5 -36q-6 -7 0 -14q32 -14 59 -41t34 -59zM401 526q-13 23 -48.5 36.5t-75.5 13.5q-21 -6 -30.5 -11.5t-12.5 -20.5q-10 -29 -16 -71t-6 -120q0 -3 4.5 -6t4.5 -4q18 -2 27 -2q45 0 83.5 19t59.5 51.5t21 69.5q0 26 -11 45zM405 124
q6 20 6 39q0 36 -16.5 59.5t-63 42t-88.5 18.5q-7 1 -11 1q-12 0 -20 -10v-53q0 -48 2.5 -85.5t10.5 -71.5q5 -9 14.5 -13t37.5 -4q43 0 79 20t49 57z" />
    <glyph glyph-name="C" unicode="C" horiz-adv-x="774" 
d="M766 547q0 -9 -12 -12q-61 -26 -122 -51h-12q-42 46 -95 71.5t-113 25.5q-69 -11 -125 -59t-76.5 -106.5t-20.5 -111.5q0 -56 19.5 -106t58.5 -87q32 -28 69.5 -44.5t77.5 -16.5q23 0 106.5 21t210.5 96q-12 -58 -24 -100q-13 -40 -19 -60q-7 -2 -7 -4q-43 -6 -88 -8
t-97 -2h-14h-12q-19 0 -38 0.5t-37 0.5h-11q-13 -2 -27.5 -2h-22.5q-82 0 -145 28t-107 98.5t-44 173.5q0 56 16 110t46 96q111 136 293 136q45 6 77.5 9.5t58.5 3.5q20 0 54.5 -4.5t108 -45.5t73.5 -50z" />
    <glyph glyph-name="D" unicode="D" horiz-adv-x="750" 
d="M672 512q39 -77 39 -170q0 -71 -24 -137.5t-71 -115.5q-42 -48 -98 -69.5t-113 -26t-153 -4.5q-40 0 -119 3.5t-105 3.5q4 15 18 45.5t17.5 61t6 87.5t2.5 140v19v17v15v13v11q0 17 -0.5 34t-0.5 35v10q0 73 -28 133q-1 10 3 10q56 0 111.5 -1t111.5 -2h18q69 0 132 7h40
q77 0 125.5 -21t87.5 -98zM544 430q-26 69 -67.5 97t-79.5 36t-49 8q-21 0 -53 -14t-48.5 -20.5t-21.5 -39.5t-9 -64q0 -53 -4.5 -148t-4.5 -104q0 -23 1 -47t4 -47q5 -10 12.5 -17t28.5 -16t54 -9q48 0 93 25.5t87 68.5q34 41 54 92.5t20 105.5q0 23 -4 47t-13 46z" />
    <glyph glyph-name="E" unicode="E" horiz-adv-x="514" 
d="M482 620q-6 -15 -15 -49t-11 -40l-10 -4q-39 0 -125.5 2t-94.5 2q-9 -7 -11 -12q-2 -13 -3 -31.5t-1 -36.5q0 -15 1 -45t1 -44q1 -3 8 -6q24 -4 44.5 -5t49.5 -1q42 0 75.5 3t78.5 9q0 -22 -3.5 -55.5t-5.5 -50.5q-6 -2 -11 -4q-28 0 -92.5 5t-87.5 5q-24 0 -50 -3
q-9 -7 -9 -8q-1 -8 -1 -17.5v-14.5q0 -17 2 -52t2 -53q0 -20 14 -20q45 -6 95 -6q37 0 72 4t64 14q8 0 8 -11v-11q2 -13 2 -24.5v-22.5v-17q0 -9 -0.5 -16.5t-1.5 -13.5q-36 0 -112 3t-116 3l-180 -2q-2 3 -3 4q11 71 14.5 146t3.5 172v21v19v16v14v13q0 19 -0.5 38t-0.5 39
v11q0 38 -7 78.5t-12 68.5l4 4q41 0 135.5 -5t128.5 -5q49 0 78 2.5t52.5 7t30.5 6.5q4 0 4 -5t-4 -19z" />
    <glyph glyph-name="F" unicode="F" horiz-adv-x="508" 
d="M483 641l-18 -108q-5 -3 -6 -5q-59 0 -145.5 1.5t-88.5 1.5l-9 -8q0 -17 -3.5 -64.5t-3.5 -70.5q0 -22 3 -43l8 -6h63q66 0 103 2.5t79 14.5q1 -1 6 -2q0 -30 -4.5 -62t-7.5 -50q-6 -2 -12 -3q-39 0 -101 2.5t-71 2.5h-27t-30 -2l-6 -8v-117.5t1 -117.5l-4 -4
q-26 0 -79 1t-79 1q0 5 -4 7q10 76 15 160t6 185t1 195q-6 46 -18 95l8 2q41 0 127 -3t129 -3t80.5 2t71.5 8q3 0 8.5 6.5t6.5 6.5q2 0 2.5 -3.5t-1.5 -13.5z" />
    <glyph glyph-name="G" unicode="G" horiz-adv-x="831" 
d="M807 502q-5 -4 -5 -6q-56 -6 -95.5 -9.5t-69.5 -3.5q-13 25 -35 47t-47 26q-25 7 -54 12.5t-54 5.5q-40 0 -70 -15q-58 -18 -109 -68t-63 -100.5t-12 -89.5q0 -64 26.5 -119t78.5 -93l64 -32q37 -16 70 -16h20q10 3 39.5 9t69.5 32t50 73q6 17 8.5 37t2.5 45q0 11 -1 34
t-1 33q15 2 41.5 2t42.5 1h64q1 -1 3 -1.5t4 -1.5q0 -32 -10.5 -95t-10.5 -89t4.5 -46t11.5 -33t15 -28t10 -22q-5 0 -6.5 -1t-1.5 -2q-61 10 -128 10q-39 0 -127 -5t-117 -5q-39 -6 -81 -6q-74 0 -143 26.5t-110 107.5t-41 176q0 99 48.5 181.5t137.5 115.5q45 21 96 28.5
t114 7.5q65 13 133 13q67 0 115 -13t68.5 -37.5t36 -44.5t18.5 -41z" />
    <glyph glyph-name="H" unicode="H" horiz-adv-x="730" 
d="M690 628q-16 -49 -22.5 -102.5t-6.5 -117.5q0 -50 -1 -100l-2 -100q0 -48 2 -88.5t6.5 -67t9.5 -39t7 -19.5l-5 -2q-28 0 -86 1t-86 1q-9 5 -5 21q10 63 15.5 123t5.5 119q0 15 -13 15q-50 0 -150 1t-151 1q-2 -4 -4.5 -6t-3.5 -3q0 -29 2 -98.5t2 -73.5q0 -3 -5.5 -8
t-2.5 -9q6 -4 10 -4q0 -12 4 -37t4 -38q-40 -1 -89 -1h-74l-3 4q10 73 14.5 154t4.5 169q0 37 -1 112.5t-1 113.5q-5 40 -9 80q15 1 40 1h39h56t41 -1q-26 -90 -26 -189q-2 -14 -2.5 -22t-0.5 -18q0 -12 2.5 -19.5t11.5 -7.5q35 0 114.5 -2t84.5 -2h12h54q23 3 33 4q7 6 7 8
v31q0 86 -3.5 128.5t-19.5 88.5h186z" />
    <glyph glyph-name="I" unicode="I" horiz-adv-x="275" 
d="M223 1l-5 -5h-167q-4 0 -4 5q22 164 22 352q0 46 -7 136t-7 130q0 5 2.5 6t2.5 3h158l5 -4q-9 -71 -13 -145.5t-4 -154.5q0 -161 17 -323z" />
    <glyph glyph-name="J" unicode="J" horiz-adv-x="405" 
d="M353 628q0 -1 -5.5 -36.5t-5.5 -47.5q0 -84 -6 -245.5t-6 -188.5q-15 -80 -88.5 -134.5t-160.5 -69.5q-23 -2 -40 -3.5t-27 -1.5q-25 0 -41 5q4 27 8.5 41.5t17.5 47.5q9 0 28 -12t29 -12q7 0 14 4q77 65 99 163t22 241v75q0 31 -8.5 94t-8.5 84q21 3 52 3q41 0 71 -2
t56 -5z" />
    <glyph glyph-name="K" unicode="K" horiz-adv-x="648" 
d="M645 623q-150 -130 -306 -278q-6 -7 5 -25q45 -53 93 -106.5t93 -101.5t112 -118q-19 0 -58 -1t-60 -1q-39 0 -70 4q-46 53 -87.5 100.5t-74.5 83t-79 78.5q-3 -1 -5.5 -2t-2.5 -4q0 -39 7.5 -130t7.5 -126q-2 -1 -3 -2t-1 -2q-26 0 -77 -2t-74 -2l-5 9q0 76 3.5 210
t3.5 172q0 82 -2.5 131t-10.5 117l3 1h159l4 -3q-17 -118 -17 -252q3 -9 13 -2q70 59 156 140.5t122 115.5h151v-4z" />
    <glyph glyph-name="L" unicode="L" horiz-adv-x="498" 
d="M479 95l-39 -91q-7 -7 -8 -7q-84 0 -218 2.5t-152 2.5l-3 4q5 45 7 96.5t2 102.5q0 83 -3 208t-3 126q-2 16 -5.5 35t-10.5 51l4 1h47t53 1q41 0 56 -1q12 -4 24 -7q-12 -55 -17.5 -123.5t-5.5 -133.5q0 -43 2 -142.5t2 -105.5q3 -14 8 -23t15 -13q62 0 115.5 7t129.5 21
q4 -7 0 -11z" />
    <glyph glyph-name="M" unicode="M" horiz-adv-x="930" 
d="M900 -6h-174l-30 1q20 40 29 89t9 106q0 35 -4 106t-4 104q-1 3 -1.5 6t-3.5 4q-9 -7 -13 -10q-32 -62 -75 -151t-81 -169q-3 -9 -3 -18q0 -14 9 -35.5t10 -28.5l-4 -3q-41 0 -80.5 1t-78.5 2q-16 25 -38 72t-54.5 114.5t-58.5 118.5t-59 106q-3 1 -6 -1.5t-5 -4.5
q0 -60 -1 -177t-1 -178q0 -7 4 -22t4 -24h-149q13 52 18.5 111.5t5.5 126.5q0 35 2 118.5t2 89.5v16q0 54 -6 107q-3 13 -14 35.5t-13 26.5q1 4 1 6q36 -3 91 -3h88t23 -1q4 -7 33.5 -68.5t55 -114t62 -123t81.5 -151.5q4 -3 6.5 -4.5t4.5 1.5q33 62 67.5 132t76 157
t77.5 163q3 4 5 6q48 0 95 -1t95 -2q-3 -16 -12 -41.5t-12.5 -57.5t-5.5 -92.5t-2 -128.5v-97.5t1 -97.5q0 -31 8.5 -59.5t24.5 -61.5z" />
    <glyph glyph-name="N" unicode="N" horiz-adv-x="775" 
d="M759 -4l-208 1l-358 430v-332q0 -9 0.5 -18.5t7.5 -30.5l10 -50h-181q14 20 21 35.5t12.5 35t6.5 34.5t1 42v324v13q0 31 -1.5 43t-9 34t-12 29.5t-34.5 44.5h159q3 1 6.5 1h4.5q15 0 26 -6.5t17 -15.5t12 -17l343 -421v314q0 26 -2 43t-4 33.5t-5 32t-8 36.5h194
q-24 -21 -34.5 -46.5t-13.5 -45t-3 -39.5v-357q0 -22 0.5 -41.5t8.5 -43.5q14 -36 44 -62z" />
    <glyph glyph-name="O" unicode="O" horiz-adv-x="865" 
d="M789 499q18 -33 27 -73.5t9 -80.5q0 -56 -16 -109t-59 -112t-127.5 -94.5t-186.5 -35.5q-57 -13 -111 -13q-63 0 -116.5 19t-91.5 62t-59.5 101t-21.5 120q0 60 23.5 127.5t99.5 129.5t163 75q60 6 87.5 10t50 11t41 9t36.5 2q80 0 148.5 -40.5t103.5 -107.5zM634 454
q-33 56 -70 78.5t-75.5 32t-60.5 9.5q-38 0 -71.5 -17t-74.5 -50q-43 -43 -67 -99t-24 -116q0 -51 23.5 -108.5t83.5 -96t132 -38.5q122 17 180 100.5t58 174.5q0 75 -34 130z" />
    <glyph glyph-name="P" unicode="P" horiz-adv-x="625" 
d="M558 572q22 -44 22 -98q0 -76 -42 -129.5t-101.5 -78.5t-127.5 -25q-21 0 -45.5 3t-46.5 8q-13 0 -13 -9q0 -47 2.5 -87t15.5 -154l-5 -2q-38 0 -98 -1.5t-62 -1.5q-3 4 -2 5q9 56 12.5 113.5t3.5 127.5q0 52 -1 104.5t-2 105.5q0 96 -33 177l4 4h46q136 0 193.5 3.5
t125.5 13.5q71 0 102.5 -20.5t51.5 -58.5zM412 547q-13 26 -32 38.5t-41 12.5q-13 0 -24.5 -3t-45.5 -19t-50 -67t-16 -130v-30t1 -30q0 -12 9 -14t15 -2h12q81 0 134 56t53 123q0 33 -15 65z" />
    <glyph glyph-name="Q" unicode="Q" horiz-adv-x="880" 
d="M961 -99q1 -5 1 -14q0 -8 -3 -21t-6 -29l-2 -5q-53 0 -160 1t-159 1q-59 0 -105.5 41t-78.5 103q-35 -4 -60.5 -6t-48.5 -2h-15h-12q-8 2 -12 2q-71 0 -134 48.5t-93 117.5t-30 146q0 52 13.5 99.5t41.5 84.5q48 70 120.5 107.5t160.5 45.5q44 8 81.5 12.5t75.5 4.5
q46 0 78.5 -6.5t66.5 -24.5q51 -22 69.5 -35.5t55 -76.5t36.5 -148q0 -104 -39.5 -165.5t-83 -97.5t-95.5 -62q-4 -1 -6 -2.5t0 -4.5q77 -60 100 -76.5t63 -32.5q20 -10 41.5 -14t45.5 -4q21 0 44.5 3.5t48.5 9.5zM659 451q-31 55 -80 84t-109 36q-8 2 -18.5 3t-19.5 1
q-40 0 -76 -19.5t-81 -55.5q-38 -41 -59.5 -92.5t-21.5 -104.5q0 -40 18.5 -92.5t80.5 -99.5t136 -63q70 8 129.5 44t95.5 97.5t36 138.5q0 70 -31 123z" />
    <glyph glyph-name="R" unicode="R" horiz-adv-x="710" 
d="M695 13q-18 -7 -44 -10.5t-76 -3.5h-50q-60 8 -97.5 82.5t-56.5 94.5q-22 41 -56.5 69t-76.5 28q-9 0 -15.5 -1.5t-10.5 -5.5t-4 -17q0 -21 -1 -25q0 -55 4 -111.5t13 -111.5l-4 -4h-169l-5 4q13 53 18.5 114t5.5 130q0 39 -2 130.5t-2 97.5q0 52 -6 87.5t-28 65.5v7
q44 0 89 -1t91 -2q61 0 95.5 2.5t81.5 11.5q33 0 78 -10t53 -16t15.5 -15t13.5 -13q14 -18 21.5 -42t7.5 -53q0 -37 -13 -64q-14 -35 -46.5 -66.5t-73.5 -57.5q1 -7 18.5 -23t75 -106t73.5 -107q10 -8 29.5 -20.5t53.5 -31.5v-6zM409 530q-12 23 -38 37t-56 14t-57.5 -18.5
t-39.5 -52.5t-12 -77q0 -16 2 -55.5t2 -41.5l2 -8q20 -3 37 -3q43 0 80 16.5t64 50.5q27 42 27 89q0 25 -11 49z" />
    <glyph glyph-name="S" unicode="S" horiz-adv-x="660" 
d="M613 485l-5 -4q-28 4 -41.5 4.5t-20.5 0.5q-54 0 -107 -16q-2 2 -2.5 6t-0.5 7v20t1 20q0 18 -4.5 29t-16.5 18.5t-26 10.5t-26 3q-28 0 -58.5 -11t-55.5 -28q-21 -18 -33 -39t-12 -46q0 -10 1 -15q0 -11 8 -21t21 -19q22 -11 47 -15t52 -4q31 0 94.5 6t72.5 6
q35 -6 63.5 -28t43.5 -55q14 -42 14 -82q0 -114 -62.5 -166t-108.5 -66t-102 -14q-35 0 -78 5q-16 0 -54.5 -2t-42.5 -2q-47 0 -79.5 12.5t-47 45t-14.5 62.5q0 46 25 80q58 6 97.5 10t70.5 12q-2 -14 -11 -36t-11.5 -32t-2.5 -20q0 -33 27.5 -55t66.5 -22q6 0 37.5 6.5
t72 47t46 72.5t5.5 47q0 20 -7.5 36.5t-21.5 23.5t-23.5 8t-23.5 1q-18 0 -27 2q-15 0 -47.5 -1t-49.5 -1q-72 0 -119.5 15.5t-78.5 65.5q-15 29 -15 67q0 37 14.5 73.5t44.5 73t77 52t103 15.5q18 0 39 -2t33.5 -3.5t20.5 -2t14 -0.5q22 0 44 1l44 2q38 0 65 -8.5t46 -32.5
q14 -21 21.5 -43.5t7.5 -45.5q0 -7 -1.5 -15.5t-2.5 -13.5z" />
    <glyph glyph-name="T" unicode="T" horiz-adv-x="677" 
d="M643 631q-2 -29 -3.5 -48t-6.5 -39l-5 -4h-49.5t-49.5 1q-24 0 -49 -1t-38 -3t-14.5 -4.5t-9.5 -71.5t-8 -213q0 -130 15 -252h-171l-2 5q0 51 3.5 158t3.5 148q0 69 -3.5 118t-13.5 107q-4 6 -8 8q-65 0 -115.5 -4.5t-96.5 -18.5q-3 7 0 15q16 54 33 108q53 0 164 -3
t167 -3q106 0 199 10q8 -2 19.5 -0.5t22.5 3.5q18 0 16 -16z" />
    <glyph glyph-name="U" unicode="U" horiz-adv-x="740" 
d="M700 4l-164 -10q-3 5 -3 18v15q0 14 -5 22q-14 0 -44 -9t-38 -10t-96.5 -25.5t-139.5 -24.5q-67 0 -109 43q-12 14 -19.5 35.5t-10.5 45.5q0 95 -1.5 162t-3 162.5t-1.5 130.5q-5 11 -12 33.5t-12 36.5l4 2q46 0 92 1t91 2l3 -5q-10 -50 -14.5 -115.5t-4.5 -133.5
q0 -32 1 -97t1 -97q6 -42 22.5 -73.5t51.5 -41.5q20 -4 45 -4q83 0 128.5 53t60.5 118t15 152q0 31 -2 101.5t-2 71.5q0 13 -4.5 38t-4.5 29q41 0 83 1t85 2l3 -11q-12 -50 -17 -110t-5 -119q0 -53 5.5 -175.5t5.5 -157.5z" />
    <glyph glyph-name="V" unicode="V" horiz-adv-x="668" 
d="M659 631q-27 -55 -51 -106.5t-61 -130t-66.5 -140.5t-49.5 -143q-9 -21 -13 -35t-4 -31t6.5 -29t21.5 -26h-207q0 11 -1.5 22.5t-4 27.5t-4 27t-5.5 24l-147 429q-5 18 -11 29t-19 31q-10 18 -18 27.5t-22 23.5h191l139 -439l139 358q7 22 10 43l5 38h172z" />
    <glyph glyph-name="W" unicode="W" horiz-adv-x="1194" 
d="M1194 628q-11 -16 -43.5 -70.5t-54.5 -106.5t-52.5 -126t-48 -119t-44.5 -123q-4 -8 -4 -19q0 -13 9.5 -35t10.5 -25q-45 0 -116.5 -2.5t-90.5 -2.5q-6 10 -15 41t-27.5 79t-57 147t-80.5 182q-2 7 -8.5 3t-6.5 -7q-50 -107 -66.5 -143t-37 -83.5t-38.5 -91t-21.5 -70.5
t-6.5 -52l-5 -5h-161q-4 11 -8.5 36.5t-9.5 54.5q-27 96 -63 201.5t-61 172.5t-43 101q-25 43 -37 63q16 2 35.5 3t59.5 1h23q39 0 72 4q6 -2 7 -13t5 -16q41 -185 118 -396q5 -9 11 0q15 32 79.5 179t73 165.5t10.5 43.5t6 35h172q8 -4 9.5 -19t12 -51t35.5 -107t51 -133
t65 -149q6 0 8.5 4.5t5.5 8.5l169 443q4 3 13 3h43t48 1q41 0 47 -1z" />
    <glyph glyph-name="X" unicode="X" horiz-adv-x="680" 
d="M671 628q0 -4 -3 -7t-67 -79.5t-182 -231.5q3 -9 3 -13q40 -68 92 -144t112 -156h-148q-3 1 -11 1q-19 -2 -28 -2q-11 0 -18.5 3t-7.5 19q-29 61 -58 123q-8 6 -15 22t-16 21l-9 -4q-46 -61 -79.5 -104.5t-68.5 -79.5l-172 1q-3 2 0 7q75 73 107 105.5t77.5 83
t84.5 101.5q-34 58 -67 106.5t-76.5 106.5t-94.5 121l8 2q48 0 97 1l98 2q20 -30 61 -105t63 -110q6 0 29 32t56.5 81.5t61.5 98.5q15 2 33 2h28q20 0 40 -0.5t40 -0.5q10 2 18 2q12 0 12 -5z" />
    <glyph glyph-name="Y" unicode="Y" horiz-adv-x="623" 
d="M617 632q0 -2 1 -4q-4 -9 -25 -39t-60.5 -99.5t-64 -119t-73.5 -157.5q-8 -14 -11 -31t-3 -38q0 -15 2 -42t2 -39q4 -10 5.5 -34.5t1.5 -25.5q-38 -3 -76 -3h-11h-34.5t-34.5 1h-9l-4 4q0 20 2 59t2 59q0 30 -2.5 48.5t-10.5 43.5q-39 98 -89.5 196t-110.5 195
q0 5 -8 12.5t-4 13.5h97.5h68.5l142 -304q8 -5 9 -5q7 10 51.5 90.5t107.5 218.5h139z" />
    <glyph glyph-name="Z" unicode="Z" horiz-adv-x="687" 
d="M668 633q-23 -32 -120 -160.5t-147 -202.5t-95 -163q-3 -12 11 -12q55 0 180 10t168 10q2 -7 0 -8q-29 -56 -57 -111l-10 -4q-96 0 -192 0.5l-192 1t-191 0.5q-3 0 -5 2q85 109 150 195.5t117.5 162.5t109.5 174q0 12 -5 14q-47 0 -163.5 -11t-166.5 -11q-3 5 0 8l70 103
q42 0 125 -3t126 -3t146 7.5t141 7.5q2 -2 0 -7z" />
    <glyph glyph-name="bracketleft" unicode="[" horiz-adv-x="344" 
d="M320 716q-6 -15 -15 -49t-11 -40l-10 -4h-26.5t-11.5 2q-1 1 -7 1.5t-31 0.5q-9 -7 -11 -12q-2 -13 -3 -95t-1 -193q0 -101 0.5 -203t1.5 -205q0 -20 14 -20q15 -2 26 -3.5t17 -2.5q6 3 17 8t27 10q8 0 8 -11v-11q2 -13 2 -24v-23v-17q0 -9 -0.5 -16.5t-1.5 -13.5
q-36 0 -40 3t-44 3l-162 -2q-2 3 -3 4q8 51 11.5 132.5t5 176.5t1.5 221v37v32v27v23v19v16v14v11q0 23 -0.5 41t-0.5 30q0 38 -7 78.5t-12 68.5l4 4q42 0 77 -3.5t73 -6.5q24 0 40 2t41 7t32 7q4 0 4 -5t-4 -19z" />
    <glyph glyph-name="backslash" unicode="\" horiz-adv-x="520" 
d="M485 -4q-25 0 -64.5 3t-121.5 168.5t-270 475.5q1 1 3.5 2t6.5 1q26 0 78.5 -8t55.5 -12q3 -10 85.5 -168.5t136 -266.5t90.5 -195z" />
    <glyph glyph-name="bracketright" unicode="]" horiz-adv-x="344" 
d="M289 730q-6 -37 -12.5 -77t-6.5 -70l-1 -278q0 -128 1.5 -217t5 -160.5t11.5 -124.5l-2 -2t-1 -2l-162 2q-40 0 -44 -3t-40 -3q-1 12 -1.5 26t-0.5 21t1 22.5t1 24.5v11q0 11 8 11q21 -7 32.5 -12.5t12.5 -5.5l42 6q14 0 14 20q0 55 1 236t1 231v42v35v29v23v19v15v12
q0 43 -3 51t-12 15h-26.5t-11.5 -2q-3 -1 -13 -1.5t-25 -0.5q-6 4 -10 4q-7 29 -12.5 49.5t-11.5 36t-6 22.5q0 5 6 4t11 -2q18 -4 49 -8.5t51 -4.5q11 0 64.5 5t85.5 5z" />
    <glyph glyph-name="asciicircum" unicode="^" horiz-adv-x="472" 
d="M449 352q-17 -2 -44 -14.5t-39 -23.5l-6 -2q-51 92 -117 165q-2 3 -23.5 -22.5t-51 -65t-57.5 -87.5q-3 -1 -5 -2q-13 13 -21.5 18t-21 10.5t-24 9.5t-17.5 8q56 65 97.5 119.5t119.5 157.5h9q18 -25 47 -64.5t73.5 -99t80.5 -103.5q1 -3 0 -4z" />
    <glyph glyph-name="underscore" unicode="_" horiz-adv-x="274" 
d="M274 -199h-281v56h281v-56z" />
    <glyph glyph-name="grave" unicode="`" horiz-adv-x="275" 
d="M299 718q-32 -15 -64 -29q-29 22 -76 44t-103 44q-1 4 -1 12q0 11 8 19t25 17.5t45 18.5q62 -34 107 -67t59 -53q2 -4 0 -6z" />
    <glyph glyph-name="a" unicode="a" horiz-adv-x="635" 
d="M609 425q-21 -71 -31.5 -137t-10.5 -128q0 -68 13 -157q-2 -7 -5 -7l-145 3q-1 1 -5 9.5t-10 8.5q-27 -10 -57 -12.5t-75 -2.5q-38 -10 -73 -10q-44 0 -80.5 15t-58 46t-31.5 66t-10 72q0 53 22 100q24 61 83 99.5t128 44.5q8 -1 15 -1h15q18 0 56 3t57 3q22 0 42 -3
t35.5 -10t33.5 -7q17 0 40.5 6.5t44.5 12.5q9 0 9 -4zM446 293q-5 27 -47.5 54t-82.5 27q-34 -13 -64.5 -38.5t-50.5 -63t-20 -84.5q0 -45 23 -77q12 -21 30.5 -34t39.5 -13q10 0 33.5 8t61 43.5t51.5 68t21 52.5t7 38q0 13 -2 19z" />
    <glyph glyph-name="b" unicode="b" horiz-adv-x="599" 
d="M569 254q0 -3 -2.5 -11t0.5 -11q0 -59 -36 -112t-98.5 -90.5t-158.5 -37.5q-54 0 -87 4t-62 20q-17 0 -46 -11t-45 -11q0 21 9.5 84.5t9.5 90.5q3 23 4.5 87t4.5 89q-2 2 -2 14v43q0 82 -7 129.5t-34 91.5q25 9 60 11.5t69 5.5q22 -3 40.5 -4t29.5 -1l2 -4
q-9 -40 -14 -118.5t-7 -94.5q5 -9 9 -10q4 1 77 9t100 19q8 2 16.5 2h12.5q65 0 112 -45q24 -28 33.5 -62t9.5 -77zM413 292q-13 41 -29.5 53.5t-42.5 12.5q-8 0 -16 -0.5t-16 -0.5q-65 -28 -97.5 -90.5t-32.5 -136.5q17 -24 43.5 -43t45.5 -25.5t28 -6.5q11 0 23.5 4.5
t31.5 18.5q72 66 72 155q0 30 -10 59z" />
    <glyph glyph-name="c" unicode="c" horiz-adv-x="586" 
d="M582 426q-23 -29 -49.5 -56t-49.5 -42q-3 1 -66 23t-87 22q-22 0 -41 -8q-54 -35 -86.5 -80.5t-32.5 -104.5q6 -38 21 -68.5t45 -44.5q38 -21 82 -21q54 0 123.5 35t132.5 67l-64 -141q-32 -6 -78.5 -10t-129.5 -4h-66h-22t-23 -1q-16 0 -30 2t-24 9q-50 25 -78.5 73
t-28.5 104q0 58 26 104t76 88q63 30 156.5 47t265.5 17q3 -4 17.5 0.5t16.5 4.5q3 0 2 -3.5t-8 -11.5z" />
    <glyph glyph-name="d" unicode="d" horiz-adv-x="635" 
d="M599 283q8 -32 8 -59q0 -46 -18 -88.5t-56 -79t-92.5 -50.5t-136.5 -14h-29q-66 0 -108 9t-73 41t-46.5 74t-15.5 89q0 55 20.5 101t61 77.5t88.5 35.5q22 7 49 7q19 0 39.5 -3t31.5 -4q8 5 0 17q-48 42 -128 96.5t-122 83.5v4q74 0 128 -0.5t112 -2.5l28 -23l54 -56
q80 -74 135 -136.5t70 -118.5zM440 162q15 32 15 71q0 24 -5.5 43t-22 36t-48 29t-63.5 12q-26 0 -49.5 -7.5t-44 -28t-29 -46.5t-8.5 -54q0 -30 9 -57.5t27 -47t36.5 -27.5t59.5 -21q40 0 69.5 27t53.5 71z" />
    <glyph glyph-name="e" unicode="e" horiz-adv-x="600" 
d="M566 139l-74 -145q-4 -2 -8 -5q-31 0 -96 5t-86 5q-12 0 -21.5 -0.5t-42.5 -4.5q-72 0 -107 14t-57.5 40t-33 59.5t-10.5 71.5q0 57 25 112.5t86.5 96.5t129.5 41q30 3 63 6t49 3q36 0 62 -5.5t45 -18t32 -19.5q13 -11 28.5 -40.5t15.5 -68.5q0 -45 -20 -80q-7 -2 -9 -4
q-37 5 -67.5 6t-80.5 1q-74 0 -118 -1t-82 -2q-6 -6 -6 -20q0 -8 1 -18t1 -11q0 -24 14.5 -46.5t47 -40t80.5 -17.5q34 0 61 13q34 11 71.5 27t106.5 55q1 -2 0 -9zM415 287q3 8 1.5 16t-5 16.5t-28 30t-43 25t-29.5 3.5q-28 0 -51.5 -16t-47.5 -44q-6 -9 -9.5 -15.5
t-3.5 -11.5q0 -4 4 -8q15 -3 31.5 -4t38.5 -1q31 0 79 2.5t54 2.5q7 2 9 4z" />
    <glyph glyph-name="f" unicode="f" horiz-adv-x="525" 
d="M503 456q0 -22 -16 -42.5t-27 -33.5q-5 -4 -9 -5t-5 5q-25 16 -52 33t-48 23q-36 -4 -48 -29.5t-24 -59.5q-10 -51 -13.5 -103t-3.5 -122q0 -12 1.5 -17t10.5 -7h212q4 -1 3 -5.5t-3 -10.5q-17 -32 -26.5 -49t-19.5 -20q-31 0 -90 1t-88 1q-2 -2 -4 -4.5t-5 -6.5
q-4 -40 -5 -78.5t-1 -89.5v-24q-10 -1 -14 -3q-31 -4 -65 -9t-60 -5q-3 0 -4.5 1t1.5 28.5t9.5 87.5t6.5 101l-5 6q-16 0 -46 -2t-43 -2q0 20 5 41.5t13 39.5q0 3 8 5q9 0 18 -0.5t18 -0.5q22 0 31.5 3.5t9.5 12.5q0 51 3 162t3 165q0 18 13.5 37t29.5 24t33 5q20 0 54 -9
t44 -10q39 31 91 31q31 0 52 -11t39 -20q19 -13 16 -34z" />
    <glyph glyph-name="g" unicode="g" horiz-adv-x="596" 
d="M582 437q-23 -86 -29 -191.5t-6 -242.5q0 -46 -23.5 -86.5t-70 -71t-129.5 -39.5t-159 -17q-53 0 -90.5 13.5t-54 41.5t-16.5 50q0 19 6.5 37.5t18 35.5t22 26t72.5 52q-3 9 -21 28t-20 24q-34 46 -34 114q0 50 22.5 99t78 82t122.5 40q19 7 50.5 10t59.5 3q23 0 50 -1.5
t57 -2.5q19 0 42 5.5t52 12.5v-22zM414 314q-4 13 -9 18.5t-51.5 24.5t-76.5 19q-28 -11 -48 -36.5t-27 -57.5q-7 -25 -7 -57q0 -29 7.5 -54t24.5 -44q18 -15 41.5 -21.5t52.5 -6.5q19 0 31 1.5t36 6.5l3 -2q-2 -16 -5.5 -31t-15.5 -31q-89 -10 -139.5 -28t-72.5 -76
q-2 -10 -2 -16q0 -34 23 -52t53 -18q15 0 32.5 4t37.5 11q39 17 67 51.5t35 74.5q6 49 8.5 99t2.5 116v13v12q0 17 -0.5 34.5t-0.5 35.5v10z" />
    <glyph glyph-name="h" unicode="h" horiz-adv-x="655" 
d="M636 82q0 -15 -12 -36t-20 -36.5t-36 -18.5l-52 -2q-37 4 -70.5 5t-78.5 1h-53.5t-52.5 -1q104 80 155.5 133t51.5 127q0 16 -5.5 40t-34 44.5t-60.5 20.5q-31 -12 -60.5 -36.5t-59.5 -68t-43.5 -109.5t-13.5 -149l-4 -4q-29 0 -66.5 0.5t-84.5 1.5q0 31 10 81.5
t13.5 92.5t6.5 94.5t3 119.5q0 85 -7 156q0 21 -9.5 37.5t-32.5 47.5q-1 3 1.5 4.5t6.5 1.5q33 0 108 5t102 5v-16q-12 -31 -18.5 -72.5t-6.5 -115.5v-45q2 -3 4 -4t3 -1q24 11 90 22t91 22q29 9 61 9q63 0 100.5 -29t53 -66t15.5 -77q0 -26 -6 -52q-6 -35 -25.5 -66.5
t-51.5 -65.5q0 -4 2 -6.5t3 -2.5q41 4 83 9z" />
    <glyph glyph-name="i" unicode="i" horiz-adv-x="275" 
d="M301 567q-44 -18 -81 -37.5t-74 -48.5q-22 5 -44 12t-44 15q-2 2 0 6q49 68 118 106q36 -3 75 -10.5t45 -13.5t6 -18q0 -8 -1 -11zM222 443q0 -21 -4.5 -59.5t-4.5 -44.5q0 -59 2 -194.5t2 -140.5l1 -5l-161 2q0 22 5 47l10 50q2 21 3 65.5t1 68.5v81q-5 32 -29 61
t-40 49q2 3 7 3t6 1q27 0 98.5 13.5t81.5 13.5q22 0 22 -11z" />
    <glyph glyph-name="j" unicode="j" horiz-adv-x="330" 
d="M203 487q-26 0 -57 11q-37 16 -55 23v5q35 34 71.5 60t76.5 43q24 -7 51.5 -20t52.5 -27q-70 -48 -140 -95zM294 454q-19 -58 -26 -119.5t-7 -139.5q0 -37 2 -123t2 -93q-6 -60 -57 -107t-117 -73q-26 -6 -53 -6q-24 0 -45.5 5.5t-39.5 18.5q9 13 17 21t38 35q7 0 19 -9
t20 -5q49 66 65.5 149t16.5 195q0 24 -1 73.5t-1 73.5q-6 10 -8 14q-13 0 -37 -3t-36 -3q-6 0 -20 2q9 50 10.5 57.5t10.5 31.5q0 4 4 3t6 2q56 0 123 2t112 4z" />
    <glyph glyph-name="k" unicode="k" horiz-adv-x="555" 
d="M312 225v-6q92 -96 135 -137.5t100 -80.5q-43 -9 -66 -13t-49 -4q-27 0 -44.5 4.5t-36.5 16.5q-75 70 -149 141q-2 0 -12 -10q0 -23 6 -70t6 -70q-2 -3 -4 -4t-3 -1q-27 3 -76.5 5t-78.5 2q12 124 16.5 254t4.5 288q0 20 -4.5 38t-14.5 47q12 6 31 6q15 -1 22 -1
q4 0 12 2q33 0 63.5 5.5t52.5 9.5q2 -4 0 -20q0 -65 -15 -182t-15 -177q1 -4 5.5 -4t9.5 1q85 62 123 95t73 71q28 0 85 3t85 3q-45 -34 -91 -68.5t-91 -71.5t-80 -72z" />
    <glyph glyph-name="l" unicode="l" horiz-adv-x="360" 
d="M334 92q-4 -22 -12 -44t-15 -42q-18 -9 -38 -11.5t-35 -2.5q-44 0 -85 13q-55 -14 -109 -29l-2.5 2.5l-2.5 2.5q16 92 24.5 219.5t8.5 361.5q-5 36 -10 73q1 2 4.5 2t4.5 3h40h15q53 0 100 6q11 4 13 -3t2 -17q-17 -138 -27 -255t-10 -234q3 -23 5 -37.5t17 -17.5
q26 0 51 2.5t61 7.5z" />
    <glyph glyph-name="m" unicode="m" horiz-adv-x="979" 
d="M962 73q-14 -22 -27.5 -43t-29.5 -42q-29 6 -59.5 8t-67.5 2q-40 0 -106.5 -2.5t-78.5 -2.5q58 39 95 69.5t65.5 74.5t28.5 95q0 15 -1 22q0 27 -15 49.5t-42 38.5q-15 6 -25 8.5t-23 2.5q-9 0 -48.5 -17.5t-73.5 -91.5t-34 -169q0 -14 3.5 -42t3.5 -39l-158 2
q2 11 21 91t19 133q0 22 -3 45q-6 30 -17 49.5t-27.5 26.5t-28.5 7q-15 0 -28 -6.5t-24 -13.5q-43 -39 -61.5 -97.5t-18.5 -127.5q0 -22 2 -49t5 -55q-30 0 -102 2t-74 2q2 10 6.5 21.5t9.5 23.5q19 64 27.5 124t8.5 132q0 29 -17 57t-45 51l194 22q10 -2 12 -15.5t4 -23.5
q6 -4 7 -4l85 14q27 12 56 20t57 8q42 0 73 -21q5 -2 16.5 -19t26.5 -11q97 24 195 49q55 0 92.5 -11.5t58 -40t28.5 -55t8 -58.5q0 -45 -17 -82q-10 -26 -27.5 -53.5t-37.5 -51.5q0 -9 6 -11q22 0 60 7.5t43 8.5q2 -2 0 -11z" />
    <glyph glyph-name="n" unicode="n" horiz-adv-x="664" 
d="M639 94q-9 -19 -23.5 -44.5t-27.5 -48.5l-6 -6q-35 3 -81.5 4.5t-102.5 1.5h-110q44 40 76.5 70.5t55.5 63.5q18 31 30.5 64t12.5 63q0 18 -5.5 35t-17.5 32t-30.5 23.5t-43.5 11.5q-56 -9 -100.5 -56t-57.5 -85t-16 -61.5t-3 -43.5q0 -25 2.5 -66.5t2.5 -47.5l-1 -3
h-156l-3 2q16 71 26.5 127t10.5 107q0 54 -11 95t-39 78v6q44 0 85.5 4t78.5 14q12 4 15 -5q2 -14 3 -19t2.5 -9.5t8.5 -7.5q43 13 79 19.5t79 6.5q22 5 48.5 9t49.5 4q27 0 48 -5t46 -23.5t38.5 -52t13.5 -75.5v-16q-2 -12 -5 -36t-23.5 -65t-52.5 -78q0 -12 6 -12
q33 8 53 12.5t45 12.5z" />
    <glyph glyph-name="o" unicode="o" horiz-adv-x="620" 
d="M560 347q26 -47 26 -110q0 -72 -38 -124.5t-91 -72t-123.5 -35.5t-78.5 -17t-25 -1q-51 0 -93 20t-68 62q-35 50 -35 117t35 118.5t90.5 76.5t131.5 37q53 20 109 20q33 0 60 -7.5t50 -25.5q13 -6 19 -8.5t31 -49.5zM433 288q-18 41 -52.5 59.5t-77.5 18.5
q-34 -10 -59 -24.5t-49 -48t-24 -89.5q0 -36 16.5 -69t51 -55.5t75.5 -22.5q24 -3 40 8t46 39q46 49 46 121q0 36 -13 63z" />
    <glyph glyph-name="p" unicode="p" horiz-adv-x="590" 
d="M536 364q27 -44 27 -101q0 -85 -42 -140.5t-86.5 -77.5t-102.5 -33q-33 -13 -65 -22t-62 -9l-6 -6q0 -32 4 -92t4 -88l-2 -5q-20 0 -39.5 0.5t-38.5 0.5h-31.5t-46.5 -4q-2 1 -3 6q7 76 11 148t4 148q0 90 -6.5 173.5t-20.5 158.5l157 12q4 -3 6 -16.5t12 -14.5
q15 6 58.5 10.5t60.5 17.5q35 12 69 12q43 0 78 -18.5t61 -59.5zM391 302q-20 33 -23.5 32t-6.5 3q-23 12 -34.5 16.5t-25.5 4.5q-11 0 -22 -6q-53 -36 -69 -94t-16 -142q17 -24 47 -36.5t66 -15.5q20 3 36.5 18t41.5 51.5t25 94.5q0 43 -19 74z" />
    <glyph glyph-name="q" unicode="q" horiz-adv-x="565" 
d="M572 425q-24 -67 -33 -145t-9 -168q0 -31 1 -96t1 -98q5 -43 9 -68.5t12 -56.5v-5q-40 0 -102.5 -2.5t-70.5 -2.5q0 33 7 99t7 101q-2 10 -8 13q-16 -2 -26 -2q-16 0 -43.5 2.5t-32.5 2.5q-28 -7 -63 -7q-38 0 -72.5 11.5t-58.5 35.5q-31 28 -45.5 65.5t-14.5 81.5t16 89
q25 61 83.5 94t131.5 45q42 16 92 16q63 0 122 -24q15 0 33.5 7.5t35.5 14.5q1 0 11 3.5t14 3.5q3 0 4 -2t-1 -8zM413 306q-4 27 -45 40.5t-89 13.5q-42 -20 -66.5 -61.5t-24.5 -87.5q0 -49 23 -90t66 -58q31 0 62.5 18t52.5 31q12 12 14.5 36t4.5 32q0 18 2.5 51.5
t2.5 40.5q0 17 -3 34z" />
    <glyph glyph-name="r" unicode="r" horiz-adv-x="681" 
d="M445 10q-76 41 -117 58t-80 26q-11 -6 -11 -24q0 -5 1 -15t1 -14q0 -3 2 -12t2 -15q0 -9 -9 -12h-122q-3 1 -4 2q0 62 2.5 159t2.5 114q0 36 -25.5 66t-66.5 58l4 2q43 0 94.5 7t99.5 14q5 -4 9 -19t11 -19q31 13 117.5 28t96.5 17.5t17 2.5h11q32 0 58.5 -9.5t52 -39
t25.5 -81.5q0 -17 -5 -42t-41 -62.5t-83 -63.5v-6q39 -31 84.5 -60.5t86.5 -50.5q-32 -10 -66.5 -16t-69.5 -6q-43 0 -78 13zM454 319q-6 27 -15.5 33.5t-59.5 11.5q-52 -20 -89.5 -69t-42.5 -81.5t-5.5 -38t-0.5 -12.5q0 -13 7 -18q37 0 70.5 10t65 29.5t52.5 50t21 63.5
q0 10 -3 21z" />
    <glyph glyph-name="s" unicode="s" horiz-adv-x="538" 
d="M508 169q0 -49 -31 -91t-77 -58q-18 -10 -41.5 -14.5t-48.5 -4.5h-28t-28 1q-29 0 -56 -7q-54 0 -93 12t-63 48q-15 27 -15 62q0 13 3 27q5 5 6 5l134 -3q6 -4 6 -10q-2 -12 -4 -23q0 -22 13 -39q24 -21 61 -21q6 0 14 1t25 3.5t44 26t35 54.5q0 25 -11 31
q-12 11 -29.5 15.5t-37.5 4.5q-12 0 -24 -0.5t-23 -0.5q-29 -3 -38.5 -3.5t-30.5 -0.5q-41 0 -72 11.5t-50 41.5q-15 21 -15 53q0 25 19 62.5t79 54.5t156 17q35 10 71 10q44 0 81 -15t46 -33.5t13.5 -31.5t4.5 -21q0 -11 -5 -17q-31 0 -78.5 -2.5t-55.5 -2.5
q-6 18 -13 29.5t-22 19.5q-23 10 -52 10q-36 0 -61 -19q-10 -9 -20.5 -19.5t-10.5 -23.5q0 -11 6.5 -20.5t18 -14.5t28 -7t36.5 -2q21 0 64 4t63 4q53 0 80 -21t27 -82z" />
    <glyph glyph-name="t" unicode="t" horiz-adv-x="490" 
d="M474 410l-38 -82l-5 -4q-30 0 -96 2t-72 2q-10 1 -14.5 -8.5t-8.5 -18.5q-11 -44 -11 -88q0 -45 11.5 -83t33 -60t42.5 -22q7 0 21.5 4t30.5 12t97 54q-7 -28 -21 -71q-11 -29 -15 -43l-8 -6h-231q-22 4 -40 17t-41.5 55t-23.5 129q0 61 17 117q-5 12 -24 12
q-17 -1 -34 -1l-4 3q2 27 3.5 45t7.5 33q11 2 23 2h19h16q6 0 14 1t12 1q26 42 43 68.5t39 54.5q8 6 11 6q48 6 109.5 10t115.5 7q-72 -69 -143 -138q3 -5 11 -5q27 0 88.5 2t64.5 2q5 -4 0 -9z" />
    <glyph glyph-name="u" unicode="u" horiz-adv-x="616" 
d="M602 425q-1 -14 -19.5 -143t-18.5 -172q0 -39 4.5 -66t7.5 -40h-152q-2 3 -3 13.5t-5 14.5q-22 -5 -77 -11t-73 -10q-40 -15 -83 -15q-27 0 -47.5 5.5t-64.5 40.5t-44 129v15q2 11 5 32t18.5 53.5t41.5 65.5q1 3 -1.5 5.5t-6.5 4.5q-8 1 -20.5 0t-23.5 -1q-9 0 -13 1
q4 19 8.5 33t16.5 39h23h20h18h15h14h12h36.5t37.5 1h10q22 0 56 1.5t35 1.5q25 0 49 -3l-128 -94q-71 -64 -71 -134q0 -11 3.5 -32t20 -47.5t35.5 -35.5t29.5 -10t11.5 -1q26 0 50.5 15t51.5 41q35 38 47 90t12 123v11q0 17 -0.5 34t-0.5 35v10l5 2h153z" />
    <glyph glyph-name="v" unicode="v" horiz-adv-x="636" 
d="M606 383q21 -39 21 -88q0 -50 -19.5 -97t-54.5 -91q-108 -112 -263 -112q-19 -4 -43.5 -7t-45.5 -3q-44 0 -77.5 12.5t-60.5 50.5t-27 107q0 75 35 135l36 54q-2 6 -4 7t-7 1t-23 -2t-26 -2h-16q-8 3 -11 4q6 15 16 31.5t24 38.5q52 0 138.5 3.5t110.5 3.5
q-60 -55 -93.5 -118t-33.5 -136q0 -19 4 -42.5t23.5 -46t40.5 -30.5t36 -8q33 0 65.5 27t54.5 45q33 36 50.5 74t17.5 79q0 22 -6 45q-12 32 -62.5 44.5t-58.5 15.5q76 34 102.5 43.5t67.5 14.5q18 1 25 1q19 0 33 -10.5t31 -43.5z" />
    <glyph glyph-name="w" unicode="w" horiz-adv-x="954" 
d="M919 187q-32 -75 -103.5 -123t-154.5 -48q-28 -9 -56 -15.5t-53 -6.5q-43 0 -73 19q-8 7 -20 23t-17 22q-40 -21 -58.5 -30t-43.5 -15q-27 0 -92.5 -11.5t-88.5 -11.5q-21 0 -39.5 3t-35.5 12q-33 21 -48 57t-15 81q0 23 3 44q19 77 85 141q0 4 -2.5 6t-3.5 3h-68
q3 17 9.5 33.5t15.5 31.5t12.5 15.5t6.5 0.5h36q87 0 132 1.5t109 7.5q-60 -57 -119 -114q-65 -71 -65 -140q0 -15 3 -30q3 -31 20.5 -56.5t46.5 -32.5q55 0 97 47.5t58 91.5t21.5 79t5.5 69q0 29 -2 45.5t-2 24.5q16 -1 28 -1.5t20 -0.5q21 0 71 2t53 2q-6 -25 -20 -63
t-19.5 -63t-5.5 -63q0 -44 12 -78.5t41 -60.5q21 -11 31.5 -15.5t26.5 -2.5q53 20 90.5 72.5t46.5 110.5q0 25 -5.5 46t-18.5 39q-19 17 -37 24t-97 26q51 27 100 42.5t103 15.5q4 -1 8 -1h5q4 0 12.5 -7.5t32.5 -31.5q19 -21 28.5 -51t9.5 -63q0 -51 -17 -102z" />
    <glyph glyph-name="x" unicode="x" horiz-adv-x="677" 
d="M662 426q-2 -3 -12.5 -13t-14.5 -17q-123 -103 -223 -202q26 -68 38.5 -92.5t32.5 -36t28.5 -13t19.5 -1.5q17 0 35 3l24 4q-4 -16 -9 -33t-16 -26q-18 0 -54 -1t-53 -1q-42 0 -58.5 1.5t-45.5 6.5q-24 10 -39 44.5t-23 42.5q-3 1 -6.5 -1t-17 -11t-41.5 -33.5t-54 -47.5
h-165q126 88 253 176q0 13 -13 40.5t-35 77.5q-17 33 -35 55q-10 8 -22.5 11t-26.5 3q-10 0 -19.5 -0.5t-19.5 -0.5q0 13 7 29t14 31q18 5 47 6t34 1h27q10 0 30 4t30 4q15 0 24.5 -4.5t19 -20.5t30 -69.5t21.5 -54.5q5 -2 13 3q53 46 78 69.5t48 56.5q6 2 11 4q23 0 69 3
t69 3z" />
    <glyph glyph-name="y" unicode="y" horiz-adv-x="632" 
d="M625 420q-43 -82 -89 -171.5t-80 -168t-59 -165.5q-22 -57 -75.5 -81.5t-127.5 -32.5q-25 -6 -50.5 -10.5t-48.5 -4.5q-26 0 -48.5 6.5t-39.5 21.5q-14 17 -21 41.5t-7 48.5q0 31 9.5 65t23 58t24.5 40.5t25 30.5q52 5 105 11q-4 -12 -22 -34t-26.5 -39t-15.5 -42.5
t-7 -51.5q0 -39 19 -67q21 -27 50 -27q5 0 17 2q44 13 70 52t42 93q3 6 -6 11q-18 0 -51.5 -4.5t-37.5 -4.5q0 49 1 78.5t2 55.5q0 60 -7 102t-29 82q-8 6 -23 6q-21 -1 -41 -2q-13 0 -39 -3t-39 -3q14 22 46 59t38 44q25 0 76 1t76 1l9 -2q40 -56 56.5 -127.5t16.5 -156.5
q4 -6 8 -2t22 41l54 111t72 129q3 9 25 13h98q2 0 5 -4z" />
    <glyph glyph-name="z" unicode="z" horiz-adv-x="585" 
d="M568 421q-99 -74 -162.5 -150.5t-126.5 -185.5q8 -8 9 -8q13 -2 25.5 -2h25.5q50 0 92 5t117 18q-6 -23 -22.5 -51.5t-31.5 -55.5l-6 -4q-53 0 -177 9t-171 9q-37 0 -70.5 -2t-65.5 -8l1 7q34 36 104 106t113 118.5t77 101.5q2 5 -9 10q-49 0 -111 -8.5t-119 -16.5v6
q19 32 31.5 52.5t26.5 39.5q41 6 81 8.5t92 2.5q23 0 71.5 -1t74.5 -1q12 4 25.5 5t33.5 1q31 0 47.5 -1.5t24.5 -3.5z" />
    <glyph glyph-name="braceleft" unicode="{" horiz-adv-x="317" 
d="M308 -152q-19 -16 -42.5 -30t-58.5 -32q-80 34 -113 81t-33 126q0 22 16.5 81t16.5 74q0 39 -30 72.5t-57 47.5q44 24 70 56t26 62q0 24 -21 78t-21 79q0 81 35 133.5t111 73.5q39 -20 59.5 -32t41.5 -30q-13 -5 -36 -17.5t-49 -26t-34 -35.5t-8 -83q0 -15 12 -76t12 -83
q0 -28 -24 -53.5t-51 -41.5q24 -13 43.5 -43.5t19.5 -66.5q0 -12 -4 -81t-4 -84v-14q0 -32 8 -56.5t42 -41.5t73 -37z" />
    <glyph glyph-name="bar" unicode="|" horiz-adv-x="245" 
d="M180 -174h-108v924h108v-924z" />
    <glyph glyph-name="braceright" unicode="}" horiz-adv-x="317" 
d="M316 268q-27 -14 -57 -47.5t-30 -72.5q0 -16 16.5 -77t16.5 -78q0 -80 -32 -126t-114 -81q-39 20 -59.5 32t-41.5 30q8 3 36.5 18.5t48.5 25.5t29 36t9 56v13q0 22 -2.5 66.5t-5.5 98.5q0 37 19 66.5t44 43.5q-27 16 -51 41.5t-24 53.5q0 22 12 83t12 76q0 60 -8 83
t-36.5 37.5t-49 25.5t-33.5 16q19 16 42.5 30t58.5 32q75 -20 110.5 -73t35.5 -134q0 -23 -21 -80t-21 -77q0 -40 31.5 -70t64.5 -48z" />
    <glyph glyph-name="asciitilde" unicode="~" horiz-adv-x="493" 
d="M466 576q-2 0 -47.5 -31.5t-76.5 -31.5q-47 0 -109 29t-85 29q-20 0 -32 -21q-9 -19 -18 -37q-17 9 -32 15t-32 11v11q35 48 57 70.5t59 22.5q26 0 102.5 -27.5t89.5 -27.5q23 0 43 13q22 17 45 34q4 -1 8 -1q3 -11 14 -30.5t14 -27.5z" />
    <glyph glyph-name="nonbreakingspace" unicode="&#xa0;" horiz-adv-x="360" 
 />
    <glyph glyph-name="exclamdown" unicode="&#xa1;" horiz-adv-x="261" 
d="M214 365q0 -4 -9 -4q-32 -4 -57.5 -7t-73.5 -11q-12 6 -21.5 20.5t-12.5 27.5q-6 11 -10.5 20t-7.5 19h5l128 14q15 0 23 -1q24 -42 36 -78zM205 321q0 -81 -5 -172t-10.5 -192t-5.5 -168q-35 -7 -70 -12.5t-66 -5.5q-3 0 -5 4q0 83 5.5 163t14 167.5t17.5 170.5
q26 10 52.5 13.5t63.5 3.5l4 14t5 14z" />
    <glyph glyph-name="cent" unicode="&#xa2;" horiz-adv-x="571" 
d="M556 494l-3 -4q-48 -41 -104 -81q-5 0 -21 6.5t-24 3.5q-36 -49 -73 -115.5t-71 -128.5q-6 -10 11 -20q7 -1 21 -1q26 0 49.5 7t58.5 22q26 9 70.5 29.5t57.5 25.5q-9 -26 -25.5 -59.5t-30.5 -63.5q-41 -8 -128 -9t-128 -7q-12 -17 -28 -53.5t-27 -54.5q-4 -4 -7 -4h-121
h-4q21 35 45 71.5t37 56.5q5 6 0 14q-36 25 -54.5 63t-18.5 82q0 29 9 67.5t50 80.5t78 53t95.5 20t66.5 11q11 11 11 17l25 50t27 46q12 2 35.5 3t36.5 1q36 7 72 7q-36 -54 -72 -107q-4 -6 0 -8.5t9 -4.5q19 -3 39.5 -6.5t35.5 -9.5zM295 444l-3 4q-16 0 -29 -6.5
t-40.5 -26t-45.5 -57t-18 -80.5q0 -23 4 -40q8 -9 12 -5q64 97 120 211z" />
    <glyph glyph-name="sterling" unicode="&#xa3;" horiz-adv-x="671" 
d="M653 103q-19 -23 -38.5 -52t-44.5 -71q-5 -4 -8 -4q-76 10 -150 16t-150 6q-53 0 -98.5 -3t-95.5 -11q-4 0 -3 4t3 5q57 85 57 190v18q-2 13 -2 19l-2 6q-6 1 -18 1q-14 0 -28 -1l-28 -2q-8 0 -22 2q3 16 15.5 45t15.5 39q12 3 29.5 4t35.5 1q8 6 8 9q0 97 31.5 171
t100.5 102t142 28q35 0 72 -8q7 0 24 4t25 4q7 0 20.5 1.5t14.5 1.5q22 0 30 -17q7 -25 14.5 -58.5t14.5 -71.5h-8q-39 27 -78 55q-48 31 -85 31q-28 0 -56 -16q-61 -27 -84.5 -84.5t-23.5 -134.5q0 -17 9 -17q30 -3 79.5 -4t91.5 -1q-3 -22 -10.5 -39.5t-19.5 -40.5
q-3 0 -3 -4q-26 0 -49 1t-45 2q-12 0 -30.5 -1.5t-19.5 -1.5q-8 0 -8 -10q0 -33 -10 -64t-29 -68q0 -10 14 -10q105 0 199 9t201 27v-7z" />
    <glyph glyph-name="currency" unicode="&#xa4;" horiz-adv-x="556" 
d="M526 46l-38 -38l-56 55q-65 -55 -154 -55t-154 55l-56 -55l-38 38l54 54q-27 31 -40.5 71.5t-13.5 84.5q0 45 12.5 84t41.5 72l-54 54l38 38l56 -55q65 55 154 55t154 -55l56 55l38 -38l-54 -54q27 -31 40.5 -71.5t13.5 -84.5q0 -45 -12.5 -84t-41.5 -72zM470 256
q0 81 -55.5 139.5t-136.5 58.5q-80 0 -136 -59t-56 -139q0 -81 55.5 -139.5t136.5 -58.5q80 0 136 59t56 139z" />
    <glyph glyph-name="yen" unicode="&#xa5;" horiz-adv-x="623" 
d="M617 632q0 -2 -1.5 -6t-1.5 -8q-31 -43 -67 -104.5t-64 -116.5q27 0 43.5 1t28.5 3q3 0 3 -4t-3 -4q-2 -10 -4.5 -35.5t-5.5 -55.5q-6 0 -7.5 -1t-1.5 -2q-15 0 -51.5 3.5t-46.5 3.5l-43 -93q33 0 89 2.5t68 2.5v-6q-6 -22 -9.5 -39t-9.5 -54q-61 8 -151 8l3 -64
q5 -12 6 -27t1 -33q-38 -3 -76 -3h-11h-34.5t-34.5 1h-9l-4 4q0 20 3 61t3 60q-64 0 -101.5 -1t-68.5 -4q-3 0 -3 4t3 4q6 18 9 45t5 44q6 0 7 1l2 2q30 0 60 -2t72 -4l-39 92l-123 -3v6q10 28 12.5 45.5t2.5 45.5l63 -1q-35 67 -56.5 106t-59.5 100q0 5 -8 12.5t-4 13.5
h166q11 -22 61 -130.5t81 -173.5l15 -1q26 48 79 153.5t74 151.5h139z" />
    <glyph glyph-name="brokenbar" unicode="&#xa6;" 
 />
    <glyph glyph-name="section" unicode="&#xa7;" horiz-adv-x="639" 
d="M566 324q0 -64 -46.5 -103.5t-125.5 -76.5v-1q57 -6 101.5 -34t44.5 -77q0 -78 -79.5 -124.5t-177.5 -46.5q-72 0 -124.5 25.5t-52.5 87.5q0 22 9.5 29t23.5 7q13 -1 16 -1q18 0 43 -0.5t25 -6.5v-36q0 -44 12.5 -57.5t65.5 -13.5q38 0 75.5 26.5t37.5 57.5
q0 48 -31.5 84t-83.5 36q-86 0 -154.5 41t-68.5 121q0 84 62.5 118.5t121.5 34.5q9 -1 12 -1q-59 24 -99 56t-40 91q0 73 72 115.5t176 42.5q60 0 103 -37.5t43 -86.5q0 -13 -19.5 -18.5t-47.5 -5.5q-11 0 -28 1t-19 1q-5 25 -11.5 62.5t-51.5 37.5q-43 0 -76 -29t-33 -61
q0 -43 81 -76.5t159 -65.5q85 -47 85 -116zM437 282q0 49 -41.5 79.5t-97.5 30.5q-49 0 -76.5 -34t-27.5 -76q0 -52 37 -79t79 -27q127 0 127 106z" />
    <glyph glyph-name="dieresis" unicode="&#xa8;" horiz-adv-x="496" 
d="M454 788q-21 -21 -59.5 -52t-46.5 -38q-20 7 -41.5 21t-41.5 28q-3 4 3.5 9.5t17 16.5t28 29.5t40.5 40.5q17 -6 39 -17.5t33 -17.5q3 -4 14 -8t14 -12zM229 788q-21 -21 -59.5 -52t-46.5 -38q-20 7 -41.5 21t-41.5 28q-3 4 3.5 9.5t17 16.5t28 29.5t40.5 40.5
q17 -6 39 -17.5t33 -17.5q3 -4 14 -8t14 -12z" />
    <glyph glyph-name="copyright" unicode="&#xa9;" horiz-adv-x="833" 
d="M783 351q0 -153 -107 -260t-260 -107q-152 0 -259.5 107.5t-107.5 259.5t107.5 259.5t259.5 107.5q153 0 260 -107t107 -260zM733 351q0 134 -93.5 229.5t-223.5 95.5q-129 0 -222.5 -95.5t-93.5 -229.5t94 -230t222 -96q129 0 223 96t94 230zM611 491q0 -4 -7 -7
l-68 -32h-6q-49 59 -115 59q-39 -7 -69.5 -35.5t-42 -64t-11.5 -67.5q0 -34 10.5 -64t31 -50.5t40 -30t41.5 -9.5q13 0 60 13t116 58q-7 -49 -24 -96l-4 -3q-23 -4 -54 -5t-69 -1h-41q-18 -2 -27 -2q-45 0 -79.5 17t-59 60.5t-24.5 103.5q0 72 34 126q30 41 71 62t90 21
q18 2 40 4.5t34 2.5q9 0 31 -2.5t62 -27t40 -30.5z" />
    <glyph glyph-name="ordfeminine" unicode="&#xaa;" horiz-adv-x="339" 
d="M319 621q-21 -84 -21 -159q0 -19 1.5 -41.5t5.5 -52.5l-3 -4l-72 1q-3 6 -4.5 8.5t-3.5 2.5q-15 -7 -35.5 -8t-30.5 -1q-17 -6 -36 -6q-22 0 -40.5 9.5t-34 36.5t-15.5 74q0 32 11 60q11 36 40.5 59t64.5 27q5 -1 16 -1q9 0 31.5 2t24.5 2q16 0 22.5 -1.5t16 -6
t16.5 -4.5q8 0 22.5 4.5t20.5 6.5q5 0 3 -8zM238 542q-3 16 -24 32t-41 16q-17 -8 -32.5 -22.5t-25 -36.5t-9.5 -52q0 -28 11 -46q14 -28 35 -28q5 0 16.5 4.5t30.5 25.5t25 39.5t10.5 31.5t4.5 26q0 7 -1 10z" />
    <glyph glyph-name="guillemotleft" unicode="&#xab;" 
 />
    <glyph glyph-name="logicalnot" unicode="&#xac;" 
 />
    <glyph glyph-name="registered" unicode="&#xae;" horiz-adv-x="833" 
d="M783 351q0 -153 -107 -260t-260 -107q-152 0 -259.5 107.5t-107.5 259.5t107.5 259.5t259.5 107.5q153 0 260 -107t107 -260zM733 351q0 134 -93.5 229.5t-223.5 95.5q-129 0 -222.5 -95.5t-93.5 -229.5t94 -230t222 -96q129 0 223 96t94 230zM633 173q-10 -4 -29 -6
t-34 -2h-39q-32 4 -59.5 52t-32.5 54q-15 27 -37.5 44t-50.5 14q-10 -2 -10 -14v-15q0 -71 10 -134l-3 -2h-101l-3 2q8 29 11 70t3 79q0 22 -1 67t-1 67q0 40 -4.5 59t-15.5 33v4q26 0 53 -0.5t55 -0.5h14q37 0 52 1.5t40 6.5q20 0 46.5 -6t33.5 -11q8 -11 16 -16
q17 -22 17 -56q0 -24 -8 -39q-8 -22 -26.5 -39.5t-45.5 -34.5q1 -5 12 -15t46 -64t44.5 -63.5t17 -14t30.5 -16.5v-4zM462 483q-16 31 -56 31q-19 0 -35.5 -11.5t-23.5 -30.5t-7 -47q0 -10 1 -30t1 -28l2 -5q14 -2 21 -2q55 0 87 41q16 24 16 54q0 14 -6 28z" />
    <glyph glyph-name="macron" unicode="&#xaf;" horiz-adv-x="521" 
d="M475 840q-30 -44 -59 -87q-5 0 -9 -4q-46 5 -77.5 6t-81.5 1q-48 0 -126 -1.5t-86 -1.5q-2 1 0 7q8 11 31 43.5t35 47.5q33 -5 75.5 -7t86.5 -2q61 0 119.5 2.5t91.5 4.5v-9z" />
    <glyph glyph-name="macron" unicode="&#x2c9;" horiz-adv-x="521" 
d="M475 840q-30 -44 -59 -87q-5 0 -9 -4q-46 5 -77.5 6t-81.5 1q-48 0 -126 -1.5t-86 -1.5q-2 1 0 7q8 11 31 43.5t35 47.5q33 -5 75.5 -7t86.5 -2q61 0 119.5 2.5t91.5 4.5v-9z" />
    <glyph glyph-name="degree" unicode="&#xb0;" 
 />
    <glyph glyph-name="plusminus" unicode="&#xb1;" 
 />
    <glyph glyph-name="twosuperior" unicode="&#xb2;" 
 />
    <glyph glyph-name="threesuperior" unicode="&#xb3;" 
 />
    <glyph glyph-name="acute" unicode="&#xb4;" horiz-adv-x="275" 
d="M289 777q-70 -28 -108 -45.5t-71 -42.5q-14 3 -36 15t-28 14q-2 2 0 6q19 27 69.5 61t96.5 59q26 -8 44.5 -18.5t26 -18t7.5 -19.5q0 -8 -1 -11z" />
    <glyph glyph-name="mu" unicode="&#xb5;" horiz-adv-x="655" 
d="M606 383q21 -39 21 -88q0 -50 -19.5 -97t-54.5 -91q-108 -112 -263 -112l-72 34q-6 -3 -7 -5v-59q0 -73 5.5 -105t19.5 -69v-16q-33 0 -108.5 5t-101.5 5q-5 0 -7.5 1.5t-0.5 4.5q26 35 34 49t8 36q7 73 7 161q0 66 -3 117t-9 121q-11 72 -21 145q25 0 75 1t76 1l4 -4
q0 -83 13.5 -149t39 -103t53.5 -50t56 -13q15 0 29.5 4t25.5 13q33 36 50.5 74t17.5 79q0 22 -6 45q-12 32 -62.5 44.5t-58.5 15.5q76 34 102.5 43.5t67.5 14.5q18 1 25 1q19 0 33 -10.5t31 -43.5z" />
    <glyph glyph-name="paragraph" unicode="&#xb6;" 
 />
    <glyph glyph-name="periodcentered" unicode="&#xb7;" 
 />
    <glyph glyph-name="periodcentered" unicode="&#x2219;" 
 />
    <glyph glyph-name="cedilla" unicode="&#xb8;" horiz-adv-x="401" 
d="M325 -106q0 -36 -36 -60.5t-92 -24.5q-54 0 -121 34q5 7 11 19t9 16q38 -29 87 -29q55 0 55 35q0 14 -7.5 20t-28.5 6q-19 0 -32.5 -1t-31.5 -7q9 14 17.5 30.5t13.5 26.5l19 37l4 8l48 2l-10 -14l-14 -29l-3 -17q11 3 17 4t14 1q38 0 59.5 -15t21.5 -42z" />
    <glyph glyph-name="onesuperior" unicode="&#xb9;" 
 />
    <glyph glyph-name="ordmasculine" unicode="&#xba;" horiz-adv-x="320" 
d="M289 576q13 -26 13 -67q0 -19 -4 -37.5t-19 -43t-41 -36t-63 -22t-50 -10.5q-27 0 -47.5 12t-33.5 38q-18 29 -18 70q0 40 18 71t45 46t66 22q27 12 54 12q17 0 30 -4.5t25 -15.5q6 -3 9.5 -5t15.5 -30zM226 541q-9 24 -26.5 35.5t-38.5 11.5q-18 -6 -30 -14.5t-24 -29.5
t-12 -54q0 -23 8 -42t25 -32.5t38 -13.5q12 -1 21.5 7t27 29.5t17.5 64.5q0 20 -6 38z" />
    <glyph glyph-name="guillemotright" unicode="&#xbb;" 
 />
    <glyph glyph-name="onequarter" unicode="&#xbc;" 
 />
    <glyph glyph-name="onehalf" unicode="&#xbd;" 
 />
    <glyph glyph-name="threequarters" unicode="&#xbe;" 
 />
    <glyph glyph-name="questiondown" unicode="&#xbf;" horiz-adv-x="400" 
d="M372 389l-135 -80q-42 9 -90.5 21.5t-72.5 19.5l-3 2q49 48 111 89q49 -10 91.5 -21t98.5 -27v-4zM353 -132l-4 -7q-49 -37 -100.5 -58.5t-108.5 -21.5q-32 13 -41 17.5t-28 27.5t-19 61q0 16 8 35t30.5 43.5t43.5 46.5l9 4q15 24 31 51t16 49q0 20 -11 38q-15 18 -45 18
l-17 -2q-17 -2 -35.5 -11.5t-35.5 -18.5q-4 13 -4 34v15q2 10 2 14q69 45 113.5 62t81.5 17q49 0 88 -28q9 -9 16 -18.5t10 -20.5q0 -47 -24.5 -86t-40 -59.5t-43 -55t-27.5 -64.5q0 -14 6 -29q15 -14 37 -14q15 0 36 7.5t40 13.5q7 -10 10.5 -32.5t5.5 -27.5z" />
    <glyph glyph-name="Agrave" unicode="&#xc0;" horiz-adv-x="645" 
d="M642 -4l-4 -3q-48 0 -93 1l-90 2q-8 16 -16 56.5t-15 57.5q-15 53 -18 61t-16 21q-19 3 -51 4t-36 1q-25 0 -50 -0.5t-49 -0.5q-10 0 -15.5 -9t-18 -53t-36.5 -128q0 -3 -4 -5h-121q-2 3 -2 4t-2 1q65 143 117.5 275.5t102.5 279.5q3 17 -10 38t-16 29q0 2 2.5 2.5
t2.5 2.5q50 0 100 -2t85 -3q6 0 7 -1t25.5 -95.5t81 -245.5t139.5 -290zM364 287q-7 27 -13 44.5t-25.5 70t-21.5 53.5q-1 -3 -5 -3q-14 -25 -24.5 -49.5t-44.5 -115.5q0 -13 4 -13q35 -7 72 -7q24 0 50 3q6 3 8.5 8.5t-0.5 8.5zM419 718q-32 -15 -64 -29q-29 22 -76 44
t-103 44q-1 4 -1 12q0 11 8 19t25 17.5t45 18.5q62 -34 107 -67t59 -53q2 -4 0 -6z" />
    <glyph glyph-name="Aacute" unicode="&#xc1;" horiz-adv-x="645" 
d="M642 -4l-4 -3q-48 0 -93 1l-90 2q-8 16 -16 56.5t-15 57.5q-15 53 -18 61t-16 21q-19 3 -51 4t-36 1q-25 0 -50 -0.5t-49 -0.5q-10 0 -15.5 -9t-18 -53t-36.5 -128q0 -3 -4 -5h-121q-2 3 -2 4t-2 1q65 143 117.5 275.5t102.5 279.5q3 17 -10 38t-16 29q0 2 2.5 2.5
t2.5 2.5q50 0 100 -2t85 -3q6 0 7 -1t25.5 -95.5t81 -245.5t139.5 -290zM364 287q-7 27 -13 44.5t-25.5 70t-21.5 53.5q-1 -3 -5 -3q-14 -25 -24.5 -49.5t-44.5 -115.5q0 -13 4 -13q35 -7 72 -7q24 0 50 3q6 3 8.5 8.5t-0.5 8.5zM433 777q-70 -28 -108 -45.5t-71 -42.5
q-14 3 -36 15t-28 14q-2 2 0 6q19 27 69.5 61t96.5 59q26 -8 44.5 -18.5t26 -18t7.5 -19.5q0 -8 -1 -11z" />
    <glyph glyph-name="Acircumflex" unicode="&#xc2;" horiz-adv-x="645" 
d="M642 -4l-4 -3q-48 0 -93 1l-90 2q-8 16 -16 56.5t-15 57.5q-15 53 -18 61t-16 21q-19 3 -51 4t-36 1q-25 0 -50 -0.5t-49 -0.5q-10 0 -15.5 -9t-18 -53t-36.5 -128q0 -3 -4 -5h-121q-2 3 -2 4t-2 1q65 143 117.5 275.5t102.5 279.5q3 17 -10 38t-16 29q0 2 2.5 2.5
t2.5 2.5q50 0 100 -2t85 -3q6 0 7 -1t25.5 -95.5t81 -245.5t139.5 -290zM364 287q-7 27 -13 44.5t-25.5 70t-21.5 53.5q-1 -3 -5 -3q-14 -25 -24.5 -49.5t-44.5 -115.5q0 -13 4 -13q35 -7 72 -7q24 0 50 3q6 3 8.5 8.5t-0.5 8.5zM476 718l-64 -26q-19 14 -47 30t-59 29
q-35 -16 -59 -29t-47 -30q-15 3 -37.5 14t-26.5 12v11q16 22 86 68t84 46t83.5 -45t86.5 -69v-11z" />
    <glyph glyph-name="Atilde" unicode="&#xc3;" horiz-adv-x="645" 
d="M642 -4l-4 -3q-48 0 -93 1l-90 2q-8 16 -16 56.5t-15 57.5q-15 53 -18 61t-16 21q-19 3 -51 4t-36 1q-25 0 -50 -0.5t-49 -0.5q-10 0 -15.5 -9t-18 -53t-36.5 -128q0 -3 -4 -5h-121q-2 3 -2 4t-2 1q65 143 117.5 275.5t102.5 279.5q3 17 -10 38t-16 29q0 2 2.5 2.5
t2.5 2.5q50 0 100 -2t85 -3q6 0 7 -1t25.5 -95.5t81 -245.5t139.5 -290zM364 287q-7 27 -13 44.5t-25.5 70t-21.5 53.5q-1 -3 -5 -3q-14 -25 -24.5 -49.5t-44.5 -115.5q0 -13 4 -13q35 -7 72 -7q24 0 50 3q6 3 8.5 8.5t-0.5 8.5zM478 750q-24 -19 -47 -33.5t-47 -14.5
q-14 0 -68.5 21.5t-77.5 21.5q-14 0 -26 -14.5t-24 -28.5q-17 9 -32 15t-32 11v11q19 26 55.5 52t60.5 26t63.5 -13t80.5 -27q18 0 34.5 15t23.5 17q4 -1 8 -1q3 -11 14 -30.5t14 -27.5z" />
    <glyph glyph-name="Adieresis" unicode="&#xc4;" horiz-adv-x="645" 
d="M642 -4l-4 -3q-48 0 -93 1l-90 2q-8 16 -16 56.5t-15 57.5q-15 53 -18 61t-16 21q-19 3 -51 4t-36 1q-25 0 -50 -0.5t-49 -0.5q-10 0 -15.5 -9t-18 -53t-36.5 -128q0 -3 -4 -5h-121q-2 3 -2 4t-2 1q65 143 117.5 275.5t102.5 279.5q3 17 -10 38t-16 29q0 2 2.5 2.5
t2.5 2.5q50 0 100 -2t85 -3q6 0 7 -1t25.5 -95.5t81 -245.5t139.5 -290zM364 287q-7 27 -13 44.5t-25.5 70t-21.5 53.5q-1 -3 -5 -3q-14 -25 -24.5 -49.5t-44.5 -115.5q0 -13 4 -13q35 -7 72 -7q24 0 50 3q6 3 8.5 8.5t-0.5 8.5zM544 788q-21 -21 -59.5 -52t-46.5 -38
q-20 7 -41.5 21t-41.5 28q-3 4 3.5 9.5t17 16.5t28 29.5t40.5 40.5q17 -6 39 -17.5t33 -17.5q3 -4 14 -8t14 -12zM319 788q-21 -21 -59.5 -52t-46.5 -38q-20 7 -41.5 21t-41.5 28q-3 4 3.5 9.5t17 16.5t28 29.5t40.5 40.5q17 -6 39 -17.5t33 -17.5q3 -4 14 -8t14 -12z" />
    <glyph glyph-name="Aring" unicode="&#xc5;" horiz-adv-x="645" 
d="M642 -4l-4 -3q-48 0 -93 1l-90 2q-8 16 -16 56.5t-15 57.5q-15 53 -18 61t-16 21q-19 3 -51 4t-36 1q-25 0 -50 -0.5t-49 -0.5q-10 0 -15.5 -9t-18 -53t-36.5 -128q0 -3 -4 -5h-121q-2 3 -2 4t-2 1q65 143 117.5 275.5t102.5 279.5q3 17 -10 38t-16 29q0 2 2.5 2.5
t2.5 2.5q50 0 100 -2t85 -3q6 0 7 -1t25.5 -95.5t81 -245.5t139.5 -290zM364 287q-7 27 -13 44.5t-25.5 70t-21.5 53.5q-1 -3 -5 -3q-14 -25 -24.5 -49.5t-44.5 -115.5q0 -13 4 -13q35 -7 72 -7q24 0 50 3q6 3 8.5 8.5t-0.5 8.5zM409 764q0 -43 -30 -73t-74 -30
q-43 0 -73 30t-30 73q0 42 30 73t73 31q44 0 74 -30t30 -74zM358 764q0 23 -15 38t-38 15q-22 0 -38 -15t-16 -38t15.5 -38.5t38.5 -15.5t38 15t15 39z" />
    <glyph glyph-name="AE" unicode="&#xc6;" horiz-adv-x="902" 
d="M875 -5q-36 0 -113 3t-118 3q-42 0 -107 -2.5t-82 -2.5q-8 16 -16 56.5t-15 57.5q-15 53 -18 61t-16 21q-19 3 -51 4t-36 1q-25 0 -50 -0.5t-49 -0.5q-10 0 -15.5 -9t-18 -53t-36.5 -128q0 -3 -4 -5h-121q-2 3 -2 4t-2 1q65 143 117.5 275.5t102.5 279.5q3 17 -10 38
t-16 29q0 2 2.5 2.5t2.5 2.5q39 0 132.5 -2t99.5 -2q66 0 111 3.5t72.5 9t33.5 7.5q8 0 8 -24q0 -15 3.5 -47t3.5 -42q-5 -2 -9 -4q-40 0 -127.5 2t-93.5 2q-7 -7 -7 -12q7 -29 23.5 -73.5t31.5 -83.5q3 -3 5.5 -4.5t16 -3.5t35 -3t49.5 -1q42 0 74.5 3t75.5 9
q10 -26 17 -53.5t13 -52.5l-10 -4q-29 0 -95.5 5t-87.5 5q-25 0 -49 -3q-7 -7 -6 -8q9 -32 16 -51.5t37 -85.5q2 -7 7.5 -13.5t13.5 -6.5q47 -6 97 -6q38 0 70 4t59 14q6 0 9 -3.5t7 -18.5q21 -46 35 -94zM364 287q-7 27 -13 44.5t-25.5 70t-21.5 53.5q-1 -3 -5 -3
q-14 -25 -24.5 -49.5t-44.5 -115.5q0 -13 4 -13q35 -7 72 -7q24 0 50 3q6 3 8.5 8.5t-0.5 8.5z" />
    <glyph glyph-name="Ccedilla" unicode="&#xc7;" horiz-adv-x="774" 
d="M766 547q0 -6 -4 -9t-8 -3q-61 -26 -122 -51h-12q-42 46 -95 71.5t-113 25.5q-69 -11 -125 -59t-76.5 -106.5t-20.5 -111.5q0 -56 19.5 -106t58.5 -87q32 -28 69.5 -44.5t77.5 -16.5q23 0 106.5 21t210.5 96q-12 -58 -24 -100q-13 -40 -19 -60l-7 -4q-54 -7 -105.5 -9.5
t-125.5 -2.5l-13 -28l-3 -17q11 3 17 4t14 1q38 0 59.5 -15t21.5 -42q0 -36 -36 -60.5t-92 -24.5q-54 0 -121 34q5 7 11 19t9 16q38 -29 87 -29q55 0 55 35q0 14 -7.5 20t-28.5 6q-19 0 -32.5 -1t-31.5 -7q9 14 17.5 30.5t13.5 26.5l17 34l-23 1q-13 -2 -27.5 -2h-22.5
q-82 0 -145 28t-107 98.5t-44 173.5q0 56 16 110t46 96q111 136 293 136q45 6 77.5 9.5t58.5 3.5q20 0 54.5 -4.5t108 -45.5t73.5 -50z" />
    <glyph glyph-name="Egrave" unicode="&#xc8;" horiz-adv-x="514" 
d="M482 620q-6 -15 -15 -49t-11 -40l-10 -4q-39 0 -125.5 2t-94.5 2q-9 -7 -11 -12q-2 -13 -3 -31.5t-1 -36.5q0 -15 1 -45t1 -44q1 -3 8 -6q24 -4 44.5 -5t49.5 -1q42 0 75.5 3t78.5 9q0 -22 -3.5 -55.5t-5.5 -50.5q-6 -2 -11 -4q-28 0 -92.5 5t-87.5 5q-24 0 -50 -3
q-9 -7 -9 -8q-1 -8 -1 -17.5v-14.5q0 -17 2 -52t2 -53q0 -20 14 -20q45 -6 95 -6q37 0 72 4t64 14q8 0 8 -11v-11q2 -13 2 -24.5v-22.5v-17q0 -9 -0.5 -16.5t-1.5 -13.5q-36 0 -112 3t-116 3l-180 -2q-2 3 -3 4q11 71 14.5 146t3.5 172v21v19v16v14v13q0 19 -0.5 38t-0.5 39
v11q0 38 -7 78.5t-12 68.5l4 4q41 0 135.5 -5t128.5 -5q49 0 78 2.5t52.5 7t30.5 6.5q4 0 4 -5t-4 -19zM365 718q-32 -15 -64 -29q-29 22 -76 44t-103 44q-1 4 -1 12q0 11 8 19t25 17.5t45 18.5q62 -34 107 -67t59 -53q2 -4 0 -6z" />
    <glyph glyph-name="Eacute" unicode="&#xc9;" horiz-adv-x="514" 
d="M482 620q-6 -15 -15 -49t-11 -40l-10 -4q-39 0 -125.5 2t-94.5 2q-9 -7 -11 -12q-2 -13 -3 -31.5t-1 -36.5q0 -15 1 -45t1 -44q1 -3 8 -6q24 -4 44.5 -5t49.5 -1q42 0 75.5 3t78.5 9q0 -22 -3.5 -55.5t-5.5 -50.5q-6 -2 -11 -4q-28 0 -92.5 5t-87.5 5q-24 0 -50 -3
q-9 -7 -9 -8q-1 -8 -1 -17.5v-14.5q0 -17 2 -52t2 -53q0 -20 14 -20q45 -6 95 -6q37 0 72 4t64 14q8 0 8 -11v-11q2 -13 2 -24.5v-22.5v-17q0 -9 -0.5 -16.5t-1.5 -13.5q-36 0 -112 3t-116 3l-180 -2q-2 3 -3 4q11 71 14.5 146t3.5 172v21v19v16v14v13q0 19 -0.5 38t-0.5 39
v11q0 38 -7 78.5t-12 68.5l4 4q41 0 135.5 -5t128.5 -5q49 0 78 2.5t52.5 7t30.5 6.5q4 0 4 -5t-4 -19zM361 777q-70 -28 -108 -45.5t-71 -42.5q-14 3 -36 15t-28 14q-2 2 0 6q19 27 69.5 61t96.5 59q26 -8 44.5 -18.5t26 -18t7.5 -19.5q0 -8 -1 -11z" />
    <glyph glyph-name="Ecircumflex" unicode="&#xca;" horiz-adv-x="514" 
d="M482 620q-6 -15 -15 -49t-11 -40l-10 -4q-39 0 -125.5 2t-94.5 2q-9 -7 -11 -12q-2 -13 -3 -31.5t-1 -36.5q0 -15 1 -45t1 -44q1 -3 8 -6q24 -4 44.5 -5t49.5 -1q42 0 75.5 3t78.5 9q0 -22 -3.5 -55.5t-5.5 -50.5q-6 -2 -11 -4q-28 0 -92.5 5t-87.5 5q-24 0 -50 -3
q-9 -7 -9 -8q-1 -8 -1 -17.5v-14.5q0 -17 2 -52t2 -53q0 -20 14 -20q45 -6 95 -6q37 0 72 4t64 14q8 0 8 -11v-11q2 -13 2 -24.5v-22.5v-17q0 -9 -0.5 -16.5t-1.5 -13.5q-36 0 -112 3t-116 3l-180 -2q-2 3 -3 4q11 71 14.5 146t3.5 172v21v19v16v14v13q0 19 -0.5 38t-0.5 39
v11q0 38 -7 78.5t-12 68.5l4 4q41 0 135.5 -5t128.5 -5q49 0 78 2.5t52.5 7t30.5 6.5q4 0 4 -5t-4 -19zM434 718l-64 -26q-19 14 -47 30t-59 29q-35 -16 -59 -29t-47 -30q-15 3 -37.5 14t-26.5 12v11q16 22 86 68t84 46t83.5 -45t86.5 -69v-11z" />
    <glyph glyph-name="Edieresis" unicode="&#xcb;" horiz-adv-x="514" 
d="M482 620q-6 -15 -15 -49t-11 -40l-10 -4q-39 0 -125.5 2t-94.5 2q-9 -7 -11 -12q-2 -13 -3 -31.5t-1 -36.5q0 -15 1 -45t1 -44q1 -3 8 -6q24 -4 44.5 -5t49.5 -1q42 0 75.5 3t78.5 9q0 -22 -3.5 -55.5t-5.5 -50.5q-6 -2 -11 -4q-28 0 -92.5 5t-87.5 5q-24 0 -50 -3
q-9 -7 -9 -8q-1 -8 -1 -17.5v-14.5q0 -17 2 -52t2 -53q0 -20 14 -20q45 -6 95 -6q37 0 72 4t64 14q8 0 8 -11v-11q2 -13 2 -24.5v-22.5v-17q0 -9 -0.5 -16.5t-1.5 -13.5q-36 0 -112 3t-116 3l-180 -2q-2 3 -3 4q11 71 14.5 146t3.5 172v21v19v16v14v13q0 19 -0.5 38t-0.5 39
v11q0 38 -7 78.5t-12 68.5l4 4q41 0 135.5 -5t128.5 -5q49 0 78 2.5t52.5 7t30.5 6.5q4 0 4 -5t-4 -19zM469 788q-21 -21 -59.5 -52t-46.5 -38q-20 7 -41.5 21t-41.5 28q-3 4 3.5 9.5t17 16.5t28 29.5t40.5 40.5q17 -6 39 -17.5t33 -17.5q3 -4 14 -8t14 -12zM244 788
q-21 -21 -59.5 -52t-46.5 -38q-20 7 -41.5 21t-41.5 28q-3 4 3.5 9.5t17 16.5t28 29.5t40.5 40.5q17 -6 39 -17.5t33 -17.5q3 -4 14 -8t14 -12z" />
    <glyph glyph-name="Igrave" unicode="&#xcc;" horiz-adv-x="275" 
d="M223 1l-5 -5h-167q-4 0 -4 5q22 164 22 352q0 46 -7 136t-7 130q0 5 2.5 6t2.5 3h158l5 -4q-9 -71 -13 -145.5t-4 -154.5q0 -161 17 -323zM257 718q-32 -15 -64 -29q-29 22 -76 44t-103 44q-1 4 -1 12q0 11 8 19t25 17.5t45 18.5q62 -34 107 -67t59 -53q2 -4 0 -6z" />
    <glyph glyph-name="Iacute" unicode="&#xcd;" horiz-adv-x="275" 
d="M223 1l-5 -5h-167q-4 0 -4 5q22 164 22 352q0 46 -7 136t-7 130q0 5 2.5 6t2.5 3h158l5 -4q-9 -71 -13 -145.5t-4 -154.5q0 -161 17 -323zM271 777q-70 -28 -108 -45.5t-71 -42.5q-14 3 -36 15t-28 14q-2 2 0 6q19 27 69.5 61t96.5 59q26 -8 44.5 -18.5t26 -18t7.5 -19.5
q0 -8 -1 -11z" />
    <glyph glyph-name="Icircumflex" unicode="&#xce;" horiz-adv-x="275" 
d="M223 1l-5 -5h-167q-4 0 -4 5q22 164 22 352q0 46 -7 136t-7 130q0 5 2.5 6t2.5 3h158l5 -4q-9 -71 -13 -145.5t-4 -154.5q0 -161 17 -323zM308 718l-64 -26q-19 14 -47 30t-59 29q-35 -16 -59 -29t-47 -30q-15 3 -37.5 14t-26.5 12v11q16 22 86 68t84 46t83.5 -45
t86.5 -69v-11z" />
    <glyph glyph-name="Idieresis" unicode="&#xcf;" horiz-adv-x="275" 
d="M223 1l-5 -5h-167q-4 0 -4 5q22 164 22 352q0 46 -7 136t-7 130q0 5 2.5 6t2.5 3h158l5 -4q-9 -71 -13 -145.5t-4 -154.5q0 -161 17 -323zM344 788q-21 -21 -59.5 -52t-46.5 -38q-20 7 -41.5 21t-41.5 28q-3 4 3.5 9.5t17 16.5t28 29.5t40.5 40.5q17 -6 39 -17.5
t33 -17.5q3 -4 14 -8t14 -12zM119 788q-21 -21 -59.5 -52t-46.5 -38q-20 7 -41.5 21t-41.5 28q-3 4 3.5 9.5t17 16.5t28 29.5t40.5 40.5q17 -6 39 -17.5t33 -17.5q3 -4 14 -8t14 -12z" />
    <glyph glyph-name="Eth" unicode="&#xd0;" 
 />
    <glyph glyph-name="Ntilde" unicode="&#xd1;" horiz-adv-x="775" 
d="M759 -4l-208 1l-358 430v-332q0 -9 0.5 -18.5t7.5 -30.5l10 -50h-181q14 20 21 35.5t12.5 35t6.5 34.5t1 42v324v13q0 31 -1.5 43t-9 34t-12 29.5t-34.5 44.5h159q3 1 6.5 1h4.5q15 0 26 -6.5t17 -15.5t12 -17l343 -421v314q0 26 -2 43t-4 33.5t-5 32t-8 36.5h194
q-24 -21 -34.5 -46.5t-13.5 -45t-3 -39.5v-357q0 -22 0.5 -41.5t8.5 -43.5q14 -36 44 -62zM544 750q-24 -19 -47 -33.5t-47 -14.5q-14 0 -68.5 21.5t-77.5 21.5q-14 0 -26 -14.5t-24 -28.5q-17 9 -32 15t-32 11v11q19 26 55.5 52t60.5 26t63.5 -13t80.5 -27q18 0 34.5 15
t23.5 17q4 -1 8 -1q3 -11 14 -30.5t14 -27.5z" />
    <glyph glyph-name="Ograve" unicode="&#xd2;" horiz-adv-x="865" 
d="M789 499q18 -33 27 -73.5t9 -80.5q0 -56 -16 -109t-59 -112t-127.5 -94.5t-186.5 -35.5q-57 -13 -111 -13q-63 0 -116.5 19t-91.5 62t-59.5 101t-21.5 120q0 60 23.5 127.5t99.5 129.5t163 75q60 6 87.5 10t50 11t41 9t36.5 2q80 0 148.5 -40.5t103.5 -107.5zM634 454
q-33 56 -70 78.5t-75.5 32t-60.5 9.5q-38 0 -71.5 -17t-74.5 -50q-43 -43 -67 -99t-24 -116q0 -51 23.5 -108.5t83.5 -96t132 -38.5q122 17 180 100.5t58 174.5q0 75 -34 130zM527 718q-32 -15 -64 -29q-29 22 -76 44t-103 44q-1 4 -1 12q0 11 8 19t25 17.5t45 18.5
q62 -34 107 -67t59 -53q2 -4 0 -6z" />
    <glyph glyph-name="Oacute" unicode="&#xd3;" horiz-adv-x="865" 
d="M789 499q18 -33 27 -73.5t9 -80.5q0 -56 -16 -109t-59 -112t-127.5 -94.5t-186.5 -35.5q-57 -13 -111 -13q-63 0 -116.5 19t-91.5 62t-59.5 101t-21.5 120q0 60 23.5 127.5t99.5 129.5t163 75q60 6 87.5 10t50 11t41 9t36.5 2q80 0 148.5 -40.5t103.5 -107.5zM634 454
q-33 56 -70 78.5t-75.5 32t-60.5 9.5q-38 0 -71.5 -17t-74.5 -50q-43 -43 -67 -99t-24 -116q0 -51 23.5 -108.5t83.5 -96t132 -38.5q122 17 180 100.5t58 174.5q0 75 -34 130zM523 777q-70 -28 -108 -45.5t-71 -42.5q-14 3 -36 15t-28 14q-2 2 0 6q19 27 69.5 61t96.5 59
q26 -8 44.5 -18.5t26 -18t7.5 -19.5q0 -8 -1 -11z" />
    <glyph glyph-name="Ocircumflex" unicode="&#xd4;" horiz-adv-x="865" 
d="M789 499q18 -33 27 -73.5t9 -80.5q0 -56 -16 -109t-59 -112t-127.5 -94.5t-186.5 -35.5q-57 -13 -111 -13q-63 0 -116.5 19t-91.5 62t-59.5 101t-21.5 120q0 60 23.5 127.5t99.5 129.5t163 75q60 6 87.5 10t50 11t41 9t36.5 2q80 0 148.5 -40.5t103.5 -107.5zM634 454
q-33 56 -70 78.5t-75.5 32t-60.5 9.5q-38 0 -71.5 -17t-74.5 -50q-43 -43 -67 -99t-24 -116q0 -51 23.5 -108.5t83.5 -96t132 -38.5q122 17 180 100.5t58 174.5q0 75 -34 130zM578 718l-64 -26q-19 14 -47 30t-59 29q-35 -16 -59 -29t-47 -30q-15 3 -37.5 14t-26.5 12v11
q16 22 86 68t84 46t83.5 -45t86.5 -69v-11z" />
    <glyph glyph-name="Otilde" unicode="&#xd5;" horiz-adv-x="865" 
d="M789 499q18 -33 27 -73.5t9 -80.5q0 -56 -16 -109t-59 -112t-127.5 -94.5t-186.5 -35.5q-57 -13 -111 -13q-63 0 -116.5 19t-91.5 62t-59.5 101t-21.5 120q0 60 23.5 127.5t99.5 129.5t163 75q60 6 87.5 10t50 11t41 9t36.5 2q80 0 148.5 -40.5t103.5 -107.5zM634 454
q-33 56 -70 78.5t-75.5 32t-60.5 9.5q-38 0 -71.5 -17t-74.5 -50q-43 -43 -67 -99t-24 -116q0 -51 23.5 -108.5t83.5 -96t132 -38.5q122 17 180 100.5t58 174.5q0 75 -34 130zM598 750q-24 -19 -47 -33.5t-47 -14.5q-14 0 -68.5 21.5t-77.5 21.5q-14 0 -26 -14.5t-24 -28.5
q-17 9 -32 15t-32 11v11q19 26 55.5 52t60.5 26t63.5 -13t80.5 -27q18 0 34.5 15t23.5 17q4 -1 8 -1q3 -11 14 -30.5t14 -27.5z" />
    <glyph glyph-name="Odieresis" unicode="&#xd6;" horiz-adv-x="865" 
d="M789 499q18 -33 27 -73.5t9 -80.5q0 -56 -16 -109t-59 -112t-127.5 -94.5t-186.5 -35.5q-57 -13 -111 -13q-63 0 -116.5 19t-91.5 62t-59.5 101t-21.5 120q0 60 23.5 127.5t99.5 129.5t163 75q60 6 87.5 10t50 11t41 9t36.5 2q80 0 148.5 -40.5t103.5 -107.5zM634 454
q-33 56 -70 78.5t-75.5 32t-60.5 9.5q-38 0 -71.5 -17t-74.5 -50q-43 -43 -67 -99t-24 -116q0 -51 23.5 -108.5t83.5 -96t132 -38.5q122 17 180 100.5t58 174.5q0 75 -34 130zM629 788q-21 -21 -59.5 -52t-46.5 -38q-20 7 -41.5 21t-41.5 28q-3 4 3.5 9.5t17 16.5t28 29.5
t40.5 40.5q17 -6 39 -17.5t33 -17.5q3 -4 14 -8t14 -12zM404 788q-21 -21 -59.5 -52t-46.5 -38q-20 7 -41.5 21t-41.5 28q-3 4 3.5 9.5t17 16.5t28 29.5t40.5 40.5q17 -6 39 -17.5t33 -17.5q3 -4 14 -8t14 -12z" />
    <glyph glyph-name="multiply" unicode="&#xd7;" 
 />
    <glyph glyph-name="Oslash" unicode="&#xd8;" horiz-adv-x="865" 
d="M851 633l-98 -83q21 -24 37.5 -54t25.5 -70.5t9 -80.5q0 -56 -16 -109t-59 -112t-127.5 -94.5t-186.5 -35.5q-57 -13 -111 -13q-41 0 -78.5 8.5t-69.5 25.5l-44 -42q-16 -1 -36.5 -1.5t-44.5 -0.5q-40 0 -60 3l112 104q-33 42 -50.5 94.5t-17.5 109.5q0 59 23.5 127.5
t99.5 130.5t163 75q60 6 87.5 10t50 11t41 9t35.5 2q78 0 147 -40l23 22q1 1 41.5 4t75.5 3h25q1 -2 3 -3zM585 516q-23 21 -49 32t-56 18.5t-52 7.5q-38 0 -71.5 -17t-74.5 -50q-43 -43 -67 -99t-24 -116q0 -51 20 -102l4 -10zM637 447q-50 -45 -137 -126t-121.5 -113
t-106.5 -101q67 -58 158 -58q122 17 167.5 83.5t58 107t12.5 83.5q0 71 -31 124z" />
    <glyph glyph-name="Ugrave" unicode="&#xd9;" horiz-adv-x="740" 
d="M700 4l-164 -10q-3 5 -3 18v15q0 14 -5 22q-14 0 -44 -9t-38 -10t-96.5 -25.5t-139.5 -24.5q-67 0 -109 43q-12 14 -19.5 35.5t-10.5 45.5q0 95 -1.5 162t-3 162.5t-1.5 130.5q-5 11 -12 33.5t-12 36.5l4 2q46 0 92 1t91 2l3 -5q-10 -50 -14.5 -115.5t-4.5 -133.5
q0 -32 1 -97t1 -97q6 -42 22.5 -73.5t51.5 -41.5q20 -4 45 -4q83 0 128.5 53t60.5 118t15 152q0 31 -2 101.5t-2 71.5q0 13 -4.5 38t-4.5 29q41 0 83 1t85 2l3 -11q-12 -50 -17 -110t-5 -119q0 -53 5.5 -175.5t5.5 -157.5zM485 718q-32 -15 -64 -29q-29 22 -76 44t-103 44
q-1 4 -1 12q0 11 8 19t25 17.5t45 18.5q62 -34 107 -67t59 -53q2 -4 0 -6z" />
    <glyph glyph-name="Uacute" unicode="&#xda;" horiz-adv-x="740" 
d="M700 4l-164 -10q-3 5 -3 18v15q0 14 -5 22q-14 0 -44 -9t-38 -10t-96.5 -25.5t-139.5 -24.5q-67 0 -109 43q-12 14 -19.5 35.5t-10.5 45.5q0 95 -1.5 162t-3 162.5t-1.5 130.5q-5 11 -12 33.5t-12 36.5l4 2q46 0 92 1t91 2l3 -5q-10 -50 -14.5 -115.5t-4.5 -133.5
q0 -32 1 -97t1 -97q6 -42 22.5 -73.5t51.5 -41.5q20 -4 45 -4q83 0 128.5 53t60.5 118t15 152q0 31 -2 101.5t-2 71.5q0 13 -4.5 38t-4.5 29q41 0 83 1t85 2l3 -11q-12 -50 -17 -110t-5 -119q0 -53 5.5 -175.5t5.5 -157.5zM487 777q-70 -28 -108 -45.5t-71 -42.5
q-14 3 -36 15t-28 14q-2 2 0 6q19 27 69.5 61t96.5 59q26 -8 44.5 -18.5t26 -18t7.5 -19.5q0 -8 -1 -11z" />
    <glyph glyph-name="Ucircumflex" unicode="&#xdb;" horiz-adv-x="740" 
d="M700 4l-164 -10q-3 5 -3 18v15q0 14 -5 22q-14 0 -44 -9t-38 -10t-96.5 -25.5t-139.5 -24.5q-67 0 -109 43q-12 14 -19.5 35.5t-10.5 45.5q0 95 -1.5 162t-3 162.5t-1.5 130.5q-5 11 -12 33.5t-12 36.5l4 2q46 0 92 1t91 2l3 -5q-10 -50 -14.5 -115.5t-4.5 -133.5
q0 -32 1 -97t1 -97q6 -42 22.5 -73.5t51.5 -41.5q20 -4 45 -4q83 0 128.5 53t60.5 118t15 152q0 31 -2 101.5t-2 71.5q0 13 -4.5 38t-4.5 29q41 0 83 1t85 2l3 -11q-12 -50 -17 -110t-5 -119q0 -53 5.5 -175.5t5.5 -157.5zM548 718l-64 -26q-19 14 -47 30t-59 29
q-35 -16 -59 -29t-47 -30q-15 3 -37.5 14t-26.5 12v11q16 22 86 68t84 46t83.5 -45t86.5 -69v-11z" />
    <glyph glyph-name="Udieresis" unicode="&#xdc;" horiz-adv-x="740" 
d="M700 4l-164 -10q-3 5 -3 18v15q0 14 -5 22q-14 0 -44 -9t-38 -10t-96.5 -25.5t-139.5 -24.5q-67 0 -109 43q-12 14 -19.5 35.5t-10.5 45.5q0 95 -1.5 162t-3 162.5t-1.5 130.5q-5 11 -12 33.5t-12 36.5l4 2q46 0 92 1t91 2l3 -5q-10 -50 -14.5 -115.5t-4.5 -133.5
q0 -32 1 -97t1 -97q6 -42 22.5 -73.5t51.5 -41.5q20 -4 45 -4q83 0 128.5 53t60.5 118t15 152q0 31 -2 101.5t-2 71.5q0 13 -4.5 38t-4.5 29q41 0 83 1t85 2l3 -11q-12 -50 -17 -110t-5 -119q0 -53 5.5 -175.5t5.5 -157.5zM589 788q-21 -21 -59.5 -52t-46.5 -38
q-20 7 -41.5 21t-41.5 28q-3 4 3.5 9.5t17 16.5t28 29.5t40.5 40.5q17 -6 39 -17.5t33 -17.5q3 -4 14 -8t14 -12zM364 788q-21 -21 -59.5 -52t-46.5 -38q-20 7 -41.5 21t-41.5 28q-3 4 3.5 9.5t17 16.5t28 29.5t40.5 40.5q17 -6 39 -17.5t33 -17.5q3 -4 14 -8t14 -12z" />
    <glyph glyph-name="Yacute" unicode="&#xdd;" 
 />
    <glyph glyph-name="Thorn" unicode="&#xde;" 
 />
    <glyph glyph-name="germandbls" unicode="&#xdf;" horiz-adv-x="807" 
d="M785 169q0 -49 -31 -91t-77 -58q-18 -10 -41.5 -14.5t-48.5 -4.5h-28t-28 1q-29 0 -56 -7q-54 0 -93 12t-63 48q-15 27 -15 62q0 13 3 27q5 5 6 5l134 -3q6 -4 6 -10q-2 -12 -4 -23q0 -22 13 -39q24 -21 61 -21q6 0 14 1t25 3.5t44 26t35 54.5q0 25 -11 31
q-12 11 -29.5 15.5t-37.5 4.5q-12 0 -24 -0.5t-23 -0.5q-29 -3 -38.5 -3.5t-30.5 -0.5q-41 0 -72 11.5t-50 41.5q-15 21 -15 53q0 25 12 48t23 33t24 10q13 -2 19 -2q12 0 25.5 15.5t17.5 31.5t4 50q0 28 -24.5 39.5t-81.5 28.5q-36 -4 -48 -29.5t-24 -59.5
q-9 -45 -20.5 -236t-11.5 -251q-10 -1 -14 -3q-31 -4 -65 -9t-60 -5q-3 0 -4.5 1t1.5 28t9.5 87.5t6.5 101.5l-5 6q-16 0 -46 -2t-43 -2q0 20 5 41.5t13 39.5q0 3 8 5q9 0 18 -0.5t18 -0.5q22 0 31.5 3.5t9.5 12.5q0 51 3 138t3 141q0 18 13.5 37t29.5 24t33 5q20 0 54 -9
t44 -10q39 31 91 31q31 0 60.5 -15.5t71.5 -55.5t42 -81q0 -50 -50 -91t-50 -66q0 -11 11.5 -26.5t22.5 -20.5t27.5 -7t36.5 -2q21 0 64 4t63 4q53 0 80 -21t27 -82z" />
    <glyph glyph-name="agrave" unicode="&#xe0;" horiz-adv-x="631" 
d="M609 425q-21 -71 -31.5 -137t-10.5 -128q0 -68 13 -157q-2 -7 -5 -7l-145 3q-1 1 -5 9.5t-10 8.5q-27 -10 -57 -12.5t-75 -2.5q-38 -10 -73 -10q-44 0 -80.5 15t-58 46t-31.5 66t-10 72q0 53 22 100q24 61 83 99.5t128 44.5q8 -1 15 -1h15q18 0 56 3t57 3q22 0 42 -3
t35.5 -10t33.5 -7q17 0 40.5 6.5t44.5 12.5q9 0 9 -4zM446 293q-5 27 -47.5 54t-82.5 27q-34 -13 -64.5 -38.5t-50.5 -63t-20 -84.5q0 -45 23 -77q12 -21 30.5 -34t39.5 -13q10 0 33.5 8t61 43.5t51.5 68t21 52.5t7 38q0 13 -2 19zM437 544q-32 -15 -64 -29q-29 22 -76 44
t-103 44q-1 4 -1 12q0 11 8 19t25 17.5t45 18.5q62 -34 107 -67t59 -53q2 -4 0 -6z" />
    <glyph glyph-name="aacute" unicode="&#xe1;" horiz-adv-x="631" 
d="M609 425q-21 -71 -31.5 -137t-10.5 -128q0 -68 13 -157q-2 -7 -5 -7l-145 3q-1 1 -5 9.5t-10 8.5q-27 -10 -57 -12.5t-75 -2.5q-38 -10 -73 -10q-44 0 -80.5 15t-58 46t-31.5 66t-10 72q0 53 22 100q24 61 83 99.5t128 44.5q8 -1 15 -1h15q18 0 56 3t57 3q22 0 42 -3
t35.5 -10t33.5 -7q17 0 40.5 6.5t44.5 12.5q9 0 9 -4zM446 293q-5 27 -47.5 54t-82.5 27q-34 -13 -64.5 -38.5t-50.5 -63t-20 -84.5q0 -45 23 -77q12 -21 30.5 -34t39.5 -13q10 0 33.5 8t61 43.5t51.5 68t21 52.5t7 38q0 13 -2 19zM445 603q-70 -28 -108 -45.5t-71 -42.5
q-14 3 -36 15t-28 14q-2 2 0 6q19 27 69.5 61t96.5 59q26 -8 44.5 -18.5t26 -18t7.5 -19.5q0 -8 -1 -11z" />
    <glyph glyph-name="acircumflex" unicode="&#xe2;" horiz-adv-x="631" 
d="M609 425q-21 -71 -31.5 -137t-10.5 -128q0 -68 13 -157q-2 -7 -5 -7l-145 3q-1 1 -5 9.5t-10 8.5q-27 -10 -57 -12.5t-75 -2.5q-38 -10 -73 -10q-44 0 -80.5 15t-58 46t-31.5 66t-10 72q0 53 22 100q24 61 83 99.5t128 44.5q8 -1 15 -1h15q18 0 56 3t57 3q22 0 42 -3
t35.5 -10t33.5 -7q17 0 40.5 6.5t44.5 12.5q9 0 9 -4zM446 293q-5 27 -47.5 54t-82.5 27q-34 -13 -64.5 -38.5t-50.5 -63t-20 -84.5q0 -45 23 -77q12 -21 30.5 -34t39.5 -13q10 0 33.5 8t61 43.5t51.5 68t21 52.5t7 38q0 13 -2 19zM500 532l-64 -26q-19 14 -47 30t-59 29
q-35 -16 -59 -29t-47 -30q-15 3 -37.5 14t-26.5 12v11q16 22 86 68t84 46t83.5 -45t86.5 -69v-11z" />
    <glyph glyph-name="atilde" unicode="&#xe3;" horiz-adv-x="631" 
d="M609 425q-21 -71 -31.5 -137t-10.5 -128q0 -68 13 -157q-2 -7 -5 -7l-145 3q-1 1 -5 9.5t-10 8.5q-27 -10 -57 -12.5t-75 -2.5q-38 -10 -73 -10q-44 0 -80.5 15t-58 46t-31.5 66t-10 72q0 53 22 100q24 61 83 99.5t128 44.5q8 -1 15 -1h15q18 0 56 3t57 3q22 0 42 -3
t35.5 -10t33.5 -7q17 0 40.5 6.5t44.5 12.5q9 0 9 -4zM446 293q-5 27 -47.5 54t-82.5 27q-34 -13 -64.5 -38.5t-50.5 -63t-20 -84.5q0 -45 23 -77q12 -21 30.5 -34t39.5 -13q10 0 33.5 8t61 43.5t51.5 68t21 52.5t7 38q0 13 -2 19zM496 576q-24 -19 -47 -33.5t-47 -14.5
q-14 0 -68.5 21.5t-77.5 21.5q-14 0 -26 -14.5t-24 -28.5q-17 9 -32 15t-32 11v11q19 26 55.5 52t60.5 26t63.5 -13t80.5 -27q18 0 34.5 15t23.5 17q4 -1 8 -1q3 -11 14 -30.5t14 -27.5z" />
    <glyph glyph-name="adieresis" unicode="&#xe4;" horiz-adv-x="631" 
d="M609 425q-21 -71 -31.5 -137t-10.5 -128q0 -68 13 -157q-2 -7 -5 -7l-145 3q-1 1 -5 9.5t-10 8.5q-27 -10 -57 -12.5t-75 -2.5q-38 -10 -73 -10q-44 0 -80.5 15t-58 46t-31.5 66t-10 72q0 53 22 100q24 61 83 99.5t128 44.5q8 -1 15 -1h15q18 0 56 3t57 3q22 0 42 -3
t35.5 -10t33.5 -7q17 0 40.5 6.5t44.5 12.5q9 0 9 -4zM446 293q-5 27 -47.5 54t-82.5 27q-34 -13 -64.5 -38.5t-50.5 -63t-20 -84.5q0 -45 23 -77q12 -21 30.5 -34t39.5 -13q10 0 33.5 8t61 43.5t51.5 68t21 52.5t7 38q0 13 -2 19zM538 614q-21 -21 -59.5 -52t-46.5 -38
q-20 7 -41.5 21t-41.5 28q-3 4 3.5 9.5t17 16.5t28 29.5t40.5 40.5q17 -6 39 -17.5t33 -17.5q3 -4 14 -8t14 -12zM313 614q-21 -21 -59.5 -52t-46.5 -38q-20 7 -41.5 21t-41.5 28q-3 4 3.5 9.5t17 16.5t28 29.5t40.5 40.5q17 -6 39 -17.5t33 -17.5q3 -4 14 -8t14 -12z" />
    <glyph glyph-name="aring" unicode="&#xe5;" horiz-adv-x="631" 
d="M609 425q-21 -71 -31.5 -137t-10.5 -128q0 -68 13 -157q-2 -7 -5 -7l-145 3q-1 1 -5 9.5t-10 8.5q-27 -10 -57 -12.5t-75 -2.5q-38 -10 -73 -10q-44 0 -80.5 15t-58 46t-31.5 66t-10 72q0 53 22 100q24 61 83 99.5t128 44.5q8 -1 15 -1h15q18 0 56 3t57 3q22 0 42 -3
t35.5 -10t33.5 -7q17 0 40.5 6.5t44.5 12.5q9 0 9 -4zM446 293q-5 27 -47.5 54t-82.5 27q-34 -13 -64.5 -38.5t-50.5 -63t-20 -84.5q0 -45 23 -77q12 -21 30.5 -34t39.5 -13q10 0 33.5 8t61 43.5t51.5 68t21 52.5t7 38q0 13 -2 19zM415 620q0 -43 -30 -73t-74 -30
q-43 0 -73 30t-30 73q0 42 30 73t73 31q44 0 74 -30t30 -74zM364 620q0 23 -15 38t-38 15q-22 0 -38 -15t-16 -38t15.5 -38.5t38.5 -15.5t38 15t15 39z" />
    <glyph glyph-name="ae" unicode="&#xe6;" horiz-adv-x="974" 
d="M950 142l-74 -145l-8 -5q-39 0 -119.5 4.5t-93.5 4.5q-21 0 -41 -1t-39 -4l-145 3q-1 1 2 21.5t-2 20.5q-55 -20 -86 -29.5t-61 -9.5q-38 -10 -73 -10q-44 0 -80.5 15t-58 46t-31.5 66t-10 72q0 53 22 100q24 61 83 99.5t128 44.5q8 -1 15 -1h15q18 0 56 3t57 3
q22 0 42 -3t38 -12q20 -7 50 -7q23 0 40.5 2.5t32.5 6.5q10 0 26.5 2.5t19.5 2.5q30 3 63 6t49 3q36 0 62 -5.5t45 -18t32 -19.5q13 -11 28.5 -40.5t15.5 -68.5q0 -45 -20 -80l-9 -4q-37 5 -67.5 6t-80.5 1q-74 0 -118 -1t-82 -2l-4 -49q0 -24 14.5 -46.5t47 -40t80.5 -17.5
q34 0 61 13q34 11 71.5 27t106.5 55v-9zM823 290q3 8 1.5 16t-5 16.5t-28 30t-43 25t-29.5 3.5q-28 0 -51.5 -16t-47.5 -44q-6 -9 -9.5 -15.5t-3.5 -11.5q0 -4 4 -8q15 -3 31.5 -4t38.5 -1q31 0 79 2.5t54 2.5zM442 283q0 24 -45 57.5t-81 33.5q-34 -13 -64.5 -38.5
t-50.5 -63t-20 -84.5q0 -45 23 -77q12 -21 30.5 -34t39.5 -13q10 0 33.5 8t65 35.5t59.5 59.5q10 62 10 116z" />
    <glyph glyph-name="ccedilla" unicode="&#xe7;" horiz-adv-x="586" 
d="M582 426q-23 -29 -49.5 -56t-49.5 -42q-3 1 -66 23t-87 22q-22 0 -41 -8q-54 -35 -86.5 -80.5t-32.5 -104.5q6 -38 21 -68.5t45 -44.5q38 -21 82 -21q54 0 123.5 35t132.5 67l-64 -141q-36 -7 -73 -9.5t-91 -2.5l-2 -3l-14 -29l-3 -17q11 3 17 4t14 1q38 0 59.5 -15
t21.5 -42q0 -36 -36 -60.5t-92 -24.5q-54 0 -121 34q5 7 11 19t9 16q38 -29 87 -29q55 0 55 35q0 14 -7.5 20t-28.5 6q-19 0 -32.5 -1t-31.5 -7q9 14 17.5 30.5t13.5 26.5l18 36l-65 -2h-22t-23 -1q-16 0 -30 2t-24 9q-50 25 -78.5 73t-28.5 104q0 58 26 104t76 88
q63 30 156.5 47t265.5 17q3 -4 17.5 0.5t16.5 4.5q3 0 2 -3.5t-8 -11.5z" />
    <glyph glyph-name="egrave" unicode="&#xe8;" horiz-adv-x="600" 
d="M566 139l-74 -145q-4 -2 -8 -5q-31 0 -96 5t-86 5q-12 0 -21.5 -0.5t-42.5 -4.5q-72 0 -107 14t-57.5 40t-33 59.5t-10.5 71.5q0 57 25 112.5t86.5 96.5t129.5 41q30 3 63 6t49 3q36 0 62 -5.5t45 -18t32 -19.5q13 -11 28.5 -40.5t15.5 -68.5q0 -45 -20 -80q-7 -2 -9 -4
q-37 5 -67.5 6t-80.5 1q-74 0 -118 -1t-82 -2q-6 -6 -6 -20q0 -8 1 -18t1 -11q0 -24 14.5 -46.5t47 -40t80.5 -17.5q34 0 61 13q34 11 71.5 27t106.5 55q1 -2 0 -9zM415 287q3 8 1.5 16t-5 16.5t-28 30t-43 25t-29.5 3.5q-28 0 -51.5 -16t-47.5 -44q-6 -9 -9.5 -15.5
t-3.5 -11.5q0 -4 4 -8q15 -3 31.5 -4t38.5 -1q31 0 79 2.5t54 2.5q7 2 9 4zM437 544q-32 -15 -64 -29q-29 22 -76 44t-103 44q-1 4 -1 12q0 11 8 19t25 17.5t45 18.5q62 -34 107 -67t59 -53q2 -4 0 -6z" />
    <glyph glyph-name="eacute" unicode="&#xe9;" horiz-adv-x="600" 
d="M566 139l-74 -145q-4 -2 -8 -5q-31 0 -96 5t-86 5q-12 0 -21.5 -0.5t-42.5 -4.5q-72 0 -107 14t-57.5 40t-33 59.5t-10.5 71.5q0 57 25 112.5t86.5 96.5t129.5 41q30 3 63 6t49 3q36 0 62 -5.5t45 -18t32 -19.5q13 -11 28.5 -40.5t15.5 -68.5q0 -45 -20 -80q-7 -2 -9 -4
q-37 5 -67.5 6t-80.5 1q-74 0 -118 -1t-82 -2q-6 -6 -6 -20q0 -8 1 -18t1 -11q0 -24 14.5 -46.5t47 -40t80.5 -17.5q34 0 61 13q34 11 71.5 27t106.5 55q1 -2 0 -9zM415 287q3 8 1.5 16t-5 16.5t-28 30t-43 25t-29.5 3.5q-28 0 -51.5 -16t-47.5 -44q-6 -9 -9.5 -15.5
t-3.5 -11.5q0 -4 4 -8q15 -3 31.5 -4t38.5 -1q31 0 79 2.5t54 2.5q7 2 9 4zM445 603q-70 -28 -108 -45.5t-71 -42.5q-14 3 -36 15t-28 14q-2 2 0 6q19 27 69.5 61t96.5 59q26 -8 44.5 -18.5t26 -18t7.5 -19.5q0 -8 -1 -11z" />
    <glyph glyph-name="ecircumflex" unicode="&#xea;" horiz-adv-x="600" 
d="M566 139l-74 -145q-4 -2 -8 -5q-31 0 -96 5t-86 5q-12 0 -21.5 -0.5t-42.5 -4.5q-72 0 -107 14t-57.5 40t-33 59.5t-10.5 71.5q0 57 25 112.5t86.5 96.5t129.5 41q30 3 63 6t49 3q36 0 62 -5.5t45 -18t32 -19.5q13 -11 28.5 -40.5t15.5 -68.5q0 -45 -20 -80q-7 -2 -9 -4
q-37 5 -67.5 6t-80.5 1q-74 0 -118 -1t-82 -2q-6 -6 -6 -20q0 -8 1 -18t1 -11q0 -24 14.5 -46.5t47 -40t80.5 -17.5q34 0 61 13q34 11 71.5 27t106.5 55q1 -2 0 -9zM415 287q3 8 1.5 16t-5 16.5t-28 30t-43 25t-29.5 3.5q-28 0 -51.5 -16t-47.5 -44q-6 -9 -9.5 -15.5
t-3.5 -11.5q0 -4 4 -8q15 -3 31.5 -4t38.5 -1q31 0 79 2.5t54 2.5q7 2 9 4zM464 532l-64 -26q-19 14 -47 30t-59 29q-35 -16 -59 -29t-47 -30q-15 3 -37.5 14t-26.5 12v11q16 22 86 68t84 46t83.5 -45t86.5 -69v-11z" />
    <glyph glyph-name="edieresis" unicode="&#xeb;" horiz-adv-x="600" 
d="M566 139l-74 -145q-4 -2 -8 -5q-31 0 -96 5t-86 5q-12 0 -21.5 -0.5t-42.5 -4.5q-72 0 -107 14t-57.5 40t-33 59.5t-10.5 71.5q0 57 25 112.5t86.5 96.5t129.5 41q30 3 63 6t49 3q36 0 62 -5.5t45 -18t32 -19.5q13 -11 28.5 -40.5t15.5 -68.5q0 -45 -20 -80q-7 -2 -9 -4
q-37 5 -67.5 6t-80.5 1q-74 0 -118 -1t-82 -2q-6 -6 -6 -20q0 -8 1 -18t1 -11q0 -24 14.5 -46.5t47 -40t80.5 -17.5q34 0 61 13q34 11 71.5 27t106.5 55q1 -2 0 -9zM415 287q3 8 1.5 16t-5 16.5t-28 30t-43 25t-29.5 3.5q-28 0 -51.5 -16t-47.5 -44q-6 -9 -9.5 -15.5
t-3.5 -11.5q0 -4 4 -8q15 -3 31.5 -4t38.5 -1q31 0 79 2.5t54 2.5q7 2 9 4zM514 614q-21 -21 -59.5 -52t-46.5 -38q-20 7 -41.5 21t-41.5 28q-3 4 3.5 9.5t17 16.5t28 29.5t40.5 40.5q17 -6 39 -17.5t33 -17.5q3 -4 14 -8t14 -12zM289 614q-21 -21 -59.5 -52t-46.5 -38
q-20 7 -41.5 21t-41.5 28q-3 4 3.5 9.5t17 16.5t28 29.5t40.5 40.5q17 -6 39 -17.5t33 -17.5q3 -4 14 -8t14 -12z" />
    <glyph glyph-name="igrave" unicode="&#xec;" horiz-adv-x="275" 
d="M222 443q0 -21 -4.5 -59.5t-4.5 -44.5q0 -59 2 -194.5t2 -140.5l1 -5l-161 2q0 22 5 47l10 50q2 21 3 65.5t1 68.5v81q-5 32 -29 61t-40 49q2 3 7 3t6 1q27 0 98.5 13.5t81.5 13.5q22 0 22 -11zM263 544q-32 -15 -64 -29q-29 22 -76 44t-103 44q-1 4 -1 12q0 11 8 19
t25 17.5t45 18.5q62 -34 107 -67t59 -53q2 -4 0 -6z" />
    <glyph glyph-name="iacute" unicode="&#xed;" horiz-adv-x="275" 
d="M222 443q0 -21 -4.5 -59.5t-4.5 -44.5q0 -59 2 -194.5t2 -140.5l1 -5l-161 2q0 22 5 47l10 50q2 21 3 65.5t1 68.5v81q-5 32 -29 61t-40 49q2 3 7 3t6 1q27 0 98.5 13.5t81.5 13.5q22 0 22 -11zM265 603q-70 -28 -108 -45.5t-71 -42.5q-14 3 -36 15t-28 14q-2 2 0 6
q19 27 69.5 61t96.5 59q26 -8 44.5 -18.5t26 -18t7.5 -19.5q0 -8 -1 -11z" />
    <glyph glyph-name="icircumflex" unicode="&#xee;" horiz-adv-x="275" 
d="M222 443q0 -21 -4.5 -59.5t-4.5 -44.5q0 -59 2 -194.5t2 -140.5l1 -5l-161 2q0 22 5 47l10 50q2 21 3 65.5t1 68.5v81q-5 32 -29 61t-40 49q2 3 7 3t6 1q27 0 98.5 13.5t81.5 13.5q22 0 22 -11zM302 532l-64 -26q-19 14 -47 30t-59 29q-35 -16 -59 -29t-47 -30
q-15 3 -37.5 14t-26.5 12v11q16 22 86 68t84 46t83.5 -45t86.5 -69v-11z" />
    <glyph glyph-name="idieresis" unicode="&#xef;" horiz-adv-x="275" 
d="M222 443q0 -21 -4.5 -59.5t-4.5 -44.5q0 -59 2 -194.5t2 -140.5l1 -5l-161 2q0 22 5 47l10 50q2 21 3 65.5t1 68.5v81q-5 32 -29 61t-40 49q2 3 7 3t6 1q27 0 98.5 13.5t81.5 13.5q22 0 22 -11zM352 614q-21 -21 -59.5 -52t-46.5 -38q-20 7 -41.5 21t-41.5 28
q-3 4 3.5 9.5t17 16.5t28 29.5t40.5 40.5q17 -6 39 -17.5t33 -17.5q3 -4 14 -8t14 -12zM127 614q-21 -21 -59.5 -52t-46.5 -38q-20 7 -41.5 21t-41.5 28q-3 4 3.5 9.5t17 16.5t28 29.5t40.5 40.5q17 -6 39 -17.5t33 -17.5q3 -4 14 -8t14 -12z" />
    <glyph glyph-name="eth" unicode="&#xf0;" 
 />
    <glyph glyph-name="ntilde" unicode="&#xf1;" horiz-adv-x="664" 
d="M639 94q-9 -19 -23.5 -44.5t-27.5 -48.5l-6 -6q-35 3 -81.5 4.5t-102.5 1.5h-110q44 40 76.5 70.5t55.5 63.5q18 31 30.5 64t12.5 63q0 18 -5.5 35t-17.5 32t-30.5 23.5t-43.5 11.5q-56 -9 -100.5 -56t-57.5 -85t-16 -61.5t-3 -43.5q0 -25 2.5 -66.5t2.5 -47.5l-1 -3
h-156l-3 2q16 71 26.5 127t10.5 107q0 54 -11 95t-39 78v6q44 0 85.5 4t78.5 14q12 4 15 -5q2 -14 3 -19t2.5 -9.5t8.5 -7.5q43 13 79 19.5t79 6.5q22 5 48.5 9t49.5 4q27 0 48 -5t46 -23.5t38.5 -52t13.5 -75.5v-16q-2 -12 -5 -36t-23.5 -65t-52.5 -78q0 -12 6 -12
q33 8 53 12.5t45 12.5zM496 576q-24 -19 -47 -33.5t-47 -14.5q-14 0 -68.5 21.5t-77.5 21.5q-14 0 -26 -14.5t-24 -28.5q-17 9 -32 15t-32 11v11q19 26 55.5 52t60.5 26t63.5 -13t80.5 -27q18 0 34.5 15t23.5 17q4 -1 8 -1q3 -11 14 -30.5t14 -27.5z" />
    <glyph glyph-name="ograve" unicode="&#xf2;" horiz-adv-x="620" 
d="M560 347q26 -47 26 -110q0 -72 -38 -124.5t-91 -72t-123.5 -35.5t-78.5 -17t-25 -1q-51 0 -93 20t-68 62q-35 50 -35 117t35 118.5t90.5 76.5t131.5 37q53 20 109 20q33 0 60 -7.5t50 -25.5q13 -6 19 -8.5t31 -49.5zM433 288q-18 41 -52.5 59.5t-77.5 18.5
q-34 -10 -59 -24.5t-49 -48t-24 -89.5q0 -36 16.5 -69t51 -55.5t75.5 -22.5q24 -3 40 8t46 39q46 49 46 121q0 36 -13 63zM419 544q-32 -15 -64 -29q-29 22 -76 44t-103 44q-1 4 -1 12q0 11 8 19t25 17.5t45 18.5q62 -34 107 -67t59 -53q2 -4 0 -6z" />
    <glyph glyph-name="oacute" unicode="&#xf3;" horiz-adv-x="620" 
d="M560 347q26 -47 26 -110q0 -72 -38 -124.5t-91 -72t-123.5 -35.5t-78.5 -17t-25 -1q-51 0 -93 20t-68 62q-35 50 -35 117t35 118.5t90.5 76.5t131.5 37q53 20 109 20q33 0 60 -7.5t50 -25.5q13 -6 19 -8.5t31 -49.5zM433 288q-18 41 -52.5 59.5t-77.5 18.5
q-34 -10 -59 -24.5t-49 -48t-24 -89.5q0 -36 16.5 -69t51 -55.5t75.5 -22.5q24 -3 40 8t46 39q46 49 46 121q0 36 -13 63zM427 603q-70 -28 -108 -45.5t-71 -42.5q-14 3 -36 15t-28 14q-2 2 0 6q19 27 69.5 61t96.5 59q26 -8 44.5 -18.5t26 -18t7.5 -19.5q0 -8 -1 -11z" />
    <glyph glyph-name="ocircumflex" unicode="&#xf4;" horiz-adv-x="620" 
d="M560 347q26 -47 26 -110q0 -72 -38 -124.5t-91 -72t-123.5 -35.5t-78.5 -17t-25 -1q-51 0 -93 20t-68 62q-35 50 -35 117t35 118.5t90.5 76.5t131.5 37q53 20 109 20q33 0 60 -7.5t50 -25.5q13 -6 19 -8.5t31 -49.5zM433 288q-18 41 -52.5 59.5t-77.5 18.5
q-34 -10 -59 -24.5t-49 -48t-24 -89.5q0 -36 16.5 -69t51 -55.5t75.5 -22.5q24 -3 40 8t46 39q46 49 46 121q0 36 -13 63zM476 532l-64 -26q-19 14 -47 30t-59 29q-35 -16 -59 -29t-47 -30q-15 3 -37.5 14t-26.5 12v11q16 22 86 68t84 46t83.5 -45t86.5 -69v-11z" />
    <glyph glyph-name="otilde" unicode="&#xf5;" horiz-adv-x="620" 
d="M560 347q26 -47 26 -110q0 -72 -38 -124.5t-91 -72t-123.5 -35.5t-78.5 -17t-25 -1q-51 0 -93 20t-68 62q-35 50 -35 117t35 118.5t90.5 76.5t131.5 37q53 20 109 20q33 0 60 -7.5t50 -25.5q13 -6 19 -8.5t31 -49.5zM433 288q-18 41 -52.5 59.5t-77.5 18.5
q-34 -10 -59 -24.5t-49 -48t-24 -89.5q0 -36 16.5 -69t51 -55.5t75.5 -22.5q24 -3 40 8t46 39q46 49 46 121q0 36 -13 63zM490 576q-24 -19 -47 -33.5t-47 -14.5q-14 0 -68.5 21.5t-77.5 21.5q-14 0 -26 -14.5t-24 -28.5q-17 9 -32 15t-32 11v11q19 26 55.5 52t60.5 26
t63.5 -13t80.5 -27q18 0 34.5 15t23.5 17q4 -1 8 -1q3 -11 14 -30.5t14 -27.5z" />
    <glyph glyph-name="odieresis" unicode="&#xf6;" horiz-adv-x="620" 
d="M560 347q26 -47 26 -110q0 -72 -38 -124.5t-91 -72t-123.5 -35.5t-78.5 -17t-25 -1q-51 0 -93 20t-68 62q-35 50 -35 117t35 118.5t90.5 76.5t131.5 37q53 20 109 20q33 0 60 -7.5t50 -25.5q13 -6 19 -8.5t31 -49.5zM433 288q-18 41 -52.5 59.5t-77.5 18.5
q-34 -10 -59 -24.5t-49 -48t-24 -89.5q0 -36 16.5 -69t51 -55.5t75.5 -22.5q24 -3 40 8t46 39q46 49 46 121q0 36 -13 63zM520 614q-21 -21 -59.5 -52t-46.5 -38q-20 7 -41.5 21t-41.5 28q-3 4 3.5 9.5t17 16.5t28 29.5t40.5 40.5q17 -6 39 -17.5t33 -17.5q3 -4 14 -8
t14 -12zM295 614q-21 -21 -59.5 -52t-46.5 -38q-20 7 -41.5 21t-41.5 28q-3 4 3.5 9.5t17 16.5t28 29.5t40.5 40.5q17 -6 39 -17.5t33 -17.5q3 -4 14 -8t14 -12z" />
    <glyph glyph-name="divide" unicode="&#xf7;" 
 />
    <glyph glyph-name="oslash" unicode="&#xf8;" horiz-adv-x="620" 
d="M617 495q-51 -42 -102 -93q8 -4 17 -8q6 -6 30 -50t24 -107q0 -72 -38 -124.5t-91 -72t-128.5 -36.5t-99.5 -17q-35 0 -64 10l-56 -66q-29 1 -58.5 2t-58.5 5q47 44 99 102q-5 5 -10.5 12.5t-26 37t-20.5 96.5t35 118.5t90.5 76.5t131.5 37q53 20 107 20h15q10 -2 15 -2
l44 55q1 1 41.5 4t75.5 3h25q1 -2 3 -3zM364 357q-12 5 -27 7t-34 2q-34 -10 -59 -24.5t-49.5 -49.5t-24.5 -89q0 -34 13 -61q33 38 90.5 106.5t90.5 108.5zM433 288q0 3 -4.5 9.5t-4.5 7.5q-47 -53 -102.5 -119.5t-85.5 -103.5q36 -25 78 -25q24 -3 40 8t46 39
q46 49 46 121q0 36 -13 63z" />
    <glyph glyph-name="ugrave" unicode="&#xf9;" horiz-adv-x="616" 
d="M602 425q-1 -14 -19.5 -143t-18.5 -172q0 -39 4.5 -66t7.5 -40h-152q-2 3 -3 13.5t-5 14.5q-22 -5 -77 -11t-73 -10q-40 -15 -83 -15q-27 0 -47.5 5.5t-64.5 40.5t-44 129v15q2 11 5 32t18.5 53.5t41.5 65.5q1 3 -1.5 5.5t-6.5 4.5q-8 1 -20.5 0t-23.5 -1q-9 0 -13 1
q4 19 8.5 33t16.5 39h23h20h18h15h14h12h36.5t37.5 1h10q22 0 56 1.5t35 1.5q25 0 49 -3l-128 -94q-71 -64 -71 -134q0 -11 3.5 -32t20 -47.5t35.5 -35.5t29.5 -10t11.5 -1q26 0 50.5 15t51.5 41q35 38 47 90t12 123v11q0 17 -0.5 34t-0.5 35v10l5 2h153zM437 544
q-32 -15 -64 -29q-29 22 -76 44t-103 44q-1 4 -1 12q0 11 8 19t25 17.5t45 18.5q62 -34 107 -67t59 -53q2 -4 0 -6z" />
    <glyph glyph-name="uacute" unicode="&#xfa;" horiz-adv-x="616" 
d="M602 425q-1 -14 -19.5 -143t-18.5 -172q0 -39 4.5 -66t7.5 -40h-152q-2 3 -3 13.5t-5 14.5q-22 -5 -77 -11t-73 -10q-40 -15 -83 -15q-27 0 -47.5 5.5t-64.5 40.5t-44 129v15q2 11 5 32t18.5 53.5t41.5 65.5q1 3 -1.5 5.5t-6.5 4.5q-8 1 -20.5 0t-23.5 -1q-9 0 -13 1
q4 19 8.5 33t16.5 39h23h20h18h15h14h12h36.5t37.5 1h10q22 0 56 1.5t35 1.5q25 0 49 -3l-128 -94q-71 -64 -71 -134q0 -11 3.5 -32t20 -47.5t35.5 -35.5t29.5 -10t11.5 -1q26 0 50.5 15t51.5 41q35 38 47 90t12 123v11q0 17 -0.5 34t-0.5 35v10l5 2h153zM445 603
q-70 -28 -108 -45.5t-71 -42.5q-14 3 -36 15t-28 14q-2 2 0 6q19 27 69.5 61t96.5 59q26 -8 44.5 -18.5t26 -18t7.5 -19.5q0 -8 -1 -11z" />
    <glyph glyph-name="ucircumflex" unicode="&#xfb;" horiz-adv-x="616" 
d="M602 425q-1 -14 -19.5 -143t-18.5 -172q0 -39 4.5 -66t7.5 -40h-152q-2 3 -3 13.5t-5 14.5q-22 -5 -77 -11t-73 -10q-40 -15 -83 -15q-27 0 -47.5 5.5t-64.5 40.5t-44 129v15q2 11 5 32t18.5 53.5t41.5 65.5q1 3 -1.5 5.5t-6.5 4.5q-8 1 -20.5 0t-23.5 -1q-9 0 -13 1
q4 19 8.5 33t16.5 39h23h20h18h15h14h12h36.5t37.5 1h10q22 0 56 1.5t35 1.5q25 0 49 -3l-128 -94q-71 -64 -71 -134q0 -11 3.5 -32t20 -47.5t35.5 -35.5t29.5 -10t11.5 -1q26 0 50.5 15t51.5 41q35 38 47 90t12 123v11q0 17 -0.5 34t-0.5 35v10l5 2h153zM488 532l-64 -26
q-19 14 -47 30t-59 29q-35 -16 -59 -29t-47 -30q-15 3 -37.5 14t-26.5 12v11q16 22 86 68t84 46t83.5 -45t86.5 -69v-11z" />
    <glyph glyph-name="udieresis" unicode="&#xfc;" horiz-adv-x="616" 
d="M602 425q-1 -14 -19.5 -143t-18.5 -172q0 -39 4.5 -66t7.5 -40h-152q-2 3 -3 13.5t-5 14.5q-22 -5 -77 -11t-73 -10q-40 -15 -83 -15q-27 0 -47.5 5.5t-64.5 40.5t-44 129v15q2 11 5 32t18.5 53.5t41.5 65.5q1 3 -1.5 5.5t-6.5 4.5q-8 1 -20.5 0t-23.5 -1q-9 0 -13 1
q4 19 8.5 33t16.5 39h23h20h18h15h14h12h36.5t37.5 1h10q22 0 56 1.5t35 1.5q25 0 49 -3l-128 -94q-71 -64 -71 -134q0 -11 3.5 -32t20 -47.5t35.5 -35.5t29.5 -10t11.5 -1q26 0 50.5 15t51.5 41q35 38 47 90t12 123v11q0 17 -0.5 34t-0.5 35v10l5 2h153zM538 614
q-21 -21 -59.5 -52t-46.5 -38q-20 7 -41.5 21t-41.5 28q-3 4 3.5 9.5t17 16.5t28 29.5t40.5 40.5q17 -6 39 -17.5t33 -17.5q3 -4 14 -8t14 -12zM313 614q-21 -21 -59.5 -52t-46.5 -38q-20 7 -41.5 21t-41.5 28q-3 4 3.5 9.5t17 16.5t28 29.5t40.5 40.5q17 -6 39 -17.5
t33 -17.5q3 -4 14 -8t14 -12z" />
    <glyph glyph-name="yacute" unicode="&#xfd;" 
 />
    <glyph glyph-name="thorn" unicode="&#xfe;" 
 />
    <glyph glyph-name="ydieresis" unicode="&#xff;" horiz-adv-x="632" 
d="M625 420q-43 -82 -89 -171.5t-80 -168t-59 -165.5q-22 -57 -75.5 -81.5t-127.5 -32.5q-25 -6 -50.5 -10.5t-48.5 -4.5q-26 0 -48.5 6.5t-39.5 21.5q-14 17 -21 41.5t-7 48.5q0 31 9.5 65t23 58t24.5 40.5t25 30.5q52 5 105 11q-4 -12 -22 -34t-26.5 -39t-15.5 -42.5
t-7 -51.5q0 -39 19 -67q21 -27 50 -27q5 0 17 2q44 13 70 52t42 93q3 6 -6 11q-18 0 -51.5 -4.5t-37.5 -4.5q0 49 1 78.5t2 55.5q0 60 -7 102t-29 82q-8 6 -23 6q-21 -1 -41 -2q-13 0 -39 -3t-39 -3q14 22 46 59t38 44q25 0 76 1t76 1l9 -2q40 -56 56.5 -127.5t16.5 -156.5
q4 -6 8 -2t22 41l54 111t72 129q3 9 25 13h98q2 0 5 -4zM538 614q-21 -21 -59.5 -52t-46.5 -38q-20 7 -41.5 21t-41.5 28q-3 4 3.5 9.5t17 16.5t28 29.5t40.5 40.5q17 -6 39 -17.5t33 -17.5q3 -4 14 -8t14 -12zM313 614q-21 -21 -59.5 -52t-46.5 -38q-20 7 -41.5 21
t-41.5 28q-3 4 3.5 9.5t17 16.5t28 29.5t40.5 40.5q17 -6 39 -17.5t33 -17.5q3 -4 14 -8t14 -12z" />
    <glyph glyph-name="dotlessi" unicode="&#x131;" horiz-adv-x="275" 
d="M222 443q0 -21 -4.5 -59.5t-4.5 -44.5q0 -59 2 -194.5t2 -140.5l1 -5l-161 2q0 22 5 47l10 50q2 21 3 65.5t1 68.5v81q-5 32 -29 61t-40 49q2 3 7 3t6 1q27 0 98.5 13.5t81.5 13.5q22 0 22 -11z" />
    <glyph glyph-name="Lslash" unicode="&#x141;" 
 />
    <glyph glyph-name="lslash" unicode="&#x142;" 
 />
    <glyph glyph-name="OE" unicode="&#x152;" horiz-adv-x="1000" 
d="M952 620q-6 -15 -15 -49t-11 -40q-4 -4 -10 -4q-39 0 -125.5 2t-94.5 2q-11 -9 -11 -12q-2 -13 -3 -31.5t-1 -36.5q0 -15 1 -45t1 -44q0 -3 8 -6q24 -4 44.5 -5t49.5 -1q42 0 75.5 3t78.5 9q0 -22 -3.5 -55.5t-5.5 -50.5q-7 -4 -11 -4q-28 0 -92.5 5t-87.5 5
q-12 0 -31 -1.5t-20 -1.5q-8 0 -8 -8q-1 -8 -1 -17.5v-14.5q0 -17 2 -52t2 -53q0 -20 14 -20q45 -6 95 -6q37 0 72 4t64 14q8 0 8 -11v-11v-94q-36 0 -112 3t-116 3l-180 -2l-3 4v5q-15 -3 -40 -6t-49 -3q-57 -13 -111 -13q-63 0 -116.5 19t-91.5 62t-59.5 101t-21.5 120
q0 60 23.5 127.5t99.5 129.5t163 75q60 6 87.5 10t55.5 12.5t52 8.5q27 0 49 -11q37 0 112 -3t114 -3q44 0 77.5 2.5t69.5 9.5q10 1 13 1q4 0 4 -4t-4 -18zM542 487q0 9 -2 27t-2 27q-12 13 -35 19t-38 10t-37 4q-38 0 -71.5 -17t-74.5 -50q-43 -43 -67 -99t-24 -116
q0 -51 23.5 -108.5t83.5 -96t132 -38.5q54 8 73.5 44t36.5 67q0 53 1 162t1 165z" />
    <glyph glyph-name="oe" unicode="&#x153;" horiz-adv-x="1023" 
d="M977 139l-74 -145l-8 -5q-31 0 -96 5t-86 5q-12 0 -21.5 -0.5t-42.5 -4.5q-72 0 -107 14t-59 42l-3 3q-41 -24 -100.5 -38t-88 -20t-36.5 -7t-25 -1q-51 0 -93 20t-68 62q-35 50 -35 117t35 118.5t90.5 76.5t131.5 37q53 20 109 20q33 0 60 -7.5t40.5 -18t22 -13.5
t18.5 -19q66 49 141 49q30 3 63 6t49 3q36 0 62 -5.5t45 -18t32 -19.5q13 -11 28.5 -40.5t15.5 -68.5q0 -45 -20 -80l-9 -4q-37 5 -67.5 6t-80.5 1q-74 0 -118 -1t-82 -2q-6 -6 -6 -20q0 -8 1 -18t1 -11q0 -24 14.5 -46.5t47 -40t80.5 -17.5q34 0 61 13q34 11 71.5 27
t106.5 55v-9zM826 287q3 8 1.5 16t-5 16.5t-28 30t-43 25t-29.5 3.5q-28 0 -51.5 -16t-47.5 -44q-6 -9 -9.5 -15.5t-3.5 -11.5q0 -4 4 -8q15 -3 31.5 -4t38.5 -1q31 0 79 2.5t54 2.5zM446 229q0 16 -2.5 28.5t-15.5 42t-47.5 48t-77.5 18.5q-34 -10 -59 -24.5t-49 -48
t-24 -89.5q0 -36 16.5 -69t51 -55.5t75.5 -22.5q24 -3 40 8t46 39q32 33 41 80q0 9 2.5 25t2.5 20z" />
    <glyph glyph-name="Scaron" unicode="&#x160;" 
 />
    <glyph glyph-name="scaron" unicode="&#x161;" 
 />
    <glyph glyph-name="Ydieresis" unicode="&#x178;" horiz-adv-x="623" 
d="M617 632q0 -2 1 -4q-4 -9 -25 -39t-60.5 -99.5t-64 -119t-73.5 -157.5q-8 -14 -11 -31t-3 -38q0 -15 2 -42t2 -39q4 -10 5.5 -34.5t1.5 -25.5q-38 -3 -76 -3h-11h-34.5t-34.5 1h-9l-4 4q0 20 2 59t2 59q0 30 -2.5 48.5t-10.5 43.5q-39 98 -89.5 196t-110.5 195
q0 5 -8 12.5t-4 13.5h97.5h68.5l142 -304q8 -5 9 -5q7 10 51.5 90.5t107.5 218.5h139zM514 788q-21 -21 -59.5 -52t-46.5 -38q-20 7 -41.5 21t-41.5 28q-3 4 3.5 9.5t17 16.5t28 29.5t40.5 40.5q17 -6 39 -17.5t33 -17.5q3 -4 14 -8t14 -12zM289 788q-21 -21 -59.5 -52
t-46.5 -38q-20 7 -41.5 21t-41.5 28q-3 4 3.5 9.5t17 16.5t28 29.5t40.5 40.5q17 -6 39 -17.5t33 -17.5q3 -4 14 -8t14 -12z" />
    <glyph glyph-name="Zcaron" unicode="&#x17d;" 
 />
    <glyph glyph-name="zcaron" unicode="&#x17f;" 
 />
    <glyph glyph-name="florin" unicode="&#x192;" 
 />
    <glyph glyph-name="hungarumlaut" unicode="&#x2ba;" horiz-adv-x="403" 
d="M385 707q-28 -41 -48 -79.5t-31 -78.5q-12 -4 -40 -9.5t-53 -11.5q-1 1 -2 2.5t-1 2.5q20 62 35 112.5t15 77.5q14 4 37.5 6t43.5 2q22 0 32 -2t12 -22zM225 707q-28 -41 -48 -79.5t-31 -78.5q-12 -4 -40 -9.5t-53 -11.5q-1 1 -2 2.5t-1 2.5q20 62 35 112.5t15 77.5
q14 4 37.5 6t43.5 2q22 0 32 -2t12 -22z" />
    <glyph glyph-name="circumflex" unicode="&#x2c6;" horiz-adv-x="442" 
d="M386 718l-64 -26q-19 14 -47 30t-59 29q-35 -16 -59 -29t-47 -30q-15 3 -37.5 14t-26.5 12v11q16 22 86 68t84 46t83.5 -45t86.5 -69v-11z" />
    <glyph glyph-name="caron" unicode="&#x2c7;" horiz-adv-x="442" 
d="M386 817q-16 -23 -86.5 -68.5t-83.5 -45.5q-15 0 -84 45.5t-86 68.5v11l64 26q19 -15 46 -29.5t60 -29.5q66 29 106 59q15 -3 37.5 -14t26.5 -12v-11z" />
    <glyph glyph-name="breve" unicode="&#x2d8;" horiz-adv-x="442" 
d="M386 817q-28 -39 -73.5 -76.5t-96.5 -37.5q-40 0 -84.5 29t-85.5 85v11l64 26q23 -19 50 -39t56 -20q35 0 62 22t44 37q15 -3 37.5 -14t26.5 -12v-11z" />
    <glyph glyph-name="dotaccent" unicode="&#x2d9;" horiz-adv-x="295" 
d="M212 675l-10 -9l-21 -23q-18 -16 -33 -35q-26 31 -55 57l-11 8q20 17 33.5 31t32.5 36q13 -17 22 -26t42 -39z" />
    <glyph glyph-name="ring" unicode="&#x2da;" horiz-adv-x="359" 
d="M283 764q0 -43 -30 -73t-74 -30q-43 0 -73 30t-30 73q0 42 30 73t73 31q44 0 74 -30t30 -74zM232 764q0 23 -15 38t-38 15q-22 0 -38 -15t-16 -38t15.5 -38.5t38.5 -15.5t38 15t15 39z" />
    <glyph glyph-name="ogonek" unicode="&#x2db;" horiz-adv-x="337" 
d="M260 -143q-38 -29 -65 -41t-51 -12q-32 0 -56 18.5t-24 47.5q0 33 22.5 69t64.5 65h56q-36 -37 -45.5 -48.5t-9.5 -35.5q0 -19 12 -31t30 -12q11 0 28 7t31 17q3 -6 4 -22t3 -22z" />
    <glyph glyph-name="tilde" unicode="&#x2dc;" horiz-adv-x="374" 
d="M364 750q-24 -19 -47 -33.5t-47 -14.5q-14 0 -68.5 21.5t-77.5 21.5q-14 0 -26 -14.5t-24 -28.5q-17 9 -32 15t-32 11v11q19 26 55.5 52t60.5 26t63.5 -13t80.5 -27q18 0 34.5 15t23.5 17q4 -1 8 -1q3 -11 14 -30.5t14 -27.5z" />
    <glyph glyph-name="summation" unicode="&#x3a3;" horiz-adv-x="655" 
d="M636 82q0 -15 -12 -36t-20 -36.5t-36 -18.5l-52 -2q-37 4 -70.5 5t-78.5 1h-53.5t-52.5 -1q104 80 155.5 133t51.5 127q0 16 -5.5 40t-34 44.5t-60.5 20.5q-31 -12 -60.5 -36.5t-59.5 -68t-43.5 -109.5t-13.5 -149l-4 -4q-29 0 -66.5 0.5t-84.5 1.5q0 31 10 81.5
t13.5 92.5t6.5 94.5t3 119.5q0 85 -7 156q0 21 -9.5 37.5t-32.5 47.5q-1 3 1.5 4.5t6.5 1.5q33 0 108 5t102 5v-16q-12 -31 -18.5 -72.5t-6.5 -115.5v-45q2 -3 4 -4t3 -1q24 11 90 22t91 22q29 9 61 9q63 0 100.5 -29t53 -66t15.5 -77q0 -26 -6 -52q-6 -35 -25.5 -66.5
t-51.5 -65.5q0 -4 2 -6.5t3 -2.5q41 4 83 9zM519 718l-64 -26q-19 14 -47 30t-59 29q-35 -16 -59 -29t-47 -30q-15 3 -37.5 14t-26.5 12v11q16 22 86 68t84 46t83.5 -45t86.5 -69v-11z" />
    <glyph glyph-name="Omega" unicode="&#x3a9;" horiz-adv-x="538" 
d="M508 169q0 -49 -31 -91t-77 -58q-18 -10 -41.5 -14.5t-48.5 -4.5h-28t-28 1q-29 0 -56 -7q-54 0 -93 12t-63 48q-15 27 -15 62q0 13 3 27q5 5 6 5l134 -3q6 -4 6 -10q-2 -12 -4 -23q0 -22 13 -39q24 -21 61 -21q6 0 14 1t25 3.5t44 26t35 54.5q0 25 -11 31
q-12 11 -29.5 15.5t-37.5 4.5q-12 0 -24 -0.5t-23 -0.5q-29 -3 -38.5 -3.5t-30.5 -0.5q-41 0 -72 11.5t-50 41.5q-15 21 -15 53q0 25 19 62.5t79 54.5t156 17q35 10 71 10q44 0 81 -15t46 -33.5t13.5 -31.5t4.5 -21q0 -11 -5 -17q-31 0 -78.5 -2.5t-55.5 -2.5
q-6 18 -13 29.5t-22 19.5q-23 10 -52 10q-36 0 -61 -19q-10 -9 -20.5 -19.5t-10.5 -23.5q0 -11 6.5 -20.5t18 -14.5t28 -7t36.5 -2q21 0 64 4t63 4q53 0 80 -21t27 -82zM435 532l-64 -26q-19 14 -47 30t-59 29q-35 -16 -59 -29t-47 -30q-15 3 -37.5 14t-26.5 12v11
q16 22 86 68t84 46t83.5 -45t86.5 -69v-11z" />
    <glyph glyph-name="pi" unicode="&#x3c0;" horiz-adv-x="330" 
d="M294 454q-19 -58 -26 -119.5t-7 -139.5q0 -37 2 -123t2 -93q-6 -60 -57 -107t-117 -73q-26 -6 -53 -6q-24 0 -45.5 5.5t-39.5 18.5q9 13 17 21t38 35q7 0 19 -9t20 -5q49 66 65.5 149t16.5 195q0 24 -1 73.5t-1 73.5q-6 10 -8 14q-13 0 -37 -3t-36 -3q-6 0 -20 2
q9 50 10.5 57.5t10.5 31.5q0 4 4 3t6 2q56 0 123 2t112 4zM335 532l-64 -26q-19 14 -47 30t-59 29q-35 -16 -59 -29t-47 -30q-15 3 -37.5 14t-26.5 12v11q16 22 86 68t84 46t83.5 -45t86.5 -69v-11z" />
    <glyph glyph-name="endash" unicode="&#x2013;" horiz-adv-x="500" 
d="M502 354l-59 -99q-5 0 -9 -4q-45 5 -82.5 6t-98.5 1q-60 0 -151.5 -1.5t-92.5 -1.5q-2 1 0 7q33 51 66 103q33 -5 79.5 -7t97.5 -2q68 0 139 2.5t111 4.5v-9z" />
    <glyph glyph-name="emdash" unicode="&#x2014;" horiz-adv-x="1000" 
d="M985 354l-59 -99q-5 0 -9 -4q-44 4 -128 5.5t-244 1.5q-174 0 -302 -1t-237 -2q-2 1 0 7q33 51 66 103q33 -5 116.5 -7t192.5 -2q114 0 295 2.5t220.5 3t88.5 1.5v-9z" />
    <glyph glyph-name="quoteleft" unicode="&#x2018;" horiz-adv-x="232" 
d="M184 432q-25 -3 -51 -3.5t-50 -0.5q-26 21 -41.5 44t-15.5 48q0 5 2 15q9 28 25.5 51.5t40.5 41.5q11 1 21 2.5t23 1.5q18 0 27 -1q11 -3 15 -3v-11q-18 -23 -36 -45q-19 -28 -16 -55q5 -20 28 -47.5t28 -37.5z" />
    <glyph glyph-name="quoteright" unicode="&#x2019;" horiz-adv-x="232" 
d="M207 526q-6 -27 -23 -50t-43 -44q-7 -1 -16 -1.5t-14 -0.5q-8 0 -27 1t-32 1v4q24 32 40 55t16 47q0 8 -3 17q-7 11 -26 35.5t-27 37.5h4h104q49 -26 49 -80q0 -14 -2 -22z" />
    <glyph glyph-name="quotesinglbase" unicode="&#x201a;" 
 />
    <glyph glyph-name="quotedblleft" unicode="&#x201c;" horiz-adv-x="369" 
d="M345 432h-5h-103q-23 18 -36 38.5t-13 46.5q0 6 4 25t21.5 42t42.5 44q20 3 39 3q11 0 23.5 -0.5t26.5 -0.5v-5q-24 -32 -40 -56t-16 -47q0 -8 3 -17q11 -18 31 -44t22 -29zM184 432q-25 -3 -51 -3.5t-50 -0.5q-26 21 -41.5 44t-15.5 48q0 5 2 15q9 28 25.5 51.5
t40.5 41.5q11 1 21 2.5t23 1.5q18 0 27 -1q11 -3 15 -3v-11q-18 -23 -36 -45q-19 -28 -16 -55q5 -20 28 -47.5t28 -37.5z" />
    <glyph glyph-name="quotedblright" unicode="&#x201d;" horiz-adv-x="369" 
d="M346 526q-18 -58 -67 -94q-19 -4 -44 -4q-23 0 -42 4v11q18 22 37 48t16 52q-4 15 -20.5 37t-35.5 48q7 1 28 2t54 1h24h12q20 -14 30.5 -35t10.5 -46q0 -12 -3 -24zM184 526q-6 -27 -23 -50t-43 -44q-7 -1 -16 -1.5t-14 -0.5q-8 0 -27 1t-32 1v4q24 32 40 55t16 47
q0 8 -3 17q-7 11 -26 35.5t-27 37.5h4h104q49 -26 49 -80q0 -14 -2 -22z" />
    <glyph glyph-name="quotedblbase" unicode="&#x201e;" 
 />
    <glyph glyph-name="dagger" unicode="&#x2020;" 
 />
    <glyph glyph-name="daggerdbl" unicode="&#x2021;" 
 />
    <glyph glyph-name="bullet" unicode="&#x2022;" horiz-adv-x="212" 
d="M181 281q-37 -20 -70 -39t-58 -34q0 5 -3 8q0 27 -8 64.5t-12 57.5q33 15 67.5 31.5t62.5 38.5h4z" />
    <glyph glyph-name="ellipsis" unicode="&#x2026;" horiz-adv-x="741" 
d="M716 64q-4 -5 -24.5 -33t-36.5 -41q-46 16 -72 24.5t-59 23.5q0 8 9 16t11 13q25 28 33.5 37t21.5 20q34 -15 58 -27t35.5 -17.5t18 -7.5t5.5 -8zM469 64q-4 -5 -24.5 -33t-36.5 -41q-46 16 -72 24.5t-59 23.5q0 8 9 16t11 13q25 28 33.5 37t21.5 20q34 -15 58 -27
t35.5 -17.5t18 -7.5t5.5 -8zM222 64q-4 -5 -24.5 -33t-36.5 -41q-46 16 -72 24.5t-59 23.5q0 8 9 16t11 13q25 28 33.5 37t21.5 20q34 -15 58 -27t35.5 -17.5t18 -7.5t5.5 -8z" />
    <glyph glyph-name="perthousand" unicode="&#x2030;" 
 />
    <glyph glyph-name="guilsinglleft" unicode="&#x2039;" 
 />
    <glyph glyph-name="guilsinglright" unicode="&#x203a;" 
 />
    <glyph glyph-name="trademark" unicode="&#x2122;" horiz-adv-x="864" 
d="M336 625q0 -22 -5 -49l-3 -3h-26.5t-26.5 1q-21 0 -41 -3l-3 -5q-7 -73 -7 -159q0 -81 7 -147h-82l-1 3q0 43 1 87t2 89q0 24 -0.5 53.5t-7.5 76.5l-4 4q-32 0 -55.5 -2.5t-46.5 -10.5v9q8 31 17 62q38 0 98 -1.5t61 -1.5h12q21 0 42 1t38 3.5t23 2.5q8 0 8 -10zM811 255
h-83l-15 1q9 21 13.5 53t4.5 63q0 30 -1 59l-2 58q-1 6 -3 6q-5 -5 -12 -20t-29 -69.5t-40 -100.5q-2 -8 -2 -11q0 -8 5 -21.5t5 -14.5l-2 -2q-14 0 -40 1t-37 1q-8 17 -20.5 50t-23.5 59t-25.5 60.5t-31.5 66.5l-4 -3v-26v-22v-19v-17v-15v-13v-12q0 -18 -0.5 -35.5
t-0.5 -34.5v-10l3 -27h-72q7 33 9.5 78.5t2.5 58.5q0 19 1 59.5t1 60.5q0 36 -2 58t-8 35t-6 14q12 0 44 1t42 1h6.5t4.5 -0.5t4 -8.5q26 -65 52 -128t56 -127q4 -4 6 -2q26 61 62 151.5t43 108.5l3 4q15 0 45.5 -1t45.5 -1l-10 -42q-4 -38 -5 -71t-1 -77v-53.5t1 -53.5
q0 -19 3.5 -33t12.5 -37z" />
    <glyph glyph-name="partialdiff" unicode="&#x2202;" horiz-adv-x="730" 
d="M690 628q-16 -49 -22.5 -102.5t-6.5 -117.5q0 -50 -1 -100l-2 -100q0 -48 2 -88.5t6.5 -67t9.5 -39t7 -19.5l-5 -2q-28 0 -86 1t-86 1q-9 5 -5 21q10 63 15.5 123t5.5 119q0 15 -13 15q-50 0 -150 1t-151 1q-2 -4 -4.5 -6t-3.5 -3q0 -29 2 -98.5t2 -73.5q0 -3 -5.5 -8
t-2.5 -9q6 -4 10 -4q0 -12 4 -37t4 -38q-40 -1 -89 -1h-74l-3 4q10 73 14.5 154t4.5 169q0 37 -1 112.5t-1 113.5q-5 40 -9 80q15 1 40 1h39h56t41 -1q-26 -90 -26 -189q-2 -14 -2.5 -22t-0.5 -18q0 -12 2.5 -19.5t11.5 -7.5q35 0 114.5 -2t84.5 -2h12h54q23 3 33 4q7 6 7 8
v31q0 86 -3.5 128.5t-19.5 88.5h186zM539 718l-64 -26q-19 14 -47 30t-59 29q-35 -16 -59 -29t-47 -30q-15 3 -37.5 14t-26.5 12v11q16 22 86 68t84 46t83.5 -45t86.5 -69v-11z" />
    <glyph glyph-name="Delta" unicode="&#x2206;" horiz-adv-x="616" 
d="M602 425q-1 -14 -19.5 -143t-18.5 -172q0 -39 4.5 -66t7.5 -40h-152q-2 3 -3 13.5t-5 14.5q-22 -5 -77 -11t-73 -10q-40 -15 -83 -15q-27 0 -47.5 5.5t-64.5 40.5t-44 129v15q2 11 5 32t18.5 53.5t41.5 65.5q1 3 -1.5 5.5t-6.5 4.5q-8 1 -20.5 0t-23.5 -1q-9 0 -13 1
q4 19 8.5 33t16.5 39h23h20h18h15h14h12h36.5t37.5 1h10q22 0 56 1.5t35 1.5q25 0 49 -3l-128 -94q-71 -64 -71 -134q0 -11 3.5 -32t20 -47.5t35.5 -35.5t29.5 -10t11.5 -1q26 0 50.5 15t51.5 41q35 38 47 90t12 123v11q0 17 -0.5 34t-0.5 35v10l5 2h153zM491 617
q-28 -39 -73.5 -76.5t-96.5 -37.5q-40 0 -84.5 29t-85.5 85v11l64 26q23 -19 50 -39t56 -20q35 0 62 22t44 37q15 -3 37.5 -14t26.5 -12v-11z" />
    <glyph glyph-name="product" unicode="&#x220f;" horiz-adv-x="405" 
d="M353 628q0 -1 -5.5 -36.5t-5.5 -47.5q0 -84 -6 -245.5t-6 -188.5q-15 -80 -88.5 -134.5t-160.5 -69.5q-23 -2 -40 -3.5t-27 -1.5q-25 0 -41 5q4 27 8.5 41.5t17.5 47.5q9 0 28 -12t29 -12q7 0 14 4q77 65 99 163t22 241v75q0 31 -8.5 94t-8.5 84q21 3 52 3q41 0 71 -2
t56 -5zM434 718l-64 -26q-19 14 -47 30t-59 29q-35 -16 -59 -29t-47 -30q-15 3 -37.5 14t-26.5 12v11q16 22 86 68t84 46t83.5 -45t86.5 -69v-11z" />
    <glyph glyph-name="minus" unicode="&#x2212;" 
 />
    <glyph glyph-name="fraction" unicode="&#x2215;" horiz-adv-x="520" 
d="M487 643q-95 -157 -183 -317t-128.5 -242t-79.5 -85t-65 -3q39 93 91 197.5t135.5 265t85.5 167.5q3 4 63 12t72 8q3 0 6.5 -0.5t2.5 -2.5z" />
    <glyph glyph-name="radical" unicode="&#x221a;" 
 />
    <glyph glyph-name="infinity" unicode="&#x221e;" horiz-adv-x="586" 
d="M582 426q-23 -29 -49.5 -56t-49.5 -42q-3 1 -66 23t-87 22q-22 0 -41 -8q-54 -35 -86.5 -80.5t-32.5 -104.5q6 -38 21 -68.5t45 -44.5q38 -21 82 -21q54 0 123.5 35t132.5 67l-64 -141q-32 -6 -78.5 -10t-129.5 -4h-66h-22t-23 -1q-16 0 -30 2t-24 9q-50 25 -78.5 73
t-28.5 104q0 58 26 104t76 88q63 30 156.5 47t265.5 17q3 -4 17.5 0.5t16.5 4.5q3 0 2 -3.5t-8 -11.5zM500 532l-64 -26q-19 14 -47 30t-59 29q-35 -16 -59 -29t-47 -30q-15 3 -37.5 14t-26.5 12v11q16 22 86 68t84 46t83.5 -45t86.5 -69v-11z" />
    <glyph glyph-name="integral" unicode="&#x222b;" horiz-adv-x="660" 
d="M613 485l-5 -4q-28 4 -41.5 4.5t-20.5 0.5q-54 0 -107 -16q-2 2 -2.5 6t-0.5 7v20t1 20q0 18 -4.5 29t-16.5 18.5t-26 10.5t-26 3q-28 0 -58.5 -11t-55.5 -28q-21 -18 -33 -39t-12 -46q0 -10 1 -15q0 -11 8 -21t21 -19q22 -11 47 -15t52 -4q31 0 94.5 6t72.5 6
q35 -6 63.5 -28t43.5 -55q14 -42 14 -82q0 -114 -62.5 -166t-108.5 -66t-102 -14q-35 0 -78 5q-16 0 -54.5 -2t-42.5 -2q-47 0 -79.5 12.5t-47 45t-14.5 62.5q0 46 25 80q58 6 97.5 10t70.5 12q-2 -14 -11 -36t-11.5 -32t-2.5 -20q0 -33 27.5 -55t66.5 -22q6 0 37.5 6.5
t72 47t46 72.5t5.5 47q0 20 -7.5 36.5t-21.5 23.5t-23.5 8t-23.5 1q-18 0 -27 2q-15 0 -47.5 -1t-49.5 -1q-72 0 -119.5 15.5t-78.5 65.5q-15 29 -15 67q0 37 14.5 73.5t44.5 73t77 52t103 15.5q18 0 39 -2t33.5 -3.5t20.5 -2t14 -0.5q22 0 44 1l44 2q38 0 65 -8.5t46 -32.5
q14 -21 21.5 -43.5t7.5 -45.5q0 -7 -1.5 -15.5t-2.5 -13.5zM509 718l-64 -26q-19 14 -47 30t-59 29q-35 -16 -59 -29t-47 -30q-15 3 -37.5 14t-26.5 12v11q16 22 86 68t84 46t83.5 -45t86.5 -69v-11z" />
    <glyph glyph-name="approxequal" unicode="&#x2248;" horiz-adv-x="740" 
d="M700 4l-164 -10q-3 5 -3 18v15q0 14 -5 22q-14 0 -44 -9t-38 -10t-96.5 -25.5t-139.5 -24.5q-67 0 -109 43q-12 14 -19.5 35.5t-10.5 45.5q0 95 -1.5 162t-3 162.5t-1.5 130.5q-5 11 -12 33.5t-12 36.5l4 2q46 0 92 1t91 2l3 -5q-10 -50 -14.5 -115.5t-4.5 -133.5
q0 -32 1 -97t1 -97q6 -42 22.5 -73.5t51.5 -41.5q20 -4 45 -4q83 0 128.5 53t60.5 118t15 152q0 31 -2 101.5t-2 71.5q0 13 -4.5 38t-4.5 29q41 0 83 1t85 2l3 -11q-12 -50 -17 -110t-5 -119q0 -53 5.5 -175.5t5.5 -157.5zM541 807q-28 -39 -73.5 -76.5t-96.5 -37.5
q-40 0 -84.5 29t-85.5 85v11l64 26q23 -19 50 -39t56 -20q35 0 62 22t44 37q15 -3 37.5 -14t26.5 -12v-11z" />
    <glyph glyph-name="notequal" unicode="&#x2260;" horiz-adv-x="774" 
d="M766 547q0 -9 -12 -12q-61 -26 -122 -51h-12q-42 46 -95 71.5t-113 25.5q-69 -11 -125 -59t-76.5 -106.5t-20.5 -111.5q0 -56 19.5 -106t58.5 -87q32 -28 69.5 -44.5t77.5 -16.5q23 0 106.5 21t210.5 96q-12 -58 -24 -100q-13 -40 -19 -60q-7 -2 -7 -4q-43 -6 -88 -8
t-97 -2h-14h-12q-19 0 -38 0.5t-37 0.5h-11q-13 -2 -27.5 -2h-22.5q-82 0 -145 28t-107 98.5t-44 173.5q0 56 16 110t46 96q111 136 293 136q45 6 77.5 9.5t58.5 3.5q20 0 54.5 -4.5t108 -45.5t73.5 -50zM609 718l-64 -26q-19 14 -47 30t-59 29q-35 -16 -59 -29t-47 -30
q-15 3 -37.5 14t-26.5 12v11q16 22 86 68t84 46t83.5 -45t86.5 -69v-11z" />
    <glyph glyph-name="lessequal" unicode="&#x2264;" horiz-adv-x="831" 
d="M807 502q-5 -4 -5 -6q-56 -6 -95.5 -9.5t-69.5 -3.5q-13 25 -35 47t-47 26q-25 7 -54 12.5t-54 5.5q-40 0 -70 -15q-58 -18 -109 -68t-63 -100.5t-12 -89.5q0 -64 26.5 -119t78.5 -93l64 -32q37 -16 70 -16h20q10 3 39.5 9t69.5 32t50 73q6 17 8.5 37t2.5 45q0 11 -1 34
t-1 33q15 2 41.5 2t42.5 1h64q1 -1 3 -1.5t4 -1.5q0 -32 -10.5 -95t-10.5 -89t4.5 -46t11.5 -33t15 -28t10 -22q-5 0 -6.5 -1t-1.5 -2q-61 10 -128 10q-39 0 -127 -5t-117 -5q-39 -6 -81 -6q-74 0 -143 26.5t-110 107.5t-41 176q0 99 48.5 181.5t137.5 115.5q45 21 96 28.5
t114 7.5q65 13 133 13q67 0 115 -13t68.5 -37.5t36 -44.5t18.5 -41zM614 718l-64 -26q-19 14 -47 30t-59 29q-35 -16 -59 -29t-47 -30q-15 3 -37.5 14t-26.5 12v11q16 22 86 68t84 46t83.5 -45t86.5 -69v-11z" />
    <glyph glyph-name="greaterequal" unicode="&#x2265;" horiz-adv-x="596" 
d="M582 437q-23 -86 -29 -191.5t-6 -242.5q0 -46 -23.5 -86.5t-70 -71t-129.5 -39.5t-159 -17q-53 0 -90.5 13.5t-54 41.5t-16.5 50q0 19 6.5 37.5t18 35.5t22 26t72.5 52q-3 9 -21 28t-20 24q-34 46 -34 114q0 50 22.5 99t78 82t122.5 40q19 7 50.5 10t59.5 3q23 0 50 -1.5
t57 -2.5q19 0 42 5.5t52 12.5v-22zM414 314q-4 13 -9 18.5t-51.5 24.5t-76.5 19q-28 -11 -48 -36.5t-27 -57.5q-7 -25 -7 -57q0 -29 7.5 -54t24.5 -44q18 -15 41.5 -21.5t52.5 -6.5q19 0 31 1.5t36 6.5l3 -2q-2 -16 -5.5 -31t-15.5 -31q-89 -10 -139.5 -28t-72.5 -76
q-2 -10 -2 -16q0 -34 23 -52t53 -18q15 0 32.5 4t37.5 11q39 17 67 51.5t35 74.5q6 49 8.5 99t2.5 116v13v12q0 17 -0.5 34.5t-0.5 35.5v10zM500 532l-64 -26q-19 14 -47 30t-59 29q-35 -16 -59 -29t-47 -30q-15 3 -37.5 14t-26.5 12v11q16 22 86 68t84 46t83.5 -45
t86.5 -69v-11z" />
    <glyph glyph-name="lozenge" unicode="&#x25ca;" 
 />
    <glyph glyph-name="apple" unicode="&#xf000;" horiz-adv-x="763" 
d="M730 0h-700v700h700v-700z" />
    <glyph glyph-name="fi" unicode="&#xf001;" 
 />
    <glyph glyph-name="fl" unicode="&#xf002;" 
 />
  </font>
</defs>
</svg>
