<?xml version="1.0" standalone="no"?>
<!DOCTYPE svg PUBLIC "-//W3C//DTD SVG 1.1//EN" "http://www.w3.org/Graphics/SVG/1.1/DTD/svg11.dtd" >
<svg xmlns="http://www.w3.org/2000/svg" xmlns:xlink="http://www.w3.org/1999/xlink" version="1.1">
<metadata>
Created by FontForge 20170731 at Tue Jan 14 23:10:56 2020
 By Aleksey,,,
Copyright (c) 2020 by MARSNEV. All rights reserved.
</metadata>
<defs>
<font id="LEMONMILK-Bold" horiz-adv-x="0" >
  <font-face 
    font-family="LEMON MILK Bold"
    font-weight="700"
    font-stretch="normal"
    units-per-em="2048"
    panose-1="0 0 8 0 0 0 0 0 0 0"
    ascent="1638"
    descent="-410"
    cap-height="1612"
    bbox="-1222 -618 2681 2203"
    underline-thickness="50"
    underline-position="-150"
    unicode-range="U+0020-3000"
  />
<missing-glyph horiz-adv-x="1332" 
d="M200 0v1612h932v-1612h-932zM360 145h614v1321h-614v-1321z" />
    <glyph glyph-name=".notdef" horiz-adv-x="1332" 
d="M200 0v1612h932v-1612h-932zM360 145h614v1321h-614v-1321z" />
    <glyph glyph-name=".null" 
 />
    <glyph glyph-name="nonmarkingreturn" horiz-adv-x="682" 
 />
    <glyph glyph-name="space" unicode=" " horiz-adv-x="625" 
 />
    <glyph glyph-name="exclam" unicode="!" horiz-adv-x="796" 
d="M221 563l-72 1049h496l-69 -1049h-355zM399 -57q-103 0 -176.5 69t-73.5 167q0 95 73.5 163t174.5 68q103 0 177.5 -70t74.5 -166t-73.5 -163.5t-176.5 -67.5z" />
    <glyph glyph-name="quotedbl" unicode="&#x22;" horiz-adv-x="1078" 
d="M167 1078l-97 575h430l-98 -575h-235zM676 1078l-97 575h429l-97 -575h-235z" />
    <glyph glyph-name="numbersign" unicode="#" horiz-adv-x="1616" 
d="M1528 912h-220l-35 -269h219l-38 -297h-219l-45 -346h-341l45 346h-280l-45 -346h-342l45 346h-222l38 297h223l35 269h-222l40 297h221l52 403h341l-52 -403h280l52 403h341l-52 -403h219zM932 643l35 269h-280l-35 -269h280z" />
    <glyph glyph-name="dollar" unicode="$" horiz-adv-x="1308" 
d="M1252 476q0 -174 -113 -298.5t-293 -173.5v-229h-334v213q-160 24 -283 99.5t-173 185.5l259 254q50 -74 137.5 -116.5t189.5 -42.5q74 0 127 26t53 73q0 20 -11.5 40t-38.5 40.5t-51 36.5t-69.5 38.5t-72.5 34.5t-80 36q-82 36 -146 77t-119 96.5t-84.5 129.5t-29.5 162
q0 162 110 285t282 170v225h334v-218q127 -28 218 -96.5t128 -162.5l-247 -238q-33 59 -107.5 90.5t-141.5 31.5q-65 0 -108 -29t-43 -71q0 -16 6.5 -29t21 -25t30.5 -21.5t44 -21t52.5 -21t63.5 -25t70 -28.5q419 -176 419 -498z" />
    <glyph glyph-name="percent" unicode="%" horiz-adv-x="1888" 
d="M476 877q-167 0 -286.5 110.5t-119.5 265.5q0 156 120 267t287 111t286 -111t119 -266t-119.5 -266t-286.5 -111zM211 0l1107 1613h347l-1106 -1613h-348zM476 1127q58 0 98.5 37t40.5 89t-41 89.5t-99 37.5t-99.5 -37t-41.5 -90t41.5 -89.5t100.5 -36.5zM1412 -20
q-167 0 -286.5 111t-119.5 266q0 156 119.5 266.5t287.5 110.5q167 0 286 -110.5t119 -265.5t-119.5 -266.5t-286.5 -111.5zM1412 230q58 0 98.5 37t40.5 90q0 52 -41 89t-99 37t-99.5 -37t-41.5 -89q0 -53 41.5 -90t100.5 -37z" />
    <glyph glyph-name="ampersand" unicode="&#x26;" horiz-adv-x="1633" 
d="M1591 353l-2 -373q-184 0 -444 142q-187 -158 -462 -158q-144 0 -263 45t-194 118.5t-115.5 165t-40.5 188.5q0 132 69.5 248t176.5 184q-84 160 -84 289q0 119 67 223.5t186.5 169t262.5 64.5q183 0 321 -106.5t170 -285.5l-369 -94q-6 69 -48.5 107.5t-93.5 38.5
q-48 0 -85.5 -35.5t-37.5 -98.5q0 -109 114.5 -254.5t291.5 -284.5q23 90 30 204l394 5q-6 -241 -80 -429q147 -70 236 -73zM658 319q81 0 147 33q-169 138 -300 290q-74 -63 -74 -147q0 -78 61.5 -127t165.5 -49z" />
    <glyph glyph-name="quotesingle" unicode="'" horiz-adv-x="570" 
d="M167 1078l-97 575h430l-98 -575h-235z" />
    <glyph glyph-name="parenleft" unicode="(" horiz-adv-x="756" 
d="M344 -120q-98 129 -161.5 297t-88 321t-24.5 309q0 245 65 490.5t208 434.5h341q-106 -179 -167.5 -447.5t-61.5 -477.5q0 -210 62 -479t169 -448h-342z" />
    <glyph glyph-name="parenright" unicode=")" horiz-adv-x="756" 
d="M412 -120h-342q107 179 169 448t62 479q0 209 -61.5 477.5t-167.5 447.5h341q143 -189 208 -434.5t65 -490.5q0 -156 -24.5 -309t-88 -321t-161.5 -297z" />
    <glyph glyph-name="asterisk" unicode="*" horiz-adv-x="940" 
d="M330 945l52 236l-166 -157l-146 203l264 94l-264 89l146 204l166 -155l-52 234h279l-52 -234l166 155l147 -204l-264 -97l264 -86l-147 -203l-166 155l52 -234h-279z" />
    <glyph glyph-name="plus" unicode="+" horiz-adv-x="1343" 
d="M1203 976v-360h-332v-367h-398v367h-333v360h333v366h398v-366h332z" />
    <glyph glyph-name="comma" unicode="," horiz-adv-x="767" 
d="M290 -384q-68 0 -117 26.5t-49 50.5q29 0 61 10.5t63.5 31t52 58t20.5 84.5t-17 75q-76 0 -137.5 65.5t-61.5 159.5q0 107 80 185t200 78q127 0 202 -93.5t75 -249.5q0 -89 -25.5 -174.5t-72 -154t-118 -110.5t-156.5 -42z" />
    <glyph glyph-name="hyphen" unicode="-" horiz-adv-x="990" 
d="M70 615v351h850v-351h-850z" />
    <glyph glyph-name="period" unicode="." horiz-adv-x="739" 
d="M370 -57q-110 0 -187.5 73t-77.5 176q0 101 78.5 174.5t186.5 73.5q107 0 185.5 -73.5t78.5 -174.5q0 -102 -78 -175.5t-186 -73.5z" />
    <glyph glyph-name="slash" unicode="/" horiz-adv-x="1072" 
d="M21 -120l656 1852h374l-658 -1852h-372z" />
    <glyph glyph-name="zero" unicode="0" horiz-adv-x="1565" 
d="M786 -33q-216 0 -378.5 104t-250 294t-87.5 441q0 252 87.5 442t250 294t378.5 104q214 0 375 -104t247.5 -294t86.5 -441q0 -252 -86.5 -442t-247.5 -294t-375 -104zM783 375q130 0 206.5 117.5t76.5 312.5q0 197 -77 316t-207 119q-131 0 -208 -118.5t-77 -314.5
q0 -195 77.5 -313.5t208.5 -118.5z" />
    <glyph glyph-name="one" unicode="1" horiz-adv-x="795" 
d="M530 1622h125v-1622h-428v1118l-157 -38v421z" />
    <glyph glyph-name="two" unicode="2" horiz-adv-x="1433" 
d="M852 393h511v-393h-1293v155q480 402 662 590t182 296q0 82 -55.5 141.5t-135.5 59.5q-107 0 -187.5 -77.5t-80.5 -185.5l-348 115q0 144 82 271t225 204t310 77q126 0 241 -47.5t198 -127t132 -188t49 -225.5q0 -189 -140.5 -368.5t-351.5 -296.5z" />
    <glyph glyph-name="three" unicode="3" horiz-adv-x="1311" 
d="M968 918q121 -50 197 -162t76 -259q0 -150 -80.5 -270.5t-214 -186t-290.5 -65.5q-222 0 -389.5 134t-196.5 320l356 85q21 -65 80 -102t126 -37q78 0 127 49.5t49 126.5q0 103 -95.5 174.5t-270.5 72.5l49 190q112 0 178.5 50t66.5 123q0 53 -33.5 87.5t-84.5 34.5
q-44 0 -80 -27.5t-54 -77.5l-356 78q44 180 183 293.5t336 113.5q139 0 254.5 -56t182.5 -155.5t67 -221.5q0 -102 -49.5 -187.5t-133.5 -124.5z" />
    <glyph glyph-name="four" unicode="4" horiz-adv-x="1506" 
d="M1464 664v-383h-157v-281h-427v281h-859l544 1340l432 -2l-379 -955h262v352h427v-352h157z" />
    <glyph glyph-name="five" unicode="5" horiz-adv-x="1374" 
d="M768 1104q238 0 387 -156.5t149 -391.5q0 -171 -83 -304.5t-226.5 -205t-322.5 -71.5q-124 0 -235 37t-208 119.5t-159 204.5l349 154q98 -122 225 -122q92 0 153.5 51.5t61.5 147.5q0 93 -61.5 141t-162.5 48q-80 0 -164 -27.5t-129 -73.5l-193 105l125 853h884v-382
h-583l-26 -175q91 48 219 48z" />
    <glyph glyph-name="six" unicode="6" horiz-adv-x="1359" 
d="M789 1030q131 0 245.5 -64t184.5 -179.5t70 -255.5q0 -149 -78.5 -277.5t-220.5 -206.5t-315 -78q-124 0 -232.5 35t-192 102.5t-132 175t-48.5 243.5q0 60 14.5 118.5t65.5 174.5t160.5 309.5t288.5 484.5l488 -2l-355 -584q25 4 57 4zM681 361q76 0 130 52.5t54 130.5
q0 79 -53.5 133t-129.5 54q-76 -1 -129 -54.5t-53 -133.5q0 -79 52.5 -130.5t128.5 -51.5z" />
    <glyph glyph-name="seven" unicode="7" horiz-adv-x="1248" 
d="M42 1612h1185v-74l-614 -1538h-448l465 1219h-588v393z" />
    <glyph glyph-name="eight" unicode="8" horiz-adv-x="1375" 
d="M687 -33q-272 0 -444.5 147.5t-172.5 374.5q0 92 31 171.5t78.5 130t97 81t94.5 39.5q-75 16 -142 100t-67 204q0 116 67.5 214.5t189 157.5t269.5 59q114 0 213.5 -35.5t168 -94.5t108 -137t39.5 -162q0 -64 -23 -120.5t-58.5 -93.5t-71 -60t-66.5 -32q34 -8 72 -27
t80.5 -55.5t76.5 -82.5t56 -114t22 -145q0 -225 -171.5 -372.5t-446.5 -147.5zM689 1027q58 0 100.5 38t42.5 99q0 62 -42 98t-101 36q-58 0 -99.5 -36t-41.5 -97q0 -60 41 -99t100 -39zM687 352q80 0 140 53t60 135t-59.5 137t-139.5 55t-139.5 -56.5t-59.5 -138.5
t59 -133.5t139 -51.5z" />
    <glyph glyph-name="nine" unicode="9" horiz-adv-x="1359" 
d="M680 1648q170 0 310 -78t219.5 -210.5t79.5 -289.5q0 -131 -66.5 -267t-401.5 -701q-38 -65 -59 -100h-491l336 557q-24 -2 -35 -2q-99 0 -191.5 43t-160.5 114t-109 166t-41 195q0 155 80 286.5t220.5 209t309.5 77.5zM679 886q74 0 128 53t54 129q0 82 -53.5 135
t-128.5 53q-77 0 -129.5 -53t-52.5 -135q0 -75 54 -128.5t128 -53.5z" />
    <glyph glyph-name="colon" unicode=":" horiz-adv-x="710" 
d="M355 712q-103 0 -176.5 69t-73.5 166t73.5 166.5t176.5 69.5q102 0 176 -69.5t74 -166.5q0 -96 -74 -165.5t-176 -69.5zM355 -12q-103 0 -176.5 69.5t-73.5 166.5t74 166.5t176 69.5q101 0 175.5 -70t74.5 -166q0 -97 -74 -166.5t-176 -69.5z" />
    <glyph glyph-name="semicolon" unicode=";" horiz-adv-x="752" 
d="M355 707q-103 0 -176.5 69t-73.5 166t73.5 166.5t176.5 69.5q102 0 176 -69.5t74 -166.5q0 -96 -74 -165.5t-176 -69.5zM300 -350q-65 0 -111.5 25t-46.5 48q27 0 57.5 10t60.5 29.5t49.5 55t19.5 80.5q0 42 -16 72q-73 0 -131 62t-58 151q0 102 76 176t190 74
q120 0 191.5 -89t71.5 -237q0 -115 -40.5 -217.5t-123 -171t-189.5 -68.5z" />
    <glyph glyph-name="less" unicode="&#x3c;" horiz-adv-x="1328" 
d="M1174 159l-1034 640v20l1048 641l-14 -418l-422 -233l422 -231v-419z" />
    <glyph glyph-name="equal" unicode="=" horiz-adv-x="1354" 
d="M140 892v333h1074v-333h-1074zM140 347v331h1074v-331h-1074z" />
    <glyph glyph-name="greater" unicode="&#x3e;" horiz-adv-x="1328" 
d="M155 159v419l422 231l-422 233l-14 418l1047 -641v-20z" />
    <glyph glyph-name="question" unicode="?" horiz-adv-x="1111" 
d="M295 561q-2 12 -2 74q0 130 68 227t216 200q75 53 75 119q0 64 -41 99.5t-118 35.5q-89 0 -163.5 -49t-108.5 -124l-151 315q33 53 47 69q128 154 401 154q115 0 216 -40t166.5 -102.5t103 -136t37.5 -143.5q0 -122 -29.5 -197t-112.5 -150q-23 -21 -69.5 -57t-71 -58
t-45.5 -62t-21 -87q0 -66 5 -86zM498 -57q-104 0 -177 69.5t-73 166.5q0 96 73 163.5t175 67.5q103 0 177.5 -70t74.5 -166t-73.5 -163.5t-176.5 -67.5z" />
    <glyph glyph-name="at" unicode="@" horiz-adv-x="2417" 
d="M1075 -436q-195 0 -358 44.5t-281.5 125.5t-201.5 194t-123.5 250t-40.5 292q0 255 101 479.5t273.5 383t410 250t503.5 91.5q194 0 358 -48.5t278.5 -131.5t195.5 -195.5t119 -240.5t38 -266q0 -158 -55 -308t-148.5 -264.5t-227 -184t-282.5 -69.5q-163 0 -242.5 98
t-82.5 265q-12 -69 -94.5 -115t-179.5 -46q-137 0 -222 99.5t-85 262.5q0 133 51.5 251t148.5 191.5t216 73.5q93 0 156 -45.5t63 -112.5l56 149h277l-74 -611q-3 -39 -3 -47q0 -123 85 -123q52 0 95.5 46t69.5 118t40 153t14 158q0 143 -47 252t-132 176.5t-199 101
t-254 32.5q-170 -1 -320.5 -60t-259.5 -161.5t-172.5 -247.5t-63.5 -310q0 -265 172.5 -426.5t466.5 -161.5q97 0 188 36l104 -335q-58 -22 -88.5 -32t-97 -20.5t-145.5 -10.5zM1174 453q63 0 105.5 54.5t42.5 126.5q0 54 -29 89.5t-80 35.5q-64 0 -110 -55t-46 -123
q0 -54 32.5 -91t84.5 -37z" />
    <glyph glyph-name="A" unicode="A" horiz-adv-x="1744" 
d="M1254 0l-81 188h-602l-82 -188h-468l749 1632h203l750 -1632h-469zM706 501h331l-165 382z" />
    <glyph glyph-name="A" unicode="a" horiz-adv-x="1744" 
d="M1254 0l-81 188h-602l-82 -188h-468l749 1632h203l750 -1632h-469zM706 501h331l-165 382z" />
    <glyph glyph-name="B" unicode="B" horiz-adv-x="1407" 
d="M1000 908q64 0 129.5 -31.5t117.5 -85t85 -132.5t33 -167q0 -95 -39 -184t-107.5 -157.5t-170.5 -109.5t-220 -41h-688v1612h530q107 0 202 -34.5t161 -91.5t104.5 -134t38.5 -159q0 -115 -60 -200t-116 -85zM817 1116q0 57 -44.5 90.5t-115.5 33.5h-105v-253h102
q72 0 117.5 34t45.5 95zM763 389q80 0 136 39.5t56 114.5q0 71 -49.5 111t-139.5 40l-214 1v-306h211z" />
    <glyph glyph-name="B" unicode="b" horiz-adv-x="1407" 
d="M1000 908q64 0 129.5 -31.5t117.5 -85t85 -132.5t33 -167q0 -95 -39 -184t-107.5 -157.5t-170.5 -109.5t-220 -41h-688v1612h530q107 0 202 -34.5t161 -91.5t104.5 -134t38.5 -159q0 -115 -60 -200t-116 -85zM817 1116q0 57 -44.5 90.5t-115.5 33.5h-105v-253h102
q72 0 117.5 34t45.5 95zM763 389q80 0 136 39.5t56 114.5q0 71 -49.5 111t-139.5 40l-214 1v-306h211z" />
    <glyph glyph-name="C" unicode="C" horiz-adv-x="1596" 
d="M950 -36q-136 0 -266 38.5t-240.5 113t-194.5 175t-131.5 234t-47.5 281.5q0 235 116.5 428.5t320.5 304.5t451 111q156 -2 314 -67t282 -177l-246 -316q-75 69 -168 109t-181 40q-123 0 -227 -57t-166 -157.5t-62 -221.5t63.5 -222t165.5 -156.5t217 -55.5
q184 0 360 157l244 -325q-261 -237 -604 -237z" />
    <glyph glyph-name="C" unicode="c" horiz-adv-x="1596" 
d="M950 -36q-136 0 -266 38.5t-240.5 113t-194.5 175t-131.5 234t-47.5 281.5q0 235 116.5 428.5t320.5 304.5t451 111q156 -2 314 -67t282 -177l-246 -316q-75 69 -168 109t-181 40q-123 0 -227 -57t-166 -157.5t-62 -221.5t63.5 -222t165.5 -156.5t217 -55.5
q184 0 360 157l244 -325q-261 -237 -604 -237z" />
    <glyph glyph-name="D" unicode="D" horiz-adv-x="1619" 
d="M666 1612q411 2 647 -214t236 -594q0 -375 -236 -589.5t-647 -214.5h-526v1611zM659 403q215 0 338 107.5t123 294.5q0 190 -124 298.5t-341 108.5h-98v-809h102z" />
    <glyph glyph-name="D" unicode="d" horiz-adv-x="1619" 
d="M666 1612q411 2 647 -214t236 -594q0 -375 -236 -589.5t-647 -214.5h-526v1611zM659 403q215 0 338 107.5t123 294.5q0 190 -124 298.5t-341 108.5h-98v-809h102z" />
    <glyph glyph-name="E" unicode="E" horiz-adv-x="1283" 
d="M1185 1214h-622v-225h512v-357h-512v-231h622v-401h-1045v1612h1045v-398z" />
    <glyph glyph-name="E" unicode="e" horiz-adv-x="1283" 
d="M1185 1214h-622v-225h512v-357h-512v-231h622v-401h-1045v1612h1045v-398z" />
    <glyph glyph-name="F" unicode="F" horiz-adv-x="1227" 
d="M1185 1214h-622v-261h512v-358h-512v-597h-423v1618h1045v-402z" />
    <glyph glyph-name="F" unicode="f" horiz-adv-x="1227" 
d="M1185 1214h-622v-261h512v-358h-512v-597h-423v1618h1045v-402z" />
    <glyph glyph-name="G" unicode="G" horiz-adv-x="1867" 
d="M1784 926q13 -88 13 -157q0 -180 -65 -332.5t-177 -255.5t-263.5 -161t-322.5 -58q-188 0 -356 67.5t-286.5 181t-187.5 268.5t-69 325t69 326t187 270.5t283 182.5t349 68q154 -2 315 -61.5t260 -151.5l-237 -325q-68 63 -158.5 100.5t-179.5 37.5q-119 0 -222.5 -59
t-166 -162t-62.5 -225q0 -85 33.5 -165t93.5 -142.5t152 -100.5t200 -38q148 0 242 67t98 181h-369v319h827z" />
    <glyph glyph-name="G" unicode="g" horiz-adv-x="1867" 
d="M1784 926q13 -88 13 -157q0 -180 -65 -332.5t-177 -255.5t-263.5 -161t-322.5 -58q-188 0 -356 67.5t-286.5 181t-187.5 268.5t-69 325t69 326t187 270.5t283 182.5t349 68q154 -2 315 -61.5t260 -151.5l-237 -325q-68 63 -158.5 100.5t-179.5 37.5q-119 0 -222.5 -59
t-166 -162t-62.5 -225q0 -85 33.5 -165t93.5 -142.5t152 -100.5t200 -38q148 0 242 67t98 181h-369v319h827z" />
    <glyph glyph-name="H" unicode="H" horiz-adv-x="1614" 
d="M1047 1612h427v-1612h-427v607h-479v-607h-428v1612h428v-605h479v605z" />
    <glyph glyph-name="H" unicode="h" horiz-adv-x="1614" 
d="M1047 1612h427v-1612h-427v607h-479v-607h-428v1612h428v-605h479v605z" />
    <glyph glyph-name="I" unicode="I" horiz-adv-x="708" 
d="M140 0v1612h428v-1612h-428z" />
    <glyph glyph-name="J" unicode="J" horiz-adv-x="1260" 
d="M431 -26q-218 0 -389 111l216 353q45 -34 82 -47.5t94 -13.5h7q110 0 187.5 73.5t77.5 171.5l-8 990l429 -1l7 -991q0 -179 -92 -328t-250.5 -233.5t-348.5 -84.5h-12z" />
    <glyph glyph-name="J" unicode="j" horiz-adv-x="1260" 
d="M431 -26q-218 0 -389 111l216 353q45 -34 82 -47.5t94 -13.5h7q110 0 187.5 73.5t77.5 171.5l-8 990l429 -1l7 -991q0 -179 -92 -328t-250.5 -233.5t-348.5 -84.5h-12z" />
    <glyph glyph-name="K" unicode="K" horiz-adv-x="1508" 
d="M1494 0h-519l-408 613v-613h-427v1612h427v-601l374 601h492l-494 -786z" />
    <glyph glyph-name="K" unicode="k" horiz-adv-x="1508" 
d="M1494 0h-519l-408 613v-613h-427v1612h427v-601l374 601h492l-494 -786z" />
    <glyph glyph-name="L" unicode="L" horiz-adv-x="1227" 
d="M568 402h617v-402h-1045v1612h428v-1210z" />
    <glyph glyph-name="L" unicode="l" horiz-adv-x="1227" 
d="M568 402h617v-402h-1045v1612h428v-1210z" />
    <glyph glyph-name="M" unicode="M" horiz-adv-x="2008" 
d="M1696 1627h172v-1627h-428v639l-434 -612h-3l-435 612v-639h-428v1627h172l692 -948z" />
    <glyph glyph-name="M" unicode="m" horiz-adv-x="2008" 
d="M1696 1627h172v-1627h-428v639l-434 -612h-3l-435 612v-639h-428v1627h172l692 -948z" />
    <glyph glyph-name="N" unicode="N" horiz-adv-x="1673" 
d="M1104 1614h429v-1630h-136l-829 803v-788h-428v1629h138l826 -800v786z" />
    <glyph glyph-name="N" unicode="n" horiz-adv-x="1673" 
d="M1104 1614h429v-1630h-136l-829 803v-788h-428v1629h138l826 -800v786z" />
    <glyph glyph-name="O" unicode="O" horiz-adv-x="1910" 
d="M954 -41q-185 0 -349 65t-281.5 177t-185.5 269t-68 334q0 179 68.5 337t186 270.5t281.5 178t349 65.5t349 -65.5t281.5 -178t186 -270.5t68.5 -337q0 -236 -116 -430t-319.5 -304.5t-450.5 -110.5zM955 368q192 0 322 126.5t130 312.5q0 187 -130 314t-322 127
t-322 -127t-130 -314q0 -186 130 -312.5t322 -126.5z" />
    <glyph glyph-name="O" unicode="o" horiz-adv-x="1910" 
d="M954 -41q-185 0 -349 65t-281.5 177t-185.5 269t-68 334q0 179 68.5 337t186 270.5t281.5 178t349 65.5t349 -65.5t281.5 -178t186 -270.5t68.5 -337q0 -236 -116 -430t-319.5 -304.5t-450.5 -110.5zM955 368q192 0 322 126.5t130 312.5q0 187 -130 314t-322 127
t-322 -127t-130 -314q0 -186 130 -312.5t322 -126.5z" />
    <glyph glyph-name="P" unicode="P" horiz-adv-x="1400" 
d="M140 0v1612h609q164 0 304 -75t222.5 -205.5t82.5 -284.5q0 -115 -48 -220.5t-129.5 -182.5t-194.5 -123t-237 -46h-181v-475h-428zM749 869q85 -1 140.5 50t55.5 126q0 74 -55.5 123t-140.5 49h-181v-347z" />
    <glyph glyph-name="P" unicode="p" horiz-adv-x="1400" 
d="M140 0v1612h609q164 0 304 -75t222.5 -205.5t82.5 -284.5q0 -115 -48 -220.5t-129.5 -182.5t-194.5 -123t-237 -46h-181v-475h-428zM749 869q85 -1 140.5 50t55.5 126q0 74 -55.5 123t-140.5 49h-181v-347z" />
    <glyph glyph-name="Q" unicode="Q" horiz-adv-x="1919" 
d="M1846 69l-146 -381q-202 15 -351 87.5t-274 190.5q-56 -7 -121 -7q-185 0 -349 65t-281.5 177t-185.5 269t-68 334q0 179 68.5 337t186 270.5t281.5 178t349 65.5t349 -65.5t281.5 -178t186 -270.5t68.5 -337q0 -215 -96.5 -395t-266.5 -295q171 -40 369 -45zM503 807
q0 -186 130 -312.5t322 -126.5t322 126.5t130 312.5q0 187 -130 314t-322 127t-322 -127t-130 -314z" />
    <glyph glyph-name="Q" unicode="q" horiz-adv-x="1919" 
d="M1846 69l-146 -381q-202 15 -351 87.5t-274 190.5q-56 -7 -121 -7q-185 0 -349 65t-281.5 177t-185.5 269t-68 334q0 179 68.5 337t186 270.5t281.5 178t349 65.5t349 -65.5t281.5 -178t186 -270.5t68.5 -337q0 -215 -96.5 -395t-266.5 -295q171 -40 369 -45zM503 807
q0 -186 130 -312.5t322 -126.5t322 126.5t130 312.5q0 187 -130 314t-322 127t-322 -127t-130 -314z" />
    <glyph glyph-name="R" unicode="R" horiz-adv-x="1516" 
d="M1502 0h-501l-431 700v-700h-428l-2 1612h612q170 0 307.5 -70.5t213.5 -190t76 -263.5q0 -147 -78.5 -266t-200.5 -175zM568 1227v-323l175 -1q71 -1 122.5 44.5t51.5 117.5t-51.5 117t-122.5 45h-175z" />
    <glyph glyph-name="R" unicode="r" horiz-adv-x="1516" 
d="M1502 0h-501l-431 700v-700h-428l-2 1612h612q170 0 307.5 -70.5t213.5 -190t76 -263.5q0 -147 -78.5 -266t-200.5 -175zM568 1227v-323l175 -1q71 -1 122.5 44.5t51.5 117.5t-51.5 117t-122.5 45h-175z" />
    <glyph glyph-name="S" unicode="S" horiz-adv-x="1308" 
d="M643 -22q-200 0 -363.5 81t-223.5 214l259 254q50 -74 137.5 -116.5t189.5 -42.5q74 0 127 26t53 73q0 20 -11.5 40t-38.5 40.5t-51 36.5t-69.5 38.5t-72.5 34.5t-80 36q-82 36 -146 77t-119 96.5t-84.5 129.5t-29.5 162q0 136 79 246.5t209.5 171t282.5 60.5
q181 0 317 -76.5t184 -198.5l-247 -238q-33 59 -107.5 90.5t-141.5 31.5q-65 0 -108 -29t-43 -71q0 -16 6.5 -29t21 -25t30.5 -21.5t44 -21t52.5 -21t63.5 -25t70 -28.5q419 -176 419 -498q0 -149 -85.5 -264t-223 -174.5t-300.5 -59.5z" />
    <glyph glyph-name="S" unicode="s" horiz-adv-x="1308" 
d="M643 -22q-200 0 -363.5 81t-223.5 214l259 254q50 -74 137.5 -116.5t189.5 -42.5q74 0 127 26t53 73q0 20 -11.5 40t-38.5 40.5t-51 36.5t-69.5 38.5t-72.5 34.5t-80 36q-82 36 -146 77t-119 96.5t-84.5 129.5t-29.5 162q0 136 79 246.5t209.5 171t282.5 60.5
q181 0 317 -76.5t184 -198.5l-247 -238q-33 59 -107.5 90.5t-141.5 31.5q-65 0 -108 -29t-43 -71q0 -16 6.5 -29t21 -25t30.5 -21.5t44 -21t52.5 -21t63.5 -25t70 -28.5q419 -176 419 -498q0 -149 -85.5 -264t-223 -174.5t-300.5 -59.5z" />
    <glyph glyph-name="T" unicode="T" horiz-adv-x="1286" 
d="M1244 1612v-400h-386v-1212h-429v1212h-387v400h1202z" />
    <glyph glyph-name="T" unicode="t" horiz-adv-x="1286" 
d="M1244 1612v-400h-386v-1212h-429v1212h-387v400h1202z" />
    <glyph glyph-name="U" unicode="U" horiz-adv-x="1590" 
d="M795 -45q-137 0 -260 47t-213 129t-143 200.5t-53 254.5v1026h431v-1025q0 -97 71 -160t166 -63q94 0 166.5 63.5t72.5 159.5v1025h431v-1026q0 -136 -53 -254.5t-143 -200.5t-213 -129t-260 -47z" />
    <glyph glyph-name="U" unicode="u" horiz-adv-x="1590" 
d="M795 -45q-137 0 -260 47t-213 129t-143 200.5t-53 254.5v1026h431v-1025q0 -97 71 -160t166 -63q94 0 166.5 63.5t72.5 159.5v1025h431v-1026q0 -136 -53 -254.5t-143 -200.5t-213 -129t-260 -47z" />
    <glyph glyph-name="V" unicode="V" horiz-adv-x="1719" 
d="M1229 1612h469l-743 -1629h-194l-740 1629h463l372 -873z" />
    <glyph glyph-name="V" unicode="v" horiz-adv-x="1719" 
d="M1229 1612h469l-743 -1629h-194l-740 1629h463l372 -873z" />
    <glyph glyph-name="W" unicode="W" horiz-adv-x="2105" 
d="M560 -10l-539 1622h463l223 -738l330 735h32l330 -733l222 736h463l-538 -1622h-118l-377 797l-374 -797h-117z" />
    <glyph glyph-name="W" unicode="w" horiz-adv-x="2105" 
d="M560 -10l-539 1622h463l223 -738l330 735h32l330 -733l222 736h463l-538 -1622h-118l-377 797l-374 -797h-117z" />
    <glyph glyph-name="X" unicode="X" horiz-adv-x="1569" 
d="M21 0l511 837l-484 775h490l247 -426l246 426h490l-486 -774l513 -838h-493l-271 476l-270 -476h-493z" />
    <glyph glyph-name="X" unicode="x" horiz-adv-x="1569" 
d="M21 0l511 837l-484 775h490l247 -426l246 426h490l-486 -774l513 -838h-493l-271 476l-270 -476h-493z" />
    <glyph glyph-name="Y" unicode="Y" horiz-adv-x="1462" 
d="M518 0v696l-497 916h485l225 -467l224 467h486l-498 -916v-696h-425z" />
    <glyph glyph-name="Y" unicode="y" horiz-adv-x="1462" 
d="M518 0v696l-497 916h485l225 -467l224 467h486l-498 -916v-696h-425z" />
    <glyph glyph-name="Z" unicode="Z" horiz-adv-x="1387" 
d="M84 0l545 1212h-545v400h1219l-544 -1210h544v-402h-1219z" />
    <glyph glyph-name="Z" unicode="z" horiz-adv-x="1387" 
d="M84 0l545 1212h-545v400h1219l-544 -1210h544v-402h-1219z" />
    <glyph glyph-name="bracketleft" unicode="[" horiz-adv-x="843" 
d="M773 1433h-267v-1254h267v-299h-633v1852h633v-299z" />
    <glyph glyph-name="backslash" unicode="\" horiz-adv-x="1072" 
d="M1051 -120h-371l-658 1852h373z" />
    <glyph glyph-name="bracketright" unicode="]" horiz-adv-x="843" 
d="M703 1732v-1852h-633v299h267v1254h-267v299h633z" />
    <glyph glyph-name="asciicircum" unicode="^" horiz-adv-x="1018" 
d="M21 1092l457 584h61l458 -584h-342l-146 213l-147 -213h-341z" />
    <glyph glyph-name="underscore" unicode="_" horiz-adv-x="1300" 
d="M0 -136v273h1300v-273h-1300z" />
    <glyph glyph-name="grave" unicode="`" horiz-adv-x="674" 
d="M238 1333l-238 337h335l172 -337h-269z" />
    <glyph glyph-name="i" unicode="i" horiz-adv-x="708" 
d="M140 0v1612h428v-1612h-428z" />
    <glyph glyph-name="braceleft" unicode="{" horiz-adv-x="976" 
d="M619 -120q-129 0 -220.5 81t-91.5 196v223q0 132 -71 227.5t-166 95.5v219q95 0 166 95.5t71 227.5v211q0 114 91.5 195t220.5 81h287v-299l-135 -4q-44 -1 -71 -45t-27 -106v-65q0 -165 -67.5 -282.5t-161.5 -117.5q62 0 115 -53.5t83.5 -146t30.5 -201.5v-77
q0 -66 27 -111t72 -45h134v-299h-287z" />
    <glyph glyph-name="bar" unicode="|" horiz-adv-x="651" 
d="M200 -450v2300h251v-2300h-251z" />
    <glyph glyph-name="braceright" unicode="}" horiz-adv-x="976" 
d="M358 -120h-287v299h134q44 0 71.5 45t27.5 111v77q0 166 67 283.5t161 117.5q-94 0 -161 117.5t-67 282.5v65q0 62 -27.5 106t-71.5 45l-134 4v299h287q129 0 220.5 -81t91.5 -195v-211q0 -132 71 -227.5t165 -95.5v-219q-94 0 -165 -95.5t-71 -227.5v-223
q0 -115 -92 -196t-220 -81z" />
    <glyph glyph-name="asciitilde" unicode="~" horiz-adv-x="1716" 
d="M451 545l-311 96q24 120 74.5 207t116.5 133.5t134 67.5t141 21q74 0 140 -21.5t112.5 -52t87 -60.5t82 -51.5t79.5 -21.5q62 0 98.5 52.5t60.5 146.5l310 -96q-20 -99 -59 -176t-85.5 -123.5t-103.5 -76.5t-110 -41.5t-109 -11.5q-74 0 -140 21.5t-112 51.5t-86 60.5
t-81.5 52t-79.5 21.5q-64 0 -100 -52t-59 -147z" />
    <glyph glyph-name="uni007F" horiz-adv-x="2142" 
 />
    <glyph glyph-name="exclamdown" unicode="&#xa1;" horiz-adv-x="796" 
d="M397 1219q104 0 177 -69t73 -166q0 -95 -73.5 -163t-173.5 -68q-104 0 -178.5 70t-74.5 166t73.5 163t176.5 67zM576 600l71 -1050h-496l70 1050h355z" />
    <glyph glyph-name="cent" unicode="&#xa2;" horiz-adv-x="1238" 
d="M1173 257q-127 -102 -292 -137v-217h-334v227q-209 56 -345.5 221t-136.5 394t136.5 394t345.5 221v220l334 1v-211q156 -33 276 -125l-184 -287q-39 37 -97 59t-119 22q-123 0 -205.5 -84.5t-82.5 -209.5t82.5 -209t206.5 -84q62 0 119 21.5t94 56.5z" />
    <glyph glyph-name="sterling" unicode="&#xa3;" horiz-adv-x="1270" 
d="M614 362h586v-362h-1130v362h114q52 100 52 211q0 31 -4 55h-155v266h89q-16 69 -16 140q0 164 75 299t214 215t314 80q129 0 247.5 -59t187.5 -166l-248 -208q-39 70 -131 70q-111 0 -170 -78t-59 -180q0 -59 12 -113h309v-266h-243q5 -35 5 -63q0 -113 -49 -203z" />
    <glyph glyph-name="currency" unicode="&#xa4;" horiz-adv-x="1339" 
d="M1156 806q0 -132 -75 -240l182 -171l-156 -145l-185 171q-115 -66 -252 -66q-139 0 -259 71l-187 -170l-154 148l187 169q-68 106 -68 229q0 133 74 243l-183 172l157 147l183 -173q115 66 253 66t253 -66l186 168l157 -148l-184 -168q71 -109 71 -237zM673 662
q64 0 109.5 43t45.5 103q0 63 -50.5 102.5t-113.5 39.5t-106.5 -41.5t-43.5 -102.5q0 -60 46.5 -102t112.5 -42z" />
    <glyph glyph-name="yen" unicode="&#xa5;" horiz-adv-x="1560" 
d="M1490 1612l-362 -665h322v-283h-458v-101h458v-283h-458v-280h-425v280h-439v283h439v101h-439v283h303l-361 665h485l225 -467l224 467h486z" />
    <glyph glyph-name="brokenbar" unicode="&#xa6;" horiz-adv-x="651" 
d="M200 865v985h251v-985h-251zM200 -450v1000h251v-1000h-251z" />
    <glyph glyph-name="section" unicode="&#xa7;" horiz-adv-x="1399" 
d="M1095 550q100 -91 100 -228q0 -183 -145 -297t-367 -114q-166 0 -299.5 64t-183.5 162l178 242q43 -54 139.5 -95.5t197.5 -41.5q105 0 105 50q0 48 -194 126l-36 15q-57 23 -102.5 47t-93.5 59t-80 74t-52.5 92.5t-20.5 114.5q0 145 109 243q-106 99 -106 237
q0 116 70 203.5t179 131t237 43.5q136 0 259.5 -53t170.5 -140l-205 -224q-39 39 -110 64.5t-134 25.5q-96 0 -96 -53q0 -11 10.5 -21.5t35 -22t49 -21t71 -27.5t81.5 -32q170 -70 253.5 -156.5t83.5 -215.5q0 -148 -104 -252zM566 834q0 -10 7 -20t22.5 -20t31.5 -18.5
t43 -19.5t48 -19t54.5 -20.5t55.5 -21.5q55 18 55 63q0 19 -18 37t-57.5 38t-68.5 32t-82 33q-4 2 -6 2.5t-5.5 2t-6.5 2.5q-73 -15 -73 -71z" />
    <glyph glyph-name="dieresis" unicode="&#xa8;" horiz-adv-x="687" 
d="M98 1349q-61 0 -104.5 40.5t-43.5 96.5t44 97.5t104 41.5q59 0 102.5 -41.5t43.5 -97.5t-43.5 -96.5t-102.5 -40.5zM579 1349q-60 0 -103 40.5t-43 96.5t43.5 97.5t102.5 41.5q60 0 104 -41.5t44 -97.5t-43.5 -96.5t-104.5 -40.5z" />
    <glyph glyph-name="copyright" unicode="&#xa9;" horiz-adv-x="1842" 
d="M921 -90q-175 0 -333 64t-271.5 172.5t-180 259t-66.5 317.5q0 166 66.5 316t179.5 258.5t271 172t334 63.5q235 0 431 -109.5t308 -295.5t112 -405q0 -168 -68 -319.5t-182.5 -259.5t-271.5 -171t-329 -63zM921 101q132 0 253 49.5t208.5 133t139.5 198.5t52 240
q0 126 -52 241t-139.5 198.5t-208.5 133t-253 49.5q-176 0 -326 -84t-238 -227.5t-88 -311.5q0 -167 88.5 -310t238.5 -226.5t325 -83.5zM943 247q-144 0 -262 67t-183.5 177t-65.5 238q0 94 39 181.5t106 153.5t162.5 105.5t203.5 39.5q171 0 311 -104l-170 -243
q-64 59 -142 59q-90 0 -149 -58.5t-59 -133.5q0 -76 59 -135.5t150 -59.5q73 0 140 57l182 -230q-138 -114 -322 -114z" />
    <glyph glyph-name="guillemotleft" unicode="&#xab;" horiz-adv-x="1362" 
d="M732 1277l-288 -487l288 -486l-266 -51l-396 537l396 538zM1292 1277l-288 -487l288 -486l-266 -51l-396 537l396 538z" />
    <glyph glyph-name="logicalnot" unicode="&#xac;" horiz-adv-x="1557" 
d="M140 1080h1277v-693h-401v314h-876v379z" />
    <glyph glyph-name="registered" unicode="&#xae;" horiz-adv-x="1128" 
d="M564 1612q203 0 343.5 -131.5t140.5 -317.5q0 -189 -141.5 -320t-342.5 -131q-202 0 -343 131.5t-141 319.5q0 187 140.5 318t343.5 131zM564 826q149 0 256 99t107 237q0 139 -107 238t-256 99t-256 -99t-107 -238q0 -138 107.5 -237t255.5 -99zM745 1250
q0 -42 -23.5 -76t-58.5 -49l128 -175h-140l-125 183v-183h-121v448h172q72 0 120 -43t48 -105zM525 1290v-91l49 -1q20 0 34.5 13t14.5 33t-14.5 33t-34.5 13h-49z" />
    <glyph glyph-name="macron" unicode="&#xaf;" horiz-adv-x="644" 
d="M5 1389v201h655v-201h-655z" />
    <glyph glyph-name="degree" unicode="&#xb0;" horiz-adv-x="737" 
d="M368 1084q-122 0 -212.5 84t-90.5 198t90 198.5t213 84.5q124 0 214 -84t90 -199q0 -116 -90 -199t-214 -83zM368 1258q50 0 85.5 32t35.5 77q0 44 -36 77t-85 33q-47 0 -83.5 -33t-36.5 -78q0 -44 35 -76t85 -32z" />
    <glyph glyph-name="plusminus" unicode="&#xb1;" horiz-adv-x="1238" 
d="M818 1172h280v-323h-280v-295h-398v295h-280v323h280v265h398v-265zM140 148v297h958v-297h-958z" />
    <glyph glyph-name="acute" unicode="&#xb4;" horiz-adv-x="788" 
d="M254 1333h-269l172 337h335z" />
    <glyph glyph-name="uni00B5" unicode="&#xb5;" horiz-adv-x="1464" 
d="M930 1200h404v-649q0 -588 -446 -588q-210 0 -354 128v-541h-404v1650h404v-649q0 -102 54.5 -164t150.5 -62q94 0 142.5 54t48.5 172v649z" />
    <glyph glyph-name="paragraph" unicode="&#xb6;" horiz-adv-x="1657" 
d="M200 1156q0 139 69.5 252t192 177.5t272.5 64.5h289v-1752h-294v764q-149 1 -270 66t-190 177.5t-69 250.5zM1170 1650h287v-1760h-287v1760z" />
    <glyph glyph-name="periodcentered" unicode="&#xb7;" horiz-adv-x="739" 
d="M370 537q-110 0 -187.5 72.5t-77.5 175.5q0 101 78.5 174.5t186.5 73.5q107 0 185.5 -73.5t78.5 -174.5q0 -102 -78 -175t-186 -73z" />
    <glyph glyph-name="cedilla" unicode="&#xb8;" horiz-adv-x="600" 
d="M141 -574l-99 231q137 -1 201.5 20.5t64.5 56.5q0 17 -14 31.5t-49 14.5q-21 0 -49 -7l-47 60l168 209h190l-108 -129q5 0 12 0.5t12 0.5q68 0 114 -49t46 -121q0 -126 -131.5 -222.5t-310.5 -95.5z" />
    <glyph glyph-name="guillemotright" unicode="&#xbb;" horiz-adv-x="1362" 
d="M337 1328l395 -538l-395 -537l-267 51l288 486l-288 487zM897 1328l395 -538l-395 -537l-267 51l288 486l-288 487z" />
    <glyph glyph-name="questiondown" unicode="&#xbf;" horiz-adv-x="1111" 
d="M613 1259q104 0 177 -69t73 -166q0 -96 -73 -163.5t-175 -67.5q-103 0 -177.5 70t-74.5 166t73.5 163t176.5 67zM816 642q2 -12 2 -74q0 -130 -68 -227t-216 -200q-75 -53 -75 -119q0 -64 41 -99.5t118 -35.5q90 0 164 49t108 124l151 -315q-33 -53 -47 -69
q-128 -154 -401 -154q-115 0 -216 40t-166.5 102.5t-103 136t-37.5 142.5q0 123 29.5 198t112.5 150q23 21 69.5 57t71 58t45.5 62t21 87q0 66 -5 86z" />
    <glyph glyph-name="Agrave" unicode="&#xc0;" horiz-adv-x="1744" 
d="M1126 1745h-269l-238 337h335zM1254 0l-81 188h-602l-82 -188h-468l749 1632h203l750 -1632h-469zM706 501h331l-165 382z" />
    <glyph glyph-name="Agrave" unicode="&#xe0;" horiz-adv-x="1744" 
d="M1126 1745h-269l-238 337h335zM1254 0l-81 188h-602l-82 -188h-468l749 1632h203l750 -1632h-469zM706 501h331l-165 382z" />
    <glyph glyph-name="Aacute" unicode="&#xc1;" horiz-adv-x="1744" 
d="M1210 2082l-238 -337h-269l172 337h335zM1254 0l-81 188h-602l-82 -188h-468l749 1632h203l750 -1632h-469zM706 501h331l-165 382z" />
    <glyph glyph-name="Aacute" unicode="&#xe1;" horiz-adv-x="1744" 
d="M1210 2082l-238 -337h-269l172 337h335zM1254 0l-81 188h-602l-82 -188h-468l749 1632h203l750 -1632h-469zM706 501h331l-165 382z" />
    <glyph glyph-name="Acircumflex" unicode="&#xc2;" horiz-adv-x="1744" 
d="M871 1889l-127 -130h-304l311 293h239l315 -293h-307zM1254 0l-81 188h-602l-82 -188h-468l749 1632h203l750 -1632h-469zM706 501h331l-165 382z" />
    <glyph glyph-name="Acircumflex" unicode="&#xe2;" horiz-adv-x="1744" 
d="M871 1889l-127 -130h-304l311 293h239l315 -293h-307zM1254 0l-81 188h-602l-82 -188h-468l749 1632h203l750 -1632h-469zM706 501h331l-165 382z" />
    <glyph glyph-name="Atilde" unicode="&#xc3;" horiz-adv-x="1744" 
d="M717 1894q-70 0 -99 -125l-195 60q29 143 110.5 205.5t181.5 62.5q56 0 106.5 -20t80 -44.5t63.5 -44.5t63 -20q68 0 99 124l194 -60q-12 -62 -36.5 -110t-53.5 -77t-65 -48t-69 -26t-68 -7q-57 0 -107 20.5t-79 44.5t-63 44.5t-63 20.5zM1254 0l-81 188h-602l-82 -188
h-468l749 1632h203l750 -1632h-469zM706 501h331l-165 382z" />
    <glyph glyph-name="Atilde" unicode="&#xe3;" horiz-adv-x="1744" 
d="M717 1894q-70 0 -99 -125l-195 60q29 143 110.5 205.5t181.5 62.5q56 0 106.5 -20t80 -44.5t63.5 -44.5t63 -20q68 0 99 124l194 -60q-12 -62 -36.5 -110t-53.5 -77t-65 -48t-69 -26t-68 -7q-57 0 -107 20.5t-79 44.5t-63 44.5t-63 20.5zM1254 0l-81 188h-602l-82 -188
h-468l749 1632h203l750 -1632h-469zM706 501h331l-165 382z" />
    <glyph glyph-name="Adieresis" unicode="&#xc4;" horiz-adv-x="1744" 
d="M632 1761q-61 0 -104.5 40.5t-43.5 96.5t44 97.5t104 41.5q59 0 102.5 -41.5t43.5 -97.5t-43.5 -96.5t-102.5 -40.5zM1113 1761q-60 0 -103 40.5t-43 96.5t43.5 97.5t102.5 41.5q60 0 104 -41.5t44 -97.5t-43.5 -96.5t-104.5 -40.5zM1254 0l-81 188h-602l-82 -188h-468
l749 1632h203l750 -1632h-469zM706 501h331l-165 382z" />
    <glyph glyph-name="Adieresis" unicode="&#xe4;" horiz-adv-x="1744" 
d="M632 1761q-61 0 -104.5 40.5t-43.5 96.5t44 97.5t104 41.5q59 0 102.5 -41.5t43.5 -97.5t-43.5 -96.5t-102.5 -40.5zM1113 1761q-60 0 -103 40.5t-43 96.5t43.5 97.5t102.5 41.5q60 0 104 -41.5t44 -97.5t-43.5 -96.5t-104.5 -40.5zM1254 0l-81 188h-602l-82 -188h-468
l749 1632h203l750 -1632h-469zM706 501h331l-165 382z" />
    <glyph glyph-name="Aring" unicode="&#xc5;" horiz-adv-x="1744" 
d="M873 1707q-100 0 -171.5 68.5t-71.5 165.5q0 96 71.5 165t171.5 69q98 0 169.5 -69.5t71.5 -164.5t-71.5 -164.5t-169.5 -69.5zM873 2026q-37 0 -63.5 -25.5t-26.5 -61.5q0 -35 26.5 -60t63.5 -25t63 25t26 60q0 36 -26 61.5t-63 25.5zM1254 0l-81 188h-602l-82 -188
h-468l749 1632h203l750 -1632h-469zM706 501h331l-165 382z" />
    <glyph glyph-name="Aring" unicode="&#xe5;" horiz-adv-x="1744" 
d="M873 1707q-100 0 -171.5 68.5t-71.5 165.5q0 96 71.5 165t171.5 69q98 0 169.5 -69.5t71.5 -164.5t-71.5 -164.5t-169.5 -69.5zM873 2026q-37 0 -63.5 -25.5t-26.5 -61.5q0 -35 26.5 -60t63.5 -25t63 25t26 60q0 36 -26 61.5t-63 25.5zM1254 0l-81 188h-602l-82 -188
h-468l749 1632h203l750 -1632h-469zM706 501h331l-165 382z" />
    <glyph glyph-name="AE" unicode="&#xc6;" horiz-adv-x="2200" 
d="M2102 1214h-622v-225h512v-357h-512v-231h622v-401h-1045v232h-461l-113 -232h-462l781 1612h1300v-398zM769 589h288v592z" />
    <glyph glyph-name="AE" unicode="&#xe6;" horiz-adv-x="2200" 
d="M2102 1214h-622v-225h512v-357h-512v-231h622v-401h-1045v232h-461l-113 -232h-462l781 1612h1300v-398zM769 589h288v592z" />
    <glyph glyph-name="Ccedilla" unicode="&#xc7;" horiz-adv-x="1596" 
d="M1554 201q-244 -222 -564 -236l-43 -52q5 0 12.5 0.5t11.5 0.5q68 0 114 -49t46 -121q0 -126 -131.5 -222.5t-310.5 -95.5l-99 231q137 -1 201.5 20.5t64.5 56.5q0 17 -14 31.5t-49 14.5q-21 0 -49 -7l-47 60l114 142q-150 23 -284 92.5t-236 174.5t-161.5 251.5
t-59.5 312.5q0 235 116.5 428.5t320.5 304.5t451 111q156 -2 314 -67t282 -177l-246 -316q-75 69 -168 109t-181 40q-123 0 -227 -57t-166 -157.5t-62 -221.5t63.5 -222t165.5 -156.5t217 -55.5q184 0 360 157z" />
    <glyph glyph-name="Ccedilla" unicode="&#xe7;" horiz-adv-x="1596" 
d="M1554 201q-244 -222 -564 -236l-43 -52q5 0 12.5 0.5t11.5 0.5q68 0 114 -49t46 -121q0 -126 -131.5 -222.5t-310.5 -95.5l-99 231q137 -1 201.5 20.5t64.5 56.5q0 17 -14 31.5t-49 14.5q-21 0 -49 -7l-47 60l114 142q-150 23 -284 92.5t-236 174.5t-161.5 251.5
t-59.5 312.5q0 235 116.5 428.5t320.5 304.5t451 111q156 -2 314 -67t282 -177l-246 -316q-75 69 -168 109t-181 40q-123 0 -227 -57t-166 -157.5t-62 -221.5t63.5 -222t165.5 -156.5t217 -55.5q184 0 360 157z" />
    <glyph glyph-name="Egrave" unicode="&#xc8;" horiz-adv-x="1283" 
d="M891 1745h-269l-238 337h335zM1185 1214h-622v-225h512v-357h-512v-231h622v-401h-1045v1612h1045v-398z" />
    <glyph glyph-name="Egrave" unicode="&#xe8;" horiz-adv-x="1283" 
d="M891 1745h-269l-238 337h335zM1185 1214h-622v-225h512v-357h-512v-231h622v-401h-1045v1612h1045v-398z" />
    <glyph glyph-name="Eacute" unicode="&#xc9;" horiz-adv-x="1283" 
d="M975 2082l-238 -337h-269l172 337h335zM1185 1214h-622v-225h512v-357h-512v-231h622v-401h-1045v1612h1045v-398z" />
    <glyph glyph-name="Eacute" unicode="&#xe9;" horiz-adv-x="1283" 
d="M975 2082l-238 -337h-269l172 337h335zM1185 1214h-622v-225h512v-357h-512v-231h622v-401h-1045v1612h1045v-398z" />
    <glyph glyph-name="Ecircumflex" unicode="&#xca;" horiz-adv-x="1283" 
d="M636 1889l-127 -130h-304l311 293h239l315 -293h-307zM1185 1214h-622v-225h512v-357h-512v-231h622v-401h-1045v1612h1045v-398z" />
    <glyph glyph-name="Ecircumflex" unicode="&#xea;" horiz-adv-x="1283" 
d="M636 1889l-127 -130h-304l311 293h239l315 -293h-307zM1185 1214h-622v-225h512v-357h-512v-231h622v-401h-1045v1612h1045v-398z" />
    <glyph glyph-name="Edieresis" unicode="&#xcb;" horiz-adv-x="1283" 
d="M397 1761q-61 0 -104.5 40.5t-43.5 96.5t44 97.5t104 41.5q59 0 102.5 -41.5t43.5 -97.5t-43.5 -96.5t-102.5 -40.5zM878 1761q-60 0 -103 40.5t-43 96.5t43.5 97.5t102.5 41.5q60 0 104 -41.5t44 -97.5t-43.5 -96.5t-104.5 -40.5zM1185 1214h-622v-225h512v-357h-512
v-231h622v-401h-1045v1612h1045v-398z" />
    <glyph glyph-name="Edieresis" unicode="&#xeb;" horiz-adv-x="1283" 
d="M397 1761q-61 0 -104.5 40.5t-43.5 96.5t44 97.5t104 41.5q59 0 102.5 -41.5t43.5 -97.5t-43.5 -96.5t-102.5 -40.5zM878 1761q-60 0 -103 40.5t-43 96.5t43.5 97.5t102.5 41.5q60 0 104 -41.5t44 -97.5t-43.5 -96.5t-104.5 -40.5zM1185 1214h-622v-225h512v-357h-512
v-231h622v-401h-1045v1612h1045v-398z" />
    <glyph glyph-name="Igrave" unicode="&#xcc;" horiz-adv-x="708" 
d="M339 1745l-238 337h335l172 -337h-269zM140 0v1612h428v-1612h-428z" />
    <glyph glyph-name="Igrave" unicode="&#xec;" horiz-adv-x="708" 
d="M339 1745l-238 337h335l172 -337h-269zM140 0v1612h428v-1612h-428z" />
    <glyph glyph-name="Iacute" unicode="&#xcd;" horiz-adv-x="708" 
d="M455 1745h-269l172 337h335zM140 0v1612h428v-1612h-428z" />
    <glyph glyph-name="Iacute" unicode="&#xed;" horiz-adv-x="708" 
d="M455 1745h-269l172 337h335zM140 0v1612h428v-1612h-428z" />
    <glyph glyph-name="Icircumflex" unicode="&#xce;" horiz-adv-x="708" 
d="M-78 1759l311 293h239l315 -293h-307l-127 130l-127 -130h-304zM140 0v1612h428v-1612h-428z" />
    <glyph glyph-name="Icircumflex" unicode="&#xee;" horiz-adv-x="708" 
d="M-78 1759l311 293h239l315 -293h-307l-127 130l-127 -130h-304zM140 0v1612h428v-1612h-428z" />
    <glyph glyph-name="Idieresis" unicode="&#xcf;" horiz-adv-x="708" 
d="M114 1761q-61 0 -104.5 40.5t-43.5 96.5t44 97.5t104 41.5q59 0 102.5 -41.5t43.5 -97.5t-43.5 -96.5t-102.5 -40.5zM595 1761q-60 0 -103 40.5t-43 96.5t43.5 97.5t102.5 41.5q60 0 104 -41.5t44 -97.5t-43.5 -96.5t-104.5 -40.5zM140 0v1612h428v-1612h-428z" />
    <glyph glyph-name="Idieresis" unicode="&#xef;" horiz-adv-x="708" 
d="M114 1761q-61 0 -104.5 40.5t-43.5 96.5t44 97.5t104 41.5q59 0 102.5 -41.5t43.5 -97.5t-43.5 -96.5t-102.5 -40.5zM595 1761q-60 0 -103 40.5t-43 96.5t43.5 97.5t102.5 41.5q60 0 104 -41.5t44 -97.5t-43.5 -96.5t-104.5 -40.5zM140 0v1612h428v-1612h-428z" />
    <glyph glyph-name="Eth" unicode="&#xd0;" horiz-adv-x="1697" 
d="M745 1612q411 1 646.5 -214.5t235.5 -593.5q0 -375 -235.5 -589.5t-646.5 -214.5h-526v669h-177v260h177v682zM737 403q215 0 338 107t123 295q0 190 -123.5 298.5t-340.5 108.5h-98v-284h215v-259h-215v-266h101z" />
    <glyph glyph-name="Eth" unicode="&#xf0;" horiz-adv-x="1697" 
d="M745 1612q411 1 646.5 -214.5t235.5 -593.5q0 -375 -235.5 -589.5t-646.5 -214.5h-526v669h-177v260h177v682zM737 403q215 0 338 107t123 295q0 190 -123.5 298.5t-340.5 108.5h-98v-284h215v-259h-215v-266h101z" />
    <glyph glyph-name="Ntilde" unicode="&#xd1;" horiz-adv-x="1673" 
d="M682 1894q-70 0 -99 -125l-195 60q29 143 110.5 205.5t181.5 62.5q56 0 106.5 -20t80 -44.5t63.5 -44.5t63 -20q68 0 99 124l194 -60q-12 -62 -36.5 -110t-53.5 -77t-65 -48t-69 -26t-68 -7q-57 0 -107 20.5t-79 44.5t-63 44.5t-63 20.5zM1104 1614h429v-1630h-136
l-829 803v-788h-428v1629h138l826 -800v786z" />
    <glyph glyph-name="Ntilde" unicode="&#xf1;" horiz-adv-x="1673" 
d="M682 1894q-70 0 -99 -125l-195 60q29 143 110.5 205.5t181.5 62.5q56 0 106.5 -20t80 -44.5t63.5 -44.5t63 -20q68 0 99 124l194 -60q-12 -62 -36.5 -110t-53.5 -77t-65 -48t-69 -26t-68 -7q-57 0 -107 20.5t-79 44.5t-63 44.5t-63 20.5zM1104 1614h429v-1630h-136
l-829 803v-788h-428v1629h138l826 -800v786z" />
    <glyph glyph-name="Ograve" unicode="&#xd2;" horiz-adv-x="1910" 
d="M940 1745l-238 337h335l172 -337h-269zM954 -41q-185 0 -349 65t-281.5 177t-185.5 269t-68 334q0 179 68.5 337t186 270.5t281.5 178t349 65.5t349 -65.5t281.5 -178t186 -270.5t68.5 -337q0 -236 -116 -430t-319.5 -304.5t-450.5 -110.5zM955 368q192 0 322 126.5
t130 312.5q0 187 -130 314t-322 127t-322 -127t-130 -314q0 -186 130 -312.5t322 -126.5z" />
    <glyph glyph-name="Ograve" unicode="&#xf2;" horiz-adv-x="1910" 
d="M940 1745l-238 337h335l172 -337h-269zM954 -41q-185 0 -349 65t-281.5 177t-185.5 269t-68 334q0 179 68.5 337t186 270.5t281.5 178t349 65.5t349 -65.5t281.5 -178t186 -270.5t68.5 -337q0 -236 -116 -430t-319.5 -304.5t-450.5 -110.5zM955 368q192 0 322 126.5
t130 312.5q0 187 -130 314t-322 127t-322 -127t-130 -314q0 -186 130 -312.5t322 -126.5z" />
    <glyph glyph-name="Oacute" unicode="&#xd3;" horiz-adv-x="1910" 
d="M1055 1745h-269l172 337h335zM954 -41q-185 0 -349 65t-281.5 177t-185.5 269t-68 334q0 179 68.5 337t186 270.5t281.5 178t349 65.5t349 -65.5t281.5 -178t186 -270.5t68.5 -337q0 -236 -116 -430t-319.5 -304.5t-450.5 -110.5zM955 368q192 0 322 126.5t130 312.5
q0 187 -130 314t-322 127t-322 -127t-130 -314q0 -186 130 -312.5t322 -126.5z" />
    <glyph glyph-name="Oacute" unicode="&#xf3;" horiz-adv-x="1910" 
d="M1055 1745h-269l172 337h335zM954 -41q-185 0 -349 65t-281.5 177t-185.5 269t-68 334q0 179 68.5 337t186 270.5t281.5 178t349 65.5t349 -65.5t281.5 -178t186 -270.5t68.5 -337q0 -236 -116 -430t-319.5 -304.5t-450.5 -110.5zM955 368q192 0 322 126.5t130 312.5
q0 187 -130 314t-322 127t-322 -127t-130 -314q0 -186 130 -312.5t322 -126.5z" />
    <glyph glyph-name="Ocircumflex" unicode="&#xd4;" horiz-adv-x="1910" 
d="M523 1759l311 293h239l315 -293h-307l-127 130l-127 -130h-304zM954 -41q-185 0 -349 65t-281.5 177t-185.5 269t-68 334q0 179 68.5 337t186 270.5t281.5 178t349 65.5t349 -65.5t281.5 -178t186 -270.5t68.5 -337q0 -236 -116 -430t-319.5 -304.5t-450.5 -110.5z
M955 368q192 0 322 126.5t130 312.5q0 187 -130 314t-322 127t-322 -127t-130 -314q0 -186 130 -312.5t322 -126.5z" />
    <glyph glyph-name="Ocircumflex" unicode="&#xf4;" horiz-adv-x="1910" 
d="M523 1759l311 293h239l315 -293h-307l-127 130l-127 -130h-304zM954 -41q-185 0 -349 65t-281.5 177t-185.5 269t-68 334q0 179 68.5 337t186 270.5t281.5 178t349 65.5t349 -65.5t281.5 -178t186 -270.5t68.5 -337q0 -236 -116 -430t-319.5 -304.5t-450.5 -110.5z
M955 368q192 0 322 126.5t130 312.5q0 187 -130 314t-322 127t-322 -127t-130 -314q0 -186 130 -312.5t322 -126.5z" />
    <glyph glyph-name="Otilde" unicode="&#xd5;" horiz-adv-x="1910" 
d="M701 1769l-195 60q29 143 110.5 205.5t181.5 62.5q56 0 106.5 -20t80 -44.5t63.5 -44.5t63 -20q68 0 99 124l194 -60q-12 -62 -36.5 -110t-53.5 -77t-65 -48t-69 -26t-68 -7q-57 0 -107 20.5t-79 44.5t-63 44.5t-63 20.5q-70 0 -99 -125zM954 -41q-185 0 -349 65
t-281.5 177t-185.5 269t-68 334q0 179 68.5 337t186 270.5t281.5 178t349 65.5t349 -65.5t281.5 -178t186 -270.5t68.5 -337q0 -236 -116 -430t-319.5 -304.5t-450.5 -110.5zM955 368q192 0 322 126.5t130 312.5q0 187 -130 314t-322 127t-322 -127t-130 -314
q0 -186 130 -312.5t322 -126.5z" />
    <glyph glyph-name="Otilde" unicode="&#xf5;" horiz-adv-x="1910" 
d="M701 1769l-195 60q29 143 110.5 205.5t181.5 62.5q56 0 106.5 -20t80 -44.5t63.5 -44.5t63 -20q68 0 99 124l194 -60q-12 -62 -36.5 -110t-53.5 -77t-65 -48t-69 -26t-68 -7q-57 0 -107 20.5t-79 44.5t-63 44.5t-63 20.5q-70 0 -99 -125zM954 -41q-185 0 -349 65
t-281.5 177t-185.5 269t-68 334q0 179 68.5 337t186 270.5t281.5 178t349 65.5t349 -65.5t281.5 -178t186 -270.5t68.5 -337q0 -236 -116 -430t-319.5 -304.5t-450.5 -110.5zM955 368q192 0 322 126.5t130 312.5q0 187 -130 314t-322 127t-322 -127t-130 -314
q0 -186 130 -312.5t322 -126.5z" />
    <glyph glyph-name="Odieresis" unicode="&#xd6;" horiz-adv-x="1910" 
d="M715 1761q-61 0 -104.5 40.5t-43.5 96.5t44 97.5t104 41.5q59 0 102.5 -41.5t43.5 -97.5t-43.5 -96.5t-102.5 -40.5zM1196 1761q-60 0 -103 40.5t-43 96.5t43.5 97.5t102.5 41.5q60 0 104 -41.5t44 -97.5t-43.5 -96.5t-104.5 -40.5zM954 -41q-185 0 -349 65t-281.5 177
t-185.5 269t-68 334q0 179 68.5 337t186 270.5t281.5 178t349 65.5t349 -65.5t281.5 -178t186 -270.5t68.5 -337q0 -236 -116 -430t-319.5 -304.5t-450.5 -110.5zM955 368q192 0 322 126.5t130 312.5q0 187 -130 314t-322 127t-322 -127t-130 -314q0 -186 130 -312.5
t322 -126.5z" />
    <glyph glyph-name="Odieresis" unicode="&#xf6;" horiz-adv-x="1910" 
d="M715 1761q-61 0 -104.5 40.5t-43.5 96.5t44 97.5t104 41.5q59 0 102.5 -41.5t43.5 -97.5t-43.5 -96.5t-102.5 -40.5zM1196 1761q-60 0 -103 40.5t-43 96.5t43.5 97.5t102.5 41.5q60 0 104 -41.5t44 -97.5t-43.5 -96.5t-104.5 -40.5zM954 -41q-185 0 -349 65t-281.5 177
t-185.5 269t-68 334q0 179 68.5 337t186 270.5t281.5 178t349 65.5t349 -65.5t281.5 -178t186 -270.5t68.5 -337q0 -236 -116 -430t-319.5 -304.5t-450.5 -110.5zM955 368q192 0 322 126.5t130 312.5q0 187 -130 314t-322 127t-322 -127t-130 -314q0 -186 130 -312.5
t322 -126.5z" />
    <glyph glyph-name="multiply" unicode="&#xd7;" horiz-adv-x="1482" 
d="M1342 450l-244 -250l-357 343l-356 -344l-244 248l349 337l-350 337l244 249l357 -343l356 344l244 -250l-348 -336z" />
    <glyph glyph-name="Oslash" unicode="&#xd8;" horiz-adv-x="1910" 
d="M1573 1423q127 -117 197 -276.5t70 -342.5q0 -236 -116 -430t-319.5 -304.5t-450.5 -110.5q-183 0 -348 64l-73 -106h-343l173 250q-139 117 -216 281.5t-77 355.5q0 179 68.5 337t186 270.5t281.5 178t349 65.5q203 0 382 -78l50 72h342zM503 807q0 -165 105 -286
l488 706q-66 21 -141 21q-192 0 -322 -127t-130 -314zM955 368q192 0 322 126.5t130 312.5q0 144 -82 258l-473 -686q52 -11 103 -11z" />
    <glyph glyph-name="Oslash" unicode="&#xf8;" horiz-adv-x="1910" 
d="M1573 1423q127 -117 197 -276.5t70 -342.5q0 -236 -116 -430t-319.5 -304.5t-450.5 -110.5q-183 0 -348 64l-73 -106h-343l173 250q-139 117 -216 281.5t-77 355.5q0 179 68.5 337t186 270.5t281.5 178t349 65.5q203 0 382 -78l50 72h342zM503 807q0 -165 105 -286
l488 706q-66 21 -141 21q-192 0 -322 -127t-130 -314zM955 368q192 0 322 126.5t130 312.5q0 144 -82 258l-473 -686q52 -11 103 -11z" />
    <glyph glyph-name="Ugrave" unicode="&#xd9;" horiz-adv-x="1590" 
d="M779 1745l-238 337h335l172 -337h-269zM795 -45q-137 0 -260 47t-213 129t-143 200.5t-53 254.5v1026h431v-1025q0 -97 71 -160t166 -63q94 0 166.5 63.5t72.5 159.5v1025h431v-1026q0 -136 -53 -254.5t-143 -200.5t-213 -129t-260 -47z" />
    <glyph glyph-name="Ugrave" unicode="&#xf9;" horiz-adv-x="1590" 
d="M779 1745l-238 337h335l172 -337h-269zM795 -45q-137 0 -260 47t-213 129t-143 200.5t-53 254.5v1026h431v-1025q0 -97 71 -160t166 -63q94 0 166.5 63.5t72.5 159.5v1025h431v-1026q0 -136 -53 -254.5t-143 -200.5t-213 -129t-260 -47z" />
    <glyph glyph-name="Uacute" unicode="&#xda;" horiz-adv-x="1590" 
d="M895 1745h-269l172 337h335zM795 -45q-137 0 -260 47t-213 129t-143 200.5t-53 254.5v1026h431v-1025q0 -97 71 -160t166 -63q94 0 166.5 63.5t72.5 159.5v1025h431v-1026q0 -136 -53 -254.5t-143 -200.5t-213 -129t-260 -47z" />
    <glyph glyph-name="Uacute" unicode="&#xfa;" horiz-adv-x="1590" 
d="M895 1745h-269l172 337h335zM795 -45q-137 0 -260 47t-213 129t-143 200.5t-53 254.5v1026h431v-1025q0 -97 71 -160t166 -63q94 0 166.5 63.5t72.5 159.5v1025h431v-1026q0 -136 -53 -254.5t-143 -200.5t-213 -129t-260 -47z" />
    <glyph glyph-name="Ucircumflex" unicode="&#xdb;" horiz-adv-x="1590" 
d="M362 1759l311 293h239l315 -293h-307l-127 130l-127 -130h-304zM795 -45q-137 0 -260 47t-213 129t-143 200.5t-53 254.5v1026h431v-1025q0 -97 71 -160t166 -63q94 0 166.5 63.5t72.5 159.5v1025h431v-1026q0 -136 -53 -254.5t-143 -200.5t-213 -129t-260 -47z" />
    <glyph glyph-name="Ucircumflex" unicode="&#xfb;" horiz-adv-x="1590" 
d="M362 1759l311 293h239l315 -293h-307l-127 130l-127 -130h-304zM795 -45q-137 0 -260 47t-213 129t-143 200.5t-53 254.5v1026h431v-1025q0 -97 71 -160t166 -63q94 0 166.5 63.5t72.5 159.5v1025h431v-1026q0 -136 -53 -254.5t-143 -200.5t-213 -129t-260 -47z" />
    <glyph glyph-name="Udieresis" unicode="&#xdc;" horiz-adv-x="1590" 
d="M554 1761q-61 0 -104.5 40.5t-43.5 96.5t44 97.5t104 41.5q59 0 102.5 -41.5t43.5 -97.5t-43.5 -96.5t-102.5 -40.5zM1035 1761q-60 0 -103 40.5t-43 96.5t43.5 97.5t102.5 41.5q60 0 104 -41.5t44 -97.5t-43.5 -96.5t-104.5 -40.5zM795 -45q-137 0 -260 47t-213 129
t-143 200.5t-53 254.5v1026h431v-1025q0 -97 71 -160t166 -63q94 0 166.5 63.5t72.5 159.5v1025h431v-1026q0 -136 -53 -254.5t-143 -200.5t-213 -129t-260 -47z" />
    <glyph glyph-name="Udieresis" unicode="&#xfc;" horiz-adv-x="1590" 
d="M554 1761q-61 0 -104.5 40.5t-43.5 96.5t44 97.5t104 41.5q59 0 102.5 -41.5t43.5 -97.5t-43.5 -96.5t-102.5 -40.5zM1035 1761q-60 0 -103 40.5t-43 96.5t43.5 97.5t102.5 41.5q60 0 104 -41.5t44 -97.5t-43.5 -96.5t-104.5 -40.5zM795 -45q-137 0 -260 47t-213 129
t-143 200.5t-53 254.5v1026h431v-1025q0 -97 71 -160t166 -63q94 0 166.5 63.5t72.5 159.5v1025h431v-1026q0 -136 -53 -254.5t-143 -200.5t-213 -129t-260 -47z" />
    <glyph glyph-name="Yacute" unicode="&#xdd;" horiz-adv-x="1462" 
d="M832 1745h-269l172 337h335zM518 0v696l-497 916h485l225 -467l224 467h486l-498 -916v-696h-425z" />
    <glyph glyph-name="Yacute" unicode="&#xfd;" horiz-adv-x="1462" 
d="M832 1745h-269l172 337h335zM518 0v696l-497 916h485l225 -467l224 467h486l-498 -916v-696h-425z" />
    <glyph glyph-name="Thorn" unicode="&#xde;" horiz-adv-x="1433" 
d="M140 0v1612h427v-245h216q162 0 295 -73t209 -199.5t76 -278.5t-76 -278.5t-209 -199.5t-295 -73h-216v-265h-427zM567 636h216q79 0 133 52.5t54 127.5t-54 128.5t-133 53.5h-216v-362z" />
    <glyph glyph-name="Thorn" unicode="&#xfe;" horiz-adv-x="1433" 
d="M140 0v1612h427v-245h216q162 0 295 -73t209 -199.5t76 -278.5t-76 -278.5t-209 -199.5t-295 -73h-216v-265h-427zM567 636h216q79 0 133 52.5t54 127.5t-54 128.5t-133 53.5h-216v-362z" />
    <glyph glyph-name="uni1E9E" unicode="&#xdf;" horiz-adv-x="1972" 
d="M1561 977q369 -186 369 -508q0 -226 -163 -371t-437 -145q-394 0 -575 318l271 259q51 -84 130.5 -138.5t181.5 -54.5q74 0 122.5 31t48.5 82q0 63 -74.5 130t-192.5 129q-275 141 -425 172l251 376q-82 36 -166 36q-57 0 -114.5 -19t-109.5 -56.5t-85 -104.5t-33 -152
v-961h-420v961q0 138 43.5 253t119.5 196t180.5 137.5t225.5 83t255 26.5q188 0 372.5 -58.5t303.5 -151.5l-306 -380q97 -25 227 -90z" />
    <glyph glyph-name="uni1E9E" unicode="&#x1e9e;" horiz-adv-x="1972" 
d="M1561 977q369 -186 369 -508q0 -226 -163 -371t-437 -145q-394 0 -575 318l271 259q51 -84 130.5 -138.5t181.5 -54.5q74 0 122.5 31t48.5 82q0 63 -74.5 130t-192.5 129q-275 141 -425 172l251 376q-82 36 -166 36q-57 0 -114.5 -19t-109.5 -56.5t-85 -104.5t-33 -152
v-961h-420v961q0 138 43.5 253t119.5 196t180.5 137.5t225.5 83t255 26.5q188 0 372.5 -58.5t303.5 -151.5l-306 -380q97 -25 227 -90z" />
    <glyph glyph-name="divide" unicode="&#xf7;" horiz-adv-x="1654" 
d="M810 1064q-107 -1 -184 72t-77 174q0 100 77 172t182 72q106 0 184.5 -73.5t78.5 -171.5t-77.5 -171t-183.5 -74zM140 603v333h1374v-333h-1374zM809 -28q-105 0 -182.5 73t-77.5 174t78 172.5t182 71.5q105 0 183.5 -73.5t78.5 -171.5t-77.5 -172t-184.5 -74z" />
    <glyph glyph-name="Ydieresis" unicode="&#xff;" horiz-adv-x="1462" 
d="M491 1761q-61 0 -104.5 40.5t-43.5 96.5t44 97.5t104 41.5q59 0 102.5 -41.5t43.5 -97.5t-43.5 -96.5t-102.5 -40.5zM972 1761q-60 0 -103 40.5t-43 96.5t43.5 97.5t102.5 41.5q60 0 104 -41.5t44 -97.5t-43.5 -96.5t-104.5 -40.5zM518 0v696l-497 916h485l225 -467
l224 467h486l-498 -916v-696h-425z" />
    <glyph glyph-name="Ydieresis" unicode="&#x178;" horiz-adv-x="1462" 
d="M491 1761q-61 0 -104.5 40.5t-43.5 96.5t44 97.5t104 41.5q59 0 102.5 -41.5t43.5 -97.5t-43.5 -96.5t-102.5 -40.5zM972 1761q-60 0 -103 40.5t-43 96.5t43.5 97.5t102.5 41.5q60 0 104 -41.5t44 -97.5t-43.5 -96.5t-104.5 -40.5zM518 0v696l-497 916h485l225 -467
l224 467h486l-498 -916v-696h-425z" />
    <glyph glyph-name="Amacron" unicode="&#x100;" horiz-adv-x="1744" 
d="M1200 2002v-201h-655v201h655zM1254 0l-81 188h-602l-82 -188h-468l749 1632h203l750 -1632h-469zM706 501h331l-165 382z" />
    <glyph glyph-name="Amacron" unicode="&#x101;" horiz-adv-x="1744" 
d="M1200 2002v-201h-655v201h655zM1254 0l-81 188h-602l-82 -188h-468l749 1632h203l750 -1632h-469zM706 501h331l-165 382z" />
    <glyph glyph-name="Abreve" unicode="&#x102;" horiz-adv-x="1744" 
d="M872 1753q-138 0 -230 86.5t-92 214.5h192q0 -57 37.5 -95.5t92.5 -38.5q56 0 93.5 38.5t37.5 95.5h192q0 -128 -92.5 -214.5t-230.5 -86.5zM1254 0l-81 188h-602l-82 -188h-468l749 1632h203l750 -1632h-469zM706 501h331l-165 382z" />
    <glyph glyph-name="Abreve" unicode="&#x103;" horiz-adv-x="1744" 
d="M872 1753q-138 0 -230 86.5t-92 214.5h192q0 -57 37.5 -95.5t92.5 -38.5q56 0 93.5 38.5t37.5 95.5h192q0 -128 -92.5 -214.5t-230.5 -86.5zM1254 0l-81 188h-602l-82 -188h-468l749 1632h203l750 -1632h-469zM706 501h331l-165 382z" />
    <glyph glyph-name="Aogonek" unicode="&#x104;" horiz-adv-x="1744" 
d="M1524 -297q43 0 119 19l39 -270q-104 -22 -193 -22q-155 0 -238 65.5t-83 183.5q0 102 59 187t155 134h-128l-81 188h-602l-82 -188h-468l749 1632h203l750 -1632h-60q-108 -79 -152.5 -130.5t-44.5 -101.5q0 -28 14.5 -46.5t43.5 -18.5zM706 501h331l-165 382z" />
    <glyph glyph-name="Aogonek" unicode="&#x105;" horiz-adv-x="1744" 
d="M1524 -297q43 0 119 19l39 -270q-104 -22 -193 -22q-155 0 -238 65.5t-83 183.5q0 102 59 187t155 134h-128l-81 188h-602l-82 -188h-468l749 1632h203l750 -1632h-60q-108 -79 -152.5 -130.5t-44.5 -101.5q0 -28 14.5 -46.5t43.5 -18.5zM706 501h331l-165 382z" />
    <glyph glyph-name="Cacute" unicode="&#x106;" horiz-adv-x="1596" 
d="M975 1742h-269l172 337h335zM950 -36q-136 0 -266 38.5t-240.5 113t-194.5 175t-131.5 234t-47.5 281.5q0 235 116.5 428.5t320.5 304.5t451 111q156 -2 314 -67t282 -177l-246 -316q-75 69 -168 109t-181 40q-123 0 -227 -57t-166 -157.5t-62 -221.5t63.5 -222
t165.5 -156.5t217 -55.5q184 0 360 157l244 -325q-261 -237 -604 -237z" />
    <glyph glyph-name="Cacute" unicode="&#x107;" horiz-adv-x="1596" 
d="M975 1742h-269l172 337h335zM950 -36q-136 0 -266 38.5t-240.5 113t-194.5 175t-131.5 234t-47.5 281.5q0 235 116.5 428.5t320.5 304.5t451 111q156 -2 314 -67t282 -177l-246 -316q-75 69 -168 109t-181 40q-123 0 -227 -57t-166 -157.5t-62 -221.5t63.5 -222
t165.5 -156.5t217 -55.5q184 0 360 157l244 -325q-261 -237 -604 -237z" />
    <glyph glyph-name="Cdotaccent" unicode="&#x10a;" horiz-adv-x="1596" 
d="M875 1756q-70 0 -119.5 46t-49.5 111t50 113t119 48t119.5 -48t50.5 -112q0 -66 -50.5 -112t-119.5 -46zM950 -36q-136 0 -266 38.5t-240.5 113t-194.5 175t-131.5 234t-47.5 281.5q0 235 116.5 428.5t320.5 304.5t451 111q156 -2 314 -67t282 -177l-246 -316
q-75 69 -168 109t-181 40q-123 0 -227 -57t-166 -157.5t-62 -221.5t63.5 -222t165.5 -156.5t217 -55.5q184 0 360 157l244 -325q-261 -237 -604 -237z" />
    <glyph glyph-name="Cdotaccent" unicode="&#x10b;" horiz-adv-x="1596" 
d="M875 1756q-70 0 -119.5 46t-49.5 111t50 113t119 48t119.5 -48t50.5 -112q0 -66 -50.5 -112t-119.5 -46zM950 -36q-136 0 -266 38.5t-240.5 113t-194.5 175t-131.5 234t-47.5 281.5q0 235 116.5 428.5t320.5 304.5t451 111q156 -2 314 -67t282 -177l-246 -316
q-75 69 -168 109t-181 40q-123 0 -227 -57t-166 -157.5t-62 -221.5t63.5 -222t165.5 -156.5t217 -55.5q184 0 360 157l244 -325q-261 -237 -604 -237z" />
    <glyph glyph-name="Ccaron" unicode="&#x10c;" horiz-adv-x="1596" 
d="M442 2049h304l127 -130l127 130h307l-315 -293h-239zM950 -36q-136 0 -266 38.5t-240.5 113t-194.5 175t-131.5 234t-47.5 281.5q0 235 116.5 428.5t320.5 304.5t451 111q156 -2 314 -67t282 -177l-246 -316q-75 69 -168 109t-181 40q-123 0 -227 -57t-166 -157.5
t-62 -221.5t63.5 -222t165.5 -156.5t217 -55.5q184 0 360 157l244 -325q-261 -237 -604 -237z" />
    <glyph glyph-name="Ccaron" unicode="&#x10d;" horiz-adv-x="1596" 
d="M442 2049h304l127 -130l127 130h307l-315 -293h-239zM950 -36q-136 0 -266 38.5t-240.5 113t-194.5 175t-131.5 234t-47.5 281.5q0 235 116.5 428.5t320.5 304.5t451 111q156 -2 314 -67t282 -177l-246 -316q-75 69 -168 109t-181 40q-123 0 -227 -57t-166 -157.5
t-62 -221.5t63.5 -222t165.5 -156.5t217 -55.5q184 0 360 157l244 -325q-261 -237 -604 -237z" />
    <glyph glyph-name="Dcaron" unicode="&#x10e;" horiz-adv-x="1619" 
d="M939 1759h-239l-311 293h304l127 -130l127 130h307zM666 1612q411 2 647 -214t236 -594q0 -375 -236 -589.5t-647 -214.5h-526v1611zM659 403q215 0 338 107.5t123 294.5q0 190 -124 298.5t-341 108.5h-98v-809h102z" />
    <glyph glyph-name="Dcaron" unicode="&#x10f;" horiz-adv-x="1619" 
d="M939 1759h-239l-311 293h304l127 -130l127 130h307zM666 1612q411 2 647 -214t236 -594q0 -375 -236 -589.5t-647 -214.5h-526v1611zM659 403q215 0 338 107.5t123 294.5q0 190 -124 298.5t-341 108.5h-98v-809h102z" />
    <glyph glyph-name="Dcroat" unicode="&#x110;" horiz-adv-x="1697" 
d="M745 1612q411 1 646.5 -214.5t235.5 -593.5q0 -375 -235.5 -589.5t-646.5 -214.5h-526v669h-177v260h177v682zM737 403q215 0 338 107t123 295q0 190 -123.5 298.5t-340.5 108.5h-98v-284h215v-259h-215v-266h101z" />
    <glyph glyph-name="Dcroat" unicode="&#x111;" horiz-adv-x="1697" 
d="M745 1612q411 1 646.5 -214.5t235.5 -593.5q0 -375 -235.5 -589.5t-646.5 -214.5h-526v669h-177v260h177v682zM737 403q215 0 338 107t123 295q0 190 -123.5 298.5t-340.5 108.5h-98v-284h215v-259h-215v-266h101z" />
    <glyph glyph-name="Emacron" unicode="&#x112;" horiz-adv-x="1283" 
d="M965 2002v-201h-655v201h655zM1185 1214h-622v-225h512v-357h-512v-231h622v-401h-1045v1612h1045v-398z" />
    <glyph glyph-name="Emacron" unicode="&#x113;" horiz-adv-x="1283" 
d="M965 2002v-201h-655v201h655zM1185 1214h-622v-225h512v-357h-512v-231h622v-401h-1045v1612h1045v-398z" />
    <glyph glyph-name="Ebreve" unicode="&#x114;" horiz-adv-x="1283" 
d="M637 1753q-138 0 -230 86.5t-92 214.5h192q0 -57 37.5 -95.5t92.5 -38.5q56 0 93.5 38.5t37.5 95.5h192q0 -128 -92.5 -214.5t-230.5 -86.5zM1185 1214h-622v-225h512v-357h-512v-231h622v-401h-1045v1612h1045v-398z" />
    <glyph glyph-name="Ebreve" unicode="&#x115;" horiz-adv-x="1283" 
d="M637 1753q-138 0 -230 86.5t-92 214.5h192q0 -57 37.5 -95.5t92.5 -38.5q56 0 93.5 38.5t37.5 95.5h192q0 -128 -92.5 -214.5t-230.5 -86.5zM1185 1214h-622v-225h512v-357h-512v-231h622v-401h-1045v1612h1045v-398z" />
    <glyph glyph-name="Edotaccent" unicode="&#x116;" horiz-adv-x="1283" 
d="M637 1759q-70 0 -119.5 46t-49.5 111t50 113t119 48t119.5 -48t50.5 -112q0 -66 -50.5 -112t-119.5 -46zM1185 1214h-622v-225h512v-357h-512v-231h622v-401h-1045v1612h1045v-398z" />
    <glyph glyph-name="Edotaccent" unicode="&#x117;" horiz-adv-x="1283" 
d="M637 1759q-70 0 -119.5 46t-49.5 111t50 113t119 48t119.5 -48t50.5 -112q0 -66 -50.5 -112t-119.5 -46zM1185 1214h-622v-225h512v-357h-512v-231h622v-401h-1045v1612h1045v-398z" />
    <glyph glyph-name="Eogonek" unicode="&#x118;" horiz-adv-x="1283" 
d="M1185 1214h-622v-225h512v-357h-512v-231h622v-401h-26q-103 -77 -146.5 -127.5t-43.5 -99.5q0 -28 14.5 -46.5t43.5 -18.5q43 0 119 19l39 -270q-104 -22 -193 -22q-155 0 -238 65.5t-83 183.5q0 99 56.5 182.5t147.5 133.5h-735v1612h1045v-398z" />
    <glyph glyph-name="Eogonek" unicode="&#x119;" horiz-adv-x="1283" 
d="M1185 1214h-622v-225h512v-357h-512v-231h622v-401h-26q-103 -77 -146.5 -127.5t-43.5 -99.5q0 -28 14.5 -46.5t43.5 -18.5q43 0 119 19l39 -270q-104 -22 -193 -22q-155 0 -238 65.5t-83 183.5q0 99 56.5 182.5t147.5 133.5h-735v1612h1045v-398z" />
    <glyph glyph-name="Ecaron" unicode="&#x11a;" horiz-adv-x="1283" 
d="M754 1759h-239l-311 293h304l127 -130l127 130h307zM1185 1214h-622v-225h512v-357h-512v-231h622v-401h-1045v1612h1045v-398z" />
    <glyph glyph-name="Ecaron" unicode="&#x11b;" horiz-adv-x="1283" 
d="M754 1759h-239l-311 293h304l127 -130l127 130h307zM1185 1214h-622v-225h512v-357h-512v-231h622v-401h-1045v1612h1045v-398z" />
    <glyph glyph-name="Gbreve" unicode="&#x11e;" horiz-adv-x="1867" 
d="M958 1753q-138 0 -230 86.5t-92 214.5h192q0 -57 37.5 -95.5t92.5 -38.5q56 0 93.5 38.5t37.5 95.5h192q0 -128 -92.5 -214.5t-230.5 -86.5zM1784 926q13 -88 13 -157q0 -180 -65 -332.5t-177 -255.5t-263.5 -161t-322.5 -58q-188 0 -356 67.5t-286.5 181t-187.5 268.5
t-69 325t69 326t187 270.5t283 182.5t349 68q154 -2 315 -61.5t260 -151.5l-237 -325q-68 63 -158.5 100.5t-179.5 37.5q-119 0 -222.5 -59t-166 -162t-62.5 -225q0 -85 33.5 -165t93.5 -142.5t152 -100.5t200 -38q148 0 242 67t98 181h-369v319h827z" />
    <glyph glyph-name="Gbreve" unicode="&#x11f;" horiz-adv-x="1867" 
d="M958 1753q-138 0 -230 86.5t-92 214.5h192q0 -57 37.5 -95.5t92.5 -38.5q56 0 93.5 38.5t37.5 95.5h192q0 -128 -92.5 -214.5t-230.5 -86.5zM1784 926q13 -88 13 -157q0 -180 -65 -332.5t-177 -255.5t-263.5 -161t-322.5 -58q-188 0 -356 67.5t-286.5 181t-187.5 268.5
t-69 325t69 326t187 270.5t283 182.5t349 68q154 -2 315 -61.5t260 -151.5l-237 -325q-68 63 -158.5 100.5t-179.5 37.5q-119 0 -222.5 -59t-166 -162t-62.5 -225q0 -85 33.5 -165t93.5 -142.5t152 -100.5t200 -38q148 0 242 67t98 181h-369v319h827z" />
    <glyph glyph-name="Gdotaccent" unicode="&#x120;" horiz-adv-x="1867" 
d="M959 1759q-70 0 -119.5 46t-49.5 111t50 113t119 48t119.5 -48t50.5 -112q0 -66 -50.5 -112t-119.5 -46zM1784 926q13 -88 13 -157q0 -180 -65 -332.5t-177 -255.5t-263.5 -161t-322.5 -58q-188 0 -356 67.5t-286.5 181t-187.5 268.5t-69 325t69 326t187 270.5t283 182.5
t349 68q154 -2 315 -61.5t260 -151.5l-237 -325q-68 63 -158.5 100.5t-179.5 37.5q-119 0 -222.5 -59t-166 -162t-62.5 -225q0 -85 33.5 -165t93.5 -142.5t152 -100.5t200 -38q148 0 242 67t98 181h-369v319h827z" />
    <glyph glyph-name="Gdotaccent" unicode="&#x121;" horiz-adv-x="1867" 
d="M959 1759q-70 0 -119.5 46t-49.5 111t50 113t119 48t119.5 -48t50.5 -112q0 -66 -50.5 -112t-119.5 -46zM1784 926q13 -88 13 -157q0 -180 -65 -332.5t-177 -255.5t-263.5 -161t-322.5 -58q-188 0 -356 67.5t-286.5 181t-187.5 268.5t-69 325t69 326t187 270.5t283 182.5
t349 68q154 -2 315 -61.5t260 -151.5l-237 -325q-68 63 -158.5 100.5t-179.5 37.5q-119 0 -222.5 -59t-166 -162t-62.5 -225q0 -85 33.5 -165t93.5 -142.5t152 -100.5t200 -38q148 0 242 67t98 181h-369v319h827z" />
    <glyph glyph-name="uni0122" unicode="&#x122;" horiz-adv-x="1867" 
d="M1784 926q13 -88 13 -157q0 -180 -65 -332.5t-177 -255.5t-263.5 -161t-322.5 -58q-188 0 -356 67.5t-286.5 181t-187.5 268.5t-69 325t69 326t187 270.5t283 182.5t349 68q154 -2 315 -61.5t260 -151.5l-237 -325q-68 63 -158.5 100.5t-179.5 37.5q-119 0 -222.5 -59
t-166 -162t-62.5 -225q0 -85 33.5 -165t93.5 -142.5t152 -100.5t200 -38q148 0 242 67t98 181h-369v319h827zM962 -114q83 0 134 -57t51 -150q0 -114 -71.5 -203t-184.5 -89q-44 0 -75.5 16t-31.5 30q28 0 58 10.5t56 38t26 65.5q0 31 -12 46q-51 0 -93.5 39t-42.5 95
q0 64 53.5 111.5t132.5 47.5z" />
    <glyph glyph-name="uni0122" unicode="&#x123;" horiz-adv-x="1867" 
d="M1784 926q13 -88 13 -157q0 -180 -65 -332.5t-177 -255.5t-263.5 -161t-322.5 -58q-188 0 -356 67.5t-286.5 181t-187.5 268.5t-69 325t69 326t187 270.5t283 182.5t349 68q154 -2 315 -61.5t260 -151.5l-237 -325q-68 63 -158.5 100.5t-179.5 37.5q-119 0 -222.5 -59
t-166 -162t-62.5 -225q0 -85 33.5 -165t93.5 -142.5t152 -100.5t200 -38q148 0 242 67t98 181h-369v319h827zM962 -114q83 0 134 -57t51 -150q0 -114 -71.5 -203t-184.5 -89q-44 0 -75.5 16t-31.5 30q28 0 58 10.5t56 38t26 65.5q0 31 -12 46q-51 0 -93.5 39t-42.5 95
q0 64 53.5 111.5t132.5 47.5z" />
    <glyph glyph-name="Hbar" unicode="&#x126;" horiz-adv-x="1614" 
d="M1596 1388v-230h-122v-1158h-427v607h-479v-607h-428v1158h-121v230h121v224h428v-224h479v224h427v-224h122zM1047 1007v151h-479v-151h479z" />
    <glyph glyph-name="Hbar" unicode="&#x127;" horiz-adv-x="1614" 
d="M1596 1388v-230h-122v-1158h-427v607h-479v-607h-428v1158h-121v230h121v224h428v-224h479v224h427v-224h122zM1047 1007v151h-479v-151h479z" />
    <glyph glyph-name="Imacron" unicode="&#x12a;" horiz-adv-x="708" 
d="M27 1801v201h655v-201h-655zM140 0v1612h428v-1612h-428z" />
    <glyph glyph-name="Imacron" unicode="&#x12b;" horiz-adv-x="708" 
d="M27 1801v201h655v-201h-655zM140 0v1612h428v-1612h-428z" />
    <glyph glyph-name="Iogonek" unicode="&#x12e;" horiz-adv-x="708" 
d="M548 -278l39 -270q-104 -22 -193 -22q-155 0 -238 65.5t-83 183.5q0 102 59 187t155 134h-147v1612h428v-1612q-108 -79 -152.5 -130.5t-44.5 -101.5q0 -28 14.5 -46.5t43.5 -18.5q43 0 119 19z" />
    <glyph glyph-name="Iogonek" unicode="&#x12f;" horiz-adv-x="708" 
d="M548 -278l39 -270q-104 -22 -193 -22q-155 0 -238 65.5t-83 183.5q0 102 59 187t155 134h-147v1612h428v-1612q-108 -79 -152.5 -130.5t-44.5 -101.5q0 -28 14.5 -46.5t43.5 -18.5q43 0 119 19z" />
    <glyph glyph-name="Idotaccent" unicode="&#x130;" horiz-adv-x="708" 
d="M355 1759q-70 0 -119.5 46t-49.5 111t50 113t119 48t119.5 -48t50.5 -112q0 -66 -50.5 -112t-119.5 -46zM140 0v1612h428v-1612h-428z" />
    <glyph glyph-name="dotlessi" unicode="&#x131;" horiz-adv-x="708" 
d="M140 0v1612h428v-1612h-428z" />
    <glyph glyph-name="uni0136" unicode="&#x136;" horiz-adv-x="1508" 
d="M975 0l-408 613v-613h-427v1612h427v-601l374 601h492l-494 -786l555 -826h-519zM806 -114q83 0 134 -57t51 -150q0 -114 -71.5 -203t-184.5 -89q-44 0 -75.5 16t-31.5 30q28 0 58 10.5t56 38t26 65.5q0 31 -12 46q-51 0 -93.5 39t-42.5 95q0 64 53.5 111.5t132.5 47.5z
" />
    <glyph glyph-name="uni0136" unicode="&#x137;" horiz-adv-x="1508" 
d="M975 0l-408 613v-613h-427v1612h427v-601l374 601h492l-494 -786l555 -826h-519zM806 -114q83 0 134 -57t51 -150q0 -114 -71.5 -203t-184.5 -89q-44 0 -75.5 16t-31.5 30q28 0 58 10.5t56 38t26 65.5q0 31 -12 46q-51 0 -93.5 39t-42.5 95q0 64 53.5 111.5t132.5 47.5z
" />
    <glyph glyph-name="Lacute" unicode="&#x139;" horiz-adv-x="1227" 
d="M961 2082l-238 -337h-269l172 337h335zM568 402h617v-402h-1045v1612h428v-1210z" />
    <glyph glyph-name="Lacute" unicode="&#x13a;" horiz-adv-x="1227" 
d="M961 2082l-238 -337h-269l172 337h335zM568 402h617v-402h-1045v1612h428v-1210z" />
    <glyph glyph-name="uni013B" unicode="&#x13b;" horiz-adv-x="1227" 
d="M568 402h617v-402h-1045v1612h428v-1210zM626 -114q83 0 134 -57t51 -150q0 -114 -71.5 -203t-184.5 -89q-44 0 -75.5 16t-31.5 30q28 0 58 10.5t56 38t26 65.5q0 31 -12 46q-51 0 -93.5 39t-42.5 95q0 64 53.5 111.5t132.5 47.5z" />
    <glyph glyph-name="uni013B" unicode="&#x13c;" horiz-adv-x="1227" 
d="M568 402h617v-402h-1045v1612h428v-1210zM626 -114q83 0 134 -57t51 -150q0 -114 -71.5 -203t-184.5 -89q-44 0 -75.5 16t-31.5 30q28 0 58 10.5t56 38t26 65.5q0 31 -12 46q-51 0 -93.5 39t-42.5 95q0 64 53.5 111.5t132.5 47.5z" />
    <glyph glyph-name="Lcaron" unicode="&#x13d;" horiz-adv-x="1227" 
d="M1055 1714l-120 -470h-230l70 470h280zM568 402h617v-402h-1045v1612h428v-1210z" />
    <glyph glyph-name="Lcaron" unicode="&#x13e;" horiz-adv-x="1227" 
d="M1055 1714l-120 -470h-230l70 470h280zM568 402h617v-402h-1045v1612h428v-1210z" />
    <glyph glyph-name="Lslash" unicode="&#x141;" horiz-adv-x="1227" 
d="M568 402h617v-402h-1045v503l-156 -105v310l156 105v799h428v-512l177 119v-311l-177 -119v-387z" />
    <glyph glyph-name="Lslash" unicode="&#x142;" horiz-adv-x="1227" 
d="M568 402h617v-402h-1045v503l-156 -105v310l156 105v799h428v-512l177 119v-311l-177 -119v-387z" />
    <glyph glyph-name="Nacute" unicode="&#x143;" horiz-adv-x="1673" 
d="M1175 2082l-238 -337h-269l172 337h335zM1104 1614h429v-1630h-136l-829 803v-788h-428v1629h138l826 -800v786z" />
    <glyph glyph-name="Nacute" unicode="&#x144;" horiz-adv-x="1673" 
d="M1175 2082l-238 -337h-269l172 337h335zM1104 1614h429v-1630h-136l-829 803v-788h-428v1629h138l826 -800v786z" />
    <glyph glyph-name="uni0145" unicode="&#x145;" horiz-adv-x="1673" 
d="M1104 1614h429v-1630h-136l-829 803v-788h-428v1629h138l826 -800v786zM840 -114q83 0 134 -57t51 -150q0 -114 -71.5 -203t-184.5 -89q-44 0 -75.5 16t-31.5 30q28 0 58 10.5t56 38t26 65.5q0 31 -12 46q-51 0 -93.5 39t-42.5 95q0 64 53.5 111.5t132.5 47.5z" />
    <glyph glyph-name="uni0145" unicode="&#x146;" horiz-adv-x="1673" 
d="M1104 1614h429v-1630h-136l-829 803v-788h-428v1629h138l826 -800v786zM840 -114q83 0 134 -57t51 -150q0 -114 -71.5 -203t-184.5 -89q-44 0 -75.5 16t-31.5 30q28 0 58 10.5t56 38t26 65.5q0 31 -12 46q-51 0 -93.5 39t-42.5 95q0 64 53.5 111.5t132.5 47.5z" />
    <glyph glyph-name="Ncaron" unicode="&#x147;" horiz-adv-x="1673" 
d="M954 1759h-239l-311 293h304l127 -130l127 130h307zM1104 1614h429v-1630h-136l-829 803v-788h-428v1629h138l826 -800v786z" />
    <glyph glyph-name="Ncaron" unicode="&#x148;" horiz-adv-x="1673" 
d="M954 1759h-239l-311 293h304l127 -130l127 130h307zM1104 1614h429v-1630h-136l-829 803v-788h-428v1629h138l826 -800v786z" />
    <glyph glyph-name="Eng" unicode="&#x14a;" horiz-adv-x="1673" 
d="M1104 1614h429v-1657q0 -165 -94.5 -289t-263.5 -194l-228 175q182 104 182 302v293l-561 543v-788h-428v1629h138l826 -800v786z" />
    <glyph glyph-name="Eng" unicode="&#x14b;" horiz-adv-x="1673" 
d="M1104 1614h429v-1657q0 -165 -94.5 -289t-263.5 -194l-228 175q182 104 182 302v293l-561 543v-788h-428v1629h138l826 -800v786z" />
    <glyph glyph-name="Omacron" unicode="&#x14c;" horiz-adv-x="1910" 
d="M628 1801v201h655v-201h-655zM954 -41q-185 0 -349 65t-281.5 177t-185.5 269t-68 334q0 179 68.5 337t186 270.5t281.5 178t349 65.5t349 -65.5t281.5 -178t186 -270.5t68.5 -337q0 -236 -116 -430t-319.5 -304.5t-450.5 -110.5zM955 368q192 0 322 126.5t130 312.5
q0 187 -130 314t-322 127t-322 -127t-130 -314q0 -186 130 -312.5t322 -126.5z" />
    <glyph glyph-name="Omacron" unicode="&#x14d;" horiz-adv-x="1910" 
d="M628 1801v201h655v-201h-655zM954 -41q-185 0 -349 65t-281.5 177t-185.5 269t-68 334q0 179 68.5 337t186 270.5t281.5 178t349 65.5t349 -65.5t281.5 -178t186 -270.5t68.5 -337q0 -236 -116 -430t-319.5 -304.5t-450.5 -110.5zM955 368q192 0 322 126.5t130 312.5
q0 187 -130 314t-322 127t-322 -127t-130 -314q0 -186 130 -312.5t322 -126.5z" />
    <glyph glyph-name="Ohungarumlaut" unicode="&#x150;" horiz-adv-x="1910" 
d="M561 1745l137 337h299l-196 -337h-240zM946 1745l208 337h335l-289 -337h-254zM954 -41q-185 0 -349 65t-281.5 177t-185.5 269t-68 334q0 179 68.5 337t186 270.5t281.5 178t349 65.5t349 -65.5t281.5 -178t186 -270.5t68.5 -337q0 -236 -116 -430t-319.5 -304.5
t-450.5 -110.5zM955 368q192 0 322 126.5t130 312.5q0 187 -130 314t-322 127t-322 -127t-130 -314q0 -186 130 -312.5t322 -126.5z" />
    <glyph glyph-name="Ohungarumlaut" unicode="&#x151;" horiz-adv-x="1910" 
d="M561 1745l137 337h299l-196 -337h-240zM946 1745l208 337h335l-289 -337h-254zM954 -41q-185 0 -349 65t-281.5 177t-185.5 269t-68 334q0 179 68.5 337t186 270.5t281.5 178t349 65.5t349 -65.5t281.5 -178t186 -270.5t68.5 -337q0 -236 -116 -430t-319.5 -304.5
t-450.5 -110.5zM955 368q192 0 322 126.5t130 312.5q0 187 -130 314t-322 127t-322 -127t-130 -314q0 -186 130 -312.5t322 -126.5z" />
    <glyph glyph-name="OE" unicode="&#x152;" horiz-adv-x="2619" 
d="M2521 1214h-622v-225h511v-357h-511v-231h622v-401h-1045v168q-105 -100 -241.5 -154.5t-290.5 -54.5q-242 0 -442.5 110.5t-316 304.5t-115.5 430q0 178 68 336.5t185 271t279 178t343 65.5q154 0 290 -54.5t241 -155.5v167h1045v-398zM955 368q192 0 322 126.5
t130 312.5q0 187 -130 314t-322 127t-322 -127t-130 -314q0 -186 130 -312.5t322 -126.5z" />
    <glyph glyph-name="OE" unicode="&#x153;" horiz-adv-x="2619" 
d="M2521 1214h-622v-225h511v-357h-511v-231h622v-401h-1045v168q-105 -100 -241.5 -154.5t-290.5 -54.5q-242 0 -442.5 110.5t-316 304.5t-115.5 430q0 178 68 336.5t185 271t279 178t343 65.5q154 0 290 -54.5t241 -155.5v167h1045v-398zM955 368q192 0 322 126.5
t130 312.5q0 187 -130 314t-322 127t-322 -127t-130 -314q0 -186 130 -312.5t322 -126.5z" />
    <glyph glyph-name="Racute" unicode="&#x154;" horiz-adv-x="1516" 
d="M1102 2082l-238 -337h-269l172 337h335zM1502 0h-501l-431 700v-700h-428l-2 1612h612q170 0 307.5 -70.5t213.5 -190t76 -263.5q0 -147 -78.5 -266t-200.5 -175zM568 1227v-323l175 -1q71 -1 122.5 44.5t51.5 117.5t-51.5 117t-122.5 45h-175z" />
    <glyph glyph-name="Racute" unicode="&#x155;" horiz-adv-x="1516" 
d="M1102 2082l-238 -337h-269l172 337h335zM1502 0h-501l-431 700v-700h-428l-2 1612h612q170 0 307.5 -70.5t213.5 -190t76 -263.5q0 -147 -78.5 -266t-200.5 -175zM568 1227v-323l175 -1q71 -1 122.5 44.5t51.5 117.5t-51.5 117t-122.5 45h-175z" />
    <glyph glyph-name="uni0156" unicode="&#x156;" horiz-adv-x="1516" 
d="M1070 647l432 -647h-501l-431 700v-700h-428l-2 1612h612q170 0 307.5 -70.5t213.5 -190t76 -263.5q0 -147 -78.5 -266t-200.5 -175zM568 1227v-323l175 -1q71 -1 122.5 44.5t51.5 117.5t-51.5 117t-122.5 45h-175zM767 -114q83 0 134 -57t51 -150q0 -114 -71.5 -203
t-184.5 -89q-44 0 -75.5 16t-31.5 30q28 0 58 10.5t56 38t26 65.5q0 31 -12 46q-51 0 -93.5 39t-42.5 95q0 64 53.5 111.5t132.5 47.5z" />
    <glyph glyph-name="uni0156" unicode="&#x157;" horiz-adv-x="1516" 
d="M1070 647l432 -647h-501l-431 700v-700h-428l-2 1612h612q170 0 307.5 -70.5t213.5 -190t76 -263.5q0 -147 -78.5 -266t-200.5 -175zM568 1227v-323l175 -1q71 -1 122.5 44.5t51.5 117.5t-51.5 117t-122.5 45h-175zM767 -114q83 0 134 -57t51 -150q0 -114 -71.5 -203
t-184.5 -89q-44 0 -75.5 16t-31.5 30q28 0 58 10.5t56 38t26 65.5q0 31 -12 46q-51 0 -93.5 39t-42.5 95q0 64 53.5 111.5t132.5 47.5z" />
    <glyph glyph-name="Rcaron" unicode="&#x158;" horiz-adv-x="1516" 
d="M881 1759h-239l-311 293h304l127 -130l127 130h307zM1502 0h-501l-431 700v-700h-428l-2 1612h612q170 0 307.5 -70.5t213.5 -190t76 -263.5q0 -147 -78.5 -266t-200.5 -175zM568 1227v-323l175 -1q71 -1 122.5 44.5t51.5 117.5t-51.5 117t-122.5 45h-175z" />
    <glyph glyph-name="Rcaron" unicode="&#x159;" horiz-adv-x="1516" 
d="M881 1759h-239l-311 293h304l127 -130l127 130h307zM1502 0h-501l-431 700v-700h-428l-2 1612h612q170 0 307.5 -70.5t213.5 -190t76 -263.5q0 -147 -78.5 -266t-200.5 -175zM568 1227v-323l175 -1q71 -1 122.5 44.5t51.5 117.5t-51.5 117t-122.5 45h-175z" />
    <glyph glyph-name="Sacute" unicode="&#x15a;" horiz-adv-x="1308" 
d="M764 1745h-269l172 337h335zM643 -22q-200 0 -363.5 81t-223.5 214l259 254q50 -74 137.5 -116.5t189.5 -42.5q74 0 127 26t53 73q0 20 -11.5 40t-38.5 40.5t-51 36.5t-69.5 38.5t-72.5 34.5t-80 36q-82 36 -146 77t-119 96.5t-84.5 129.5t-29.5 162q0 136 79 246.5
t209.5 171t282.5 60.5q181 0 317 -76.5t184 -198.5l-247 -238q-33 59 -107.5 90.5t-141.5 31.5q-65 0 -108 -29t-43 -71q0 -16 6.5 -29t21 -25t30.5 -21.5t44 -21t52.5 -21t63.5 -25t70 -28.5q419 -176 419 -498q0 -149 -85.5 -264t-223 -174.5t-300.5 -59.5z" />
    <glyph glyph-name="Sacute" unicode="&#x15b;" horiz-adv-x="1308" 
d="M764 1745h-269l172 337h335zM643 -22q-200 0 -363.5 81t-223.5 214l259 254q50 -74 137.5 -116.5t189.5 -42.5q74 0 127 26t53 73q0 20 -11.5 40t-38.5 40.5t-51 36.5t-69.5 38.5t-72.5 34.5t-80 36q-82 36 -146 77t-119 96.5t-84.5 129.5t-29.5 162q0 136 79 246.5
t209.5 171t282.5 60.5q181 0 317 -76.5t184 -198.5l-247 -238q-33 59 -107.5 90.5t-141.5 31.5q-65 0 -108 -29t-43 -71q0 -16 6.5 -29t21 -25t30.5 -21.5t44 -21t52.5 -21t63.5 -25t70 -28.5q419 -176 419 -498q0 -149 -85.5 -264t-223 -174.5t-300.5 -59.5z" />
    <glyph glyph-name="Scedilla" unicode="&#x15e;" horiz-adv-x="1308" 
d="M1252 476q0 -193 -138 -324t-348 -165l-62 -74q4 0 12 0.5t12 0.5q68 0 114 -49t46 -121q0 -126 -131.5 -222.5t-310.5 -95.5l-99 231q137 -1 201.5 20.5t64.5 56.5q0 17 -14 31.5t-49 14.5q-21 0 -49 -7l-47 60l119 148q-179 14 -320.5 93t-196.5 199l259 254
q50 -74 137.5 -116.5t189.5 -42.5q74 0 127 26t53 73q0 20 -11.5 40t-38.5 40.5t-51 36.5t-69.5 38.5t-72.5 34.5t-80 36q-82 36 -146 77t-119 96.5t-84.5 129.5t-29.5 162q0 136 79 246.5t209.5 171t282.5 60.5q181 0 317 -76.5t184 -198.5l-247 -238q-33 59 -107.5 90.5
t-141.5 31.5q-65 0 -108 -29t-43 -71q0 -16 6.5 -29t21 -25t30.5 -21.5t44 -21t52.5 -21t63.5 -25t70 -28.5q419 -176 419 -498z" />
    <glyph glyph-name="Scedilla" unicode="&#x15f;" horiz-adv-x="1308" 
d="M1252 476q0 -193 -138 -324t-348 -165l-62 -74q4 0 12 0.5t12 0.5q68 0 114 -49t46 -121q0 -126 -131.5 -222.5t-310.5 -95.5l-99 231q137 -1 201.5 20.5t64.5 56.5q0 17 -14 31.5t-49 14.5q-21 0 -49 -7l-47 60l119 148q-179 14 -320.5 93t-196.5 199l259 254
q50 -74 137.5 -116.5t189.5 -42.5q74 0 127 26t53 73q0 20 -11.5 40t-38.5 40.5t-51 36.5t-69.5 38.5t-72.5 34.5t-80 36q-82 36 -146 77t-119 96.5t-84.5 129.5t-29.5 162q0 136 79 246.5t209.5 171t282.5 60.5q181 0 317 -76.5t184 -198.5l-247 -238q-33 59 -107.5 90.5
t-141.5 31.5q-65 0 -108 -29t-43 -71q0 -16 6.5 -29t21 -25t30.5 -21.5t44 -21t52.5 -21t63.5 -25t70 -28.5q419 -176 419 -498z" />
    <glyph glyph-name="Scaron" unicode="&#x160;" horiz-adv-x="1308" 
d="M231 2052h304l127 -130l127 130h307l-315 -293h-239zM643 -22q-200 0 -363.5 81t-223.5 214l259 254q50 -74 137.5 -116.5t189.5 -42.5q74 0 127 26t53 73q0 20 -11.5 40t-38.5 40.5t-51 36.5t-69.5 38.5t-72.5 34.5t-80 36q-82 36 -146 77t-119 96.5t-84.5 129.5
t-29.5 162q0 136 79 246.5t209.5 171t282.5 60.5q181 0 317 -76.5t184 -198.5l-247 -238q-33 59 -107.5 90.5t-141.5 31.5q-65 0 -108 -29t-43 -71q0 -16 6.5 -29t21 -25t30.5 -21.5t44 -21t52.5 -21t63.5 -25t70 -28.5q419 -176 419 -498q0 -149 -85.5 -264t-223 -174.5
t-300.5 -59.5z" />
    <glyph glyph-name="Scaron" unicode="&#x161;" horiz-adv-x="1308" 
d="M231 2052h304l127 -130l127 130h307l-315 -293h-239zM643 -22q-200 0 -363.5 81t-223.5 214l259 254q50 -74 137.5 -116.5t189.5 -42.5q74 0 127 26t53 73q0 20 -11.5 40t-38.5 40.5t-51 36.5t-69.5 38.5t-72.5 34.5t-80 36q-82 36 -146 77t-119 96.5t-84.5 129.5
t-29.5 162q0 136 79 246.5t209.5 171t282.5 60.5q181 0 317 -76.5t184 -198.5l-247 -238q-33 59 -107.5 90.5t-141.5 31.5q-65 0 -108 -29t-43 -71q0 -16 6.5 -29t21 -25t30.5 -21.5t44 -21t52.5 -21t63.5 -25t70 -28.5q419 -176 419 -498q0 -149 -85.5 -264t-223 -174.5
t-300.5 -59.5z" />
    <glyph glyph-name="uni0162" unicode="&#x162;" horiz-adv-x="1286" 
d="M858 0h-102l-73 -87q5 0 12 0.5t12 0.5q68 0 114 -49t46 -121q0 -126 -131.5 -222.5t-310.5 -95.5l-99 231q137 -1 201.5 20.5t64.5 56.5q0 17 -14 31.5t-49 14.5q-21 0 -49 -7l-47 60l134 167h-138v1212h-387v400h1202v-400h-386v-1212z" />
    <glyph glyph-name="uni0162" unicode="&#x163;" horiz-adv-x="1286" 
d="M858 0h-102l-73 -87q5 0 12 0.5t12 0.5q68 0 114 -49t46 -121q0 -126 -131.5 -222.5t-310.5 -95.5l-99 231q137 -1 201.5 20.5t64.5 56.5q0 17 -14 31.5t-49 14.5q-21 0 -49 -7l-47 60l134 167h-138v1212h-387v400h1202v-400h-386v-1212z" />
    <glyph glyph-name="Tcaron" unicode="&#x164;" horiz-adv-x="1286" 
d="M760 1759h-239l-311 293h304l127 -130l127 130h307zM1244 1612v-400h-386v-1212h-429v1212h-387v400h1202z" />
    <glyph glyph-name="Tcaron" unicode="&#x165;" horiz-adv-x="1286" 
d="M760 1759h-239l-311 293h304l127 -130l127 130h307zM1244 1612v-400h-386v-1212h-429v1212h-387v400h1202z" />
    <glyph glyph-name="Tbar" unicode="&#x166;" horiz-adv-x="1286" 
d="M1244 1212h-386v-291h223v-230h-223v-691h-429v691h-224v230h224v291h-387v400h1202v-400z" />
    <glyph glyph-name="Tbar" unicode="&#x167;" horiz-adv-x="1286" 
d="M1244 1212h-386v-291h223v-230h-223v-691h-429v691h-224v230h224v291h-387v400h1202v-400z" />
    <glyph glyph-name="Umacron" unicode="&#x16a;" horiz-adv-x="1590" 
d="M467 1801v201h655v-201h-655zM795 -45q-137 0 -260 47t-213 129t-143 200.5t-53 254.5v1026h431v-1025q0 -97 71 -160t166 -63q94 0 166.5 63.5t72.5 159.5v1025h431v-1026q0 -136 -53 -254.5t-143 -200.5t-213 -129t-260 -47z" />
    <glyph glyph-name="Umacron" unicode="&#x16b;" horiz-adv-x="1590" 
d="M467 1801v201h655v-201h-655zM795 -45q-137 0 -260 47t-213 129t-143 200.5t-53 254.5v1026h431v-1025q0 -97 71 -160t166 -63q94 0 166.5 63.5t72.5 159.5v1025h431v-1026q0 -136 -53 -254.5t-143 -200.5t-213 -129t-260 -47z" />
    <glyph glyph-name="Uring" unicode="&#x16e;" horiz-adv-x="1590" 
d="M796 1707q-100 0 -171.5 68.5t-71.5 165.5q0 96 71.5 165t171.5 69q98 0 169.5 -69.5t71.5 -164.5t-71.5 -164.5t-169.5 -69.5zM796 1854q37 0 63 25t26 60q0 36 -26 61.5t-63 25.5t-63.5 -25.5t-26.5 -61.5q0 -35 26.5 -60t63.5 -25zM795 -45q-137 0 -260 47t-213 129
t-143 200.5t-53 254.5v1026h431v-1025q0 -97 71 -160t166 -63q94 0 166.5 63.5t72.5 159.5v1025h431v-1026q0 -136 -53 -254.5t-143 -200.5t-213 -129t-260 -47z" />
    <glyph glyph-name="Uring" unicode="&#x16f;" horiz-adv-x="1590" 
d="M796 1707q-100 0 -171.5 68.5t-71.5 165.5q0 96 71.5 165t171.5 69q98 0 169.5 -69.5t71.5 -164.5t-71.5 -164.5t-169.5 -69.5zM796 1854q37 0 63 25t26 60q0 36 -26 61.5t-63 25.5t-63.5 -25.5t-26.5 -61.5q0 -35 26.5 -60t63.5 -25zM795 -45q-137 0 -260 47t-213 129
t-143 200.5t-53 254.5v1026h431v-1025q0 -97 71 -160t166 -63q94 0 166.5 63.5t72.5 159.5v1025h431v-1026q0 -136 -53 -254.5t-143 -200.5t-213 -129t-260 -47z" />
    <glyph glyph-name="Uhungarumlaut" unicode="&#x170;" horiz-adv-x="1590" 
d="M401 1745l137 337h299l-196 -337h-240zM786 1745l208 337h335l-289 -337h-254zM795 -45q-137 0 -260 47t-213 129t-143 200.5t-53 254.5v1026h431v-1025q0 -97 71 -160t166 -63q94 0 166.5 63.5t72.5 159.5v1025h431v-1026q0 -136 -53 -254.5t-143 -200.5t-213 -129
t-260 -47z" />
    <glyph glyph-name="Uhungarumlaut" unicode="&#x171;" horiz-adv-x="1590" 
d="M401 1745l137 337h299l-196 -337h-240zM786 1745l208 337h335l-289 -337h-254zM795 -45q-137 0 -260 47t-213 129t-143 200.5t-53 254.5v1026h431v-1025q0 -97 71 -160t166 -63q94 0 166.5 63.5t72.5 159.5v1025h431v-1026q0 -136 -53 -254.5t-143 -200.5t-213 -129
t-260 -47z" />
    <glyph glyph-name="Uogonek" unicode="&#x172;" horiz-adv-x="1590" 
d="M1033 1612h431v-1026q0 -239 -151 -408.5t-385 -210.5q-75 -60 -107.5 -103t-32.5 -86q0 -28 14.5 -46.5t43.5 -18.5q43 0 119 19l39 -270q-104 -22 -193 -22q-155 0 -238 65.5t-83 183.5q0 84 40.5 157t109.5 125q-225 47 -369.5 214.5t-144.5 400.5v1026h431v-1025
q0 -97 71 -160t166 -63q94 0 166.5 63.5t72.5 159.5v1025z" />
    <glyph glyph-name="Uogonek" unicode="&#x173;" horiz-adv-x="1590" 
d="M1033 1612h431v-1026q0 -239 -151 -408.5t-385 -210.5q-75 -60 -107.5 -103t-32.5 -86q0 -28 14.5 -46.5t43.5 -18.5q43 0 119 19l39 -270q-104 -22 -193 -22q-155 0 -238 65.5t-83 183.5q0 84 40.5 157t109.5 125q-225 47 -369.5 214.5t-144.5 400.5v1026h431v-1025
q0 -97 71 -160t166 -63q94 0 166.5 63.5t72.5 159.5v1025z" />
    <glyph glyph-name="Wcircumflex" unicode="&#x174;" horiz-adv-x="2105" 
d="M621 1759l311 293h239l315 -293h-307l-127 130l-127 -130h-304zM560 -10l-539 1622h463l223 -738l330 735h32l330 -733l222 736h463l-538 -1622h-118l-377 797l-374 -797h-117z" />
    <glyph glyph-name="Wcircumflex" unicode="&#x175;" horiz-adv-x="2105" 
d="M621 1759l311 293h239l315 -293h-307l-127 130l-127 -130h-304zM560 -10l-539 1622h463l223 -738l330 735h32l330 -733l222 736h463l-538 -1622h-118l-377 797l-374 -797h-117z" />
    <glyph glyph-name="Ycircumflex" unicode="&#x176;" horiz-adv-x="1462" 
d="M299 1759l311 293h239l315 -293h-307l-127 130l-127 -130h-304zM518 0v696l-497 916h485l225 -467l224 467h486l-498 -916v-696h-425z" />
    <glyph glyph-name="Ycircumflex" unicode="&#x177;" horiz-adv-x="1462" 
d="M299 1759l311 293h239l315 -293h-307l-127 130l-127 -130h-304zM518 0v696l-497 916h485l225 -467l224 467h486l-498 -916v-696h-425z" />
    <glyph glyph-name="Zacute" unicode="&#x179;" horiz-adv-x="1387" 
d="M794 1745h-269l172 337h335zM84 0l545 1212h-545v400h1219l-544 -1210h544v-402h-1219z" />
    <glyph glyph-name="Zacute" unicode="&#x17a;" horiz-adv-x="1387" 
d="M794 1745h-269l172 337h335zM84 0l545 1212h-545v400h1219l-544 -1210h544v-402h-1219z" />
    <glyph glyph-name="Zdotaccent" unicode="&#x17b;" horiz-adv-x="1387" 
d="M694 1759q-70 0 -119.5 46t-49.5 111t50 113t119 48t119.5 -48t50.5 -112q0 -66 -50.5 -112t-119.5 -46zM84 0l545 1212h-545v400h1219l-544 -1210h544v-402h-1219z" />
    <glyph glyph-name="Zdotaccent" unicode="&#x17c;" horiz-adv-x="1387" 
d="M694 1759q-70 0 -119.5 46t-49.5 111t50 113t119 48t119.5 -48t50.5 -112q0 -66 -50.5 -112t-119.5 -46zM84 0l545 1212h-545v400h1219l-544 -1210h544v-402h-1219z" />
    <glyph glyph-name="Zcaron" unicode="&#x17d;" horiz-adv-x="1387" 
d="M261 2052h304l127 -130l127 130h307l-315 -293h-239zM84 0l545 1212h-545v400h1219l-544 -1210h544v-402h-1219z" />
    <glyph glyph-name="Zcaron" unicode="&#x17e;" horiz-adv-x="1387" 
d="M261 2052h304l127 -130l127 130h307l-315 -293h-239zM84 0l545 1212h-545v400h1219l-544 -1210h544v-402h-1219z" />
    <glyph glyph-name="uni018F" unicode="&#x18f;" horiz-adv-x="1864" 
d="M934 -12q-177 0 -336.5 63.5t-275.5 172.5t-184 262t-68 324q0 110 20 170h1261q-52 123 -166 198.5t-257 75.5q-152 0 -297 -92l-256 267q101 93 245.5 144t305.5 51q193 0 358.5 -68.5t275.5 -183t172 -262.5t62 -306q0 -169 -68 -321t-183 -260t-274 -171.5
t-335 -63.5zM932 357q134 0 251.5 76.5t167.5 196.5h-840q46 -113 162.5 -193t258.5 -80z" />
    <glyph glyph-name="uni018F" unicode="&#x259;" horiz-adv-x="1864" 
d="M934 -12q-177 0 -336.5 63.5t-275.5 172.5t-184 262t-68 324q0 110 20 170h1261q-52 123 -166 198.5t-257 75.5q-152 0 -297 -92l-256 267q101 93 245.5 144t305.5 51q193 0 358.5 -68.5t275.5 -183t172 -262.5t62 -306q0 -169 -68 -321t-183 -260t-274 -171.5
t-335 -63.5zM932 357q134 0 251.5 76.5t167.5 196.5h-840q46 -113 162.5 -193t258.5 -80z" />
    <glyph glyph-name="florin" unicode="&#x192;" horiz-adv-x="1366" 
d="M1177 1259q-41 0 -68 -4.5t-55.5 -19.5t-49 -43t-40.5 -75t-38 -116h325v-330h-394l-24 -118q-34 -161 -79 -264.5t-114.5 -167.5t-159.5 -89.5t-223 -25.5h-215v375h147q36 0 58 2.5t49.5 11.5t45.5 27.5t38 50.5t36.5 81t32.5 117h-329v330h397l17 83q34 166 80 271
t117.5 168t162 87t225.5 24h205v-375h-147z" />
    <glyph glyph-name="uni0218" unicode="&#x218;" horiz-adv-x="1308" 
d="M643 -22q-200 0 -363.5 81t-223.5 214l259 254q50 -74 137.5 -116.5t189.5 -42.5q74 0 127 26t53 73q0 20 -11.5 40t-38.5 40.5t-51 36.5t-69.5 38.5t-72.5 34.5t-80 36q-82 36 -146 77t-119 96.5t-84.5 129.5t-29.5 162q0 136 79 246.5t209.5 171t282.5 60.5
q181 0 317 -76.5t184 -198.5l-247 -238q-33 59 -107.5 90.5t-141.5 31.5q-65 0 -108 -29t-43 -71q0 -16 6.5 -29t21 -25t30.5 -21.5t44 -21t52.5 -21t63.5 -25t70 -28.5q419 -176 419 -498q0 -149 -85.5 -264t-223 -174.5t-300.5 -59.5zM596 -613q-44 0 -75.5 16t-31.5 30
q28 0 58 10.5t56 38t26 65.5q0 31 -12 46q-51 0 -93.5 39t-42.5 95q0 64 53.5 111.5t132.5 47.5q83 0 134 -57t51 -150q0 -114 -71.5 -203t-184.5 -89z" />
    <glyph glyph-name="uni0218" unicode="&#x219;" horiz-adv-x="1308" 
d="M643 -22q-200 0 -363.5 81t-223.5 214l259 254q50 -74 137.5 -116.5t189.5 -42.5q74 0 127 26t53 73q0 20 -11.5 40t-38.5 40.5t-51 36.5t-69.5 38.5t-72.5 34.5t-80 36q-82 36 -146 77t-119 96.5t-84.5 129.5t-29.5 162q0 136 79 246.5t209.5 171t282.5 60.5
q181 0 317 -76.5t184 -198.5l-247 -238q-33 59 -107.5 90.5t-141.5 31.5q-65 0 -108 -29t-43 -71q0 -16 6.5 -29t21 -25t30.5 -21.5t44 -21t52.5 -21t63.5 -25t70 -28.5q419 -176 419 -498q0 -149 -85.5 -264t-223 -174.5t-300.5 -59.5zM596 -613q-44 0 -75.5 16t-31.5 30
q28 0 58 10.5t56 38t26 65.5q0 31 -12 46q-51 0 -93.5 39t-42.5 95q0 64 53.5 111.5t132.5 47.5q83 0 134 -57t51 -150q0 -114 -71.5 -203t-184.5 -89z" />
    <glyph glyph-name="uni021A" unicode="&#x21a;" horiz-adv-x="1286" 
d="M1244 1612v-400h-386v-1212h-429v1212h-387v400h1202zM646 -114q83 0 134 -57t51 -150q0 -114 -71.5 -203t-184.5 -89q-44 0 -75.5 16t-31.5 30q28 0 58 10.5t56 38t26 65.5q0 31 -12 46q-51 0 -93.5 39t-42.5 95q0 64 53.5 111.5t132.5 47.5z" />
    <glyph glyph-name="uni021A" unicode="&#x21b;" horiz-adv-x="1286" 
d="M1244 1612v-400h-386v-1212h-429v1212h-387v400h1202zM646 -114q83 0 134 -57t51 -150q0 -114 -71.5 -203t-184.5 -89q-44 0 -75.5 16t-31.5 30q28 0 58 10.5t56 38t26 65.5q0 31 -12 46q-51 0 -93.5 39t-42.5 95q0 64 53.5 111.5t132.5 47.5z" />
    <glyph glyph-name="uni02BC" unicode="&#x2bc;" horiz-adv-x="477" 
d="M21 1095l75 555h360l-135 -555h-300z" />
    <glyph glyph-name="circumflex" unicode="&#x2c6;" horiz-adv-x="673" 
d="M-54 1347l311 293h239l315 -293h-307l-127 130l-127 -130h-304z" />
    <glyph glyph-name="caron" unicode="&#x2c7;" horiz-adv-x="673" 
d="M-55 1640h304l127 -130l127 130h307l-315 -293h-239z" />
    <glyph glyph-name="breve" unicode="&#x2d8;" horiz-adv-x="675" 
d="M342 1341q-138 0 -230 86.5t-92 214.5h192q0 -57 37.5 -95.5t92.5 -38.5q56 0 93.5 38.5t37.5 95.5h192q0 -128 -92.5 -214.5t-230.5 -86.5z" />
    <glyph glyph-name="dotaccent" unicode="&#x2d9;" horiz-adv-x="661" 
d="M331 1347q-70 0 -119.5 46t-49.5 111t50 113t119 48t119.5 -48t50.5 -112q0 -66 -50.5 -112t-119.5 -46z" />
    <glyph glyph-name="ring" unicode="&#x2da;" horiz-adv-x="648" 
d="M255 1295q-100 0 -171.5 68.5t-71.5 165.5q0 96 71.5 165t171.5 69q98 0 169.5 -69.5t71.5 -164.5t-71.5 -164.5t-169.5 -69.5zM255 1442q37 0 63 25t26 60q0 36 -26 61.5t-63 25.5t-63.5 -25.5t-26.5 -61.5q0 -35 26.5 -60t63.5 -25z" />
    <glyph glyph-name="ogonek" unicode="&#x2db;" horiz-adv-x="665" 
d="M558 -548q-104 -22 -193 -22q-155 0 -238 65.5t-83 183.5q0 125 87 223t215 132l193 -34q-108 -79 -152.5 -130.5t-44.5 -101.5q0 -28 14.5 -46.5t43.5 -18.5q43 0 119 19z" />
    <glyph glyph-name="tilde" unicode="&#x2dc;" horiz-adv-x="827" 
d="M200 1357l-195 60q29 143 110.5 205.5t181.5 62.5q56 0 106.5 -20t80 -44.5t63.5 -44.5t63 -20q68 0 99 124l194 -60q-12 -62 -36.5 -110t-53.5 -77t-65 -48t-69 -26t-68 -7q-57 0 -107 20.5t-79 44.5t-63 44.5t-63 20.5q-70 0 -99 -125z" />
    <glyph glyph-name="hungarumlaut" unicode="&#x2dd;" horiz-adv-x="681" 
d="M-15 1333l137 337h299l-196 -337h-240zM370 1333l208 337h335l-289 -337h-254z" />
    <glyph glyph-name="gravecomb" unicode="&#x300;" 
d="M-269 1333l-238 337h335l172 -337h-269z" />
    <glyph glyph-name="acutecomb" unicode="&#x301;" 
d="M-238 1333h-269l172 337h335z" />
    <glyph glyph-name="uni0302" unicode="&#x302;" 
d="M-810 1347l311 293h239l315 -293h-307l-127 130l-127 -130h-304z" />
    <glyph glyph-name="tildecomb" unicode="&#x303;" 
d="M-708 1357l-195 60q29 143 110.5 205.5t181.5 62.5q56 0 106.5 -20t80 -44.5t63.5 -44.5t63 -20q68 0 99 124l194 -60q-12 -62 -36.5 -110t-53.5 -77t-65 -48t-69 -26t-68 -7q-57 0 -107 20.5t-79 44.5t-63 44.5t-63 20.5q-70 0 -99 -125z" />
    <glyph glyph-name="uni0304" unicode="&#x304;" 
d="M-660 1389v201h655v-201h-655z" />
    <glyph glyph-name="uni0306" unicode="&#x306;" 
d="M-343 1341q-138 0 -230 86.5t-92 214.5h192q0 -57 37.5 -95.5t92.5 -38.5q56 0 93.5 38.5t37.5 95.5h192q0 -128 -92.5 -214.5t-230.5 -86.5z" />
    <glyph glyph-name="uni0307" unicode="&#x307;" 
d="M-330 1347q-70 0 -119.5 46t-49.5 111t50 113t119 48t119.5 -48t50.5 -112q0 -66 -50.5 -112t-119.5 -46z" />
    <glyph glyph-name="uni0308" unicode="&#x308;" 
d="M-589 1349q-61 0 -104.5 40.5t-43.5 96.5t44 97.5t104 41.5q59 0 102.5 -41.5t43.5 -97.5t-43.5 -96.5t-102.5 -40.5zM-108 1349q-60 0 -103 40.5t-43 96.5t43.5 97.5t102.5 41.5q60 0 104.5 -41.5t44.5 -97.5t-44 -96.5t-105 -40.5z" />
    <glyph glyph-name="uni030A" unicode="&#x30a;" 
d="M-253 1295q-100 0 -171.5 68.5t-71.5 165.5q0 96 71.5 165t171.5 69q98 0 169.5 -69.5t71.5 -164.5t-71.5 -164.5t-169.5 -69.5zM-253 1442q37 0 63 25t26 60q0 36 -26 61.5t-63 25.5t-63.5 -25.5t-26.5 -61.5q0 -35 26.5 -60t63.5 -25z" />
    <glyph glyph-name="uni030B" unicode="&#x30b;" 
d="M-868 1333l137 337h299l-196 -337h-240zM-483 1333l208 337h335l-289 -337h-254z" />
    <glyph glyph-name="uni030C" unicode="&#x30c;" 
d="M-810 1640h304l127 -130l127 130h307l-315 -293h-239z" />
    <glyph glyph-name="uni0312" unicode="&#x312;" 
d="M-307 1812q44 0 76 -16t32 -30q-47 0 -94 -29t-47 -85q0 -29 13 -46q51 0 93 -39t42 -95q0 -65 -53 -112t-132 -47q-83 0 -134 57t-51 150q0 114 71.5 203t183.5 89z" />
    <glyph glyph-name="uni0326" unicode="&#x326;" 
d="M-453 -618q-44 0 -75.5 16t-31.5 30q28 0 58 10.5t56 38t26 65.5q0 31 -12 46q-51 0 -93.5 39t-42.5 95q0 64 53.5 111.5t132.5 47.5q83 0 134 -57t51 -150q0 -114 -71.5 -203t-184.5 -89z" />
    <glyph glyph-name="uni0327" unicode="&#x327;" 
d="M-514 -574l-99 231q137 -1 201.5 20.5t64.5 56.5q0 17 -14 31.5t-49 14.5q-21 0 -49 -7l-47 60l168 209h190l-108 -129q4 0 12 0.5t12 0.5q68 0 114 -49t46 -121q0 -126 -131.5 -222.5t-310.5 -95.5z" />
    <glyph glyph-name="uni0328" unicode="&#x328;" 
d="M-107 -548q-104 -22 -193 -22q-155 0 -238 65.5t-83 183.5q0 125 87 223t215 132l193 -34q-108 -79 -152.5 -130.5t-44.5 -101.5q0 -28 14.5 -46.5t43.5 -18.5q43 0 119 19z" />
    <glyph glyph-name="uni0335" unicode="&#x335;" 
d="M-891 628v230h876v-230h-876z" />
    <glyph glyph-name="uni0336" unicode="&#x336;" 
d="M-1151 628v230h1577v-230h-1577z" />
    <glyph glyph-name="uni0337" unicode="&#x337;" 
d="M-714 891v310l761 511v-311z" />
    <glyph glyph-name="uni0338" unicode="&#x338;" 
d="M-1222 -112l962 1405h273l-960 -1405h-275z" />
    <glyph glyph-name="uni0E3F" unicode="&#xe3f;" horiz-adv-x="1387" 
d="M1000 908q64 0 129.5 -31.5t117.5 -85t85 -132.5t33 -167q0 -95 -39 -184t-107.5 -157.5t-170.5 -109.5t-220 -41h-22v-225h-334v225h-332v1612h332v226h334v-241q164 -37 267 -150.5t103 -253.5q0 -115 -60 -200t-116 -85zM552 1240v-253h102q72 0 117.5 34t45.5 95
q0 57 -44.5 90.5t-115.5 33.5h-105zM763 389q80 0 136 39.5t56 114.5q0 71 -49.5 111t-139.5 40l-214 1v-306h211z" />
    <glyph glyph-name="Wgrave" unicode="&#x1e80;" horiz-adv-x="2105" 
d="M1038 1745l-238 337h335l172 -337h-269zM560 -10l-539 1622h463l223 -738l330 735h32l330 -733l222 736h463l-538 -1622h-118l-377 797l-374 -797h-117z" />
    <glyph glyph-name="Wgrave" unicode="&#x1e81;" horiz-adv-x="2105" 
d="M1038 1745l-238 337h335l172 -337h-269zM560 -10l-539 1622h463l223 -738l330 735h32l330 -733l222 736h463l-538 -1622h-118l-377 797l-374 -797h-117z" />
    <glyph glyph-name="Wacute" unicode="&#x1e82;" horiz-adv-x="2105" 
d="M1153 1745h-269l172 337h335zM560 -10l-539 1622h463l223 -738l330 735h32l330 -733l222 736h463l-538 -1622h-118l-377 797l-374 -797h-117z" />
    <glyph glyph-name="Wacute" unicode="&#x1e83;" horiz-adv-x="2105" 
d="M1153 1745h-269l172 337h335zM560 -10l-539 1622h463l223 -738l330 735h32l330 -733l222 736h463l-538 -1622h-118l-377 797l-374 -797h-117z" />
    <glyph glyph-name="Wdieresis" unicode="&#x1e84;" horiz-adv-x="2105" 
d="M813 1761q-61 0 -104.5 40.5t-43.5 96.5t44 97.5t104 41.5q59 0 102.5 -41.5t43.5 -97.5t-43.5 -96.5t-102.5 -40.5zM1294 1761q-60 0 -103 40.5t-43 96.5t43.5 97.5t102.5 41.5q60 0 104 -41.5t44 -97.5t-43.5 -96.5t-104.5 -40.5zM560 -10l-539 1622h463l223 -738
l330 735h32l330 -733l222 736h463l-538 -1622h-118l-377 797l-374 -797h-117z" />
    <glyph glyph-name="Wdieresis" unicode="&#x1e85;" horiz-adv-x="2105" 
d="M813 1761q-61 0 -104.5 40.5t-43.5 96.5t44 97.5t104 41.5q59 0 102.5 -41.5t43.5 -97.5t-43.5 -96.5t-102.5 -40.5zM1294 1761q-60 0 -103 40.5t-43 96.5t43.5 97.5t102.5 41.5q60 0 104 -41.5t44 -97.5t-43.5 -96.5t-104.5 -40.5zM560 -10l-539 1622h463l223 -738
l330 735h32l330 -733l222 736h463l-538 -1622h-118l-377 797l-374 -797h-117z" />
    <glyph glyph-name="Ygrave" unicode="&#x1ef2;" horiz-adv-x="1462" 
d="M716 1745l-238 337h335l172 -337h-269zM518 0v696l-497 916h485l225 -467l224 467h486l-498 -916v-696h-425z" />
    <glyph glyph-name="Ygrave" unicode="&#x1ef3;" horiz-adv-x="1462" 
d="M716 1745l-238 337h335l172 -337h-269zM518 0v696l-497 916h485l225 -467l224 467h486l-498 -916v-696h-425z" />
    <glyph glyph-name="uni2000" unicode="&#x2000;" horiz-adv-x="1101" 
 />
    <glyph glyph-name="uni2001" unicode="&#x2001;" horiz-adv-x="2202" 
 />
    <glyph glyph-name="uni2002" unicode="&#x2002;" horiz-adv-x="1101" 
 />
    <glyph glyph-name="uni2003" unicode="&#x2003;" horiz-adv-x="2202" 
 />
    <glyph glyph-name="uni2004" unicode="&#x2004;" horiz-adv-x="734" 
 />
    <glyph glyph-name="uni2005" unicode="&#x2005;" horiz-adv-x="551" 
 />
    <glyph glyph-name="uni2006" unicode="&#x2006;" horiz-adv-x="367" 
 />
    <glyph glyph-name="uni2007" unicode="&#x2007;" horiz-adv-x="1565" 
 />
    <glyph glyph-name="uni2008" unicode="&#x2008;" horiz-adv-x="739" 
 />
    <glyph glyph-name="uni2009" unicode="&#x2009;" horiz-adv-x="441" 
 />
    <glyph glyph-name="uni200A" unicode="&#x200a;" horiz-adv-x="315" 
 />
    <glyph glyph-name="uni200B" unicode="&#x200b;" 
 />
    <glyph glyph-name="uni200C" unicode="&#x200c;" 
 />
    <glyph glyph-name="uni200D" unicode="&#x200d;" 
 />
    <glyph glyph-name="figuredash" unicode="&#x2012;" horiz-adv-x="1108" 
d="M70 615v351h968v-351h-968z" />
    <glyph glyph-name="endash" unicode="&#x2013;" horiz-adv-x="1543" 
d="M75 615v351h1393v-351h-1393z" />
    <glyph glyph-name="emdash" unicode="&#x2014;" horiz-adv-x="2048" 
d="M65 615v351h1918v-351h-1918z" />
    <glyph glyph-name="quoteleft" unicode="&#x2018;" horiz-adv-x="647" 
d="M408 1643q62 0 106.5 -24t44.5 -46q-20 0 -43 -5.5t-47.5 -18.5t-44 -31.5t-32 -47.5t-12.5 -64q0 -43 15 -69q69 0 125 -59t56 -144q0 -98 -72.5 -169t-181.5 -71q-116 0 -184 85t-68 227q0 81 23 158.5t65 140t107.5 100.5t142.5 38z" />
    <glyph glyph-name="quoteright" unicode="&#x2019;" horiz-adv-x="647" 
d="M239 912q-61 0 -106 24t-45 46q36 0 75 15.5t71.5 56t32.5 96.5q0 43 -16 68q-69 0 -125 59.5t-56 144.5q0 97 73 168t182 71q115 0 183.5 -85t68.5 -227q0 -110 -39 -208t-118 -163.5t-181 -65.5z" />
    <glyph glyph-name="quotesinglbase" unicode="&#x201a;" horiz-adv-x="647" 
d="M239 -317q-62 0 -106.5 24t-44.5 46q60 0 119.5 43t59.5 124q0 44 -16 69q-69 0 -125 59t-56 144q0 98 73 169t182 71q115 0 183.5 -85t68.5 -227q0 -110 -39 -208t-118 -163.5t-181 -65.5z" />
    <glyph glyph-name="quotereversed" unicode="&#x201b;" horiz-adv-x="647" 
d="M408 916q-77 0 -142.5 38t-107.5 100.5t-65 140t-23 158.5q0 142 68 227t184 85q109 0 181.5 -71t72.5 -168q0 -85 -56 -144.5t-125 -59.5q-15 -26 -15 -68q0 -57 32.5 -97t71.5 -55.5t75 -15.5q0 -22 -45 -46t-106 -24z" />
    <glyph glyph-name="quotedblleft" unicode="&#x201c;" horiz-adv-x="1248" 
d="M408 1643q62 0 106.5 -24t44.5 -46q-20 0 -43 -5.5t-47.5 -18.5t-44 -31.5t-32 -47.5t-12.5 -64q0 -43 15 -69q69 0 125 -59t56 -144q0 -98 -72.5 -169t-181.5 -71q-116 0 -184 85t-68 227q0 81 23 158.5t65 140t107.5 100.5t142.5 38zM1009 1643q62 0 106.5 -24
t44.5 -46q-20 0 -43 -5.5t-47.5 -18.5t-44 -31.5t-32 -47.5t-12.5 -64q0 -43 15 -69q69 0 125 -59t56 -144q0 -98 -72.5 -169t-181.5 -71q-116 0 -184 85t-68 227q0 81 23 158.5t65 140t107.5 100.5t142.5 38z" />
    <glyph glyph-name="quotedblright" unicode="&#x201d;" horiz-adv-x="1248" 
d="M239 902q-61 0 -106 24t-45 46q36 0 75 15.5t71.5 56t32.5 96.5q0 43 -16 68q-69 0 -125 59.5t-56 144.5q0 97 73 168t182 71q115 0 183.5 -85t68.5 -227q0 -110 -39 -208t-118 -163.5t-181 -65.5zM840 902q-61 0 -106 24t-45 46q36 0 75 15.5t71.5 56t32.5 96.5
q0 43 -16 68q-69 0 -125 59.5t-56 144.5q0 97 73 168t182 71q115 0 183.5 -85t68.5 -227q0 -110 -39 -208t-118 -163.5t-181 -65.5z" />
    <glyph glyph-name="quotedblbase" unicode="&#x201e;" horiz-adv-x="1248" 
d="M239 -320q-62 0 -106.5 24t-44.5 46q60 0 119.5 43t59.5 124q0 44 -16 69q-69 0 -125 59t-56 144q0 98 73 169t182 71q115 0 183.5 -85t68.5 -227q0 -110 -39 -208t-118 -163.5t-181 -65.5zM840 -320q-62 0 -106.5 24t-44.5 46q60 0 119.5 43t59.5 124q0 44 -16 69
q-69 0 -125 59t-56 144q0 98 73 169t182 71q115 0 183.5 -85t68.5 -227q0 -110 -39 -208t-118 -163.5t-181 -65.5z" />
    <glyph glyph-name="dagger" unicode="&#x2020;" horiz-adv-x="731" 
d="M710 1426v-197h-227v-1229h-234v1229h-228v197h228v224h234v-224h227z" />
    <glyph glyph-name="daggerdbl" unicode="&#x2021;" horiz-adv-x="733" 
d="M712 1229h-227v-812h225v-198h-225v-219h-234v219h-230v198h230v812h-228v197h228v224h234v-224h227v-197z" />
    <glyph glyph-name="bullet" unicode="&#x2022;" horiz-adv-x="1225" 
d="M611 406q-176 0 -293.5 109.5t-117.5 273.5q0 166 118 276.5t295 110.5t294.5 -110t117.5 -276q0 -164 -118 -274t-296 -110z" />
    <glyph glyph-name="twodotenleader" unicode="&#x2025;" horiz-adv-x="1653" 
d="M465 -57q-110 0 -187.5 73t-77.5 176q0 101 78.5 174.5t186.5 73.5q107 0 185.5 -73.5t78.5 -174.5q0 -102 -78 -175.5t-186 -73.5zM1188 -57q-109 0 -186.5 73t-77.5 176q0 101 78 174.5t186 73.5q107 0 186 -74t79 -174q0 -102 -78 -175.5t-187 -73.5z" />
    <glyph glyph-name="ellipsis" unicode="&#x2026;" horiz-adv-x="2551" 
d="M465 -57q-110 0 -187.5 73t-77.5 176q0 101 78.5 174.5t186.5 73.5q107 0 185.5 -73.5t78.5 -174.5q0 -102 -78 -175.5t-186 -73.5zM1286 -57q-109 0 -186.5 73t-77.5 176q0 101 78 174.5t186 73.5q107 0 186 -74t79 -174q0 -102 -78 -175.5t-187 -73.5zM2087 -57
q-110 0 -187.5 73t-77.5 176q0 101 78.5 174.5t186.5 73.5q107 0 185.5 -73.5t78.5 -174.5q0 -102 -78 -175.5t-186 -73.5z" />
    <glyph glyph-name="uni202F" unicode="&#x202f;" horiz-adv-x="516" 
 />
    <glyph glyph-name="perthousand" unicode="&#x2030;" horiz-adv-x="2751" 
d="M476 877q-167 0 -286.5 110.5t-119.5 265.5q0 156 120 267t287 111t286 -111t119 -266t-119.5 -266t-286.5 -111zM211 0l1107 1613h347l-1106 -1613h-348zM476 1127q58 0 98.5 37t40.5 89t-41 89.5t-99 37.5t-99.5 -37t-41.5 -90t41.5 -89.5t100.5 -36.5zM1412 -20
q-167 0 -286.5 111t-119.5 266q0 156 119.5 266.5t287.5 110.5q167 0 286 -110.5t119 -265.5t-119.5 -266.5t-286.5 -111.5zM2275 -20q-166 0 -285.5 111t-119.5 266q0 156 119.5 266.5t286.5 110.5t286 -110.5t119 -265.5t-119.5 -266.5t-286.5 -111.5zM1412 230
q58 0 98.5 37t40.5 90q0 52 -41 89t-99 37t-99.5 -37t-41.5 -89q0 -53 41.5 -90t100.5 -37zM2275 230q58 0 98.5 37t40.5 90q0 52 -40.5 89t-98.5 37t-99.5 -37t-41.5 -89q0 -53 41.5 -90t99.5 -37z" />
    <glyph glyph-name="guilsinglleft" unicode="&#x2039;" horiz-adv-x="802" 
d="M732 1277l-288 -487l288 -486l-266 -51l-396 537l396 538z" />
    <glyph glyph-name="guilsinglright" unicode="&#x203a;" horiz-adv-x="802" 
d="M337 1328l395 -538l-395 -537l-267 51l288 486l-288 487z" />
    <glyph glyph-name="uni205F" unicode="&#x205f;" horiz-adv-x="9907" 
 />
    <glyph glyph-name="franc" unicode="&#x20a3;" horiz-adv-x="1227" 
d="M1185 1214h-622v-261h512v-358h-512v-125h353v-270h-353v-202h-423v202h-130v270h130v1146h1045v-402z" />
    <glyph glyph-name="lira" unicode="&#x20a4;" horiz-adv-x="1275" 
d="M619 362h586v-362h-1135v362h119q45 87 51 178h-163v199h136q-3 11 -10.5 36t-11.5 39h-114v200h78v20q0 164 75 299t214 215t314 80q129 0 247.5 -59t187.5 -166l-248 -208q-39 70 -131 70q-109 0 -167.5 -75.5t-61.5 -175.5h316v-200h-285q3 -13 11 -38t11 -37h263
v-199h-234q-3 -95 -48 -178z" />
    <glyph glyph-name="uni20A6" unicode="&#x20a6;" horiz-adv-x="1733" 
d="M1723 971v-330h-160v-657h-136l-829 803v-788h-428v642h-160v330h160v657h138l826 -800v786h429v-643h160z" />
    <glyph glyph-name="uni20A8" unicode="&#x20a8;" horiz-adv-x="1415" 
d="M1131 1296q30 -58 44 -118h165l-40 -230h-119q-26 -152 -120.5 -258.5t-199.5 -128.5q-36 -10 -89 -8l515 -555h-501l-626 738v66l384 -1q69 0 124.5 40.5t80.5 106.5h-604l40 230h546q-31 54 -80 86t-107 32h-404l55 316h1155l-55 -316h-164z" />
    <glyph glyph-name="uni20A9" unicode="&#x20a9;" horiz-adv-x="2114" 
d="M2084 1612l-213 -641h213v-330h-322l-216 -651h-118l-377 797l-374 -797h-117l-216 651h-314v330h204l-213 641h463l223 -738l330 735h32l330 -733l222 736h463z" />
    <glyph glyph-name="Euro" unicode="&#x20ac;" horiz-adv-x="1772" 
d="M1098 369q184 0 360 157l244 -325q-261 -237 -604 -237q-193 0 -367.5 75t-304 217t-179.5 328h-177l19 191h130q-1 10 -1 31q0 26 1 39h-149l19 191h160q77 273 312 443.5t545 170.5q156 -2 314 -67t282 -177l-246 -316q-75 69 -168 109t-181 40q-119 0 -221.5 -55
t-164.5 -148h589l-18 -191h-638q-2 -28 -2 -42q0 -19 1 -28h628l-18 -191h-549q60 -98 164 -156.5t220 -58.5z" />
    <glyph glyph-name="uni20AD" unicode="&#x20ad;" horiz-adv-x="1508" 
d="M1494 0h-519l-408 613v-613h-427v641h-130v330h130v641h427v-601l374 601h492l-403 -641h351v-330h-318z" />
    <glyph glyph-name="uni20AE" unicode="&#x20ae;" horiz-adv-x="1286" 
d="M1244 1212h-386v-163l220 103v-244l-220 -102v-97l220 103v-244l-220 -103v-465h-429v265l-219 -102v243l219 102v98l-219 -102v243l219 102v363h-387v400h1202v-400z" />
    <glyph glyph-name="uni20B1" unicode="&#x20b1;" horiz-adv-x="1653" 
d="M1611 1328v-260h-168v-21q0 -19 -1 -29h169v-260h-252q-81 -129 -220.5 -206t-304.5 -77h-181v-475h-428v758h-183v260h183v50h-183v260h183v284h609q166 0 307 -77.5t221 -206.5h249zM834 869q85 -1 140.5 50t55.5 126q0 74 -55.5 123t-140.5 49h-181v-347z" />
    <glyph glyph-name="uni20B8" unicode="&#x20b8;" horiz-adv-x="1286" 
d="M42 1612h1202v-351h-1202v351zM1244 1167v-352h-390l4 -815h-429l-4 815h-383v352h1202z" />
    <glyph glyph-name="uni20BD" unicode="&#x20bd;" horiz-adv-x="1564" 
d="M889 545h-185v-99h407v-270h-407v-176h-428v176h-206v270h206v109h-206v305h206v752h628q162 0 297.5 -69.5t214 -191.5t78.5 -269q0 -152 -81.5 -276t-219.5 -192.5t-304 -68.5zM704 1217v-297l180 -1q95 -1 146 40.5t51 110.5q0 59 -52.5 103t-144.5 44h-180z" />
    <glyph glyph-name="uni20BF" unicode="&#x20bf;" horiz-adv-x="1387" 
d="M1365 492q0 -115 -54 -218t-156.5 -175.5t-233.5 -91.5v-232h-229v225h-96v-225h-229v225h-227v1612h222v226h229v-226h79h17v226h229v-278q120 -55 190 -154t70 -213q0 -115 -60 -200t-116 -85q64 0 129.5 -31.5t117.5 -85t85 -132.5t33 -167zM817 1116q0 57 -44.5 90.5
t-115.5 33.5h-105v-253h102q72 0 117.5 34t45.5 95zM763 389q80 0 136 39.5t56 114.5q0 71 -49.5 111t-139.5 40l-214 1v-306h211z" />
    <glyph glyph-name="trademark" unicode="&#x2122;" horiz-adv-x="1364" 
d="M1258 1618h73v-690h-182v270l-184 -259h-1l-185 260v-271h-181v690h73l294 -402zM51 1442v170h510v-170h-164v-514h-182v514h-164z" />
    <glyph glyph-name="estimated" unicode="&#x212e;" horiz-adv-x="1942" 
d="M1001 -32q-144 0 -282.5 40.5t-255 117t-205 178t-138.5 230.5t-50 268q0 171 75.5 326t202.5 266t299.5 176.5t359.5 65.5q180 0 341.5 -61t276 -164.5t181 -244t66.5 -295.5q0 -69 -8 -127h-1496v-396q130 -131 296 -196t335 -65q115 0 227.5 29.5t198.5 77t149.5 106
t91.5 119.5h124q-36 -81 -108 -159.5t-171.5 -144.5t-233 -106.5t-276.5 -40.5zM368 856h1226v424q-237 237 -587 237q-184 0 -347.5 -66t-291.5 -192v-403z" />
    <glyph glyph-name="arrowleft" unicode="&#x2190;" horiz-adv-x="2148" 
d="M1973 956v-365h-1214l279 -275l-192 -192l-671 649l671 650l192 -193l-279 -274h1214z" />
    <glyph glyph-name="arrowup" unicode="&#x2191;" horiz-adv-x="2148" 
d="M1724 1002l-193 -193l-274 279v-1214h-365v1215l-275 -280l-192 193l649 670z" />
    <glyph glyph-name="arrowright" unicode="&#x2192;" horiz-adv-x="2148" 
d="M1303 1423l670 -650l-670 -649l-193 192l280 275h-1215v365h1214l-279 274z" />
    <glyph glyph-name="arrowdown" unicode="&#x2193;" horiz-adv-x="2148" 
d="M1531 737l193 -192l-650 -671l-649 671l192 192l275 -279v1214h365v-1214z" />
    <glyph glyph-name="arrowboth" unicode="&#x2194;" horiz-adv-x="2148" 
d="M1413 1423l670 -650l-670 -649l-193 192l279 275h-850l279 -275l-192 -192l-671 649l671 650l192 -193l-279 -274h850l-279 274z" />
    <glyph glyph-name="arrowupdn" unicode="&#x2195;" horiz-adv-x="2148" 
d="M1724 435l-650 -671l-649 671l192 192l275 -279v850l-275 -279l-192 193l649 670l650 -670l-193 -193l-274 279v-850l274 279z" />
    <glyph glyph-name="uni2196" unicode="&#x2196;" horiz-adv-x="2148" 
d="M1799 267l-258 -259l-859 859l3 -392h-272l-15 934l934 -15v-272l-392 3z" />
    <glyph glyph-name="uni2197" unicode="&#x2197;" horiz-adv-x="2148" 
d="M841 1404l933 15l-14 -933h-273l3 391l-858 -858l-258 258l858 858l-391 -3v272z" />
    <glyph glyph-name="uni2198" unicode="&#x2198;" horiz-adv-x="2148" 
d="M841 125v273l391 -3l-858 858l258 258l858 -858l-3 391h272l15 -933z" />
    <glyph glyph-name="uni2199" unicode="&#x2199;" horiz-adv-x="2148" 
d="M1799 1280l-858 -859l391 3v-272l-933 -15l14 934h273l-3 -391l858 858z" />
    <glyph glyph-name="partialdiff" unicode="&#x2202;" horiz-adv-x="1378" 
d="M661 -40q-134 0 -247 43.5t-189 119t-118 177t-42 216.5q0 155 70 281t191.5 197t268.5 71q122 0 218.5 -49t139.5 -138q-28 182 -150.5 307.5t-342.5 215.5l315 225q105 -38 199.5 -117.5t171 -195t122 -276t45.5 -342.5q0 -224 -82 -391t-229.5 -255.5t-340.5 -88.5z
M689 307q94 0 155 60.5t61 150.5q0 91 -62.5 153.5t-155.5 62.5q-92 0 -157.5 -61t-65.5 -153q0 -91 65 -152t160 -61z" />
    <glyph glyph-name="emptyset" unicode="&#x2205;" horiz-adv-x="1592" 
d="M1268 1265q112 -93 175.5 -220.5t63.5 -270.5q0 -134 -56.5 -256.5t-151.5 -211t-226 -141t-274 -52.5q-145 0 -277 53l-119 -176h-313l213 314q-99 91 -154.5 211.5t-55.5 254.5q0 178 95 330.5t257.5 241t353.5 88.5q125 0 242 -40l144 213h312zM391 770
q0 -120 79 -220l399 587q-34 6 -70 6q-169 0 -288.5 -109.5t-119.5 -263.5zM799 399q167 0 286 109t119 262q0 142 -103 248l-411 -605q53 -14 109 -14z" />
    <glyph glyph-name="product" unicode="&#x220f;" horiz-adv-x="1554" 
d="M1512 1950v-357h-204v-1843h-398v1843h-253v-1843h-398v1843h-217v357h1470z" />
    <glyph glyph-name="summation" unicode="&#x2211;" horiz-adv-x="1572" 
d="M1474 1925v-357h-787l458 -741v-3l-458 -742l786 -1v-356l-1452 1v21l672 1079l-672 1078v21h1453z" />
    <glyph glyph-name="minus" unicode="&#x2212;" horiz-adv-x="1332" 
d="M140 616v360h1052v-360h-1052z" />
    <glyph glyph-name="radical" unicode="&#x221a;" horiz-adv-x="1216" 
d="M1716 2203v-357h-424l-717 -1921h-23l-531 1384h383l155 -483l491 1377h666z" />
    <glyph glyph-name="infinity" unicode="&#x221e;" horiz-adv-x="2539" 
d="M1858 1412q165 0 305.5 -79.5t223 -218.5t82.5 -304q0 -166 -82.5 -304.5t-223 -218t-305.5 -79.5q-170 0 -323 74.5t-266 205.5q-112 -131 -265.5 -205.5t-323.5 -74.5q-164 0 -304.5 79.5t-223 218t-82.5 304.5q0 165 82.5 304t223 218.5t304.5 79.5q170 0 323.5 -75
t265.5 -205q113 130 266.5 205t322.5 75zM684 549q117 0 222.5 73t189.5 188q-84 116 -189.5 188.5t-222.5 72.5q-102 0 -179 -77t-77 -184t78 -184t178 -77zM1855 549q100 0 178 77t78 184t-77 184t-179 77q-118 0 -223.5 -73t-188.5 -188q84 -115 189.5 -188t222.5 -73z
" />
    <glyph glyph-name="integral" unicode="&#x222b;" horiz-adv-x="1236" 
d="M42 -300v345h97q87 0 142.5 49.5t66.5 121.5l201 1336q52 348 470 348h175v-344h-97q-86 0 -141 -49.5t-66 -122.5l-201 -1336q-52 -348 -472 -348h-175z" />
    <glyph glyph-name="approxequal" unicode="&#x2248;" horiz-adv-x="1448" 
d="M393 849l-252 78q16 78 46.5 139.5t67.5 100t83.5 63.5t90.5 35t91 10q73 0 138.5 -26.5t103.5 -57.5t83 -57.5t82 -26.5q50 0 79.5 43t48.5 119l253 -78q-16 -80 -47.5 -143t-69.5 -101t-84.5 -62.5t-90 -33.5t-88.5 -9q-60 0 -113.5 17.5t-91 42t-70.5 49.5t-66.5 42.5
t-64.5 17.5q-51 0 -80.5 -42.5t-48.5 -119.5zM393 293l-253 78q16 78 46.5 140t67.5 100.5t83.5 63.5t90.5 35t91 10q60 0 114 -17.5t91.5 -42t70.5 -49.5t66.5 -42.5t64.5 -17.5q50 0 80 43t49 119l252 -78q-16 -80 -47.5 -142.5t-69.5 -100.5t-84.5 -62.5t-90 -33.5
t-88.5 -9q-74 0 -138.5 26.5t-102.5 57.5t-82 57.5t-82 26.5q-51 0 -81 -43t-48 -119z" />
    <glyph glyph-name="notequal" unicode="&#x2260;" horiz-adv-x="1354" 
d="M1214 889h-360l-73 -213h433v-332h-547l-107 -312h-245l107 312h-282v332h396l73 213h-469v333h583l113 330h245l-113 -330h246v-333z" />
    <glyph glyph-name="lessequal" unicode="&#x2264;" horiz-adv-x="1352" 
d="M1198 517l-1033 512v16l1047 513l-14 -335l-422 -186l422 -185v-335zM140 85v270h1056v-270h-1056z" />
    <glyph glyph-name="greaterequal" unicode="&#x2265;" horiz-adv-x="1352" 
d="M154 517v335l422 185l-422 186l-14 335l1048 -513v-16zM1212 85h-1056v270h1056v-270z" />
    <glyph glyph-name="lozenge" unicode="&#x25ca;" horiz-adv-x="1303" 
d="M649 1551l454 -772l-454 -771l-449 771zM649 469l178 310l-178 311l-174 -311z" />
    <glyph glyph-name="uni3000" unicode="&#x3000;" horiz-adv-x="2202" 
 />
    <glyph glyph-name="Q.ss04" horiz-adv-x="1963" 
d="M1893 0h-462l-54 56q-196 -97 -423 -97q-185 0 -349 65t-281.5 177t-185.5 269t-68 334q0 179 68.5 337t186 270.5t281.5 178t349 65.5t349 -65.5t281.5 -178t186 -270.5t68.5 -337q0 -313 -199 -544zM955 368q56 0 107 12l-334 344h462l149 -153q68 106 68 236
q0 187 -130 314t-322 127t-322 -127t-130 -314q0 -186 130 -312.5t322 -126.5z" />
    <glyph glyph-name="R.ss04" horiz-adv-x="1472" 
d="M1458 0h-451l-241 526h-194l-3 -526h-428l-1 1612h632q172 0 312 -75.5t217 -201.5t77 -274q0 -138 -68.5 -258.5t-180.5 -194.5zM568 874l192 -2q77 -1 134.5 50t57.5 129q0 77 -56.5 126.5t-135.5 49.5h-192v-353z" />
    <glyph glyph-name="i.loclTRK" horiz-adv-x="708" 
d="M355 1759q-70 0 -119.5 46t-49.5 111t50 113t119 48t119.5 -48t50.5 -112q0 -66 -50.5 -112t-119.5 -46zM140 0v1612h428v-1612h-428z" />
    <glyph glyph-name="zero.lf" horiz-adv-x="1490" 
d="M786 -33q-216 0 -378.5 104t-250 294t-87.5 441q0 252 87.5 442t250 294t378.5 104q214 0 375 -104t247.5 -294t86.5 -441q0 -252 -86.5 -442t-247.5 -294t-375 -104zM783 375q130 0 206.5 117.5t76.5 312.5q0 197 -77 316t-207 119q-131 0 -208 -118.5t-77 -314.5
q0 -195 77.5 -313.5t208.5 -118.5z" />
    <glyph glyph-name="zero.tf" horiz-adv-x="1543" 
d="M800 -33q-216 0 -378.5 104t-249.5 294t-87 441q0 252 87 442t249.5 294t378.5 104q214 0 375.5 -104t248 -294t86.5 -441q0 -252 -86.5 -442t-248 -294t-375.5 -104zM797 375q130 0 206.5 117.5t76.5 312.5q0 197 -76.5 316t-206.5 119q-131 0 -208 -118.5t-77 -314.5
q0 -195 77 -313.5t208 -118.5z" />
    <glyph glyph-name="one.lf" horiz-adv-x="755" 
d="M530 1622h125v-1622h-428v1118l-157 -38v421z" />
    <glyph glyph-name="one.tf" horiz-adv-x="1543" 
d="M976 375h290v-375h-1004v375h286v743l-157 -38v421l459 121h126v-1247z" />
    <glyph glyph-name="two.lf" horiz-adv-x="1386" 
d="M852 393h511v-393h-1293v155q480 402 662 590t182 296q0 82 -55.5 141.5t-135.5 59.5q-107 0 -187.5 -77.5t-80.5 -185.5l-348 115q0 144 82 271t225 204t310 77q126 0 241 -47.5t198 -127t132 -188t49 -225.5q0 -189 -140.5 -368.5t-351.5 -296.5z" />
    <glyph glyph-name="two.tf" horiz-adv-x="1543" 
d="M910 393h510v-393h-1292v155q481 403 662.5 590.5t181.5 295.5q0 82 -56 141.5t-136 59.5q-107 0 -187.5 -77.5t-80.5 -185.5l-347 115q0 144 81.5 271t224.5 204t310 77q126 0 241 -47.5t198 -127t132 -188t49 -225.5q0 -96 -39.5 -194t-107.5 -183t-155.5 -158.5
t-188.5 -129.5z" />
    <glyph glyph-name="three.lf" horiz-adv-x="1276" 
d="M968 918q121 -50 197 -162t76 -259q0 -150 -80.5 -270.5t-214 -186t-290.5 -65.5q-222 0 -389.5 134t-196.5 320l356 85q21 -65 80 -102t126 -37q78 0 127 49.5t49 126.5q0 103 -95.5 174.5t-270.5 72.5l49 190q112 0 178.5 50t66.5 123q0 53 -33.5 87.5t-84.5 34.5
q-44 0 -80 -27.5t-54 -77.5l-356 78q44 180 183 293.5t336 113.5q139 0 254.5 -56t182.5 -155.5t67 -221.5q0 -102 -49.5 -187.5t-133.5 -124.5z" />
    <glyph glyph-name="three.tf" horiz-adv-x="1543" 
d="M1089 918q121 -50 197 -162t76 -259q0 -150 -80.5 -270.5t-214 -186t-290.5 -65.5q-222 0 -389.5 134t-196.5 320l356 85q21 -65 80 -102t126 -37q78 0 127 49.5t49 126.5q0 103 -95.5 174.5t-270.5 72.5l49 190q112 0 178.5 50t66.5 123q0 53 -33.5 87.5t-84.5 34.5
q-44 0 -80 -27.5t-54 -77.5l-356 78q44 180 183 293.5t336 113.5q139 0 254.5 -56t182.5 -155.5t67 -221.5q0 -102 -49.5 -187.5t-133.5 -124.5z" />
    <glyph glyph-name="four.lf" horiz-adv-x="1525" 
d="M1464 664v-383h-157v-281h-427v281h-859l544 1340l432 -2l-379 -955h262v352h427v-352h157z" />
    <glyph glyph-name="four.tf" horiz-adv-x="1543" 
d="M1464 664v-383h-157v-281h-427v281h-859l544 1340l432 -2l-379 -955h262v352h427v-352h157z" />
    <glyph glyph-name="five.lf" horiz-adv-x="1320" 
d="M768 1104q238 0 387 -156.5t149 -391.5q0 -171 -83 -304.5t-226.5 -205t-322.5 -71.5q-124 0 -235 37t-208 119.5t-159 204.5l349 154q98 -122 225 -122q92 0 153.5 51.5t61.5 147.5q0 93 -61.5 141t-162.5 48q-80 0 -164 -27.5t-129 -73.5l-193 105l125 853h884v-382
h-583l-26 -175q91 48 219 48z" />
    <glyph glyph-name="five.tf" horiz-adv-x="1543" 
d="M856 1104q238 0 387 -156.5t149 -391.5q0 -171 -83 -304.5t-226.5 -205t-322.5 -71.5q-124 0 -235 37t-208 119.5t-159 204.5l349 154q98 -122 225 -122q92 0 153.5 51.5t61.5 147.5q0 93 -61.5 141t-162.5 48q-80 0 -164 -27.5t-129 -73.5l-193 105l125 853h884v-382
h-583l-26 -175q91 48 219 48z" />
    <glyph glyph-name="six.lf" horiz-adv-x="1339" 
d="M789 1030q131 0 245.5 -64t184.5 -179.5t70 -255.5q0 -149 -78.5 -277.5t-220.5 -206.5t-315 -78q-124 0 -232.5 35t-192 102.5t-132 175t-48.5 243.5q0 60 14.5 118.5t65.5 174.5t160.5 309.5t288.5 484.5l488 -2l-355 -584q25 4 57 4zM681 361q76 0 130 52.5t54 130.5
q0 79 -53.5 133t-129.5 54q-76 -1 -129 -54.5t-53 -133.5q0 -79 52.5 -130.5t128.5 -51.5z" />
    <glyph glyph-name="six.tf" horiz-adv-x="1543" 
d="M875 1030q131 0 245.5 -64t184.5 -179.5t70 -255.5q0 -149 -78.5 -277.5t-220.5 -206.5t-315 -78q-124 0 -232.5 35t-192 102.5t-132 175t-48.5 243.5q0 60 14.5 118.5t65.5 174.5t160.5 309.5t288.5 484.5l488 -2l-355 -584q25 4 57 4zM767 361q76 0 130 52.5t54 130.5
q0 79 -53.5 133t-129.5 54q-76 -1 -129 -54.5t-53 -133.5q0 -79 52.5 -130.5t128.5 -51.5z" />
    <glyph glyph-name="seven.lf" horiz-adv-x="1266" 
d="M42 1612h1185v-74l-614 -1538h-448l465 1219h-588v393z" />
    <glyph glyph-name="seven.tf" horiz-adv-x="1543" 
d="M220 1612h1184v-74l-613 -1538h-449l465 1219h-587v393z" />
    <glyph glyph-name="eight.lf" horiz-adv-x="1272" 
d="M687 -33q-272 0 -444.5 147.5t-172.5 374.5q0 92 31 171.5t78.5 130t97 81t94.5 39.5q-75 16 -142 100t-67 204q0 116 67.5 214.5t189 157.5t269.5 59q114 0 213.5 -35.5t168 -94.5t108 -137t39.5 -162q0 -64 -23 -120.5t-58.5 -93.5t-71 -60t-66.5 -32q34 -8 72 -27
t80.5 -55.5t76.5 -82.5t56 -114t22 -145q0 -225 -171.5 -372.5t-446.5 -147.5zM689 1027q58 0 100.5 38t42.5 99q0 62 -42 98t-101 36q-58 0 -99.5 -36t-41.5 -97q0 -60 41 -99t100 -39zM687 352q80 0 140 53t60 135t-59.5 137t-139.5 55t-139.5 -56.5t-59.5 -138.5
t59 -133.5t139 -51.5z" />
    <glyph glyph-name="eight.tf" horiz-adv-x="1543" 
d="M788 -33q-272 0 -444.5 147.5t-172.5 374.5q0 92 31 171.5t78.5 130t97 81t94.5 39.5q-75 16 -142.5 100t-67.5 204q0 178 151 304.5t376 126.5q114 0 213.5 -35.5t167.5 -94.5t107.5 -137t39.5 -162q0 -64 -23 -120.5t-58 -93.5t-70.5 -60t-66.5 -32q34 -8 72 -27
t80.5 -55.5t76.5 -82.5t56 -114t22 -145q0 -225 -171.5 -372.5t-446.5 -147.5zM790 1027q58 0 100 38t42 99q0 62 -41.5 98t-100.5 36q-58 0 -100 -36t-42 -97q0 -60 41.5 -99t100.5 -39zM787 352q80 0 140 53t60 135t-59.5 137t-139.5 55t-139 -56.5t-59 -138.5t59 -133.5
t138 -51.5z" />
    <glyph glyph-name="nine.lf" horiz-adv-x="1339" 
d="M680 1648q170 0 310 -78t219.5 -210.5t79.5 -289.5q0 -131 -66.5 -267t-401.5 -701q-38 -65 -59 -100h-491l336 557q-24 -2 -35 -2q-99 0 -191.5 43t-160.5 114t-109 166t-41 195q0 155 80 286.5t220.5 209t309.5 77.5zM679 886q74 0 128 53t54 129q0 82 -53.5 135
t-128.5 53q-77 0 -129.5 -53t-52.5 -135q0 -75 54 -128.5t128 -53.5z" />
    <glyph glyph-name="nine.tf" horiz-adv-x="1543" 
d="M771 1648q170 0 310 -78t219.5 -210.5t79.5 -289.5q0 -131 -66.5 -267t-401.5 -701q-38 -65 -59 -100h-491l336 557q-24 -2 -35 -2q-99 0 -191.5 43t-160.5 114t-109 166t-41 195q0 155 80 286.5t220.5 209t309.5 77.5zM770 886q74 0 128 53t54 129q0 82 -53.5 135
t-128.5 53q-77 0 -129.5 -53t-52.5 -135q0 -75 54 -128.5t128 -53.5z" />
    <glyph glyph-name="trademark.ss04" horiz-adv-x="1547" 
d="M335 1611v-111h113v-167h-113v-202q0 -5 2 -12t7 -17t18 -16.5t32 -6.5q26 0 54 10v-147q-49 -18 -117 -18q-91 0 -137.5 58.5t-46.5 148.5v202h-77v167h77v111h188zM1275 1519q202 0 202 -276v-303h-189v303q0 105 -80 105q-45 0 -69 -28.5t-24 -76.5v-303h-188v303
q0 105 -81 105q-45 0 -68.5 -28.5t-23.5 -76.5v-303h-188v560h174l7 -45q66 64 167 64q118 0 167 -95q69 95 194 95z" />
    <glyph glyph-name="trademark.ss05" horiz-adv-x="1534" 
d="M1513 1299v-124h-134v-247h-182v247h-16l-168 -236h-1l-167 236h-17v-247h-182v247h-226v-247h-182v247h-217v124h217v143h-164v170h510v-170h-164v-143h226v319h73l233 -319h121l233 319h73v-319h134z" />
    <glyph glyph-name="uni030C.alt" 
d="M-350 1280l70 470h280l-120 -470h-230z" />
    <glyph glyph-name="uni0338.case" 
d="M-1090 -82l1197 1732h342l-1196 -1732h-343z" />
    </font>
</defs>
</svg>
