<?xml version="1.0" standalone="no"?>
<!DOCTYPE svg PUBLIC "-//W3C//DTD SVG 1.1//EN" "http://www.w3.org/Graphics/SVG/1.1/DTD/svg11.dtd" >
<svg xmlns="http://www.w3.org/2000/svg" xmlns:xlink="http://www.w3.org/1999/xlink" version="1.1">
<metadata>
Created by FontForge 20141024 at Thu Jul  9 05:46:22 2015
 By System Administrator
Copyright 1990-2003 Bitstream Inc. All rights reserved.
</metadata>
<defs>
<font id="Swiss721BT-Black" horiz-adv-x="1024" >
  <font-face 
    font-family="Swis721 Blk BT"
    font-weight="400"
    font-stretch="normal"
    units-per-em="2048"
    panose-1="2 11 9 4 3 5 2 2 2 4"
    ascent="1556"
    descent="-492"
    x-height="1087"
    cap-height="1473"
    bbox="-342 -485 3027 1972"
    underline-thickness="297"
    underline-position="-98"
    unicode-range="U+0020-F002"
  />
<missing-glyph horiz-adv-x="1229" 
d="M102 -362v1806h1024v-1806h-1024zM217 -248h795v1577h-795v-1577z" />
    <glyph glyph-name=".notdef" horiz-adv-x="1229" 
d="M102 -362v1806h1024v-1806h-1024zM217 -248h795v1577h-795v-1577z" />
    <glyph glyph-name=".null" horiz-adv-x="0" 
 />
    <glyph glyph-name="nonmarkingreturn" horiz-adv-x="674" 
 />
    <glyph glyph-name="space" unicode=" " horiz-adv-x="674" 
 />
    <glyph glyph-name="exclam" unicode="!" horiz-adv-x="768" 
d="M264 526l-100 578v369h440v-369l-100 -578h-240zM168 0v406h432v-406h-432z" />
    <glyph glyph-name="quotedbl" unicode="&#x22;" horiz-adv-x="758" 
d="M690 1440v-563h-260v563h260zM326 1440v-563h-258v563h258z" />
    <glyph glyph-name="numbersign" unicode="#" horiz-adv-x="1575" 
d="M946 834h-239l-78 -213h239zM938 1470l-129 -366h227l129 366h289l-129 -366h256l-100 -270h-252l-76 -213h258l-100 -271h-254l-131 -366h-289l131 366h-227l-131 -366h-289l131 366h-258l100 271h254l74 213h-258l98 270h258l129 366h289z" />
    <glyph glyph-name="dollar" unicode="$" horiz-adv-x="1346" 
d="M616 930v272h-8q-87 0 -130.5 -33t-43.5 -100q0 -51 40.5 -82.5t141.5 -56.5zM592 -193v170q-257 10 -397.5 137.5t-142.5 352.5h368q6 -114 45 -164t120 -53l1 330q-272 60 -393 164.5t-121 277.5q0 192 144.5 309.5t389.5 122.5v129h160v-127q234 -6 365 -120.5
t139 -319.5h-350q-5 88 -44.5 134t-113.5 48v-303q289 -69 409.5 -176.5t120.5 -290.5q0 -212 -136.5 -324.5t-410.5 -128.5v-168h-153zM735 250q96 0 145.5 34t49.5 101q0 58 -42 92.5t-153 65.5v-293z" />
    <glyph glyph-name="percent" unicode="%" horiz-adv-x="2087" 
d="M1425 403q0 -71 48.5 -120.5t119.5 -49.5q70 0 120 50.5t50 119.5q0 71 -49.5 120.5t-120.5 49.5q-70 0 -119 -49.5t-49 -120.5zM1151 403q0 188 127.5 316.5t314.5 128.5q183 0 314 -130.5t131 -314.5q0 -182 -131 -313t-314 -131q-187 0 -314.5 128.5t-127.5 315.5z
M530 -41l822 1518h202l-821 -1518h-203zM322 1032q0 -71 49 -120.5t121 -49.5q69 0 118 50t49 120q0 71 -48.5 120.5t-118.5 49.5q-71 0 -120.5 -49.5t-49.5 -120.5zM47 1032q0 188 128.5 316.5t316.5 128.5q182 0 312 -130.5t130 -314.5q0 -183 -130 -313.5t-312 -130.5
q-188 0 -316.5 128.5t-128.5 315.5z" />
    <glyph glyph-name="ampersand" unicode="&#x26;" horiz-adv-x="1731" 
d="M774 958q85 31 123.5 71t38.5 97t-41 92t-109 35q-65 0 -101 -31.5t-36 -88.5q0 -49 29.5 -90t95.5 -85zM868 373l-213 221q-74 -35 -111.5 -81t-37.5 -101q0 -57 39.5 -90t107.5 -33q55 0 110 21.5t105 62.5zM1229 0l-123 127q-111 -85 -237.5 -126.5t-274.5 -41.5
q-236 0 -367 116.5t-131 323.5q0 152 76 260t240 189q-69 62 -102.5 131t-33.5 149q0 183 131 284t367 101q235 0 369.5 -112t134.5 -305q0 -121 -60 -212t-184 -159l125 -131q28 24 53.5 55.5t51.5 73.5h387q-45 -101 -109.5 -193.5t-148.5 -177.5l340 -352h-504z" />
    <glyph glyph-name="quotesingle" unicode="'" horiz-adv-x="393" 
d="M326 1440v-563h-258v563h258z" />
    <glyph glyph-name="parenleft" unicode="(" horiz-adv-x="844" 
d="M776 1470q-95 -249 -140.5 -474t-45.5 -441q0 -218 46 -444.5t140 -472.5h-358q-111 252 -166 481t-55 436q0 196 53.5 419t167.5 496h358z" />
    <glyph glyph-name="parenright" unicode=")" horiz-adv-x="844" 
d="M76 1473h358q111 -257 166 -485.5t55 -432.5t-55 -432.5t-166 -484.5h-358q94 246 140 472.5t46 444.5q0 217 -46 443t-140 475z" />
    <glyph glyph-name="asterisk" unicode="*" 
d="M510 840l-172 -250l-203 147l189 238l-271 76l78 237l260 -92v277h238v-277l260 90l78 -237l-273 -72l191 -240l-205 -143z" />
    <glyph glyph-name="plus" unicode="+" horiz-adv-x="1706" 
d="M993 1221v-473h459v-273h-459v-475h-280v475h-459v273h459v473h280z" />
    <glyph glyph-name="comma" unicode="," horiz-adv-x="674" 
d="M119 -367v191q105 15 152.5 60.5t47.5 129.5h-200v428h434v-434q0 -162 -112.5 -259t-321.5 -116z" />
    <glyph glyph-name="hyphen" unicode="-" horiz-adv-x="717" 
d="M100 358v385h516v-385h-516z" />
    <glyph glyph-name="period" unicode="." horiz-adv-x="674" 
d="M119 0v442h434v-442h-434z" />
    <glyph glyph-name="slash" unicode="/" horiz-adv-x="692" 
d="M176 -190h-184l545 1701h184z" />
    <glyph glyph-name="zero" unicode="0" horiz-adv-x="1346" 
d="M868 719q0 234 -45 330t-151 96q-107 0 -152 -95t-45 -331t45 -330t152 -94q106 0 151 95t45 329zM43 719q0 373 159.5 565.5t469.5 192.5q311 0 472 -192.5t161 -565.5q0 -374 -161 -567t-472 -193q-309 0 -469 193.5t-160 566.5z" />
    <glyph glyph-name="one" unicode="1" horiz-adv-x="1346" 
d="M530 0v836h-323v298q201 4 296.5 73t121.5 229h325v-1436h-420z" />
    <glyph glyph-name="two" unicode="2" horiz-adv-x="1346" 
d="M55 0q0 6 -1 17.5t-1 17.5q0 153 94 289.5t304 283.5q55 40 153 102q234 150 234 261q0 85 -46.5 133.5t-127.5 48.5q-101 0 -151 -64.5t-50 -195.5v-25h-381q0 8 -1 21.5t-1 19.5q0 266 161.5 417t444.5 151q259 0 414 -127.5t155 -337.5q0 -138 -60 -230t-245 -204
q-22 -14 -71 -43q-177 -104 -271 -183h643v-352h-1196z" />
    <glyph glyph-name="three" unicode="3" horiz-adv-x="1346" 
d="M68 508h392q4 -107 54 -159t150 -52q87 0 133.5 43t46.5 125q0 83 -55 120.5t-179 37.5h-35v247h29q115 0 172.5 37t57.5 111q0 65 -41 99t-119 34q-88 0 -134 -39.5t-51 -118.5h-386q4 219 162.5 351.5t418.5 132.5q249 0 398 -114.5t149 -303.5q0 -97 -39.5 -167.5
t-118.5 -113.5q99 -38 147 -117.5t48 -203.5q0 -234 -163 -366t-454 -132q-268 0 -425.5 140.5t-157.5 379.5v29z" />
    <glyph glyph-name="four" unicode="4" horiz-adv-x="1346" 
d="M375 625h346v419zM711 0v299h-660v348l670 789h399v-811h170v-326h-170v-299h-409z" />
    <glyph glyph-name="five" unicode="5" horiz-adv-x="1346" 
d="M43 381l416 41q24 -65 72.5 -98t119.5 -33q94 0 147.5 51.5t53.5 140.5q0 92 -52.5 147.5t-137.5 55.5q-52 0 -94.5 -20.5t-73.5 -59.5l-392 33l142 797h913v-346h-622l-41 -205q60 35 131.5 51t162.5 16q218 0 351 -126t133 -332q0 -252 -165 -393.5t-460 -141.5
q-244 0 -402 110.5t-202 311.5z" />
    <glyph glyph-name="six" unicode="6" horiz-adv-x="1346" 
d="M496 479q0 -90 51.5 -142t140.5 -52q87 0 138 52t51 140q0 91 -50 143t-137 52q-89 0 -141.5 -52.5t-52.5 -140.5zM483 844q57 51 138 77.5t182 26.5q226 0 360.5 -128t134.5 -343q0 -239 -158 -377.5t-433 -138.5q-321 0 -484.5 190t-163.5 564q0 359 171 559.5
t477 200.5q228 0 377.5 -105.5t189.5 -294.5l-397 -14q-17 57 -59.5 87t-106.5 30q-107 0 -163.5 -83t-64.5 -251z" />
    <glyph glyph-name="seven" unicode="7" horiz-adv-x="1346" 
d="M317 0q23 310 138 572t338 509h-701v355h1149v-314q-205 -208 -313 -484.5t-125 -637.5h-486z" />
    <glyph glyph-name="eight" unicode="8" horiz-adv-x="1346" 
d="M473 451q0 -84 51.5 -130.5t145.5 -46.5t145 46.5t51 130.5q0 86 -52 135t-144 49q-93 0 -145 -49t-52 -135zM485 1028q0 -75 48.5 -116.5t136.5 -41.5q87 0 134.5 41.5t47.5 116.5q0 65 -51 107.5t-131 42.5q-81 0 -133 -42.5t-52 -107.5zM283 760q-96 49 -141.5 121
t-45.5 174q0 195 153 307.5t421 112.5q267 0 420 -112.5t153 -307.5q0 -102 -45.5 -174t-140.5 -121q117 -47 174 -129.5t57 -204.5q0 -221 -161.5 -342t-456.5 -121q-296 0 -457.5 121t-161.5 342q0 122 57 204.5t175 129.5z" />
    <glyph glyph-name="nine" unicode="9" horiz-adv-x="1346" 
d="M840 958q0 91 -51 143t-140 52q-87 0 -137.5 -52t-50.5 -140q0 -92 49.5 -143.5t136.5 -51.5q88 0 140.5 52t52.5 140zM854 594q-56 -52 -137 -78.5t-182 -26.5q-226 0 -361 128.5t-135 343.5q0 238 158 376t434 138q321 0 485 -189.5t164 -562.5q0 -359 -172 -559.5
t-477 -200.5q-228 0 -376.5 105t-188.5 294l393 15q18 -57 61 -87t107 -30q106 0 162.5 83t64.5 251z" />
    <glyph glyph-name="colon" unicode=":" horiz-adv-x="721" 
d="M143 647v440h435v-440h-435zM143 0v442h435v-442h-435z" />
    <glyph glyph-name="semicolon" unicode=";" horiz-adv-x="721" 
d="M143 647v440h435v-440h-435zM143 -367v191q105 15 153 60.5t48 129.5h-201v428h435v-434q0 -162 -112.5 -259t-322.5 -116z" />
    <glyph glyph-name="less" unicode="&#x3c;" horiz-adv-x="1706" 
d="M1442 938l-801 -328l801 -327v-299l-1178 487v281l1178 487v-301z" />
    <glyph glyph-name="equal" unicode="=" horiz-adv-x="1706" 
d="M1452 512v-272h-1198v272h1198zM1452 983v-272h-1198v272h1198z" />
    <glyph glyph-name="greater" unicode="&#x3e;" horiz-adv-x="1706" 
d="M1442 752v-281l-1178 -487v299l801 327l-801 328v301z" />
    <glyph glyph-name="question" unicode="?" horiz-adv-x="1284" 
d="M438 525q-1 14 -1.5 29.5t-0.5 45.5q0 112 33 181.5t104 111.5q30 17 85 42q130 59 130 134q0 56 -38 90.5t-103 34.5q-74 0 -113.5 -44t-39.5 -126v-6h-431q13 238 165.5 365.5t424.5 127.5q257 0 412.5 -118t155.5 -310q0 -69 -19 -123.5t-57 -97.5q-45 -51 -167 -115
q-50 -26 -75 -40q-52 -30 -69 -59t-17 -85q0 -6 1 -18.5t1 -20.5zM412 0v406h430v-406h-430z" />
    <glyph glyph-name="at" unicode="@" horiz-adv-x="2048" 
d="M1241 911l49 82h242l-156 -627q-2 -12 -3 -18.5t-1 -11.5q0 -24 12.5 -36.5t34.5 -12.5q128 0 231 142t103 331q0 236 -174.5 381t-462.5 145q-142 0 -266 -35.5t-225 -105.5q-154 -108 -238 -269t-84 -350q0 -294 199.5 -468.5t535.5 -174.5q160 0 307.5 47t278.5 140
l115 -160q-164 -122 -342 -181t-381 -59q-188 0 -355 54.5t-294 156.5q-149 119 -223 279t-74 360q0 176 55.5 332.5t163.5 284.5q149 177 361.5 271.5t461.5 94.5q386 0 626 -206t240 -533q0 -171 -68 -314.5t-196 -242.5q-70 -55 -153.5 -84t-174.5 -29q-109 0 -166.5 38
t-66.5 115q-59 -79 -127.5 -115t-161.5 -36q-171 0 -257.5 88t-86.5 262q0 247 143.5 411.5t356.5 164.5q74 0 130.5 -28t90.5 -83zM1126 494l47 195q-7 67 -42 104.5t-91 37.5q-95 0 -167 -116.5t-72 -274.5q0 -72 30.5 -111.5t86.5 -39.5q72 0 129 55.5t79 149.5z" />
    <glyph glyph-name="A" unicode="A" horiz-adv-x="1505" 
d="M602 504h297l-147 510zM-6 0l518 1473h479l518 -1473h-469l-55 195h-469l-57 -195h-465z" />
    <glyph glyph-name="B" unicode="B" horiz-adv-x="1552" 
d="M598 344h219q109 0 155 32t46 105t-47 104t-158 31h-215v-272zM598 885h195q98 0 138 29t40 98q0 73 -43 100t-199 27h-131v-254zM139 0v1473h604q195 0 284 -10t153 -33q112 -42 171.5 -131t59.5 -216q0 -100 -44.5 -174.5t-133.5 -122.5q117 -42 173 -126t56 -218
q0 -131 -54.5 -227.5t-158.5 -148.5q-70 -36 -160 -51t-298 -15h-652z" />
    <glyph glyph-name="C" unicode="C" horiz-adv-x="1602" 
d="M1094 571h448q-20 -291 -205 -451.5t-501 -160.5q-354 0 -557 207.5t-203 568.5q0 360 201 568t548 208q320 0 503.5 -154.5t205.5 -441.5h-453q-10 113 -73 170.5t-177 57.5q-139 0 -208.5 -101.5t-69.5 -306.5q0 -201 74 -304t217 -103q110 0 174.5 63t75.5 180z" />
    <glyph glyph-name="D" unicode="D" horiz-adv-x="1606" 
d="M612 373h127q177 0 245.5 79t68.5 283q0 199 -70 282t-238 83h-133v-727zM139 0v1473h572q218 0 324.5 -19.5t185.5 -64.5q153 -90 230 -253t77 -401q0 -250 -95.5 -420.5t-281.5 -253.5q-72 -33 -180.5 -47t-347.5 -14h-484z" />
    <glyph glyph-name="E" unicode="E" horiz-adv-x="1427" 
d="M139 0v1473h1178v-353h-705v-196h596v-338h-596v-228h734v-358h-1207z" />
    <glyph glyph-name="F" unicode="F" horiz-adv-x="1294" 
d="M139 0v1473h1114v-371h-641v-228h510v-356h-510v-518h-473z" />
    <glyph glyph-name="G" unicode="G" horiz-adv-x="1669" 
d="M1235 0l-23 127q-80 -85 -193 -126.5t-263 -41.5q-316 0 -498 207.5t-182 568.5q0 369 203 572.5t569 203.5q288 0 464.5 -143t209.5 -403h-449q-27 88 -87.5 134t-149.5 46q-142 0 -212.5 -109t-70.5 -325q0 -200 71 -299t216 -99q104 0 176.5 48.5t89.5 130.5h-213v315
h647v-807h-305z" />
    <glyph glyph-name="H" unicode="H" horiz-adv-x="1665" 
d="M139 0v1473h473v-500h441v500h473v-1473h-473v571h-441v-571h-473z" />
    <glyph glyph-name="I" unicode="I" horiz-adv-x="778" 
d="M147 0v1473h482v-1473h-482z" />
    <glyph glyph-name="J" unicode="J" horiz-adv-x="1313" 
d="M43 635h418v-137q0 -91 28 -128.5t93 -37.5q69 0 97 41t28 157v943h473v-992q0 -255 -149 -388.5t-433 -133.5q-281 0 -420 142t-139 429q0 32 4 99v6z" />
    <glyph glyph-name="K" unicode="K" horiz-adv-x="1597" 
d="M139 0v1473h469v-488l424 488h549l-526 -543l594 -930h-564l-360 590l-117 -121v-469h-469z" />
    <glyph glyph-name="L" unicode="L" horiz-adv-x="1309" 
d="M139 0v1473h473v-1082h643v-391h-1116z" />
    <glyph glyph-name="M" unicode="M" horiz-adv-x="1939" 
d="M567 0h-428v1473h576l204 -735q4 -15 16 -68.5t34 -147.5q14 74 26 129.5t21 83.5l209 738h575v-1473h-428l4 725q0 66 0.5 128.5t1.5 129.5q-24 -114 -58 -249l-3 -13l-182 -721h-330l-184 705q-13 48 -26 110t-34 168q3 -95 4.5 -163t1.5 -109v-711z" />
    <glyph glyph-name="N" unicode="N" horiz-adv-x="1667" 
d="M139 0v1473h449l413 -685q19 -29 40.5 -82t45.5 -128q-6 39 -9 86t-3 114v695h451v-1473h-451l-413 680q-19 30 -41.5 85t-45.5 126q7 -39 10 -81.5t3 -119.5v-690h-449z" />
    <glyph glyph-name="O" unicode="O" horiz-adv-x="1683" 
d="M553 735q0 -209 70 -307t219 -98q148 0 217 97.5t69 307.5q0 211 -69 308.5t-217 97.5q-149 0 -219 -98t-70 -308zM76 735q0 360 205.5 568t560.5 208q354 0 559 -208t205 -568q0 -359 -205 -567.5t-559 -208.5q-355 0 -560.5 208.5t-205.5 567.5z" />
    <glyph glyph-name="P" unicode="P" horiz-adv-x="1511" 
d="M612 811h152q148 0 198 33t50 117q0 85 -48 118t-200 33h-152v-301zM139 0v1473h606q201 0 318.5 -23.5t196.5 -75.5q102 -69 152 -171t50 -242q0 -247 -146 -378.5t-421 -131.5h-283v-451h-473z" />
    <glyph glyph-name="Q" unicode="Q" horiz-adv-x="1683" 
d="M1389 -160l-191 199q-72 -39 -165 -59.5t-202 -20.5q-342 0 -548.5 210t-206.5 558q0 364 205.5 574t560.5 210q354 0 559 -208t205 -568q0 -147 -42.5 -274.5t-127.5 -239.5l170 -174zM930 326l-182 188l202 195l168 -176q11 45 17 91t6 89q0 236 -70.5 340t-228.5 104
q-155 0 -228 -102t-73 -320q0 -219 73 -320.5t230 -101.5q23 0 44.5 3t41.5 10z" />
    <glyph glyph-name="R" unicode="R" horiz-adv-x="1563" 
d="M606 840h215q113 0 156 30.5t43 106.5q0 78 -43 108.5t-168 30.5h-203v-276zM139 0v1473h705q331 0 472.5 -99t141.5 -325q0 -135 -58 -224t-179 -141q123 -26 179 -102.5t60 -224.5l8 -205q0 -2 1 -5q3 -88 42 -92v-55h-477q-13 53 -19.5 92.5t-6.5 61.5v147
q0 114 -45 160.5t-156 46.5h-201v-508h-467z" />
    <glyph glyph-name="S" unicode="S" horiz-adv-x="1460" 
d="M70 459h460q19 -80 69 -115t149 -35q83 0 130.5 28.5t47.5 78.5q0 80 -199 130q-40 10 -61 15q-163 42 -259.5 76.5t-140.5 64.5q-85 61 -127.5 146t-42.5 194q0 219 165 344t454 125q284 0 447 -119.5t184 -342.5h-449q-11 65 -57.5 97t-132.5 32q-76 0 -113 -25
t-37 -76q0 -73 194 -122q17 -5 26 -7q28 -7 85 -21q257 -65 336 -118q98 -65 143 -148t45 -196q0 -244 -170.5 -375t-488.5 -131q-293 0 -464.5 131t-192.5 369z" />
    <glyph glyph-name="T" unicode="T" horiz-adv-x="1360" 
d="M449 0v1085h-424v388h1312v-388h-415v-1085h-473z" />
    <glyph glyph-name="U" unicode="U" horiz-adv-x="1669" 
d="M135 1473h473v-908q0 -126 52.5 -179.5t175.5 -53.5q120 0 171.5 52.5t51.5 180.5v908h473v-945q0 -277 -178.5 -423t-517.5 -146q-341 0 -521 146.5t-180 422.5v945z" />
    <glyph glyph-name="V" unicode="V" horiz-adv-x="1501" 
d="M18 1473h484l248 -951l266 951h465l-496 -1473h-471z" />
    <glyph glyph-name="W" unicode="W" horiz-adv-x="2017" 
d="M373 0l-355 1473h461l160 -951l186 951h392l178 -951l155 951h449l-350 -1473h-469l-168 883l-162 -883h-477z" />
    <glyph glyph-name="X" unicode="X" horiz-adv-x="1497" 
d="M-14 0l506 766l-461 707h532l197 -373l215 373h520l-477 -707l493 -766h-534l-223 399l-224 -399h-544z" />
    <glyph glyph-name="Y" unicode="Y" horiz-adv-x="1507" 
d="M524 0v545l-542 928h524l254 -502l256 502h510l-529 -928v-545h-473z" />
    <glyph glyph-name="Z" unicode="Z" horiz-adv-x="1444" 
d="M70 0v354l682 738h-660v381h1241v-351l-690 -743h727v-379h-1300z" />
    <glyph glyph-name="bracketleft" unicode="[" horiz-adv-x="883" 
d="M213 1473h647v-312h-264v-1218h264v-301h-647v1831z" />
    <glyph glyph-name="backslash" unicode="\" horiz-adv-x="692" 
d="M537 -190l-545 1701h184l545 -1701h-184z" />
    <glyph glyph-name="bracketright" unicode="]" horiz-adv-x="883" 
d="M668 1473v-1831h-648v301h265v1218h-265v312h648z" />
    <glyph glyph-name="asciicircum" unicode="^" horiz-adv-x="2048" 
d="M1192 1462l442 -565h-303l-307 309l-309 -309h-303l442 565h338z" />
    <glyph glyph-name="underscore" unicode="_" 
d="M1024 -201v-282h-1024v282h1024z" />
    <glyph glyph-name="grave" unicode="`" 
d="M207 1587h287l192 -370h-154z" />
    <glyph glyph-name="a" unicode="a" horiz-adv-x="1411" 
d="M851 485q-62 -24 -165 -51q-162 -43 -162 -115q0 -46 32 -72t91 -26q108 0 157.5 50t49.5 159q0 23 -0.5 34.5t-2.5 20.5zM891 0l-27 104q-83 -73 -179 -108t-216 -35q-184 0 -284.5 90.5t-100.5 255.5q0 161 99 238t374 112q35 5 94 11q205 22 205 106q0 47 -37.5 68.5
t-118.5 21.5q-67 0 -103 -26.5t-42 -81.5h-422q3 183 150 276.5t432 93.5q134 0 247.5 -25t176.5 -67q77 -52 108 -117.5t31 -187.5v-606q0 -30 12 -53.5t35 -38.5v-31h-434z" />
    <glyph glyph-name="b" unicode="b" horiz-adv-x="1384" 
d="M535 532q0 -118 47 -184.5t131 -66.5q83 0 129.5 66t46.5 185q0 129 -43 190.5t-133 61.5q-91 0 -134.5 -62t-43.5 -190zM117 0v1473h422v-500q64 72 142.5 108.5t168.5 36.5q214 0 343.5 -158t129.5 -421q0 -261 -128.5 -419.5t-338.5 -158.5q-110 0 -198 42.5
t-158 129.5v-133h-383z" />
    <glyph glyph-name="c" unicode="c" horiz-adv-x="1335" 
d="M842 424h432q-14 -215 -171.5 -339t-418.5 -124q-289 0 -457 157t-168 427t166 425.5t455 155.5q262 0 422 -122.5t168 -329.5h-432q-7 77 -46 114t-114 37q-94 0 -138 -67.5t-44 -212.5q0 -147 42.5 -215t135.5 -68q75 0 117.5 41t50.5 121z" />
    <glyph glyph-name="d" unicode="d" horiz-adv-x="1386" 
d="M1270 0h-383v133q-70 -87 -158.5 -129.5t-198.5 -42.5q-209 0 -338 158.5t-129 419.5q0 259 129.5 420t333.5 161q98 0 177.5 -37t144.5 -112v502h422v-1473zM674 281q83 0 130.5 66.5t47.5 184.5q0 128 -44 190t-134 62t-133 -61.5t-43 -190.5q0 -119 46.5 -185
t129.5 -66z" />
    <glyph glyph-name="e" unicode="e" horiz-adv-x="1364" 
d="M492 666h385q-7 101 -56 151.5t-141 50.5q-85 0 -134.5 -53.5t-53.5 -148.5zM854 322h414q-45 -178 -197.5 -269.5t-402.5 -91.5q-280 0 -444.5 155.5t-164.5 418.5q0 274 168 432.5t457 158.5q290 0 454.5 -172.5t164.5 -478.5v-26l-811 -1q3 -104 55 -160.5t145 -56.5
q63 0 105 23.5t57 67.5z" />
    <glyph glyph-name="f" unicode="f" horiz-adv-x="786" 
d="M158 0v842h-135v245h135v68q0 182 90.5 268t281.5 86h242v-272q-8 0 -23 1t-22 1q-79 0 -110 -26.5t-31 -92.5q0 -5 1 -15.5t1 -17.5h184v-245h-184v-842h-430z" />
    <glyph glyph-name="g" unicode="g" horiz-adv-x="1386" 
d="M496 551q0 -131 43 -194.5t131 -63.5q93 0 137.5 62t44.5 194q0 118 -47.5 183t-134.5 65q-88 0 -131 -61.5t-43 -184.5zM137 -117h428q8 -39 37.5 -56t89.5 -17q95 0 128.5 42t33.5 185v59q-55 -53 -130.5 -79.5t-172.5 -26.5q-220 0 -352.5 150.5t-132.5 400.5
q0 263 126.5 419t337.5 156q118 0 205.5 -41.5t151.5 -128.5v141h383v-1003q0 -284 -139 -403t-469 -119q-229 0 -366 84t-159 237z" />
    <glyph glyph-name="h" unicode="h" horiz-adv-x="1399" 
d="M117 0v1473h432v-502q66 73 149.5 109t184.5 36q104 0 183 -32.5t134 -98.5q49 -59 69.5 -146t20.5 -274v-565h-432v563q0 124 -33 170.5t-114 46.5q-82 0 -122 -54t-40 -165v-561h-432z" />
    <glyph glyph-name="i" unicode="i" horiz-adv-x="692" 
d="M127 1198v311h436v-311h-436zM127 0v1087h436v-1087h-436z" />
    <glyph glyph-name="j" unicode="j" horiz-adv-x="702" 
d="M145 1198v311h437v-311h-437zM582 1087v-1103q0 -227 -87 -324.5t-286 -97.5h-244v321h39q86 0 113.5 29t27.5 121v1054h437z" />
    <glyph glyph-name="k" unicode="k" horiz-adv-x="1374" 
d="M117 0v1473h432v-719l285 333h485l-404 -401l459 -686h-514l-237 389l-74 -76v-313h-432z" />
    <glyph glyph-name="l" unicode="l" horiz-adv-x="692" 
d="M127 0v1473h436v-1473h-436z" />
    <glyph glyph-name="m" unicode="m" horiz-adv-x="2097" 
d="M117 0v1087h393v-159q72 96 162 142t207 46q107 0 184.5 -45t138.5 -143q79 98 173 144t212 46q192 0 298 -99t106 -278v-741h-426v582q0 102 -34.5 148t-111.5 46q-79 0 -116 -48t-37 -150v-578h-424v567q0 112 -35.5 160.5t-116.5 48.5q-72 0 -109.5 -49t-37.5 -143
v-584h-426z" />
    <glyph glyph-name="n" unicode="n" horiz-adv-x="1399" 
d="M117 0v1087h393v-159q76 95 169.5 141.5t211.5 46.5q99 0 177 -33t132 -98q49 -59 69.5 -143.5t20.5 -276.5v-565h-432v563q0 124 -33 170.5t-114 46.5q-82 0 -122 -54t-40 -165v-561h-432z" />
    <glyph glyph-name="o" unicode="o" horiz-adv-x="1348" 
d="M496 545q0 -151 41.5 -217t136.5 -66t137.5 66.5t42.5 216.5q0 149 -42.5 214.5t-137.5 65.5t-136.5 -65t-41.5 -215zM59 545q0 270 164 425.5t451 155.5t450.5 -155.5t163.5 -425.5q0 -272 -164 -428t-450 -156t-450.5 156t-164.5 428z" />
    <glyph glyph-name="p" unicode="p" horiz-adv-x="1386" 
d="M895 541q0 128 -43 190t-131 62q-95 0 -138.5 -60.5t-43.5 -191.5q0 -123 44.5 -184.5t133.5 -61.5q88 0 133 62t45 184zM119 -436v1523h383v-139q64 87 149 127.5t203 40.5q211 0 342 -158.5t131 -416.5q0 -264 -130.5 -421t-350.5 -157q-101 0 -176 34t-131 105v-538
h-420z" />
    <glyph glyph-name="q" unicode="q" horiz-adv-x="1386" 
d="M852 545q0 118 -47.5 185t-130.5 67q-91 0 -134.5 -61.5t-43.5 -190.5q0 -130 43 -190t135 -60q90 0 134 61.5t44 188.5zM1270 1087v-1523h-420v542q-61 -72 -138.5 -107.5t-176.5 -35.5q-213 0 -342.5 158t-129.5 420t130.5 419.5t345.5 157.5q110 0 193.5 -41
t154.5 -131v141h383z" />
    <glyph glyph-name="r" unicode="r" horiz-adv-x="936" 
d="M119 0v1087h399v-198q43 118 123.5 172.5t214.5 54.5h39v-431q-24 2 -46 3.5t-42 1.5q-131 0 -192.5 -59t-61.5 -185v-446h-434z" />
    <glyph glyph-name="s" unicode="s" horiz-adv-x="1253" 
d="M63 342h420q0 -69 35.5 -103t106.5 -34q68 0 104.5 23t36.5 67q0 73 -161 108q-14 3 -22 5q-305 65 -398 140t-93 220q0 175 136.5 266.5t398.5 91.5q243 0 376.5 -86t153.5 -256h-389q-5 49 -42.5 78t-94.5 29t-87 -19.5t-30 -56.5q0 -65 147 -96q39 -8 59 -12
q296 -68 385 -144.5t89 -224.5q0 -187 -145.5 -282t-430.5 -95q-264 0 -402.5 95t-152.5 286z" />
    <glyph glyph-name="t" unicode="t" horiz-adv-x="879" 
d="M616 403q0 -55 32 -77.5t114 -22.5q24 0 36.5 0.5t24.5 1.5v-313q-80 -5 -145.5 -7.5t-122.5 -2.5q-206 0 -287.5 69t-81.5 242v545h-153v249h153v336h430v-336h203v-249h-203v-435z" />
    <glyph glyph-name="u" unicode="u" horiz-adv-x="1399" 
d="M1282 1087v-1087h-395v160q-76 -96 -169.5 -142.5t-211.5 -46.5q-99 0 -177 33t-132 98q-48 58 -68 141.5t-20 280.5v563h432v-561q0 -124 33 -171.5t114 -47.5t121.5 55t40.5 166v559h432z" />
    <glyph glyph-name="v" unicode="v" horiz-adv-x="1190" 
d="M367 0l-379 1087h430l188 -653l185 653h411l-352 -1087h-483z" />
    <glyph glyph-name="w" unicode="w" horiz-adv-x="1909" 
d="M381 0l-358 1087h428l161 -663l168 663h365l168 -663l162 663h411l-342 -1087h-424l-157 629l-158 -629h-424z" />
    <glyph glyph-name="x" unicode="x" horiz-adv-x="1223" 
d="M-23 0l385 571l-354 516h471l139 -258l144 258h471l-365 -512l377 -575h-481l-160 301l-151 -301h-476z" />
    <glyph glyph-name="y" unicode="y" horiz-adv-x="1202" 
d="M133 -428v322h123q63 0 91 21.5t28 70.5q0 21 -5.5 47t-17.5 59l-364 995h438l190 -659l185 659h407l-352 -1081q-60 -182 -92.5 -249.5t-69.5 -102.5q-49 -49 -118 -69.5t-224 -20.5q-45 0 -101 2t-118 6z" />
    <glyph glyph-name="z" unicode="z" horiz-adv-x="1096" 
d="M27 0v293l495 477h-452v317h962v-290l-483 -480h508v-317h-1030z" />
    <glyph glyph-name="braceleft" unicode="{" 
d="M905 1192q-8 0 -22.5 1t-20.5 1q-87 0 -117 -30t-30 -128v-239q0 -134 -47 -189.5t-170 -77.5q124 -23 170.5 -77.5t46.5 -186.5v-241q0 -96 29.5 -126t115.5 -30q7 0 22 1t23 1v-285h-80q-139 0 -211.5 10.5t-119.5 34.5q-60 30 -84.5 84.5t-24.5 186.5v258
q0 127 -46.5 179t-158.5 52q-5 0 -16.5 -1t-18.5 -1v283q7 0 18.5 -1t16.5 -1q112 0 158.5 52t46.5 179v258q0 133 24.5 188t84.5 85q48 24 120.5 34.5t210.5 10.5h80v-285z" />
    <glyph glyph-name="bar" unicode="|" 
d="M653 1565v-2048h-280v2048h280z" />
    <glyph glyph-name="braceright" unicode="}" 
d="M641 1159v-258q0 -127 46.5 -179t158.5 -52q5 0 16.5 1t18.5 1v-283q-7 0 -18.5 1t-16.5 1q-112 0 -158.5 -52t-46.5 -179v-258q0 -130 -25 -186t-86 -87q-45 -23 -115 -33t-200 -10h-94v283q9 0 23 -1t20 -1q87 0 117 30t30 128v241q0 132 46.5 186.5t170.5 77.5
q-123 22 -170 77t-47 188v241q0 98 -30 128t-117 30q-6 0 -20 -1t-23 -1v285h80q138 0 210 -10.5t119 -34.5q61 -31 86 -87t25 -186z" />
    <glyph glyph-name="asciitilde" unicode="~" horiz-adv-x="1706" 
d="M1530 543q-102 -69 -192 -101t-179 -32q-54 0 -111.5 11.5t-154.5 45.5q-124 42 -194.5 56t-137.5 14q-84 0 -176 -38t-207 -120v299q119 75 216.5 109t191.5 34q58 0 123 -12t155 -41q22 -7 64 -22q152 -54 235 -54q86 0 175 36.5t192 113.5v-299z" />
    <glyph glyph-name="Adieresis" unicode="&#xc4;" horiz-adv-x="1505" 
d="M602 504h297l-147 510zM-6 0l518 1473h479l518 -1473h-469l-55 195h-469l-57 -195h-465zM809 1651v270h252v-270h-252zM447 1651v270h250v-270h-250z" />
    <glyph glyph-name="Aring" unicode="&#xc5;" horiz-adv-x="1505" 
d="M504 1724q0 104 71.5 176t174.5 72q102 0 174.5 -72.5t72.5 -175.5q0 -102 -72 -172.5t-175 -70.5q-104 0 -175 70.5t-71 172.5zM651 1726q0 -40 29.5 -69t71.5 -29q40 0 69 29t29 69t-29 69.5t-69 29.5q-41 0 -71 -29t-30 -70zM602 504h297l-147 510zM-6 0l504 1432h506
l505 -1432h-469l-55 195h-469l-57 -195h-465z" />
    <glyph glyph-name="Ccedilla" unicode="&#xc7;" horiz-adv-x="1602" 
d="M1094 571h448q-20 -291 -205 -451.5t-501 -160.5q-354 0 -557 207.5t-203 568.5q0 360 201 568t548 208q320 0 503.5 -154.5t205.5 -441.5h-453q-10 113 -73 170.5t-177 57.5q-139 0 -208.5 -101.5t-69.5 -306.5q0 -201 74 -304t217 -103q110 0 174.5 63t75.5 180z
M591 -440v139q80 -22 149.5 -33.5t121.5 -11.5q43 0 64.5 17.5t21.5 54.5q0 32 -28.5 47.5t-90.5 15.5q-21 0 -33 -0.5t-22 -1.5v213h114v-84h19q111 0 170 -49.5t59 -142.5q0 -100 -66 -154.5t-188 -54.5q-61 0 -134 11t-157 34z" />
    <glyph glyph-name="Eacute" unicode="&#xc9;" horiz-adv-x="1427" 
d="M139 0v1473h1178v-353h-705v-196h596v-338h-596v-228h734v-358h-1207zM1020 1972l-325 -370h-154l192 370h287z" />
    <glyph glyph-name="Ntilde" unicode="&#xd1;" horiz-adv-x="1667" 
d="M139 0v1473h449l413 -685q19 -29 40.5 -82t45.5 -128q-6 39 -9 86t-3 114v695h451v-1473h-451l-413 680q-19 30 -41.5 85t-45.5 126q7 -39 10 -81.5t3 -119.5v-690h-449zM1166 1927q-30 -132 -82.5 -193t-136.5 -61q-22 0 -40.5 2.5t-36.5 8.5l-91 26q-23 6 -40 9t-28 3
q-34 0 -55 -17.5t-35 -57.5h-119q28 125 80.5 185t134.5 60q16 0 38 -4t52 -12l95 -27q12 -4 26 -6t31 -2q33 0 55 22t33 64h119z" />
    <glyph glyph-name="Odieresis" unicode="&#xd6;" horiz-adv-x="1683" 
d="M553 735q0 -209 70 -307t219 -98q148 0 217 97.5t69 307.5q0 211 -69 308.5t-217 97.5q-149 0 -219 -98t-70 -308zM76 735q0 360 205.5 568t560.5 208q354 0 559 -208t205 -568q0 -359 -205 -567.5t-559 -208.5q-355 0 -560.5 208.5t-205.5 567.5zM897 1651v270h252v-270
h-252zM535 1651v270h250v-270h-250z" />
    <glyph glyph-name="Udieresis" unicode="&#xdc;" horiz-adv-x="1669" 
d="M135 1473h473v-908q0 -126 52.5 -179.5t175.5 -53.5q120 0 171.5 52.5t51.5 180.5v908h473v-945q0 -277 -178.5 -423t-517.5 -146q-341 0 -521 146.5t-180 422.5v945zM891 1651v270h252v-270h-252zM529 1651v270h250v-270h-250z" />
    <glyph glyph-name="aacute" unicode="&#xe1;" horiz-adv-x="1411" 
d="M851 485q-62 -24 -165 -51q-162 -43 -162 -115q0 -46 32 -72t91 -26q108 0 157.5 50t49.5 159q0 23 -0.5 34.5t-2.5 20.5zM891 0l-27 104q-83 -73 -179 -108t-216 -35q-184 0 -284.5 90.5t-100.5 255.5q0 161 99 238t374 112q35 5 94 11q205 22 205 106q0 47 -37.5 68.5
t-118.5 21.5q-67 0 -103 -26.5t-42 -81.5h-422q3 183 150 276.5t432 93.5q134 0 247.5 -25t176.5 -67q77 -52 108 -117.5t31 -187.5v-606q0 -30 12 -53.5t35 -38.5v-31h-434zM1036 1587l-325 -370h-154l192 370h287z" />
    <glyph glyph-name="agrave" unicode="&#xe0;" horiz-adv-x="1411" 
d="M851 485q-62 -24 -165 -51q-162 -43 -162 -115q0 -46 32 -72t91 -26q108 0 157.5 50t49.5 159q0 23 -0.5 34.5t-2.5 20.5zM891 0l-27 104q-83 -73 -179 -108t-216 -35q-184 0 -284.5 90.5t-100.5 255.5q0 161 99 238t374 112q35 5 94 11q205 22 205 106q0 47 -37.5 68.5
t-118.5 21.5q-67 0 -103 -26.5t-42 -81.5h-422q3 183 150 276.5t432 93.5q134 0 247.5 -25t176.5 -67q77 -52 108 -117.5t31 -187.5v-606q0 -30 12 -53.5t35 -38.5v-31h-434zM426 1587h287l192 -370h-154z" />
    <glyph glyph-name="acircumflex" unicode="&#xe2;" horiz-adv-x="1411" 
d="M851 485q-62 -24 -165 -51q-162 -43 -162 -115q0 -46 32 -72t91 -26q108 0 157.5 50t49.5 159q0 23 -0.5 34.5t-2.5 20.5zM891 0l-27 104q-83 -73 -179 -108t-216 -35q-184 0 -284.5 90.5t-100.5 255.5q0 161 99 238t374 112q35 5 94 11q205 22 205 106q0 47 -37.5 68.5
t-118.5 21.5q-67 0 -103 -26.5t-42 -81.5h-422q3 183 150 276.5t432 93.5q134 0 247.5 -25t176.5 -67q77 -52 108 -117.5t31 -187.5v-606q0 -30 12 -53.5t35 -38.5v-31h-434zM409 1217l193 370h256l192 -370h-153l-166 198l-168 -198h-154z" />
    <glyph glyph-name="adieresis" unicode="&#xe4;" horiz-adv-x="1411" 
d="M851 485q-62 -24 -165 -51q-162 -43 -162 -115q0 -46 32 -72t91 -26q108 0 157.5 50t49.5 159q0 23 -0.5 34.5t-2.5 20.5zM891 0l-27 104q-83 -73 -179 -108t-216 -35q-184 0 -284.5 90.5t-100.5 255.5q0 161 99 238t374 112q35 5 94 11q205 22 205 106q0 47 -37.5 68.5
t-118.5 21.5q-67 0 -103 -26.5t-42 -81.5h-422q3 183 150 276.5t432 93.5q134 0 247.5 -25t176.5 -67q77 -52 108 -117.5t31 -187.5v-606q0 -30 12 -53.5t35 -38.5v-31h-434zM786 1266v270h252v-270h-252zM424 1266v270h250v-270h-250z" />
    <glyph glyph-name="atilde" unicode="&#xe3;" horiz-adv-x="1411" 
d="M851 485q-62 -24 -165 -51q-162 -43 -162 -115q0 -46 32 -72t91 -26q108 0 157.5 50t49.5 159q0 23 -0.5 34.5t-2.5 20.5zM891 0l-27 104q-83 -73 -179 -108t-216 -35q-184 0 -284.5 90.5t-100.5 255.5q0 161 99 238t374 112q35 5 94 11q205 22 205 106q0 47 -37.5 68.5
t-118.5 21.5q-67 0 -103 -26.5t-42 -81.5h-422q3 183 150 276.5t432 93.5q134 0 247.5 -25t176.5 -67q77 -52 108 -117.5t31 -187.5v-606q0 -30 12 -53.5t35 -38.5v-31h-434zM1063 1542q-30 -132 -82.5 -193t-136.5 -61q-22 0 -40.5 2.5t-36.5 8.5l-91 26q-23 6 -40 9t-28 3
q-34 0 -55 -17.5t-35 -57.5h-119q28 125 80.5 185t134.5 60q16 0 38 -4t52 -12l95 -27q12 -4 26 -6t31 -2q33 0 55 22t33 64h119z" />
    <glyph glyph-name="aring" unicode="&#xe5;" horiz-adv-x="1411" 
d="M891 0l-27 104q-83 -73 -179 -108t-216 -35q-184 0 -284.5 90.5t-100.5 255.5q0 161 99 238t374 112q35 5 94 11q205 22 205 106q0 47 -37.5 68.5t-118.5 21.5q-67 0 -103 -26.5t-42 -81.5h-422q3 183 150 276.5t432 93.5q134 0 247.5 -25t176.5 -67q77 -52 108 -117.5
t31 -187.5v-606q0 -30 12 -53.5t35 -38.5v-31h-434zM851 485q-62 -24 -165 -51q-162 -43 -162 -115q0 -46 32 -72t91 -26q108 0 157.5 50t49.5 159q0 23 -0.5 34.5t-2.5 20.5zM494 1421q0 103 72 175.5t175 72.5t174.5 -72t71.5 -176q0 -103 -71.5 -174t-174.5 -71
t-175 71.5t-72 173.5zM643 1421q0 -40 28.5 -68t69.5 -28q42 0 70.5 28t28.5 68q0 41 -29.5 71t-69.5 30t-69 -29.5t-29 -71.5z" />
    <glyph glyph-name="ccedilla" unicode="&#xe7;" horiz-adv-x="1335" 
d="M842 424h432q-14 -215 -171.5 -339t-418.5 -124q-289 0 -457 157t-168 427t166 425.5t455 155.5q262 0 422 -122.5t168 -329.5h-432q-7 77 -46 114t-114 37q-94 0 -138 -67.5t-44 -212.5q0 -147 42.5 -215t135.5 -68q75 0 117.5 41t50.5 121zM428 -440v139
q80 -22 149.5 -33.5t121.5 -11.5q43 0 64.5 17.5t21.5 54.5q0 32 -28.5 47.5t-90.5 15.5q-21 0 -33 -0.5t-22 -1.5v213h114v-84h19q111 0 170 -49.5t59 -142.5q0 -100 -66 -154.5t-188 -54.5q-61 0 -134 11t-157 34z" />
    <glyph glyph-name="eacute" unicode="&#xe9;" horiz-adv-x="1364" 
d="M492 666h385q-7 101 -56 151.5t-141 50.5q-85 0 -134.5 -53.5t-53.5 -148.5zM854 322h414q-45 -178 -197.5 -269.5t-402.5 -91.5q-280 0 -444.5 155.5t-164.5 418.5q0 274 168 432.5t457 158.5q290 0 454.5 -172.5t164.5 -478.5v-26l-811 -1q3 -104 55 -160.5t145 -56.5
q63 0 105 23.5t57 67.5zM995 1587l-325 -370h-154l192 370h287z" />
    <glyph glyph-name="egrave" unicode="&#xe8;" horiz-adv-x="1364" 
d="M492 666h385q-7 101 -56 151.5t-141 50.5q-85 0 -134.5 -53.5t-53.5 -148.5zM854 322h414q-45 -178 -197.5 -269.5t-402.5 -91.5q-280 0 -444.5 155.5t-164.5 418.5q0 274 168 432.5t457 158.5q290 0 454.5 -172.5t164.5 -478.5v-26l-811 -1q3 -104 55 -160.5t145 -56.5
q63 0 105 23.5t57 67.5zM385 1587h287l192 -370h-154z" />
    <glyph glyph-name="ecircumflex" unicode="&#xea;" horiz-adv-x="1364" 
d="M492 666h385q-7 101 -56 151.5t-141 50.5q-85 0 -134.5 -53.5t-53.5 -148.5zM854 322h414q-45 -178 -197.5 -269.5t-402.5 -91.5q-280 0 -444.5 155.5t-164.5 418.5q0 274 168 432.5t457 158.5q290 0 454.5 -172.5t164.5 -478.5v-26l-811 -1q3 -104 55 -160.5t145 -56.5
q63 0 105 23.5t57 67.5zM368 1217l193 370h256l192 -370h-153l-166 198l-168 -198h-154z" />
    <glyph glyph-name="edieresis" unicode="&#xeb;" horiz-adv-x="1364" 
d="M492 666h385q-7 101 -56 151.5t-141 50.5q-85 0 -134.5 -53.5t-53.5 -148.5zM854 322h414q-45 -178 -197.5 -269.5t-402.5 -91.5q-280 0 -444.5 155.5t-164.5 418.5q0 274 168 432.5t457 158.5q290 0 454.5 -172.5t164.5 -478.5v-26l-811 -1q3 -104 55 -160.5t145 -56.5
q63 0 105 23.5t57 67.5zM745 1266v270h252v-270h-252zM383 1266v270h250v-270h-250z" />
    <glyph glyph-name="iacute" unicode="&#xed;" horiz-adv-x="692" 
d="M127 0v1087h436v-1087h-436zM651 1587l-325 -370h-154l192 370h287z" />
    <glyph glyph-name="igrave" unicode="&#xec;" horiz-adv-x="692" 
d="M127 0v1087h436v-1087h-436zM41 1587h287l192 -370h-154z" />
    <glyph glyph-name="icircumflex" unicode="&#xee;" horiz-adv-x="692" 
d="M127 0v1087h436v-1087h-436zM24 1217l193 370h256l192 -370h-153l-166 198l-168 -198h-154z" />
    <glyph glyph-name="idieresis" unicode="&#xef;" horiz-adv-x="692" 
d="M127 0v1087h436v-1087h-436zM401 1266v270h252v-270h-252zM39 1266v270h250v-270h-250z" />
    <glyph glyph-name="ntilde" unicode="&#xf1;" horiz-adv-x="1399" 
d="M117 0v1087h393v-159q76 95 169.5 141.5t211.5 46.5q99 0 177 -33t132 -98q49 -59 69.5 -143.5t20.5 -276.5v-565h-432v563q0 124 -33 170.5t-114 46.5q-82 0 -122 -54t-40 -165v-561h-432zM1032 1542q-30 -132 -82.5 -193t-136.5 -61q-22 0 -40.5 2.5t-36.5 8.5l-91 26
q-23 6 -40 9t-28 3q-34 0 -55 -17.5t-35 -57.5h-119q28 125 80.5 185t134.5 60q16 0 38 -4t52 -12l95 -27q12 -4 26 -6t31 -2q33 0 55 22t33 64h119z" />
    <glyph glyph-name="oacute" unicode="&#xf3;" horiz-adv-x="1348" 
d="M496 545q0 -151 41.5 -217t136.5 -66t137.5 66.5t42.5 216.5q0 149 -42.5 214.5t-137.5 65.5t-136.5 -65t-41.5 -215zM59 545q0 270 164 425.5t451 155.5t450.5 -155.5t163.5 -425.5q0 -272 -164 -428t-450 -156t-450.5 156t-164.5 428zM979 1587l-325 -370h-154l192 370
h287z" />
    <glyph glyph-name="ograve" unicode="&#xf2;" horiz-adv-x="1348" 
d="M496 545q0 -151 41.5 -217t136.5 -66t137.5 66.5t42.5 216.5q0 149 -42.5 214.5t-137.5 65.5t-136.5 -65t-41.5 -215zM59 545q0 270 164 425.5t451 155.5t450.5 -155.5t163.5 -425.5q0 -272 -164 -428t-450 -156t-450.5 156t-164.5 428zM369 1587h287l192 -370h-154z" />
    <glyph glyph-name="ocircumflex" unicode="&#xf4;" horiz-adv-x="1348" 
d="M496 545q0 -151 41.5 -217t136.5 -66t137.5 66.5t42.5 216.5q0 149 -42.5 214.5t-137.5 65.5t-136.5 -65t-41.5 -215zM59 545q0 270 164 425.5t451 155.5t450.5 -155.5t163.5 -425.5q0 -272 -164 -428t-450 -156t-450.5 156t-164.5 428zM352 1217l193 370h256l192 -370
h-153l-166 198l-168 -198h-154z" />
    <glyph glyph-name="odieresis" unicode="&#xf6;" horiz-adv-x="1348" 
d="M496 545q0 -151 41.5 -217t136.5 -66t137.5 66.5t42.5 216.5q0 149 -42.5 214.5t-137.5 65.5t-136.5 -65t-41.5 -215zM59 545q0 270 164 425.5t451 155.5t450.5 -155.5t163.5 -425.5q0 -272 -164 -428t-450 -156t-450.5 156t-164.5 428zM729 1266v270h252v-270h-252z
M367 1266v270h250v-270h-250z" />
    <glyph glyph-name="otilde" unicode="&#xf5;" horiz-adv-x="1348" 
d="M496 545q0 -151 41.5 -217t136.5 -66t137.5 66.5t42.5 216.5q0 149 -42.5 214.5t-137.5 65.5t-136.5 -65t-41.5 -215zM59 545q0 270 164 425.5t451 155.5t450.5 -155.5t163.5 -425.5q0 -272 -164 -428t-450 -156t-450.5 156t-164.5 428zM1006 1542q-30 -132 -82.5 -193
t-136.5 -61q-22 0 -40.5 2.5t-36.5 8.5l-91 26q-23 6 -40 9t-28 3q-34 0 -55 -17.5t-35 -57.5h-119q28 125 80.5 185t134.5 60q16 0 38 -4t52 -12l95 -27q12 -4 26 -6t31 -2q33 0 55 22t33 64h119z" />
    <glyph glyph-name="uacute" unicode="&#xfa;" horiz-adv-x="1399" 
d="M1282 1087v-1087h-395v160q-76 -96 -169.5 -142.5t-211.5 -46.5q-99 0 -177 33t-132 98q-48 58 -68 141.5t-20 280.5v563h432v-561q0 -124 33 -171.5t114 -47.5t121.5 55t40.5 166v559h432zM1005 1587l-325 -370h-154l192 370h287z" />
    <glyph glyph-name="ugrave" unicode="&#xf9;" horiz-adv-x="1399" 
d="M1282 1087v-1087h-395v160q-76 -96 -169.5 -142.5t-211.5 -46.5q-99 0 -177 33t-132 98q-48 58 -68 141.5t-20 280.5v563h432v-561q0 -124 33 -171.5t114 -47.5t121.5 55t40.5 166v559h432zM395 1587h287l192 -370h-154z" />
    <glyph glyph-name="ucircumflex" unicode="&#xfb;" horiz-adv-x="1399" 
d="M1282 1087v-1087h-395v160q-76 -96 -169.5 -142.5t-211.5 -46.5q-99 0 -177 33t-132 98q-48 58 -68 141.5t-20 280.5v563h432v-561q0 -124 33 -171.5t114 -47.5t121.5 55t40.5 166v559h432zM378 1217l193 370h256l192 -370h-153l-166 198l-168 -198h-154z" />
    <glyph glyph-name="udieresis" unicode="&#xfc;" horiz-adv-x="1399" 
d="M1282 1087v-1087h-395v160q-76 -96 -169.5 -142.5t-211.5 -46.5q-99 0 -177 33t-132 98q-48 58 -68 141.5t-20 280.5v563h432v-561q0 -124 33 -171.5t114 -47.5t121.5 55t40.5 166v559h432zM755 1266v270h252v-270h-252zM393 1266v270h250v-270h-250z" />
    <glyph glyph-name="dagger" unicode="&#x2020;" 
d="M338 -227v1026h-315v282h315v394h346v-394h313v-282h-313v-1026h-346z" />
    <glyph glyph-name="degree" unicode="&#xb0;" horiz-adv-x="674" 
d="M489 1151q0 62 -45 107t-108 45q-62 0 -106 -44.5t-44 -107.5q0 -64 44 -109t108 -45q62 0 106.5 46t44.5 108zM338 1473q134 0 227.5 -94.5t93.5 -229.5q0 -132 -94.5 -227t-228.5 -95t-228 93.5t-94 228.5q0 134 95.5 229t228.5 95z" />
    <glyph glyph-name="cent" unicode="&#xa2;" horiz-adv-x="1346" 
d="M735 829q-4 1 -14 3q-38 6 -51 6q-97 0 -145 -72.5t-48 -218.5q0 -75 10.5 -129.5t32.5 -93.5zM258 -293l129 309q-158 66 -244 203.5t-86 325.5q0 271 165 426t454 155q43 0 88 -4.5t92 -13.5l86 205h162l-107 -252q132 -62 198.5 -157.5t69.5 -229.5h-393q0 16 -3.5 32
t-10.5 31l-205 -485q5 0 14.5 -1t14.5 -1q82 0 126 43.5t52 130.5h412q-11 -213 -166.5 -338t-411.5 -125q-26 0 -62.5 3t-101.5 11l-108 -268h-164z" />
    <glyph glyph-name="sterling" unicode="&#xa3;" horiz-adv-x="1346" 
d="M221 -23l-186 318q117 68 171 139t54 156q0 15 -1.5 29.5t-4.5 29.5h-178v178h117q-34 61 -50 117t-16 111q0 191 151.5 303t411.5 112q280 0 432 -132t154 -377h-381q-3 93 -48.5 141.5t-129.5 48.5q-71 0 -115.5 -35.5t-44.5 -91.5q0 -33 14.5 -75t55.5 -122h215v-178
h-186q-2 -65 -42.5 -126.5t-124.5 -123.5q54 14 92 20.5t66 6.5q59 0 153.5 -29.5t133.5 -29.5q48 0 97 21t110 69l166 -340q-69 -69 -157 -106.5t-181 -37.5q-95 0 -225 54q-20 8 -29 12q-85 31 -129 41t-84 10q-67 0 -136 -27.5t-145 -85.5z" />
    <glyph glyph-name="section" unicode="&#xa7;" 
d="M635 492q44 16 67 42.5t23 59.5q0 61 -168 135q-102 45 -166 78q-50 -28 -73 -57t-23 -64q0 -55 173 -124q103 -41 167 -70zM78 168h305v-8q0 -65 39 -106.5t100 -41.5q50 0 82.5 26.5t32.5 65.5q0 60 -150 118l-7 3l-154 60q-157 60 -235.5 152.5t-78.5 217.5
q0 95 41.5 160.5t134.5 118.5q-52 45 -78 104t-26 133q0 163 107.5 252.5t302.5 89.5q217 0 330 -93.5t116 -274.5h-313q0 63 -34 100t-91 37q-49 0 -77 -22t-28 -60q0 -36 39 -69t121 -66l160 -68q146 -60 220.5 -151t74.5 -211q0 -100 -44.5 -169.5t-129.5 -103.5
q60 -52 89 -113.5t29 -135.5q0 -155 -115 -245.5t-313 -90.5q-224 0 -336 97.5t-114 293.5z" />
    <glyph glyph-name="bullet" unicode="&#x2022;" horiz-adv-x="1208" 
d="M307 762q0 123 87 209t210 86q122 0 208.5 -86.5t86.5 -208.5t-87.5 -209.5t-209.5 -87.5q-123 0 -209 87t-86 210z" />
    <glyph glyph-name="paragraph" unicode="&#xb6;" 
d="M1014 1337h-101v-1337h-202v1337h-140v-1337h-202v784q-163 8 -261 103t-98 243q0 157 106.5 253t282.5 96h615v-142z" />
    <glyph glyph-name="germandbls" unicode="&#xdf;" horiz-adv-x="1380" 
d="M121 0v1010q0 250 140 373.5t421 123.5q260 0 407.5 -105.5t147.5 -291.5q0 -95 -45 -163t-139 -116q137 -45 202.5 -137.5t65.5 -240.5q0 -221 -129.5 -354.5t-343.5 -133.5q-33 0 -79.5 5.5t-109.5 17.5l1 270q18 -3 35.5 -4.5t33.5 -1.5q82 0 119 47.5t37 153.5
q0 125 -44.5 179t-146.5 54h-30v234h22q75 0 106 33.5t31 115.5q0 79 -34.5 117.5t-106.5 38.5q-75 0 -105 -45t-30 -170v-1010h-426z" />
    <glyph glyph-name="registered" unicode="&#xae;" horiz-adv-x="1706" 
d="M823 1006h-39v-193h54q58 0 88 25t30 73q0 49 -32 72t-101 23zM862 1165q174 0 265.5 -61t91.5 -178q0 -78 -43 -135t-121 -84l178 -355h-279l-145 312h-25v-312h-256v813h334zM1452 743q0 120 -45 229t-129 193q-87 87 -194.5 131.5t-229.5 44.5q-123 0 -230 -43.5
t-190 -128.5q-86 -87 -132 -197t-46 -229t45.5 -227.5t130.5 -193.5q86 -86 194 -131.5t228 -45.5q119 0 228.5 46t197.5 133q85 83 128.5 189.5t43.5 229.5zM852 1493q155 0 292.5 -56t244.5 -163q104 -105 160.5 -243t56.5 -290q0 -154 -55.5 -288.5t-161.5 -237.5
q-111 -108 -250 -166.5t-287 -58.5q-149 0 -284 57t-244 166q-108 107 -165 243t-57 285q0 151 57.5 289t166.5 248q103 105 238 160t288 55z" />
    <glyph glyph-name="copyright" unicode="&#xa9;" horiz-adv-x="1706" 
d="M987 883q-3 63 -38 99t-93 36q-73 0 -114.5 -71.5t-41.5 -201.5q0 -131 41 -196.5t123 -65.5q60 0 92 36.5t35 106.5l248 1q-6 -149 -109 -237.5t-272 -88.5q-195 0 -306.5 116t-111.5 320q0 200 111 323.5t289 123.5q176 0 278.5 -79.5t110.5 -221.5h-242zM1452 743
q0 120 -45 229t-129 193q-87 87 -194.5 131.5t-229.5 44.5q-123 0 -230 -43.5t-190 -128.5q-86 -87 -132 -197t-46 -229t45.5 -227.5t130.5 -193.5q86 -86 194 -131.5t228 -45.5q119 0 228.5 46t197.5 133q85 83 128.5 189.5t43.5 229.5zM852 1493q155 0 292.5 -56
t244.5 -163q104 -105 160.5 -243t56.5 -290q0 -154 -55.5 -288.5t-161.5 -237.5q-111 -108 -250 -166.5t-287 -58.5q-149 0 -284 57t-244 166q-108 107 -165 243t-57 285q0 151 57.5 289t166.5 248q103 105 238 160t288 55z" />
    <glyph glyph-name="trademark" unicode="&#x2122;" horiz-adv-x="1706" 
d="M1044 1468l99 -266l98 266h256v-559h-182v367l-137 -367h-70l-137 367v-367h-183v559h256zM690 1468v-151h-162v-408h-202v408h-162v151h526z" />
    <glyph glyph-name="acute" unicode="&#xb4;" 
d="M817 1587l-325 -370h-154l192 370h287z" />
    <glyph glyph-name="dieresis" unicode="&#xa8;" 
d="M567 1266v270h252v-270h-252zM205 1266v270h250v-270h-250z" />
    <glyph glyph-name="notequal" unicode="&#x2260;" horiz-adv-x="1706" 
d="M1384 1116l-112 -139h180v-260h-358l-172 -211h530v-262h-704l-242 -299l-199 159l113 140h-166v262h340l170 211h-510v260h690l244 301z" />
    <glyph glyph-name="AE" unicode="&#xc6;" horiz-adv-x="2118" 
d="M573 504h336v629h-129zM-59 0l577 1473h1483v-353h-658v-196h547v-338h-547v-228h691v-358h-1125v195h-436l-65 -195h-467z" />
    <glyph glyph-name="Oslash" unicode="&#xd8;" horiz-adv-x="1683" 
d="M662 367q34 -24 77 -36t99 -12q156 0 229.5 105t73.5 330q0 64 -8.5 121.5t-26.5 111.5zM1018 1104q-38 24 -82.5 36.5t-93.5 12.5q-153 0 -226 -101.5t-73 -312.5q0 -73 9 -136t28 -116zM170 -57l139 200q-119 115 -176 257.5t-57 324.5q0 367 203.5 576.5t560.5 209.5
q113 0 210 -21t183 -65l110 156l138 -92l-111 -158q118 -112 177 -259t59 -331q0 -365 -206.5 -573.5t-565.5 -208.5q-117 0 -214 21.5t-174 64.5l-139 -195z" />
    <glyph glyph-name="infinity" unicode="&#x221e;" horiz-adv-x="1706" 
d="M975 561q40 -57 95 -86t124 -29q84 0 137 43t53 109q0 65 -48 109.5t-117 44.5q-66 0 -122.5 -44t-121.5 -147zM731 653q-41 58 -95 86.5t-124 28.5q-84 0 -136 -43t-52 -111q0 -64 47.5 -107.5t117.5 -43.5q67 0 123 44t119 146zM856 791q69 128 149 190.5t175 62.5
q143 0 244.5 -126t101.5 -312q0 -194 -90.5 -315t-233.5 -121q-88 0 -164 53t-188 201q-67 -129 -146.5 -191.5t-175.5 -62.5q-144 0 -245 126t-101 312q0 195 89.5 315.5t232.5 120.5q85 0 161 -53t191 -200z" />
    <glyph glyph-name="plusminus" unicode="&#xb1;" horiz-adv-x="1706" 
d="M1452 231v-272h-1198v272h1198zM993 1262v-310h459v-272h-459v-309h-280v309h-459v272h459v310h280z" />
    <glyph glyph-name="lessequal" unicode="&#x2264;" horiz-adv-x="1706" 
d="M1454 236v-271h-1200v271h1200zM1452 999l-704 -208l704 -209v-281l-1198 371v237l1198 373v-283z" />
    <glyph glyph-name="greaterequal" unicode="&#x2265;" horiz-adv-x="1706" 
d="M1454 236v-271h-1200v271h1200zM1452 909v-237l-1196 -371v281l705 209l-705 208v283z" />
    <glyph glyph-name="yen" unicode="&#xa5;" horiz-adv-x="1497" 
d="M547 0v506h-502v188h410l-68 119h-342v191h234l-252 434h450l277 -537l282 537h437l-246 -434h227v-191h-336l-67 -119h403v-188h-491v-506h-416z" />
    <glyph glyph-name="mu" unicode="&#xb5;" horiz-adv-x="1372" 
d="M602 1087l-84 -614q-2 -22 -3 -33.5t-1 -19.5q0 -68 31.5 -100.5t95.5 -32.5q79 0 124 52t60 161l84 587h418l-158 -1087h-368l18 131q-36 -68 -82.5 -101.5t-105.5 -33.5q-61 0 -105.5 31.5t-70.5 93.5l-72 -543h-412l209 1509h422z" />
    <glyph glyph-name="partialdiff" unicode="&#x2202;" horiz-adv-x="1139" 
d="M770 715q25 127 35 210t10 150q0 105 -26.5 159t-77.5 54q-32 0 -57 -21t-52 -71q-44 -80 -91.5 -119t-100.5 -39q-62 0 -103 37.5t-41 95.5q0 87 102.5 148t249.5 61q224 0 352 -162.5t128 -449.5q0 -348 -167.5 -569.5t-432.5 -221.5q-215 0 -338 115.5t-123 317.5
q0 204 126 340.5t308 136.5q96 0 172 -43.5t127 -128.5zM694 553q0 114 -34 172.5t-99 58.5q-90 0 -150.5 -140.5t-60.5 -354.5q0 -115 34 -172.5t101 -57.5q90 0 149.5 140t59.5 354z" />
    <glyph glyph-name="summation" unicode="&#x2211;" horiz-adv-x="1583" 
d="M80 1473h1368v-353h-778l559 -557l-541 -600h846v-356h-1475v200l664 738l-643 629v299z" />
    <glyph glyph-name="product" unicode="&#x220f;" horiz-adv-x="1688" 
d="M139 1473h1399v-1866h-473v1474h-453v-1474h-473v1866z" />
    <glyph glyph-name="pi" unicode="&#x3c0;" horiz-adv-x="1716" 
d="M1661 846h-180l-119 -846h-418l119 846h-227l-119 -846h-418l119 846h-29q-32 0 -57.5 -37t-32.5 -96h-258q36 216 127.5 295t312.5 79h1221z" />
    <glyph glyph-name="integral" unicode="&#x222b;" horiz-adv-x="1331" 
d="M379 -244q28 0 54 42t42 114q19 92 26 385q4 185 9 293q23 515 144 742t368 227q118 0 190 -58.5t72 -150.5q0 -69 -46 -112.5t-116 -43.5q-67 0 -101 40.5t-34 119.5q0 2 1 10.5t1 15.5q0 26 -8.5 38t-26.5 12q-103 0 -126 -661q-2 -58 -3 -88q-11 -334 -36 -484.5
t-74 -266.5q-65 -150 -166.5 -226.5t-237.5 -76.5q-118 0 -189 57t-71 152q0 72 45 114t121 42q62 0 96.5 -37.5t34.5 -104.5q0 -12 -1 -30t-1 -23q0 -20 8.5 -30.5t24.5 -10.5z" />
    <glyph glyph-name="ordfeminine" unicode="&#xaa;" horiz-adv-x="1059" 
d="M638 1050q-46 -16 -124 -36q-121 -30 -121 -80q0 -33 24 -50.5t68 -17.5q81 0 118.5 35t37.5 111q0 16 -0.5 24t-2.5 14zM668 711l-19 73q-62 -51 -134 -75.5t-163 -24.5q-138 0 -213.5 63t-75.5 179q0 113 74 167t280 78q28 4 73 8q153 15 153 74q0 32 -28.5 47
t-88.5 15q-52 0 -79 -19t-32 -57h-314q1 129 111 194.5t325 65.5q99 0 183.5 -17t133.5 -46q58 -38 81 -84t23 -131v-424q0 -20 9 -36.5t26 -27.5v-22h-325z" />
    <glyph glyph-name="ordmasculine" unicode="&#xba;" horiz-adv-x="1012" 
d="M373 1092q0 -106 31 -151.5t102 -45.5t103 46t32 151q0 104 -32 150t-103 46t-102 -45.5t-31 -150.5zM45 1092q0 189 123.5 298t337.5 109t337.5 -109t123.5 -298q0 -190 -123.5 -299t-337.5 -109t-337.5 109t-123.5 299z" />
    <glyph glyph-name="Omega" unicode="&#x3a9;" horiz-adv-x="1706" 
d="M1671 350v-350h-661v403q67 81 101 176.5t34 202.5q0 165 -80 263t-213 98t-212 -98t-79 -263q0 -107 34 -202.5t101 -176.5v-403h-661v350h371q-144 82 -215.5 209.5t-71.5 300.5q0 291 201.5 471t531.5 180t532.5 -180.5t202.5 -470.5q0 -173 -71.5 -300.5
t-215.5 -209.5h371z" />
    <glyph glyph-name="ae" unicode="&#xe6;" horiz-adv-x="2091" 
d="M1208 666h408q-5 101 -58.5 154.5t-150.5 53.5q-90 0 -141.5 -54t-57.5 -154zM851 485q-67 -25 -177 -54q-170 -45 -170 -118q0 -48 34.5 -75t96.5 -27q115 0 167 51.5t52 165.5q0 23 -0.5 35t-2.5 22zM1006 127q-114 -82 -249 -124t-288 -42q-184 0 -284.5 90.5
t-100.5 255.5q0 161 98.5 238t372.5 112q35 5 95 11q206 22 206 106q0 48 -39.5 69t-130.5 21q-74 0 -107.5 -24.5t-39.5 -81.5l-406 -2v2q0 175 146 271.5t411 96.5q137 0 229 -33t152 -104q69 69 159.5 103t205.5 34q276 0 434 -176.5t158 -488.5v-12l-818 -1
q4 -105 54.5 -158.5t146.5 -53.5q85 0 128 20t54 66h398q-35 -167 -187 -264t-381 -97q-140 0 -246.5 42.5t-170.5 123.5z" />
    <glyph glyph-name="oslash" unicode="&#xf8;" horiz-adv-x="1348" 
d="M141 -41l-75 80l122 119q-67 81 -99 173.5t-32 207.5q0 273 165.5 430t451.5 157q119 0 220.5 -29t176.5 -85l107 116l90 -79l-111 -109q69 -79 101 -171.5t32 -211.5q0 -279 -163.5 -437.5t-452.5 -158.5q-126 0 -228 30.5t-178 90.5zM477 440l346 334q-23 34 -60.5 51
t-88.5 17q-102 0 -152.5 -69.5t-50.5 -209.5q0 -20 2.5 -63.5t3.5 -59.5zM866 661l-350 -342q27 -40 65 -57.5t97 -17.5q102 0 150.5 74t48.5 231q0 26 -3 55t-8 57z" />
    <glyph glyph-name="questiondown" unicode="&#xbf;" horiz-adv-x="1284" 
d="M846 946q2 -32 3 -48.5t1 -29.5q0 -110 -33 -179.5t-104 -110.5q-30 -18 -87 -43q-130 -59 -130 -134q0 -55 38.5 -88.5t104.5 -33.5q75 0 114.5 43t39.5 124v7h428q-13 -239 -165 -366.5t-423 -127.5q-257 0 -413.5 118.5t-156.5 309.5q0 69 19 123.5t57 97.5
q46 52 171 119q47 25 71 39q56 33 72 61t16 82q0 6 -1 18.5t-1 18.5h379zM872 1470v-405h-430v405h430z" />
    <glyph glyph-name="exclamdown" unicode="&#xa1;" horiz-adv-x="768" 
d="M600 1473v-406h-432v406h432zM504 946l100 -577v-369h-440v369l100 577h240z" />
    <glyph glyph-name="logicalnot" unicode="&#xac;" horiz-adv-x="1706" 
d="M1452 868v-501h-272v235h-926v266h1198z" />
    <glyph glyph-name="radical" unicode="&#x221a;" horiz-adv-x="1395" 
d="M1399 1737v-172h-86l-588 -1606h-143l-301 827l-156 -59l-41 154l395 139l209 -600l483 1317h228z" />
    <glyph glyph-name="florin" unicode="&#x192;" horiz-adv-x="1346" 
d="M33 -324l53 258q44 -9 71.5 -13.5t45.5 -4.5q59 0 91.5 33.5t45.5 109.5l102 656h-206v229h245q42 303 146.5 430t306.5 127q68 0 133.5 -9t128.5 -28l-47 -260l-10 2q-78 17 -109 17q-60 0 -90.5 -37.5t-48.5 -147.5l-17 -94h230v-229h-266l-76 -486
q-55 -346 -159.5 -468.5t-326.5 -122.5q-61 0 -121 9.5t-122 28.5z" />
    <glyph glyph-name="approxequal" unicode="&#x2248;" horiz-adv-x="1706" 
d="M1530 309q-106 -69 -195.5 -101t-177.5 -32q-87 0 -280 64.5t-316 64.5q-82 0 -172.5 -37t-210.5 -121v299q115 74 213 108t197 34q119 0 308.5 -64.5t268.5 -64.5q83 0 169 34.5t196 114.5v-299zM1530 774q-106 -70 -195 -101.5t-176 -31.5q-88 0 -281 64.5t-317 64.5
q-84 0 -173 -36t-210 -120v299q116 73 214 106.5t196 33.5q119 0 308.5 -63.5t268.5 -63.5q85 0 171.5 35t193.5 114v-301z" />
    <glyph glyph-name="Delta" unicode="&#x2206;" horiz-adv-x="1505" 
d="M958 309l-206 705l-207 -705h413zM991 1473l518 -1473h-1515l518 1473h479z" />
    <glyph glyph-name="guillemotleft" unicode="&#xab;" horiz-adv-x="1049" 
d="M965 141l-383 248v305l383 246v-276l-191 -123l191 -123v-277zM446 141l-380 248v305l380 246v-276l-190 -123l190 -123v-277z" />
    <glyph glyph-name="guillemotright" unicode="&#xbb;" horiz-adv-x="1049" 
d="M602 940l381 -246v-305l-381 -248v277l189 123l-189 123v276zM84 940l381 -246v-305l-381 -248v277l190 123l-190 123v276z" />
    <glyph glyph-name="ellipsis" unicode="&#x2026;" horiz-adv-x="2048" 
d="M123 0v442h434v-442h-434zM805 0v442h434v-442h-434zM1489 0v442h434v-442h-434z" />
    <glyph glyph-name="nonbreakingspace" unicode="&#xa0;" horiz-adv-x="1346" 
 />
    <glyph glyph-name="Agrave" unicode="&#xc0;" horiz-adv-x="1505" 
d="M602 504h297l-147 510zM-6 0l518 1473h479l518 -1473h-469l-55 195h-469l-57 -195h-465zM449 1972h287l192 -370h-154z" />
    <glyph glyph-name="Atilde" unicode="&#xc3;" horiz-adv-x="1505" 
d="M602 504h297l-147 510zM-6 0l518 1473h479l518 -1473h-469l-55 195h-469l-57 -195h-465zM1086 1927q-30 -132 -82.5 -193t-136.5 -61q-22 0 -40.5 2.5t-36.5 8.5l-91 26q-23 6 -40 9t-28 3q-34 0 -55 -17.5t-35 -57.5h-119q28 125 80.5 185t134.5 60q16 0 38 -4t52 -12
l95 -27q12 -4 26 -6t31 -2q33 0 55 22t33 64h119z" />
    <glyph glyph-name="Otilde" unicode="&#xd5;" horiz-adv-x="1683" 
d="M553 735q0 -209 70 -307t219 -98q148 0 217 97.5t69 307.5q0 211 -69 308.5t-217 97.5q-149 0 -219 -98t-70 -308zM76 735q0 360 205.5 568t560.5 208q354 0 559 -208t205 -568q0 -359 -205 -567.5t-559 -208.5q-355 0 -560.5 208.5t-205.5 567.5zM1174 1927
q-30 -132 -82.5 -193t-136.5 -61q-22 0 -40.5 2.5t-36.5 8.5l-91 26q-23 6 -40 9t-28 3q-34 0 -55 -17.5t-35 -57.5h-119q28 125 80.5 185t134.5 60q16 0 38 -4t52 -12l95 -27q12 -4 26 -6t31 -2q33 0 55 22t33 64h119z" />
    <glyph glyph-name="OE" unicode="&#x152;" horiz-adv-x="2388" 
d="M553 735q0 -213 68.5 -313t214.5 -100q145 0 212.5 99.5t67.5 313.5t-67.5 314t-212.5 100q-146 0 -214.5 -100t-68.5 -314zM1159 119q-68 -77 -163.5 -115.5t-221.5 -38.5q-304 0 -495 213.5t-191 556.5q0 346 190.5 560t495.5 214q120 0 214.5 -38t170.5 -117v119h1092
v-353h-703v-196h594v-338h-594v-228h733v-358h-1122v119z" />
    <glyph glyph-name="oe" unicode="&#x153;" horiz-adv-x="2091" 
d="M1217 666h397q-5 99 -58.5 153.5t-146.5 54.5q-87 0 -137.5 -55t-54.5 -153zM479 545q0 -154 45 -222.5t144 -68.5t143.5 68t44.5 223q0 154 -44 221.5t-144 67.5t-144.5 -68t-44.5 -221zM1030 106q-81 -75 -172 -110t-205 -35q-271 0 -433.5 159t-162.5 425t162.5 423.5
t433.5 157.5q118 0 213 -36.5t172 -112.5q78 77 171.5 113t217.5 36q273 0 437 -174.5t164 -468.5v-34l-811 -1q3 -103 53 -157.5t141 -54.5q79 0 121.5 20t58.5 66h402q-38 -170 -189 -265.5t-385 -95.5q-125 0 -218.5 35t-170.5 110z" />
    <glyph glyph-name="endash" unicode="&#x2013;" 
d="M0 401v297h1024v-297h-1024z" />
    <glyph glyph-name="emdash" unicode="&#x2014;" horiz-adv-x="2048" 
d="M0 401v297h2048v-297h-2048z" />
    <glyph glyph-name="quotedblleft" unicode="&#x201c;" horiz-adv-x="1135" 
d="M121 748v378q0 161 101 261t288 124v-172q-92 -20 -132 -66t-40 -132h172v-393h-389zM625 748v378q0 161 100.5 261t288.5 124v-172q-92 -20 -131 -66t-39 -132h170v-393h-389z" />
    <glyph glyph-name="quotedblright" unicode="&#x201d;" horiz-adv-x="1135" 
d="M1014 1473v-379q0 -161 -101 -261t-288 -124v172q92 20 132 66t40 132h-172v394h389zM510 1473v-379q0 -161 -101 -261t-288 -124v172q91 20 130.5 66t39.5 132h-170v394h389z" />
    <glyph glyph-name="quoteleft" unicode="&#x2018;" horiz-adv-x="631" 
d="M121 745v377q0 162 101 262.5t288 124.5v-172q-92 -20 -132 -66t-40 -132h172v-394h-389z" />
    <glyph glyph-name="quoteright" unicode="&#x2019;" horiz-adv-x="631" 
d="M510 1473v-379q0 -161 -101 -261t-288 -124v172q91 20 130.5 66t39.5 132h-170v394h389z" />
    <glyph glyph-name="divide" unicode="&#xf7;" horiz-adv-x="1706" 
d="M854 371q74 0 128 -54t54 -129q0 -74 -54 -128t-130 -54t-129 53t-53 129q0 77 53.5 130t130.5 53zM1452 748v-273h-1198v273h1198zM854 1217q74 0 128 -55t54 -130q0 -74 -54 -128t-130 -54t-129 53t-53 129q0 77 54 131t130 54z" />
    <glyph glyph-name="lozenge" unicode="&#x25ca;" horiz-adv-x="1012" 
d="M506 1409l-385 -821l385 -821l385 821zM506 1653l500 -1065l-500 -1065l-500 1065z" />
    <glyph glyph-name="ydieresis" unicode="&#xff;" horiz-adv-x="1202" 
d="M133 -428v322h123q63 0 91 21.5t28 70.5q0 21 -5.5 47t-17.5 59l-364 995h438l190 -659l185 659h407l-352 -1081q-60 -182 -92.5 -249.5t-69.5 -102.5q-49 -49 -118 -69.5t-224 -20.5q-45 0 -101 2t-118 6zM657 1266v270h252v-270h-252zM295 1266v270h250v-270h-250z" />
    <glyph glyph-name="Ydieresis" unicode="&#x178;" horiz-adv-x="1507" 
d="M524 0v545l-542 928h524l254 -502l256 502h510l-529 -928v-545h-473zM809 1651v270h252v-270h-252zM447 1651v270h250v-270h-250z" />
    <glyph glyph-name="fraction" unicode="&#x2215;" horiz-adv-x="342" 
d="M-342 -41l821 1518h203l-821 -1518h-203z" />
    <glyph glyph-name="currency" unicode="&#xa4;" horiz-adv-x="1346" 
d="M1325 477q-38 -249 -190.5 -383.5t-397.5 -134.5q-246 0 -405.5 139.5t-212.5 403.5h-144l76 166h51v100h-127l76 166h70q46 258 209 400.5t411 142.5q231 0 382.5 -121.5t193.5 -337.5h-412q-18 64 -60 97.5t-104 33.5q-78 0 -123 -51t-65 -164h367l-74 -166h-309
q-2 -17 -2 -37v-63h276l-74 -166h-184q21 -105 68 -156t120 -51q66 0 110.5 48t59.5 134h414z" />
    <glyph glyph-name="guilsinglleft" unicode="&#x2039;" horiz-adv-x="532" 
d="M446 143l-380 248v305l380 248v-278l-190 -121l190 -123v-279z" />
    <glyph glyph-name="guilsinglright" unicode="&#x203a;" horiz-adv-x="532" 
d="M84 940l381 -246v-305l-381 -248v277l190 123l-190 123v276z" />
    <glyph glyph-name="fi" unicode="&#xf001;" horiz-adv-x="1442" 
d="M887 1198v311h436v-311h-436zM158 0v842h-135v245h135v68q0 182 90.5 268t281.5 86h242v-272q-8 0 -23 1t-22 1q-79 0 -110 -26.5t-31 -92.5q0 -5 1 -15.5t1 -17.5h184v-245h-184v-842h-430zM887 0v1087h436v-1087h-436z" />
    <glyph glyph-name="fi" unicode="&#xfb01;" horiz-adv-x="1442" 
d="M887 1198v311h436v-311h-436zM158 0v842h-135v245h135v68q0 182 90.5 268t281.5 86h242v-272q-8 0 -23 1t-22 1q-79 0 -110 -26.5t-31 -92.5q0 -5 1 -15.5t1 -17.5h184v-245h-184v-842h-430zM887 0v1087h436v-1087h-436z" />
    <glyph glyph-name="fl" unicode="&#xf002;" horiz-adv-x="1442" 
d="M158 0v842h-135v245h135v68q0 182 90.5 268t281.5 86h242v-272q-8 0 -23 1t-22 1q-79 0 -110 -26.5t-31 -92.5q0 -5 1 -15.5t1 -17.5h184v-245h-184v-842h-430zM893 0v1473h436v-1473h-436z" />
    <glyph glyph-name="fl" unicode="&#xfb02;" horiz-adv-x="1442" 
d="M158 0v842h-135v245h135v68q0 182 90.5 268t281.5 86h242v-272q-8 0 -23 1t-22 1q-79 0 -110 -26.5t-31 -92.5q0 -5 1 -15.5t1 -17.5h184v-245h-184v-842h-430zM893 0v1473h436v-1473h-436z" />
    <glyph glyph-name="daggerdbl" unicode="&#x2021;" 
d="M346 -225v338h-305v276h305v471h-305v268h305v345h330v-345h305v-268h-305v-471h305v-276h-305v-338h-330z" />
    <glyph glyph-name="periodcentered" unicode="&#xb7;" horiz-adv-x="674" 
d="M121 717q0 92 62 154.5t153 62.5q90 0 153.5 -63.5t63.5 -153.5q0 -89 -63.5 -152t-153.5 -63q-91 0 -153 62t-62 153z" />
    <glyph glyph-name="quotesinglbase" unicode="&#x201a;" horiz-adv-x="631" 
d="M510 408v-377q0 -162 -101 -262.5t-288 -124.5v172q91 20 130.5 66t39.5 132h-170v394h389z" />
    <glyph glyph-name="quotedblbase" unicode="&#x201e;" horiz-adv-x="1135" 
d="M1014 408v-377q0 -162 -101 -262.5t-288 -124.5v172q92 20 132 66t40 132h-172v394h389zM510 408v-377q0 -162 -101 -262.5t-288 -124.5v172q91 20 130.5 66t39.5 132h-170v394h389z" />
    <glyph glyph-name="perthousand" unicode="&#x2030;" horiz-adv-x="3074" 
d="M2413 403q0 -70 48.5 -117.5t121.5 -47.5q70 0 120 48t50 117q0 71 -50 120.5t-120 49.5q-71 0 -120.5 -49.5t-49.5 -120.5zM2138 403q0 188 128.5 316.5t316.5 128.5q182 0 313 -130.5t131 -314.5q0 -182 -131 -313t-313 -131q-188 0 -316.5 128.5t-128.5 315.5z
M1425 403q0 -71 48.5 -120.5t119.5 -49.5q70 0 120 50.5t50 119.5q0 71 -49.5 120.5t-120.5 49.5q-70 0 -119 -49.5t-49 -120.5zM1151 403q0 188 127.5 316.5t314.5 128.5q183 0 314 -130.5t131 -314.5q0 -182 -131 -313t-314 -131q-187 0 -314.5 128.5t-127.5 315.5z
M530 -41l822 1518h202l-821 -1518h-203zM322 1032q0 -71 49 -119.5t121 -48.5q70 0 118.5 49t48.5 119q0 71 -48.5 120.5t-118.5 49.5q-71 0 -120.5 -49.5t-49.5 -120.5zM47 1032q0 188 128.5 316.5t316.5 128.5q182 0 312 -130.5t130 -314.5q0 -183 -130 -312.5
t-312 -129.5q-188 0 -316.5 127.5t-128.5 314.5z" />
    <glyph glyph-name="Acircumflex" unicode="&#xc2;" horiz-adv-x="1505" 
d="M602 504h297l-147 510zM-6 0l518 1473h479l518 -1473h-469l-55 195h-469l-57 -195h-465zM432 1602l193 370h256l192 -370h-153l-166 198l-168 -198h-154z" />
    <glyph glyph-name="Ecircumflex" unicode="&#xca;" horiz-adv-x="1427" 
d="M139 0v1473h1178v-353h-705v-196h596v-338h-596v-228h734v-358h-1207zM393 1602l193 370h256l192 -370h-153l-166 198l-168 -198h-154z" />
    <glyph glyph-name="Aacute" unicode="&#xc1;" horiz-adv-x="1505" 
d="M602 504h297l-147 510zM-6 0l518 1473h479l518 -1473h-469l-55 195h-469l-57 -195h-465zM1059 1972l-325 -370h-154l192 370h287z" />
    <glyph glyph-name="Edieresis" unicode="&#xcb;" horiz-adv-x="1427" 
d="M139 0v1473h1178v-353h-705v-196h596v-338h-596v-228h734v-358h-1207zM770 1651v270h252v-270h-252zM408 1651v270h250v-270h-250z" />
    <glyph glyph-name="Egrave" unicode="&#xc8;" horiz-adv-x="1427" 
d="M139 0v1473h1178v-353h-705v-196h596v-338h-596v-228h734v-358h-1207zM410 1972h287l192 -370h-154z" />
    <glyph glyph-name="Iacute" unicode="&#xcd;" horiz-adv-x="778" 
d="M147 0v1473h482v-1473h-482zM694 1972l-325 -370h-154l192 370h287z" />
    <glyph glyph-name="Icircumflex" unicode="&#xce;" horiz-adv-x="778" 
d="M147 0v1473h482v-1473h-482zM67 1602l193 370h256l192 -370h-153l-166 198l-168 -198h-154z" />
    <glyph glyph-name="Idieresis" unicode="&#xcf;" horiz-adv-x="778" 
d="M147 0v1473h482v-1473h-482zM444 1651v270h252v-270h-252zM82 1651v270h250v-270h-250z" />
    <glyph glyph-name="Igrave" unicode="&#xcc;" horiz-adv-x="778" 
d="M147 0v1473h482v-1473h-482zM84 1972h287l192 -370h-154z" />
    <glyph glyph-name="Oacute" unicode="&#xd3;" horiz-adv-x="1683" 
d="M553 735q0 -209 70 -307t219 -98q148 0 217 97.5t69 307.5q0 211 -69 308.5t-217 97.5q-149 0 -219 -98t-70 -308zM76 735q0 360 205.5 568t560.5 208q354 0 559 -208t205 -568q0 -359 -205 -567.5t-559 -208.5q-355 0 -560.5 208.5t-205.5 567.5zM1147 1972l-325 -370
h-154l192 370h287z" />
    <glyph glyph-name="Ocircumflex" unicode="&#xd4;" horiz-adv-x="1683" 
d="M553 735q0 -209 70 -307t219 -98q148 0 217 97.5t69 307.5q0 211 -69 308.5t-217 97.5q-149 0 -219 -98t-70 -308zM76 735q0 360 205.5 568t560.5 208q354 0 559 -208t205 -568q0 -359 -205 -567.5t-559 -208.5q-355 0 -560.5 208.5t-205.5 567.5zM520 1602l193 370h256
l192 -370h-153l-166 198l-168 -198h-154z" />
    <glyph glyph-name="apple" unicode="&#xf000;" horiz-adv-x="1618" 
d="M836 1216q-1 6 -1.5 14t-0.5 23q0 124 95 229.5t236 131.5q1 -10 1.5 -23t0.5 -39q0 -131 -103.5 -234.5t-203.5 -103.5h-8q-3 0 -7.5 1t-8.5 1zM1505 403q-114 -247 -205 -342.5t-204 -95.5q-50 0 -131.5 33t-122.5 33q-45 0 -131 -33t-127 -33q-64 0 -128.5 44
t-129.5 132q-102 140 -157.5 295.5t-55.5 300.5q0 219 125 356.5t323 137.5q68 0 155 -34t124 -34q34 0 121.5 34t152.5 34q111 0 199 -39.5t160 -122.5q-102 -65 -151.5 -145.5t-49.5 -182.5q0 -113 60 -200t173 -138z" />
    <glyph glyph-name="Ograve" unicode="&#xd2;" horiz-adv-x="1683" 
d="M553 735q0 -209 70 -307t219 -98q148 0 217 97.5t69 307.5q0 211 -69 308.5t-217 97.5q-149 0 -219 -98t-70 -308zM76 735q0 360 205.5 568t560.5 208q354 0 559 -208t205 -568q0 -359 -205 -567.5t-559 -208.5q-355 0 -560.5 208.5t-205.5 567.5zM537 1972h287l192 -370
h-154z" />
    <glyph glyph-name="Uacute" unicode="&#xda;" horiz-adv-x="1669" 
d="M135 1473h473v-908q0 -126 52.5 -179.5t175.5 -53.5q120 0 171.5 52.5t51.5 180.5v908h473v-945q0 -277 -178.5 -423t-517.5 -146q-341 0 -521 146.5t-180 422.5v945zM1141 1972l-325 -370h-154l192 370h287z" />
    <glyph glyph-name="Ucircumflex" unicode="&#xdb;" horiz-adv-x="1669" 
d="M135 1473h473v-908q0 -126 52.5 -179.5t175.5 -53.5q120 0 171.5 52.5t51.5 180.5v908h473v-945q0 -277 -178.5 -423t-517.5 -146q-341 0 -521 146.5t-180 422.5v945zM514 1602l193 370h256l192 -370h-153l-166 198l-168 -198h-154z" />
    <glyph glyph-name="Ugrave" unicode="&#xd9;" horiz-adv-x="1669" 
d="M135 1473h473v-908q0 -126 52.5 -179.5t175.5 -53.5q120 0 171.5 52.5t51.5 180.5v908h473v-945q0 -277 -178.5 -423t-517.5 -146q-341 0 -521 146.5t-180 422.5v945zM531 1972h287l192 -370h-154z" />
    <glyph glyph-name="dotlessi" unicode="&#x131;" horiz-adv-x="692" 
d="M127 0v1087h436v-1087h-436z" />
    <glyph glyph-name="circumflex" unicode="&#x2c6;" 
d="M190 1217l193 370h256l192 -370h-153l-166 198l-168 -198h-154z" />
    <glyph glyph-name="tilde" unicode="&#x2dc;" 
d="M844 1542q-30 -132 -82.5 -193t-136.5 -61q-22 0 -40.5 2.5t-36.5 8.5l-91 26q-23 6 -40 9t-28 3q-34 0 -55 -17.5t-35 -57.5h-119q28 125 80.5 185t134.5 60q16 0 38 -4t52 -12l95 -27q12 -4 26 -6t31 -2q33 0 55 22t33 64h119z" />
    <glyph glyph-name="macron" unicode="&#xaf;" 
d="M205 1317v168h614v-168h-614z" />
    <glyph glyph-name="breve" unicode="&#x2d8;" 
d="M197 1554h131q6 -71 50.5 -105t133.5 -34t134 34.5t48 104.5h131q-12 -159 -88 -234t-225 -75t-227 76.5t-88 232.5z" />
    <glyph glyph-name="dotaccent" unicode="&#x2d9;" 
d="M383 1262v280h260v-280h-260z" />
    <glyph glyph-name="ring" unicode="&#x2da;" 
d="M397 1468q0 -48 33 -81t82 -33q48 0 81.5 33.5t33.5 80.5q0 48 -33.5 81.5t-81.5 33.5t-81.5 -33.5t-33.5 -81.5zM242 1468q0 114 78 192.5t192 78.5t193 -78.5t79 -192.5q0 -113 -79 -192.5t-193 -79.5t-192 78.5t-78 193.5z" />
    <glyph glyph-name="cedilla" unicode="&#xb8;" 
d="M272 -440v139q80 -22 149.5 -33.5t121.5 -11.5q43 0 64.5 17.5t21.5 54.5q0 32 -28.5 47.5t-90.5 15.5q-21 0 -33 -0.5t-22 -1.5v213h114v-84h19q111 0 170 -49.5t59 -142.5q0 -100 -66 -154.5t-188 -54.5q-61 0 -134 11t-157 34z" />
    <glyph glyph-name="hungarumlaut" unicode="&#x2dd;" 
d="M569 1217l156 370h254l-291 -370h-119zM397 1587h246l-252 -370h-110z" />
    <glyph glyph-name="ogonek" unicode="&#x2db;" 
d="M633 0q-63 -58 -91 -104.5t-28 -92.5q0 -41 18.5 -60t57.5 -19h102v-191h-74q-156 0 -221 45.5t-65 151.5q0 76 46.5 141t145.5 129h109z" />
    <glyph glyph-name="caron" unicode="&#x2c7;" 
d="M190 1587h154l168 -201l166 201h153l-192 -370h-256z" />
    <glyph glyph-name="Lslash" unicode="&#x141;" horiz-adv-x="1319" 
d="M150 0v530l-119 -79l-129 221l248 164v637h473v-377l258 168l133 -220l-391 -253v-400h641v-391h-1114z" />
    <glyph glyph-name="lslash" unicode="&#x142;" horiz-adv-x="711" 
d="M137 0v522l-88 -57l-117 180l205 133v695h436v-469l99 63l114 -178l-213 -139v-750h-436z" />
    <glyph glyph-name="Scaron" unicode="&#x160;" horiz-adv-x="1460" 
d="M70 459h460q19 -80 69 -115t149 -35q83 0 130.5 28.5t47.5 78.5q0 80 -199 130q-40 10 -61 15q-163 42 -259.5 76.5t-140.5 64.5q-85 61 -127.5 146t-42.5 194q0 219 165 344t454 125q284 0 447 -119.5t184 -342.5h-449q-11 65 -57.5 97t-132.5 32q-76 0 -113 -25
t-37 -76q0 -73 194 -122q17 -5 26 -7q28 -7 85 -21q257 -65 336 -118q98 -65 143 -148t45 -196q0 -244 -170.5 -375t-488.5 -131q-293 0 -464.5 131t-192.5 369zM409 1972h154l168 -201l166 201h153l-192 -370h-256z" />
    <glyph glyph-name="scaron" unicode="&#x161;" horiz-adv-x="1253" 
d="M63 342h420q0 -69 35.5 -103t106.5 -34q68 0 104.5 23t36.5 67q0 73 -161 108q-14 3 -22 5q-305 65 -398 140t-93 220q0 175 136.5 266.5t398.5 91.5q243 0 376.5 -86t153.5 -256h-389q-5 49 -42.5 78t-94.5 29t-87 -19.5t-30 -56.5q0 -65 147 -96q39 -8 59 -12
q296 -68 385 -144.5t89 -224.5q0 -187 -145.5 -282t-430.5 -95q-264 0 -402.5 95t-152.5 286zM305 1587h154l168 -201l166 201h153l-192 -370h-256z" />
    <glyph glyph-name="Zcaron" unicode="&#x17d;" horiz-adv-x="1444" 
d="M70 0v354l682 738h-660v381h1241v-351l-690 -743h727v-379h-1300zM401 1972h154l168 -201l166 201h153l-192 -370h-256z" />
    <glyph glyph-name="zcaron" unicode="&#x17e;" horiz-adv-x="1096" 
d="M27 0v293l495 477h-452v317h962v-290l-483 -480h508v-317h-1030zM227 1587h154l168 -201l166 201h153l-192 -370h-256z" />
    <glyph glyph-name="brokenbar" unicode="&#xa6;" 
d="M653 408v-758h-280v758h280zM653 1432v-758h-280v758h280z" />
    <glyph glyph-name="Eth" unicode="&#xd0;" horiz-adv-x="1614" 
d="M150 0v647h-150v246h150v580h571q218 0 323.5 -19.5t184.5 -64.5q153 -90 230 -253t77 -401q0 -250 -94.5 -420.5t-280.5 -253.5q-72 -33 -180.5 -47t-347.5 -14h-483zM623 373h127q176 0 244.5 79t68.5 283q0 199 -69.5 282t-237.5 83h-133v-207h208v-246h-208v-274z
" />
    <glyph glyph-name="eth" unicode="&#xf0;" horiz-adv-x="1348" 
d="M496 514q0 -135 41.5 -193.5t136.5 -58.5t137.5 59t42.5 193q0 132 -43 192t-137 60q-95 0 -136.5 -58.5t-41.5 -193.5zM772 961q-43 60 -187 172l-20 16l-332 -166l-61 135l241 123q-13 7 -37 19q-68 35 -91 43l114 206q52 -15 125.5 -44.5t202.5 -88.5l281 142l67 -129
l-207 -107q215 -151 318.5 -336t103.5 -416q0 -271 -161.5 -420t-454.5 -149q-285 0 -450 145t-165 396q0 230 141.5 364.5t383.5 134.5q57 0 103 -10t85 -30z" />
    <glyph glyph-name="Yacute" unicode="&#xdd;" horiz-adv-x="1507" 
d="M524 0v545l-542 928h524l254 -502l256 502h510l-529 -928v-545h-473zM1059 1972l-325 -370h-154l192 370h287z" />
    <glyph glyph-name="yacute" unicode="&#xfd;" horiz-adv-x="1202" 
d="M133 -428v322h123q63 0 91 21.5t28 70.5q0 21 -5.5 47t-17.5 59l-364 995h438l190 -659l185 659h407l-352 -1081q-60 -182 -92.5 -249.5t-69.5 -102.5q-49 -49 -118 -69.5t-224 -20.5q-45 0 -101 2t-118 6zM907 1587l-325 -370h-154l192 370h287z" />
    <glyph glyph-name="Thorn" unicode="&#xde;" horiz-adv-x="1511" 
d="M612 647h152q146 0 197 33.5t51 118.5q0 84 -47 116.5t-201 32.5h-152v-301zM139 0v1473h473v-164h133q202 0 319.5 -23.5t195.5 -75.5q102 -69 152 -170t50 -241q0 -248 -145.5 -379t-421.5 -131h-283v-289h-473z" />
    <glyph glyph-name="thorn" unicode="&#xfe;" horiz-adv-x="1386" 
d="M895 541q0 128 -43 190t-131 62q-95 0 -138.5 -60.5t-43.5 -191.5q0 -123 44.5 -184.5t133.5 -61.5q88 0 133 62t45 184zM119 -436v1909h420v-496q49 68 129.5 103.5t185.5 35.5q211 0 342 -158.5t131 -416.5q0 -260 -128.5 -419t-338.5 -159q-111 0 -187 33t-134 106
v-538h-420z" />
    <glyph glyph-name="minus" unicode="&#x2212;" horiz-adv-x="1706" 
d="M1452 750v-277h-1198v277h1198z" />
    <glyph glyph-name="multiply" unicode="&#xd7;" horiz-adv-x="1706" 
d="M874 805l426 426l195 -195l-426 -426l426 -426l-195 -194l-426 426l-425 -426l-195 194l426 426l-426 426l195 195z" />
    <glyph glyph-name="onesuperior" unicode="&#xb9;" horiz-adv-x="889" 
d="M348 575v502h-213v178q135 4 197.5 45.5t79.5 137.5h215v-863h-279z" />
    <glyph glyph-name="twosuperior" unicode="&#xb2;" horiz-adv-x="889" 
d="M37 575q0 5 -1 11.5t-1 9.5q0 92 62.5 174.5t199.5 169.5q37 24 102 62q154 89 154 155q0 52 -30.5 81.5t-84.5 29.5q-67 0 -100 -38.5t-33 -117.5v-16h-252v24q0 160 107 251t293 91q171 0 273.5 -76.5t102.5 -203.5q0 -83 -40 -137.5t-163 -123.5q-15 -8 -48 -26
q-116 -62 -177 -109h424v-211h-788z" />
    <glyph glyph-name="threesuperior" unicode="&#xb3;" horiz-adv-x="889" 
d="M45 881l260 -1q2 -64 34.5 -95t98.5 -31q58 0 88.5 25.5t30.5 74.5q0 50 -35.5 72t-118.5 22h-24v150h20q76 0 114 22t38 66q0 39 -27.5 59.5t-79.5 20.5q-57 0 -87 -23.5t-33 -70.5h-256q3 131 107.5 210.5t275.5 79.5q164 0 263 -69t99 -183q0 -58 -26 -99.5t-78 -68.5
q64 -23 96.5 -71t32.5 -121q0 -141 -108 -220t-300 -79q-177 0 -281 84t-104 227v19z" />
    <glyph glyph-name="onequarter" unicode="&#xbc;" horiz-adv-x="2038" 
d="M1425 350h220v236zM1638 0v168h-415v194l422 443h251v-455h107v-182h-107v-168h-258zM506 -41l821 1518h203l-821 -1518h-203zM334 633v467h-203v167q125 2 185.5 41t76.5 130h205v-805h-264z" />
    <glyph glyph-name="onehalf" unicode="&#xbd;" horiz-adv-x="2038" 
d="M1225 0q0 3 -1 9.5t-1 10.5q0 86 59.5 162t192.5 158q35 23 98 59q145 83 145 144q0 48 -29 75t-81 27q-64 0 -95.5 -36t-31.5 -109v-15h-240v25q0 149 101.5 233t279.5 84q163 0 260.5 -71t97.5 -189q0 -77 -37.5 -128t-154.5 -115q-14 -8 -44 -24q-112 -59 -171 -103
h405v-197h-753zM506 -41l821 1518h203l-821 -1518h-203zM334 633v467h-203v167q125 2 185.5 41t76.5 130h205v-805h-264z" />
    <glyph glyph-name="threequarters" unicode="&#xbe;" horiz-adv-x="2038" 
d="M1425 350h220v236zM1638 0v168h-415v194l422 443h251v-455h107v-182h-107v-168h-258zM506 -41l821 1518h203l-821 -1518h-203zM43 918l248 -1q2 -60 33 -89t94 -29q56 0 85 24t29 70t-34.5 67t-112.5 21h-23v139h19q72 0 107.5 20.5t35.5 61.5q0 37 -25.5 56.5
t-74.5 19.5q-56 0 -84.5 -22t-30.5 -66h-243q1 121 101 195.5t263 74.5q158 0 252 -64t94 -169q0 -55 -25.5 -95t-74.5 -63q62 -22 92.5 -66.5t30.5 -113.5q0 -131 -103 -205t-286 -74q-169 0 -268 78.5t-99 212.5v17z" />
    <glyph glyph-name="franc" unicode="&#x20a3;" horiz-adv-x="2230" 
d="M139 0v1473h1114v-371h-641v-228h510v-356h-510v-518h-473zM1413 0v1087h399v-198q43 118 123.5 172.5t214.5 54.5h39v-431q-24 2 -46 3.5t-42 1.5q-131 0 -192.5 -59t-61.5 -185v-446h-434z" />
    <glyph glyph-name="Gbreve" unicode="&#x11e;" horiz-adv-x="1669" 
d="M1235 0l-23 127q-80 -85 -193 -126.5t-263 -41.5q-316 0 -498 207.5t-182 568.5q0 369 203 572.5t569 203.5q288 0 464.5 -143t209.5 -403h-449q-27 88 -87.5 134t-149.5 46q-142 0 -212.5 -109t-70.5 -325q0 -200 71 -299t216 -99q104 0 176.5 48.5t89.5 130.5h-213v315
h647v-807h-305zM521 1939h131q6 -71 50.5 -105t133.5 -34t134 34.5t48 104.5h131q-12 -159 -88 -234t-225 -75t-227 76.5t-88 232.5z" />
    <glyph glyph-name="gbreve" unicode="&#x11f;" horiz-adv-x="1386" 
d="M496 551q0 -131 43 -194.5t131 -63.5q93 0 137.5 62t44.5 194q0 118 -47.5 183t-134.5 65q-88 0 -131 -61.5t-43 -184.5zM137 -117h428q8 -39 37.5 -56t89.5 -17q95 0 128.5 42t33.5 185v59q-55 -53 -130.5 -79.5t-172.5 -26.5q-220 0 -352.5 150.5t-132.5 400.5
q0 263 126.5 419t337.5 156q118 0 205.5 -41.5t151.5 -128.5v141h383v-1003q0 -284 -139 -403t-469 -119q-229 0 -366 84t-159 237zM379 1554h131q6 -71 50.5 -105t133.5 -34t134 34.5t48 104.5h131q-12 -159 -88 -234t-225 -75t-227 76.5t-88 232.5z" />
    <glyph glyph-name="Idotaccent" unicode="&#x130;" horiz-adv-x="778" 
d="M147 0v1473h482v-1473h-482zM260 1647v280h260v-280h-260z" />
    <glyph glyph-name="Scedilla" unicode="&#x15e;" horiz-adv-x="1460" 
d="M70 459h460q19 -80 69 -115t149 -35q83 0 130.5 28.5t47.5 78.5q0 80 -199 130q-40 10 -61 15q-163 42 -259.5 76.5t-140.5 64.5q-85 61 -127.5 146t-42.5 194q0 219 165 344t454 125q284 0 447 -119.5t184 -342.5h-449q-11 65 -57.5 97t-132.5 32q-76 0 -113 -25
t-37 -76q0 -73 194 -122q17 -5 26 -7q28 -7 85 -21q257 -65 336 -118q98 -65 143 -148t45 -196q0 -244 -170.5 -375t-488.5 -131q-293 0 -464.5 131t-192.5 369zM491 -440v139q80 -22 149.5 -33.5t121.5 -11.5q43 0 64.5 17.5t21.5 54.5q0 32 -28.5 47.5t-90.5 15.5
q-21 0 -33 -0.5t-22 -1.5v213h114v-84h19q111 0 170 -49.5t59 -142.5q0 -100 -66 -154.5t-188 -54.5q-61 0 -134 11t-157 34z" />
    <glyph glyph-name="scedilla" unicode="&#x15f;" horiz-adv-x="1253" 
d="M63 342h420q0 -69 35.5 -103t106.5 -34q68 0 104.5 23t36.5 67q0 73 -161 108q-14 3 -22 5q-305 65 -398 140t-93 220q0 175 136.5 266.5t398.5 91.5q243 0 376.5 -86t153.5 -256h-389q-5 49 -42.5 78t-94.5 29t-87 -19.5t-30 -56.5q0 -65 147 -96q39 -8 59 -12
q296 -68 385 -144.5t89 -224.5q0 -187 -145.5 -282t-430.5 -95q-264 0 -402.5 95t-152.5 286zM387 -440v139q80 -22 149.5 -33.5t121.5 -11.5q43 0 64.5 17.5t21.5 54.5q0 32 -28.5 47.5t-90.5 15.5q-21 0 -33 -0.5t-22 -1.5v213h114v-84h19q111 0 170 -49.5t59 -142.5
q0 -100 -66 -154.5t-188 -54.5q-61 0 -134 11t-157 34z" />
    <glyph glyph-name="Cacute" unicode="&#x106;" horiz-adv-x="1602" 
d="M1094 571h448q-20 -291 -205 -451.5t-501 -160.5q-354 0 -557 207.5t-203 568.5q0 360 201 568t548 208q320 0 503.5 -154.5t205.5 -441.5h-453q-10 113 -73 170.5t-177 57.5q-139 0 -208.5 -101.5t-69.5 -306.5q0 -201 74 -304t217 -103q110 0 174.5 63t75.5 180z
M1139 1972l-325 -370h-154l192 370h287z" />
    <glyph glyph-name="cacute" unicode="&#x107;" horiz-adv-x="1335" 
d="M842 424h432q-14 -215 -171.5 -339t-418.5 -124q-289 0 -457 157t-168 427t166 425.5t455 155.5q262 0 422 -122.5t168 -329.5h-432q-7 77 -46 114t-114 37q-94 0 -138 -67.5t-44 -212.5q0 -147 42.5 -215t135.5 -68q75 0 117.5 41t50.5 121zM991 1587l-325 -370h-154
l192 370h287z" />
    <glyph glyph-name="Ccaron" unicode="&#x10c;" horiz-adv-x="1602" 
d="M1094 571h448q-20 -291 -205 -451.5t-501 -160.5q-354 0 -557 207.5t-203 568.5q0 360 201 568t548 208q320 0 503.5 -154.5t205.5 -441.5h-453q-10 113 -73 170.5t-177 57.5q-139 0 -208.5 -101.5t-69.5 -306.5q0 -201 74 -304t217 -103q110 0 174.5 63t75.5 180z
M512 1972h154l168 -201l166 201h153l-192 -370h-256z" />
    <glyph glyph-name="ccaron" unicode="&#x10d;" horiz-adv-x="1335" 
d="M842 424h432q-14 -215 -171.5 -339t-418.5 -124q-289 0 -457 157t-168 427t166 425.5t455 155.5q262 0 422 -122.5t168 -329.5h-432q-7 77 -46 114t-114 37q-94 0 -138 -67.5t-44 -212.5q0 -147 42.5 -215t135.5 -68q75 0 117.5 41t50.5 121zM364 1587h154l168 -201
l166 201h153l-192 -370h-256z" />
    <glyph glyph-name="dcroat" unicode="&#x111;" horiz-adv-x="1397" 
d="M848 961v215h-324v198h324v99h422v-99h127v-198h-127v-1176h-383v133q-72 -87 -159.5 -129.5t-197.5 -42.5q-207 0 -337 157.5t-130 411.5t131.5 413t340.5 159q94 0 166 -32.5t147 -108.5zM674 281q83 0 130.5 66.5t47.5 184.5q0 129 -44 190.5t-134 61.5t-133 -61.5
t-43 -190.5q0 -118 46.5 -184.5t129.5 -66.5z" />
    <glyph glyph-name="sfthyphen" unicode="&#xad;" horiz-adv-x="717" 
d="M100 358v385h516v-385h-516z" />
    <glyph glyph-name="periodcentered" unicode="&#x2219;" horiz-adv-x="674" 
d="M121 717q0 92 62 154.5t153 62.5q90 0 153.5 -63.5t63.5 -153.5q0 -89 -63.5 -152t-153.5 -63q-91 0 -153 62t-62 153z" />
    <glyph glyph-name="Euro" horiz-adv-x="1346" 
d="M1325 477q-38 -249 -190.5 -383.5t-397.5 -134.5q-246 0 -405.5 139.5t-212.5 403.5h-144l76 166h51v100h-127l76 166h70q46 258 209 400.5t411 142.5q231 0 382.5 -121.5t193.5 -337.5h-412q-18 64 -60 97.5t-104 33.5q-78 0 -123 -51t-65 -164h367l-74 -166h-309
q-2 -17 -2 -37v-63h276l-74 -166h-184q21 -105 68 -156t120 -51q66 0 110.5 48t59.5 134h414z" />
    <glyph glyph-name="Euro" unicode="&#x20ac;" horiz-adv-x="1346" 
d="M1325 477q-38 -249 -190.5 -383.5t-397.5 -134.5q-246 0 -405.5 139.5t-212.5 403.5h-144l76 166h51v100h-127l76 166h70q46 258 209 400.5t411 142.5q231 0 382.5 -121.5t193.5 -337.5h-412q-18 64 -60 97.5t-104 33.5q-78 0 -123 -51t-65 -164h367l-74 -166h-309
q-2 -17 -2 -37v-63h276l-74 -166h-184q21 -105 68 -156t120 -51q66 0 110.5 48t59.5 134h414z" />
    </font>
</defs>
</svg>
