<?xml version="1.0" standalone="no"?>
<!DOCTYPE svg PUBLIC "-//W3C//DTD SVG 1.1//EN" "http://www.w3.org/Graphics/SVG/1.1/DTD/svg11.dtd" >
<svg xmlns="http://www.w3.org/2000/svg" xmlns:xlink="http://www.w3.org/1999/xlink" version="1.1">
<metadata>
Created by FontForge 20141024 at Tue May 19 08:34:09 2015
 By System Administrator
Copyright 1990-2001 Bitstream Inc. All rights reserved.
</metadata>
<defs>
<font id="BroadwayBT-Regular" horiz-adv-x="1024" >
  <font-face 
    font-family="Broadway BT"
    font-weight="400"
    font-stretch="normal"
    units-per-em="2048"
    panose-1="4 4 9 5 8 11 2 2 5 2"
    ascent="1556"
    descent="-492"
    x-height="1157"
    cap-height="1446"
    bbox="-285 -483 2873 1972"
    underline-thickness="416"
    underline-position="-97"
    unicode-range="U+0020-F002"
  />
<missing-glyph horiz-adv-x="1229" 
d="M102 -362v1806h1024v-1806h-1024zM217 -248h795v1577h-795v-1577z" />
    <glyph glyph-name=".notdef" horiz-adv-x="1229" 
d="M102 -362v1806h1024v-1806h-1024zM217 -248h795v1577h-795v-1577z" />
    <glyph glyph-name=".null" horiz-adv-x="0" 
 />
    <glyph glyph-name="nonmarkingreturn" horiz-adv-x="715" 
 />
    <glyph glyph-name="space" unicode=" " horiz-adv-x="715" 
 />
    <glyph glyph-name="exclam" unicode="!" horiz-adv-x="788" 
d="M358 588q-12 88 -45.5 164t-109.5 176q-75 95 -102 158.5t-27 132.5q0 123 87.5 197.5t233.5 74.5q145 0 232.5 -74.5t87.5 -197.5q0 -69 -27.5 -132.5t-101.5 -158.5q-79 -103 -112.5 -178.5t-45.5 -161.5h-70zM84 205q0 109 85 176.5t224 67.5q141 0 226.5 -67.5
t85.5 -176.5q0 -110 -85 -177t-227 -67q-141 0 -225 66.5t-84 177.5z" />
    <glyph glyph-name="quotedbl" unicode="&#x22;" horiz-adv-x="729" 
d="M565 838h-49l-92 467q-3 15 -3.5 22t-0.5 14q0 55 33.5 89t87.5 34t87.5 -34t33.5 -89q-1 -7 -1.5 -14t-3.5 -23zM213 838h-49l-92 466q-3 16 -3.5 23t-0.5 14q0 55 33 89t87 34t87.5 -34t33.5 -89q0 -7 -0.5 -14t-3.5 -23z" />
    <glyph glyph-name="numbersign" unicode="#" horiz-adv-x="1575" 
d="M707 836l-78 -220h239l78 220h-239zM649 1470h289l-129 -366h227l129 366h289l-129 -366h256l-100 -270h-252l-76 -213h258l-100 -271h-254l-131 -366h-289l131 366h-227l-131 -366h-289l131 366h-258l100 271h254l74 213h-258l98 270h258z" />
    <glyph glyph-name="dollar" unicode="$" horiz-adv-x="1430" 
d="M936 1395q-45 14 -81 21t-64 7q-67 0 -100.5 -23t-33.5 -69q0 -31 33 -87t90 -120l35 -39zM485 61q41 -14 85.5 -21t88.5 -7q61 0 95 25t34 69q0 33 -28 80.5t-90 118.5l-56 65zM348 -113l55 138q-122 66 -184.5 115t-62.5 79q0 16 9.5 26.5t22.5 10.5q17 0 90.5 -64
t149.5 -104l137 358l-96 111l-9 10q-278 323 -278 486q0 192 152.5 312t402.5 120q61 0 115.5 -8.5t105.5 -26.5l33 84q4 10 12.5 15t20.5 5q14 0 22.5 -7.5t8.5 -20.5q0 -5 -1.5 -10.5t-4.5 -11.5l-31 -79q81 -40 123.5 -73.5t42.5 -57.5q0 -11 -9 -19.5t-20 -8.5
q-15 0 -64.5 40.5t-93.5 65.5l-133 -344l183 -199q117 -129 172 -239t55 -217q0 -177 -157 -294.5t-402 -117.5q-65 0 -128 10t-124 29l-55 -143q-4 -10 -13.5 -16.5t-21.5 -6.5q-14 0 -22.5 8.5t-8.5 22.5q0 3 1.5 9t4.5 13z" />
    <glyph glyph-name="percent" unicode="%" horiz-adv-x="1710" 
d="M1272 756v-701h4q137 0 220 96t83 255q0 158 -83 254t-220 96h-4zM918 406q0 179 100 293t258 114q159 0 260.5 -114t101.5 -293q0 -180 -101 -293t-261 -113q-158 0 -258 113t-100 293zM514 -39q-5 -10 -13 -14t-22 -4q-13 0 -20.5 9t-7.5 23q0 4 1.5 8.5t6.5 12.5
l735 1489q5 9 14 13.5t23 4.5q12 0 19 -8.5t7 -24.5q0 -7 -1 -11.5t-5 -11.5zM426 1389v-701h4q137 0 220 95.5t83 254.5t-83 255t-220 96h-4zM72 1038q0 180 100 294t258 114q160 0 261.5 -114t101.5 -294q0 -179 -101.5 -292t-261.5 -113q-158 0 -258 113t-100 292z" />
    <glyph glyph-name="ampersand" unicode="&#x26;" horiz-adv-x="1700" 
d="M918 991q94 50 141 107.5t47 124.5q0 95 -87 151t-237 56q-35 0 -53.5 -1t-34.5 -4q24 -86 75 -186t149 -248zM750 158q-93 99 -179 226.5t-174 293.5q-131 -64 -197.5 -146.5t-66.5 -181.5q0 -132 90 -221.5t226 -89.5q86 0 160 29t141 90zM915 0q-43 33 -72 58t-50 46
q-82 -67 -166 -100t-176 -33q-172 0 -281 104t-109 267q0 118 76 216t228 175q-66 120 -96.5 207t-30.5 154q0 173 148 285t384 112q183 0 293.5 -74t110.5 -194q0 -79 -59.5 -155t-164.5 -132q57 -96 123 -194t141 -197q140 133 224 188t143 55q24 0 38.5 -13t14.5 -34
q0 -19 -10.5 -27t-49.5 -12q-64 -6 -139 -55t-186 -160q94 -129 197 -250.5t217 -236.5h-748z" />
    <glyph glyph-name="quotesingle" unicode="'" horiz-adv-x="379" 
d="M213 838h-47l-92 466q-3 16 -3.5 23t-0.5 14q0 55 33 89t85 34q54 0 87.5 -34t33.5 -89q0 -7 -0.5 -14t-3.5 -23z" />
    <glyph glyph-name="parenleft" unicode="(" horiz-adv-x="678" 
d="M143 672q0 301 43 473.5t140 275.5q59 63 142 102.5t155 39.5q19 0 30 -8.5t11 -22.5q0 -22 -47.5 -40.5t-65.5 -41.5q-35 -41 -49.5 -155t-14.5 -412v-344v-129q0 -303 19 -402.5t67 -136.5q12 -9 51.5 -24t39.5 -37q0 -14 -11 -21.5t-30 -7.5q-72 0 -156 39.5
t-141 101.5q-97 105 -140 277t-43 473z" />
    <glyph glyph-name="parenright" unicode=")" horiz-adv-x="678" 
d="M532 672q0 -304 -42 -474.5t-138 -275.5q-58 -62 -141.5 -101.5t-155.5 -39.5q-20 0 -30.5 7.5t-10.5 21.5q0 21 47 39.5t66 41.5q35 42 49 155.5t14 412.5v344v90q0 327 -19 433t-68 144q-13 10 -51 24.5t-38 37.5q0 14 11 22.5t30 8.5q72 0 155.5 -39.5t141.5 -102.5
q96 -102 138 -273.5t42 -475.5z" />
    <glyph glyph-name="asterisk" unicode="*" horiz-adv-x="862" 
d="M416 1201q-3 64 -39.5 139.5t-36.5 99.5q0 37 25 59.5t67 22.5q39 0 65.5 -24.5t26.5 -57.5q0 -20 -36.5 -95.5t-40.5 -141.5q54 32 110 112t107 80q33 0 59.5 -29.5t26.5 -67.5q0 -42 -27.5 -62t-96.5 -26q-56 -3 -95 -12t-68 -24q67 -37 196 -41v0q41 -2 66 -24.5
t25 -59.5q0 -42 -27.5 -72.5t-63.5 -30.5q-46 0 -101.5 82.5t-108.5 115.5q3 -64 39 -139.5t36 -97.5q0 -36 -26 -60t-66 -24q-43 0 -66.5 22t-23.5 62q0 20 35 96.5t41 138.5q-28 -13 -54.5 -39.5t-54.5 -68.5q-3 -5 -8 -13q-47 -73 -100 -73q-34 0 -60 29t-26 65
q0 43 23.5 64.5t73.5 25.5q77 6 115.5 14.5t71.5 24.5q-34 19 -74.5 29t-82.5 10q-65 0 -97 21.5t-32 64.5q0 41 27.5 70t66.5 29q46 0 100.5 -79t108.5 -115z" />
    <glyph glyph-name="plus" unicode="+" horiz-adv-x="1706" 
d="M713 1221h280v-473h459v-273h-459v-475h-280v475h-459v273h459v473z" />
    <glyph glyph-name="comma" unicode="," horiz-adv-x="715" 
d="M635 86q-47 -62 -117 -93.5t-162 -31.5q-141 0 -225 66.5t-84 177.5q0 109 84.5 176.5t224.5 67.5q157 0 254 -90.5t97 -233.5q0 -162 -124.5 -258t-336.5 -96q-25 0 -37 0.5t-23 1.5l1 53q11 -1 25 -1.5t42 -0.5q172 0 264.5 63.5t116.5 198.5z" />
    <glyph glyph-name="hyphen" unicode="-" horiz-adv-x="1065" 
d="M133 360v449h797v-449h-797z" />
    <glyph glyph-name="period" unicode="." horiz-adv-x="715" 
d="M47 205q0 109 85 176.5t224 67.5q141 0 225.5 -67.5t84.5 -176.5q0 -111 -84.5 -177.5t-225.5 -66.5t-225 66.5t-84 177.5z" />
    <glyph glyph-name="slash" unicode="/" horiz-adv-x="868" 
d="M74 -63q-6 -9 -18 -14t-27 -5q-14 0 -22.5 8.5t-8.5 22.5q0 5 2 11.5t6 12.5l776 1505q4 9 14 14t23 5q18 0 28.5 -8t10.5 -23q0 -4 -2.5 -9.5t-7.5 -14.5z" />
    <glyph glyph-name="zero" unicode="0" horiz-adv-x="1430" 
d="M688 1430v-1414h12q271 0 435.5 194t164.5 513t-164.5 513t-435.5 194h-12zM63 723q0 172 51 316.5t150 252.5q89 97 201.5 145t249.5 48t248 -47.5t200 -145.5q100 -110 150.5 -253.5t50.5 -315.5t-50.5 -315.5t-150.5 -253.5q-89 -98 -200 -145.5t-248 -47.5t-249.5 48
t-201.5 145q-99 108 -150 252.5t-51 316.5z" />
    <glyph glyph-name="one" unicode="1" horiz-adv-x="1430" 
d="M453 0q1 89 2.5 215.5t1.5 153.5v891q-94 -25 -183.5 -55.5t-93.5 -30.5q-18 0 -29.5 13t-11.5 34q0 16 10.5 26.5t35.5 18.5q8 2 71 16q392 87 805 205q-2 -88 -3 -169.5t-1 -166.5v-768q0 -111 2 -204.5t6 -178.5h-612z" />
    <glyph glyph-name="two" unicode="2" horiz-adv-x="1430" 
d="M2 0q129 139 292 364t378 562l34 54q181 285 181 347q0 53 -47.5 74.5t-169.5 21.5q-213 0 -368 -116.5t-155 -272.5q0 -102 68 -198q16 -23 16 -29q0 -14 -10 -23.5t-24 -9.5q-42 0 -78.5 75.5t-36.5 172.5q0 206 181 334.5t478 128.5q289 0 450 -114.5t161 -317.5
q0 -147 -107.5 -340t-470.5 -643h150q173 0 346 20q35 4 43 4q18 0 29.5 -7t11.5 -19q0 -42 -22 -60t-75 -18q-44 0 -176 5t-219 5h-860z" />
    <glyph glyph-name="three" unicode="3" horiz-adv-x="1430" 
d="M698 31v712h-274q-32 0 -47 9t-15 28q0 20 14 28.5t50 8.5h272v600q-131 0 -232.5 -27t-178.5 -83q-30 -22 -71.5 -66.5t-61.5 -44.5q-19 0 -30 11t-11 28q0 28 27.5 58.5t82.5 64.5q106 65 226.5 96t267.5 31q275 0 428 -94.5t153 -262.5q0 -160 -129 -247.5
t-385 -100.5q296 -20 440 -113t144 -266q0 -206 -194.5 -324t-540.5 -118q-175 0 -301 37.5t-228 118.5q-51 40 -81.5 80t-30.5 65q0 17 15 29t38 12q29 0 64 -57t63 -82q74 -68 183 -100.5t261 -32.5q33 0 50.5 0.5t31.5 1.5z" />
    <glyph glyph-name="four" unicode="4" horiz-adv-x="1430" 
d="M551 365v464l-463 -464h463zM547 0q1 51 2.5 114.5t1.5 73.5v101h-492q-28 0 -45.5 15t-17.5 38q0 11 3.5 19.5t12.5 17.5l1162 1173q-3 -45 -4 -111.5t-1 -232.5v-843h193q42 0 56 -8.5t14 -30.5q0 -20 -15 -28.5t-49 -8.5h-199v-289h-622z" />
    <glyph glyph-name="five" unicode="5" horiz-adv-x="1430" 
d="M698 33v1044q-37 6 -61.5 8t-44.5 2q-161 0 -291 -93q-23 -17 -29 -17q-15 0 -24.5 9.5t-9.5 25.5q0 7 6 25q4 10 6 16l137 393h619q64 0 130 3q16 1 19 1q23 0 35 -6t12 -17q0 -25 -21 -48t-51 -23q-11 0 -111.5 8t-189.5 8h-393l-96 -272q71 25 143.5 38t147.5 13
q336 0 534.5 -155.5t198.5 -415.5q0 -270 -197.5 -444.5t-502.5 -174.5q-267 0 -442 146t-175 362q0 111 50.5 205t97.5 94q17 0 30 -12t13 -27q0 -17 -30 -46q-13 -12 -20 -20q-39 -40 -57 -86.5t-18 -105.5q0 -192 151 -315t393 -123h41z" />
    <glyph glyph-name="six" unicode="6" horiz-adv-x="1430" 
d="M686 1427v-1409h25q273 0 438.5 145.5t165.5 381.5q0 161 -90.5 262.5t-231.5 101.5q-68 0 -135.5 -24.5t-71.5 -24.5q-10 0 -18 7t-8 16q0 37 60.5 62.5t152.5 25.5q185 0 295 -116.5t110 -311.5q0 -259 -178 -420.5t-469 -161.5q-307 0 -489.5 207t-182.5 553
q0 347 199 556.5t526 209.5q186 0 324.5 -71t138.5 -150q0 -19 -13 -32t-32 -13q-23 0 -59 48.5t-64 71.5q-56 48 -127 70.5t-166 22.5q-23 0 -49 -2t-51 -5z" />
    <glyph glyph-name="seven" unicode="7" horiz-adv-x="1430" 
d="M113 0l733 1378h-387q-256 0 -410 -36q-13 -3 -14 -3q-20 0 -29.5 11t-9.5 32q0 37 13 52.5t44 15.5q2 0 13 -1q55 -3 116 -3h1209l-553 -1446h-725z" />
    <glyph glyph-name="eight" unicode="8" horiz-adv-x="1430" 
d="M1042 936q78 43 117 98.5t39 120.5q0 125 -118 198.5t-322 73.5q-146 0 -230 -33t-84 -89q0 -53 84.5 -117t247.5 -135zM309 590q-90 -44 -134 -101t-44 -131q0 -152 139.5 -242.5t378.5 -90.5q153 0 246.5 38.5t93.5 100.5q0 41 -34.5 73.5t-139.5 81.5q-34 17 -101 48
q-299 139 -405 223zM260 639q-82 68 -123 152t-41 184q0 226 185.5 368t488.5 142q229 0 362.5 -88.5t133.5 -237.5q0 -78 -40.5 -143t-117.5 -111q132 -74 197 -171.5t65 -221.5q0 -239 -207.5 -395t-533.5 -156q-255 0 -412.5 108.5t-157.5 276.5q0 95 49.5 167t151.5 126
z" />
    <glyph glyph-name="nine" unicode="9" horiz-adv-x="1430" 
d="M741 21v1406q-8 0 -23.5 1.5t-23.5 1.5q-260 0 -420.5 -146.5t-160.5 -380.5q0 -161 91 -262.5t232 -101.5q68 0 134.5 24.5t70.5 24.5q10 0 18.5 -7.5t8.5 -15.5q0 -37 -61 -62.5t-152 -25.5q-186 0 -296 116t-110 312q0 254 176 417t455 163q165 0 279 -42.5
t204 -135.5q98 -101 151.5 -253.5t53.5 -330.5q0 -344 -199 -553t-526 -209q-186 0 -323.5 70.5t-137.5 150.5q0 19 13.5 32t31.5 13q23 0 59.5 -48.5t63.5 -72.5q57 -47 127 -69.5t164 -22.5q23 0 48.5 1.5t51.5 5.5z" />
    <glyph glyph-name="colon" unicode=":" horiz-adv-x="752" 
d="M66 877q0 108 85 175.5t224 67.5q140 0 224.5 -67t84.5 -176q0 -111 -84 -177.5t-225 -66.5t-225 66.5t-84 177.5zM66 205q0 109 85 176.5t224 67.5q140 0 224.5 -67.5t84.5 -176.5q0 -111 -84 -177.5t-225 -66.5t-225 66.5t-84 177.5z" />
    <glyph glyph-name="semicolon" unicode=";" horiz-adv-x="752" 
d="M66 877q0 108 85 175.5t224 67.5q140 0 224.5 -67t84.5 -176q0 -111 -84 -177.5t-225 -66.5t-225 66.5t-84 177.5zM653 86q-46 -62 -116.5 -93.5t-161.5 -31.5q-141 0 -225 66.5t-84 177.5q0 109 84.5 176.5t224.5 67.5q156 0 254 -90.5t98 -233.5q0 -162 -125 -258
t-338 -96q-24 0 -36.5 0.5t-22.5 1.5v53q11 -1 25.5 -1.5t41.5 -0.5q172 0 264.5 63.5t116.5 198.5z" />
    <glyph glyph-name="less" unicode="&#x3c;" horiz-adv-x="1706" 
d="M1442 1239v-301l-801 -328l801 -327v-299l-1178 487v281z" />
    <glyph glyph-name="equal" unicode="=" horiz-adv-x="1706" 
d="M254 512h1198v-272h-1198v272zM254 983h1198v-272h-1198v272z" />
    <glyph glyph-name="greater" unicode="&#x3e;" horiz-adv-x="1706" 
d="M264 1239l1178 -487v-281l-1178 -487v299l801 327l-801 328v301z" />
    <glyph glyph-name="question" unicode="?" horiz-adv-x="1251" 
d="M541 565v862q-155 -11 -258 -91t-103 -181q0 -20 8.5 -49.5t8.5 -40.5q0 -17 -14.5 -30t-32.5 -13q-24 0 -37 19.5t-13 54.5q0 174 144.5 285.5t376.5 111.5q247 0 392.5 -114.5t145.5 -307.5q0 -187 -145.5 -294t-405.5 -112v-100h-67zM254 205q0 109 85 176.5t224 67.5
q141 0 226 -67.5t85 -176.5q0 -110 -84.5 -177t-226.5 -67q-141 0 -225 66.5t-84 177.5z" />
    <glyph glyph-name="at" unicode="@" horiz-adv-x="2019" 
d="M1163 305q-58 -94 -128.5 -141t-151.5 -47q-152 0 -241 93t-89 253q0 116 44 219t128 184q76 75 167.5 115.5t182.5 40.5q99 0 154 -43t65 -129l45 149h234l-176 -628q-7 -24 -11 -46t-4 -40q0 -44 18.5 -69.5t49.5 -25.5q27 0 83.5 32.5t102.5 78.5q90 89 135.5 206.5
t45.5 258.5q0 108 -28 202.5t-81 161.5q-85 113 -236 179.5t-321 66.5q-146 0 -281.5 -48.5t-244.5 -139.5q-147 -123 -223 -296t-76 -386q0 -328 199 -517.5t544 -189.5q161 0 309 48t326 159l45 -65q-150 -114 -321 -172t-355 -58q-435 0 -691.5 222.5t-256.5 598.5
q0 180 66 342t192 289q143 144 337 222.5t408 78.5q346 0 558 -191.5t212 -504.5q0 -157 -48 -283t-148 -229q-66 -69 -145.5 -105t-165.5 -36q-101 0 -163.5 52.5t-64.5 137.5zM1139 934q-52 0 -94.5 -32.5t-83.5 -104.5q-64 -109 -103 -236.5t-39 -212.5q0 -69 28.5 -105
t82.5 -36q44 0 85 41t87 133q56 113 91.5 244t35.5 209q0 49 -23 74.5t-67 25.5z" />
    <glyph glyph-name="A" unicode="A" horiz-adv-x="1618" 
d="M805 268q-83 158 -163 300t-159 270l-338 -570h660zM948 0l-104 197h-740q-26 -43 -63 -112q-53 -97 -80 -97q-16 0 -28.5 12.5t-12.5 28.5q0 14 117.5 201t214.5 354l561 962l885 -1546h-750z" />
    <glyph glyph-name="B" unicode="B" horiz-adv-x="1583" 
d="M762 66h190q209 0 323 77.5t114 218.5q0 86 -48.5 146t-142.5 92q-30 -5 -52.5 -7.5t-41.5 -2.5q-70 0 -112 24.5t-42 63.5q0 17 6.5 24t22.5 7q9 0 60 -22.5t96 -22.5q133 0 224 86.5t91 216.5q0 189 -150 301t-407 112h-131v-1314zM119 0q1 66 2.5 145t1.5 88v979
q0 10 -1.5 89t-2.5 145h774q286 0 455.5 -130t169.5 -347q0 -119 -57 -204.5t-169 -135.5q87 -48 126.5 -111t39.5 -156q0 -172 -132 -267t-374 -95h-833z" />
    <glyph glyph-name="C" unicode="C" horiz-adv-x="1602" 
d="M764 25q12 -1 27.5 -1.5t44.5 -0.5q179 0 325.5 68t255.5 202q29 35 61 94t56 59q16 0 24.5 -9t8.5 -25q0 -28 -35 -86t-90 -117q-119 -125 -268.5 -189.5t-319.5 -64.5q-168 0 -309.5 56.5t-253.5 168.5q-110 110 -167.5 249t-57.5 294q0 154 59 294.5t170 250.5
q111 111 250.5 167t306.5 56q153 0 284.5 -47.5t252.5 -147.5q55 -45 85.5 -83.5t30.5 -61.5q0 -12 -9.5 -20.5t-22.5 -8.5q-22 0 -59 44q-30 35 -52 55q-115 102 -243 153t-271 51q-15 0 -31.5 -0.5t-52.5 -3.5v-1396z" />
    <glyph glyph-name="D" unicode="D" horiz-adv-x="1647" 
d="M762 66h35q202 0 313.5 35.5t202.5 119.5q97 90 148.5 219t51.5 283t-51.5 283t-148.5 219q-91 84 -202.5 119.5t-313.5 35.5h-35v-1314zM123 233v979q0 10 -1.5 89t-2.5 145h643q243 0 369 -39.5t227 -132.5q108 -100 165.5 -242.5t57.5 -308.5t-57.5 -308.5
t-165.5 -242.5q-101 -94 -227 -133t-369 -39h-643q1 66 2.5 145t1.5 88z" />
    <glyph glyph-name="E" unicode="E" horiz-adv-x="1493" 
d="M1399 0h-1280q1 66 2.5 145t1.5 88v979q0 10 -1.5 89t-2.5 145h1184q37 0 48 -8t11 -29q0 -22 -12.5 -30.5t-46.5 -8.5q-9 0 -53 2q-211 8 -416 8h-72v-333h92q220 0 440 6q42 2 49 2q45 0 58.5 -9t13.5 -34q0 -20 -11 -28.5t-36 -8.5q-9 0 -59 1q-271 5 -547 5v-915
q165 0 349 -2q46 -1 56 -1q116 0 228 9q21 2 24 2q18 0 28.5 -10t10.5 -27q0 -22 -10.5 -29.5t-48.5 -7.5z" />
    <glyph glyph-name="F" unicode="F" horiz-adv-x="1427" 
d="M123 233v979q0 10 -1.5 88t-2.5 146h1175q38 0 49 -8t11 -29q0 -22 -12.5 -30.5t-47.5 -8.5q-9 0 -55 2q-206 8 -405 8h-72v-333h90q215 0 433 6q43 2 50 2q44 0 58 -9t14 -34q0 -21 -10.5 -29t-36.5 -8q-9 0 -53 1q-219 5 -433 5h-112v-748q0 -4 2.5 -81.5t3.5 -151.5
h-649q1 66 2.5 145t1.5 88z" />
    <glyph glyph-name="G" unicode="G" horiz-adv-x="1706" 
d="M764 1421v-1396q16 -2 32.5 -2h49.5q307 0 495 168.5t230 482.5h-617q-43 0 -55 7.5t-12 27.5q0 19 9.5 25.5t51.5 6.5h697q-20 -369 -230 -577.5t-561 -208.5q-168 0 -309.5 56.5t-253.5 168.5q-109 109 -167 249t-58 294t59 294.5t170 250.5q111 111 250.5 167
t306.5 56q152 0 283 -47.5t254 -147.5q51 -41 79.5 -77t28.5 -58q0 -13 -8.5 -22t-22.5 -9q-22 0 -60 44q-26 30 -44 47q-115 102 -243 153t-271 51q-15 0 -31.5 -0.5t-52.5 -3.5z" />
    <glyph glyph-name="H" unicode="H" horiz-adv-x="1671" 
d="M119 0q1 66 2.5 145t1.5 88v979q0 10 -1.5 89t-2.5 145h649q-1 -74 -3.5 -151.5t-2.5 -82.5v-262h719q0 209 -4 423v48q0 23 6.5 30t32.5 7q21 0 30.5 -8.5t9.5 -28.5v-32q-8 -219 -8 -467v-310q0 -279 9 -534q2 -37 2 -43q0 -29 -8.5 -38t-32.5 -9q-29 0 -38.5 10
t-9.5 41q0 11 2 74q9 375 9 766h-719v-646q0 -4 2.5 -81.5t3.5 -151.5h-649z" />
    <glyph glyph-name="I" unicode="I" horiz-adv-x="897" 
d="M125 0q1 66 2.5 144.5t1.5 88.5v979q0 11 -1.5 88.5t-2.5 144.5l649 1q-1 -75 -3.5 -152.5t-2.5 -81.5v-979q0 -3 2.5 -81t3.5 -152h-649z" />
    <glyph glyph-name="J" unicode="J" horiz-adv-x="1374" 
d="M620 18q2 68 3.5 147t1.5 89v958q0 10 -1.5 89t-2.5 145h648q0 -74 -2.5 -151.5t-2.5 -82.5v-712q0 -256 -183 -401.5t-506 -145.5q-158 0 -267.5 36.5t-192.5 116.5q-48 47 -78.5 103t-30.5 94q0 29 12 42t37 13q35 0 52 -67q13 -51 28 -78q53 -99 160.5 -147t279.5 -48
h45z" />
    <glyph glyph-name="K" unicode="K" horiz-adv-x="1550" 
d="M119 0q1 66 2.5 145t1.5 88v979q0 10 -1.5 89t-2.5 145h649q-1 -74 -3.5 -151.5t-2.5 -82.5v-127q212 111 429.5 242t233.5 131q43 0 61.5 -7t18.5 -24q0 -24 -170.5 -106.5t-310.5 -167.5q186 -386 384 -753.5t198 -376.5q0 -14 -18 -24.5t-44 -10.5q-35 0 -105 157
q-35 79 -59 127q-107 227 -211.5 438t-207.5 410q-59 -32 -182 -112l-17 -11v-764q0 -4 2.5 -81.5t3.5 -151.5h-649z" />
    <glyph glyph-name="L" unicode="L" horiz-adv-x="1427" 
d="M119 0q1 66 2.5 145t1.5 88v979q0 10 -1.5 89t-2.5 145h649q-1 -74 -3.5 -151.5t-2.5 -82.5v-915q0 -5 2.5 -81.5t4.5 -149.5h116q257 0 494 12q35 2 40 2q20 0 29.5 -10t9.5 -31q0 -23 -12.5 -31t-46.5 -8h-1280z" />
    <glyph glyph-name="M" unicode="M" horiz-adv-x="2048" 
d="M281 733q-104 -358 -172 -667q-5 -23 -7 -30q-7 -28 -17 -39t-28 -11q-38 0 -51.5 7.5t-13.5 26.5q0 6 6 27q4 13 6 21l445 1439q159 -236 305 -441t282 -384q140 198 281.5 404t284.5 421q117 -387 227.5 -763t214.5 -744h-651q-46 176 -139 524l-66 246
q-111 -156 -223.5 -320.5t-225.5 -338.5z" />
    <glyph glyph-name="N" unicode="N" horiz-adv-x="1655" 
d="M190 690v-328q0 -98 5.5 -204t5.5 -113q0 -34 -10 -46.5t-35 -12.5q-27 0 -38.5 11t-11.5 38q0 58 8.5 217t8.5 262v977q338 -200 673 -384t668 -351v327q0 98 -6 203t-6 113q0 35 10 48t35 13q28 0 39.5 -11.5t11.5 -37.5q0 -58 -8 -218.5t-8 -262.5v-977
q-350 207 -685 391.5t-657 345.5z" />
    <glyph glyph-name="O" unicode="O" horiz-adv-x="1671" 
d="M764 25q11 -1 26 -1.5t44 -0.5q125 0 235.5 39t208.5 118q123 101 190.5 242.5t67.5 300.5q0 157 -68 300t-190 243q-96 79 -206 118t-236 39q-30 0 -45 -0.5t-27 -1.5v-1396zM66 723q0 155 58 294.5t169 250.5q108 108 248 165.5t295 57.5t294.5 -57.5t247.5 -165.5
q109 -109 167.5 -250t58.5 -295q0 -155 -58.5 -295.5t-167.5 -249.5q-108 -109 -247.5 -166t-294.5 -57q-156 0 -295 57t-248 166q-111 111 -169 250.5t-58 294.5z" />
    <glyph glyph-name="P" unicode="P" horiz-adv-x="1657" 
d="M762 308q33 -4 63 -5.5t60 -1.5q299 0 471 144.5t172 396.5q0 257 -175 397.5t-497 140.5h-94v-1072zM119 0q1 66 2.5 145t1.5 88v979q0 10 -1.5 89t-2.5 145h737q351 0 545 -159t194 -445q0 -280 -190.5 -442t-519.5 -162q-30 0 -60.5 1.5t-62.5 3.5v-243h-643z" />
    <glyph glyph-name="Q" unicode="Q" horiz-adv-x="1671" 
d="M764 25q12 -1 27 -1.5t43 -0.5q100 0 186.5 22.5t163.5 69.5q-104 104 -145.5 152t-41.5 65q0 9 8.5 16.5t16.5 7.5q17 0 89.5 -74t135.5 -126q139 103 214 250.5t75 316.5q0 157 -68 300t-190 243q-96 79 -206 118t-236 39q-30 0 -45 -0.5t-27 -1.5v-1396zM1239 68
q-92 -55 -195.5 -84t-207.5 -29q-157 0 -296.5 58.5t-250.5 170.5q-106 106 -164.5 247.5t-58.5 291.5q0 157 58.5 296t172.5 251q109 107 247.5 164t291.5 57q154 0 293.5 -58t248.5 -167q108 -108 167 -250t59 -293q0 -178 -76.5 -334t-222.5 -274q76 -60 183 -129.5
t107 -91.5q0 -15 -11.5 -29.5t-22.5 -14.5q-41 0 -270 178z" />
    <glyph glyph-name="R" unicode="R" horiz-adv-x="1657" 
d="M762 1380v-952q38 -37 79.5 -69t86.5 -60q284 18 442 161t158 382q0 257 -175 397.5t-497 140.5h-94zM119 0q1 66 2.5 145t1.5 88v979q0 10 -1.5 89t-2.5 145h737q351 0 546 -159t195 -443q0 -254 -155.5 -411t-437.5 -189q124 -72 241.5 -118.5t222.5 -66.5
q38 -6 48 -12.5t10 -17.5q0 -23 -16 -39.5t-40 -16.5q-97 0 -298.5 101t-409.5 266v-340h-643z" />
    <glyph glyph-name="S" unicode="S" horiz-adv-x="1296" 
d="M565 322l-213 235q-153 167 -214.5 280.5t-61.5 219.5q0 192 162 313t424 121q102 0 191.5 -23t184.5 -73q48 -26 74.5 -51t26.5 -44q0 -11 -9 -19.5t-22 -8.5q-18 0 -58 35q-22 20 -36 30q-59 44 -132 67t-151 23q-63 0 -100 -23.5t-37 -64.5q0 -37 34 -89.5t109 -131.5
l275 -289q111 -117 167 -227.5t56 -212.5q0 -195 -165.5 -314.5t-440.5 -119.5q-137 0 -260.5 40.5t-231.5 121.5q-54 41 -72 60.5t-18 35.5q0 15 10.5 26t24.5 11q22 0 67 -39q28 -24 46 -37q107 -80 190 -114.5t162 -34.5q68 0 106.5 25.5t38.5 70.5q0 34 -28.5 80
t-98.5 121z" />
    <glyph glyph-name="T" unicode="T" horiz-adv-x="1407" 
d="M379 -2q1 66 2.5 145t1.5 88v914q0 9 -1.5 87t-2.5 144q-117 -3 -235.5 -8.5t-123.5 -5.5q-30 0 -42.5 9t-12.5 30q0 25 11.5 34t50.5 9h1351q39 0 50.5 -9t11.5 -34q0 -21 -13 -30t-43 -9q-4 0 -121.5 5.5t-234.5 8.5q-1 -66 -2.5 -144t-1.5 -87v-914q0 -9 1.5 -88
t2.5 -145h-649z" />
    <glyph glyph-name="U" unicode="U" horiz-adv-x="1649" 
d="M111 508v704q0 10 -1.5 89t-2.5 145h648q0 -73 -2.5 -148.5t-2.5 -80.5v-1199h59q211 0 345.5 46t209.5 143q61 79 86 232t25 558v174q0 104 -6 207q-1 17 -1 21q0 33 10.5 46t37.5 13q24 0 33.5 -10.5t9.5 -38.5q0 -366 -12 -644t-29 -372q-40 -223 -216 -331.5
t-497 -108.5q-377 0 -535.5 127t-158.5 428z" />
    <glyph glyph-name="V" unicode="V" horiz-adv-x="1618" 
d="M856 -100q-258 441 -486 822t-440 724h746l489 -815l185 340q32 51 96.5 177t134.5 277q11 25 22 33t29 8t29.5 -11t11.5 -28q0 -30 -285 -537.5t-532 -989.5z" />
    <glyph glyph-name="W" unicode="W" horiz-adv-x="1987" 
d="M575 -104l-464 1191q-20 52 -59.5 143t-96.5 216h631q62 -181 133.5 -368.5t152.5 -383.5l390 801q89 -186 191 -381t218 -399q78 189 140 364t110 342q11 37 22 49.5t29 12.5q16 0 29.5 -10t13.5 -21q0 -20 -43 -128q-21 -52 -33 -83l-213 -551q-71 -185 -145.5 -384
t-153.5 -410q-102 211 -213.5 426.5t-234.5 439.5z" />
    <glyph glyph-name="X" unicode="X" horiz-adv-x="1612" 
d="M485 659l-245 396q-17 27 -139 202q-81 116 -132 189h740q49 -80 93.5 -150.5t86.5 -134.5l153 -237l164 206q58 73 139 184q107 146 140 146q21 0 34 -11t13 -30q0 -23 -98 -134q-94 -108 -156 -185l-193 -242l328 -508q18 -28 65.5 -96t178.5 -254h-770
q-56 120 -158 276l-12 19l-191 297q-149 -175 -308 -391.5t-189 -216.5q-22 0 -34.5 11t-12.5 30q0 23 178.5 232t324.5 402z" />
    <glyph glyph-name="Y" unicode="Y" horiz-adv-x="1548" 
d="M616 190l146 195q-187 248 -393.5 510.5t-440.5 550.5h787l420 -549l114 158q72 97 169 243q112 166 143 166q16 0 27 -9.5t11 -22.5q0 -20 -35 -65q-14 -17 -22 -28l-895 -1224q-16 -23 -43 -61q-63 -93 -98 -93q-15 0 -24 9t-9 24q0 20 66 99q48 59 77 97z" />
    <glyph glyph-name="Z" unicode="Z" horiz-adv-x="1333" 
d="M-41 0q178 355 347.5 699.5t330.5 680.5q-237 0 -469 -10q-42 -2 -49 -2q-44 0 -57 8.5t-13 30.5q0 20 15.5 29.5t50.5 9.5h1241q-168 -327 -334 -668t-338 -712q30 -2 62 -2.5t92 -0.5q125 0 264 6.5t153 6.5q36 0 51 -9t15 -30q0 -20 -13 -28.5t-46 -8.5h-1303z" />
    <glyph glyph-name="bracketleft" unicode="[" horiz-adv-x="678" 
d="M182 1540h441q30 0 42.5 -9.5t12.5 -31.5q0 -17 -11 -25t-34 -8q-1 0 -49 2.5t-97 3.5l1 -1603q47 1 95 3.5t50 2.5q23 0 34 -8t11 -25q0 -22 -12.5 -31.5t-42.5 -9.5h-441v1739z" />
    <glyph glyph-name="backslash" unicode="\" horiz-adv-x="868" 
d="M74 1478l774 -1505q2 -5 6 -12t4 -8q0 -17 -10 -26t-29 -9q-13 0 -23 5t-14 14l-776 1505q-6 12 -8 20q0 16 8.5 25.5t22.5 9.5q15 0 27.5 -5t17.5 -14z" />
    <glyph glyph-name="bracketright" unicode="]" horiz-adv-x="678" 
d="M496 1540v-1739h-443q-29 0 -41 9.5t-12 31.5q0 17 11 25t34 8q2 0 50 -2.5t95 -3.5v1603q-48 -1 -96 -3.5t-49 -2.5q-23 0 -34 8t-11 25q0 23 12 32t41 9h443z" />
    <glyph glyph-name="asciicircum" unicode="^" horiz-adv-x="2048" 
d="M879 1462h288l465 -565h-131l-479 315l-477 -315h-133z" />
    <glyph glyph-name="underscore" unicode="_" 
d="M0 -201h1024v-282h-1024v282z" />
    <glyph glyph-name="grave" unicode="`" 
d="M444 1292l-233 285h377l108 -285h-252z" />
    <glyph glyph-name="a" unicode="a" horiz-adv-x="1524" 
d="M881 621q-48 38 -103 59.5t-106 21.5q-47 0 -67.5 -31.5t-20.5 -103.5v-407q0 -51 13.5 -72.5t43.5 -21.5q47 0 108.5 28.5t131.5 83.5v443zM881 0v102q-97 -73 -188 -107t-187 -34q-206 0 -330.5 115t-124.5 305q0 180 136 289.5t360 109.5q86 0 168.5 -19.5
t165.5 -60.5v238q0 98 -50 140t-163 42q-99 0 -164.5 -23t-124.5 -79l-25 -25q-67 -67 -110 -67q-22 0 -36.5 14.5t-14.5 34.5q0 83 169.5 152t407.5 69q145 0 267 -24.5t198 -67.5q59 -34 96 -68t60 -75q16 -30 24 -89t8 -147v-483q0 -83 12 -136.5t38 -105.5h-592z" />
    <glyph glyph-name="b" unicode="b" horiz-adv-x="1622" 
d="M659 229q54 -75 122 -118t130 -43q45 0 62.5 27t17.5 102v764q0 74 -17.5 101.5t-62.5 27.5q-62 0 -130 -43.5t-122 -118.5v-699zM113 0q1 66 2.5 145t1.5 88v1000q0 9 -1.5 87t-2.5 144h552q-1 -74 -3.5 -150.5t-2.5 -80.5v-215q83 89 170 128.5t199 39.5q106 0 208 -45
t179 -125q80 -83 120 -192t40 -246t-39.5 -245t-120.5 -192q-77 -80 -179 -125t-208 -45q-112 0 -199 39.5t-170 128.5q0 -24 3 -73t4 -66h-553z" />
    <glyph glyph-name="c" unicode="c" horiz-adv-x="1270" 
d="M631 1055v-953q0 -43 17 -58t63 -15q83 0 175 39.5t163 107.5q36 35 85.5 102.5t75.5 67.5q18 0 28.5 -10.5t10.5 -28.5q0 -20 -27 -60.5t-71 -84.5q-104 -104 -218.5 -152.5t-254.5 -48.5q-99 0 -188 25.5t-166 76.5q-133 88 -205 224.5t-72 300.5q0 124 50 238t143 200
q91 85 202.5 127.5t243.5 42.5q102 0 195.5 -28.5t177.5 -86.5q55 -38 93 -82t38 -65q0 -17 -12 -28t-29 -11q-21 0 -58 44q-23 27 -38 42q-67 67 -161 107t-181 40q-46 0 -63 -15t-17 -58z" />
    <glyph glyph-name="d" unicode="d" horiz-adv-x="1622" 
d="M963 229v699q-55 75 -122 118.5t-128 43.5q-45 0 -63.5 -28.5t-18.5 -100.5v-764q0 -73 18.5 -101t63.5 -28q61 0 128 43t122 118zM1511 0h-553q1 4 1 13q4 89 4 126q-83 -89 -170 -128.5t-199 -39.5q-106 0 -208 45t-179 125q-81 84 -120.5 192t-39.5 245t40 246
t120 192q77 80 179 125t208 45q112 0 199 -39.5t170 -128.5v215q0 9 -2 87.5t-2 143.5h552q-1 -76 -3.5 -152t-2.5 -79v-1000q0 -3 2.5 -80.5t3.5 -152.5z" />
    <glyph glyph-name="e" unicode="e" horiz-adv-x="1331" 
d="M547 610h274v406q0 65 -31 89.5t-110 24.5q-74 0 -103.5 -24.5t-29.5 -89.5v-406zM547 545v-389q0 -76 25.5 -101.5t97.5 -25.5q89 0 181 35t169 98q55 46 111.5 115t78.5 69q18 0 29.5 -12.5t11.5 -30.5q0 -27 -28 -64.5t-93 -93.5q-102 -90 -221 -137t-245 -47
q-98 0 -189 28.5t-172 84.5q-120 83 -188 216.5t-68 287.5q0 132 51.5 249t149.5 207q85 79 194.5 120.5t233.5 41.5q262 0 429.5 -179.5t176.5 -471.5h-735z" />
    <glyph glyph-name="f" unicode="f" horiz-adv-x="836" 
d="M132 0q0 65 1.5 144t1.5 89v848q-29 -1 -61 -2.5t-35 -1.5q-32 0 -44.5 8.5t-12.5 28.5q0 24 12 33.5t43 9.5h12q2 0 30.5 -2.5t55.5 -3.5q22 181 140 276t321 95q144 0 247 -37t103 -82q0 -19 -14 -31t-35 -12q-9 0 -44.5 31.5t-76.5 31.5q-48 0 -73 -45t-25 -133v-94
l16 1q106 9 127 9q35 0 51.5 -12t16.5 -37q0 -22 -12.5 -30.5t-45.5 -8.5q-10 0 -61.5 3.5t-91.5 4.5v-848q0 -4 2.5 -81.5t3.5 -151.5h-552z" />
    <glyph glyph-name="g" unicode="g" horiz-adv-x="1253" 
d="M729 504v540q0 51 -24 73t-78 22q-55 0 -79 -22t-24 -73v-540q0 -50 24 -72t79 -22q54 0 78 22t24 72zM223 451q-77 50 -118.5 130t-41.5 177q0 190 158 314t406 124q36 0 119.5 -6t130.5 -6q39 0 70 13.5t48 39.5q6 7 14 23q23 43 54 43q21 0 35 -12.5t14 -30.5
q0 -36 -45.5 -67t-138.5 -58q126 -63 194 -161.5t68 -217.5q0 -187 -153 -299.5t-410 -112.5q-93 0 -176.5 16t-161.5 50q-26 -17 -36.5 -32t-10.5 -32q0 -32 24.5 -45.5t83.5 -13.5h17l450 8h17q127 0 193.5 -44t66.5 -128q0 -86 -75 -139.5t-214 -65.5q24 26 34.5 44
t10.5 34q0 13 -13.5 21t-35.5 8q-41 0 -187 -25t-247 -25q-135 0 -217 65.5t-82 170.5q0 70 38 129.5t117 110.5z" />
    <glyph glyph-name="h" unicode="h" horiz-adv-x="1638" 
d="M117 1233q0 9 -1.5 87t-2.5 144h552q-1 -74 -3.5 -150.5t-2.5 -80.5v-236q129 94 247.5 139.5t236.5 45.5q93 0 171.5 -26t123.5 -71q53 -53 75.5 -124.5t22.5 -253.5v-474q0 -9 1.5 -88t2.5 -145h-552q0 65 1.5 144t1.5 89v728q0 46 -17.5 66t-55.5 20q-49 0 -109 -30.5
t-150 -101.5v-682q0 -3 2.5 -80.5t3.5 -152.5h-552q1 66 2.5 145t1.5 88v1000z" />
    <glyph glyph-name="i" unicode="i" horiz-adv-x="788" 
d="M111 1370q0 67 77 109.5t205 42.5t205.5 -42t77.5 -110q0 -67 -77 -108t-206 -41q-128 0 -205 41t-77 108zM119 0q1 66 2.5 145t1.5 88v691q0 9 -1.5 88t-2.5 145h552q0 -74 -2.5 -151t-2.5 -82v-691q0 -4 2.5 -81.5t2.5 -151.5h-552z" />
    <glyph glyph-name="j" unicode="j" horiz-adv-x="836" 
d="M178 1370q0 67 77.5 109.5t205.5 42.5t205 -42t77 -110q0 -67 -77 -108t-205 -41q-129 0 -206 41t-77 108zM190 924q0 5 -2.5 82t-2.5 151h552q-1 -66 -2.5 -145t-1.5 -88v-541q0 -211 -130 -338t-345 -127q-122 0 -214.5 50.5t-92.5 105.5q0 20 11.5 32.5t31.5 12.5
q24 0 67.5 -55.5t83.5 -55.5q25 0 35 19t10 65v832z" />
    <glyph glyph-name="k" unicode="k" horiz-adv-x="1546" 
d="M655 233q0 -9 1.5 -88t2.5 -145h-552q1 75 3.5 152.5t2.5 80.5v1000q0 3 -2.5 79t-3.5 152h552q-1 -66 -2.5 -144t-1.5 -87v-516l336 282q122 104 201.5 144.5t150.5 40.5q39 0 59.5 -16t20.5 -46q0 -24 -16.5 -37.5t-46.5 -13.5q-17 0 -48 4t-46 4q-47 0 -97.5 -27.5
t-115.5 -88.5l344 -572q31 -52 95 -148t165 -243h-625l-377 627v-394z" />
    <glyph glyph-name="l" unicode="l" horiz-adv-x="788" 
d="M123 1233q0 9 -1.5 87t-2.5 144h553q-1 -75 -3.5 -151t-2.5 -80v-1000q0 -4 2.5 -81.5t2.5 -151.5h-552q1 66 2.5 145t1.5 88v1000z" />
    <glyph glyph-name="m" unicode="m" horiz-adv-x="2054" 
d="M113 0q1 66 2.5 145t1.5 88v691q0 9 -1.5 88t-2.5 145h495q-1 -22 -3 -68.5t-3 -68.5q99 81 189.5 120.5t179.5 39.5q96 0 167.5 -45.5t114.5 -133.5q118 94 210.5 136.5t176.5 42.5q161 0 237.5 -99.5t76.5 -308.5v-539q0 -10 1.5 -89t1.5 -144h-494q0 65 1.5 144
t1.5 89v695q0 61 -10.5 82.5t-38.5 21.5q-21 0 -52.5 -21t-86.5 -73v-705q0 -10 1.5 -88.5t2.5 -144.5h-495q1 75 3.5 152.5t2.5 80.5v695q0 67 -9 85.5t-34 18.5t-60 -22t-88 -72v-705q0 -3 2.5 -80.5t3.5 -152.5h-495z" />
    <glyph glyph-name="n" unicode="n" horiz-adv-x="1638" 
d="M113 0q1 66 2.5 145t1.5 88v691q0 9 -1.5 88t-2.5 145h552q-1 -36 -2.5 -75.5t-2.5 -83.5q128 93 246.5 138.5t236.5 45.5q93 0 171.5 -26t123.5 -71q53 -53 75.5 -124.5t22.5 -253.5v-474q0 -9 1.5 -88t2.5 -145h-552q0 65 1.5 144t1.5 89v728q0 46 -17.5 66t-55.5 20
q-49 0 -109 -30.5t-150 -101.5v-682q0 -3 2.5 -80.5t3.5 -152.5h-552z" />
    <glyph glyph-name="o" unicode="o" horiz-adv-x="1331" 
d="M631 29h12q248 0 412 157.5t164 391.5q0 232 -163.5 390t-408.5 158h-16v-1097zM47 578q0 125 46.5 236.5t135.5 201.5q88 87 200 133.5t237 46.5q124 0 236 -46.5t200 -133.5q87 -87 133.5 -200.5t46.5 -237.5q0 -125 -46.5 -237t-133.5 -200q-88 -88 -199.5 -134
t-236.5 -46q-126 0 -238 45.5t-199 132.5q-89 90 -135.5 201.5t-46.5 237.5z" />
    <glyph glyph-name="p" unicode="p" horiz-adv-x="1585" 
d="M659 928v-570q61 -74 120 -115.5t104 -41.5q39 0 55 28t16 97v635q0 69 -16 96.5t-55 27.5q-45 0 -104 -41.5t-120 -115.5zM113 -82q1 66 2.5 145t1.5 89v772q0 9 -1.5 88t-2.5 145h552q-1 -29 -2.5 -63.5t-2.5 -75.5q86 86 177.5 127t198.5 41q230 0 365 -146.5
t135 -396.5t-135 -396.5t-365 -146.5q-107 0 -198.5 41t-178.5 127v-116q0 -4 2.5 -81.5t3.5 -152.5h-552z" />
    <glyph glyph-name="q" unicode="q" horiz-adv-x="1585" 
d="M924 928q-61 74 -120 115.5t-104 41.5q-38 0 -53.5 -27t-15.5 -97v-635q0 -71 15.5 -98t53.5 -27q45 0 104 41.5t120 115.5v570zM1472 -82h-552q1 66 2.5 145t1.5 89v116q-87 -86 -177.5 -127t-197.5 -41q-230 0 -366 147t-136 396q0 250 136 396.5t366 146.5
q107 0 197.5 -40.5t177.5 -127.5q-1 24 -2 70t-2 69h552q-1 -66 -2.5 -145t-1.5 -88v-772q0 -10 1.5 -89t2.5 -145z" />
    <glyph glyph-name="r" unicode="r" horiz-adv-x="1098" 
d="M659 233q0 -3 2.5 -80.5t3.5 -152.5h-552q1 66 2.5 145t1.5 88v691q0 9 -1.5 88t-2.5 145h552q-1 -59 -2.5 -114t-3.5 -107q102 125 199 186.5t193 61.5q51 0 82.5 -26t31.5 -68q0 -35 -19.5 -53.5t-55.5 -18.5q-17 0 -60.5 15.5t-77.5 15.5q-68 0 -146 -57.5
t-147 -157.5v-601z" />
    <glyph glyph-name="s" unicode="s" horiz-adv-x="1057" 
d="M457 258l-176 186q-122 131 -174 224t-52 178q0 153 133.5 251.5t343.5 98.5q156 0 283 -54t127 -104q0 -15 -12 -26t-29 -11q-9 0 -112 64.5t-203 64.5q-46 0 -74.5 -20.5t-28.5 -54.5q0 -45 95 -141q12 -12 18 -19l223 -231q91 -94 136.5 -182.5t45.5 -170.5
q0 -155 -135.5 -252.5t-357.5 -97.5q-93 0 -191.5 29t-183.5 82q-35 21 -52.5 41.5t-17.5 40.5q0 17 10.5 29t26.5 12q20 0 59 -32t60 -46q66 -42 128 -64t114 -22q55 0 87 17.5t32 47.5t-102 139z" />
    <glyph glyph-name="t" unicode="t" horiz-adv-x="944" 
d="M700 1521q-1 -35 -5 -105q-8 -178 -11 -258l53 -1q59 0 121 5q15 1 19 1q21 0 33 -9t12 -24q0 -26 -10 -38.5t-31 -12.5q-3 0 -19 1q-89 5 -178 5l-12 -890q0 -56 15.5 -81.5t49.5 -25.5q33 0 63 22.5t66 75.5q11 16 26 44q29 55 58 55q16 0 25.5 -10.5t9.5 -26.5
q0 -25 -33.5 -74t-85.5 -94q-63 -57 -157.5 -88t-206.5 -31q-185 0 -278 95.5t-93 285.5v12l8 717q-47 0 -98 -2h-14q-31 0 -46.5 12t-15.5 35q0 15 13.5 25t33.5 10q12 0 41.5 -2t46.5 -2t25.5 0.5t15.5 1.5v133q140 54 280 114t279 125z" />
    <glyph glyph-name="u" unicode="u" horiz-adv-x="1638" 
d="M1525 1157q0 -74 -2.5 -151t-2.5 -82v-691q0 -4 2.5 -81.5t2.5 -151.5h-552q0 15 1 42q3 88 3 118q-128 -94 -247 -139.5t-236 -45.5q-94 0 -172.5 26t-122.5 71q-53 52 -75 122t-22 238v19v473q0 4 -2.5 81t-2.5 152h552q-1 -66 -2.5 -145t-1.5 -88v-729q0 -45 18 -64.5
t58 -19.5q48 0 106.5 29.5t149.5 101.5v682q0 9 -1.5 88t-2.5 145h552z" />
    <glyph glyph-name="v" unicode="v" horiz-adv-x="1407" 
d="M739 -66l-628 992q-28 44 -70.5 104.5t-91.5 126.5h665l385 -622l166 301q40 72 74 142t68 155q16 41 30 52t37 11q25 0 40.5 -12.5t15.5 -32.5t-74.5 -134t-126.5 -208l-232 -418q-78 -142 -140.5 -252t-117.5 -205z" />
    <glyph glyph-name="w" unicode="w" horiz-adv-x="1935" 
d="M610 -70l-651 1227h614q16 -41 36.5 -86t45.5 -96l219 -422l373 666l375 -648l147 347q28 64 61 160q41 120 75 120q21 0 38 -11.5t17 -25.5q0 -18 -47 -114q-44 -90 -72 -152l-438 -965l-412 674z" />
    <glyph glyph-name="x" unicode="x" horiz-adv-x="1511" 
d="M856 0l-338 471l-233 -256q-53 -58 -124 -148q-75 -96 -100 -96q-20 0 -37.5 16t-17.5 36q0 22 91 109q80 76 130 130l250 264l-307 430q-38 51 -81.5 101.5t-92.5 99.5h696q42 -66 70 -107.5t49 -70.5l174 -238l170 185q63 68 135.5 163t91.5 95q22 0 39 -13.5t17 -29.5
q0 -25 -96 -118q-85 -82 -138 -140l-178 -195l311 -438q27 -38 78.5 -99.5t132.5 -150.5h-692z" />
    <glyph glyph-name="y" unicode="y" horiz-adv-x="1335" 
d="M608 145l-364 592q-26 42 -104 155t-187 265h680q67 -150 146.5 -282.5t170.5 -245.5l176 274q41 63 93 161q62 116 94 116q23 0 38 -15t15 -37q0 -29 -71 -115t-113 -151l-447 -672q-86 -128 -180.5 -200t-175.5 -72q-63 0 -102 25.5t-39 66.5q0 25 15.5 39t41.5 14
q25 0 70.5 -20t68.5 -20q35 0 81.5 32.5t92.5 89.5z" />
    <glyph glyph-name="z" unicode="z" horiz-adv-x="1366" 
d="M-31 0q72 95 126 170t69 98l520 815h-299q-121 0 -234 -10q-19 -2 -22 -2q-13 0 -22 11.5t-9 29.5q0 28 15 41.5t47 13.5q17 0 100.5 -5t149.5 -5h745q13 0 88.5 1.5t134.5 2.5q-109 -157 -211 -311l-10 -14l-500 -762h299q109 0 221.5 12t116.5 12q28 0 40 -12.5
t12 -42.5q0 -29 -16 -39t-75 -10q-64 0 -162 3t-130 3h-994z" />
    <glyph glyph-name="braceleft" unicode="{" 
d="M856 1516v-72q-100 -3 -137 -53.5t-37 -208.5v-125q0 -227 -47 -308t-170 -114q123 -35 170 -115t47 -305v-127q0 -158 37 -208.5t137 -54.5v-69q-244 0 -333 72.5t-89 271.5v176q0 172 -54 235.5t-202 78.5v90q148 14 202 78t54 235v176q0 201 89.5 274t332.5 73z" />
    <glyph glyph-name="bar" unicode="|" 
d="M373 1565h280v-2048h-280v2048z" />
    <glyph glyph-name="braceright" unicode="}" 
d="M168 1516q243 0 332.5 -73.5t89.5 -273.5v-176q0 -171 54 -235t202 -78v-90q-148 -15 -202 -78.5t-54 -235.5v-176q0 -198 -89 -271t-333 -73v69q100 4 137 55t37 208v127q0 225 47 305t170 115q-123 33 -170 114t-47 308v125q0 156 -37.5 207.5t-136.5 54.5v72z" />
    <glyph glyph-name="asciitilde" unicode="~" horiz-adv-x="1706" 
d="M1530 842v-299q-102 -69 -192 -101t-179 -32q-54 0 -111.5 11.5t-154.5 45.5q-124 42 -194.5 56t-137.5 14q-84 0 -176 -38t-207 -120v299q119 75 216.5 109t191.5 34q58 0 123 -12t155 -41q22 -7 64 -22q152 -54 235 -54q86 0 175 36.5t192 113.5z" />
    <glyph glyph-name="Adieresis" unicode="&#xc4;" horiz-adv-x="1618" 
d="M805 268q-83 158 -163 300t-159 270l-338 -570h660zM948 0l-104 197h-740q-26 -43 -63 -112q-53 -97 -80 -97q-16 0 -28.5 12.5t-12.5 28.5q0 14 117.5 201t214.5 354l561 962l885 -1546h-750zM846 1745q0 67 51 113t127 46q77 0 127.5 -46t50.5 -113q0 -68 -50.5 -113
t-127.5 -45t-127.5 45t-50.5 113zM414 1745q0 67 51.5 113t128.5 46q76 0 127 -46t51 -113q0 -68 -50.5 -113t-127.5 -45t-128.5 45.5t-51.5 112.5z" />
    <glyph glyph-name="Aring" unicode="&#xc5;" horiz-adv-x="1618" 
d="M805 262q-86 162 -166 300.5t-156 258.5l-338 -559h660zM948 0l-104 193h-740q-27 -43 -64 -110q-51 -93 -79 -93q-15 0 -28 12.5t-13 26.5q0 15 118 198.5t214 343.5l561 945l885 -1516h-750zM702 1749q0 -45 33.5 -78t77.5 -33q47 0 79 32t32 79t-32 79t-79 32
q-44 0 -77.5 -33t-33.5 -78zM590 1751q0 94 64 157.5t159 63.5q94 0 158.5 -64t64.5 -157q0 -92 -66 -158.5t-157 -66.5t-157 66.5t-66 158.5z" />
    <glyph glyph-name="Ccedilla" unicode="&#xc7;" horiz-adv-x="1602" 
d="M764 25q12 -1 27.5 -1.5t44.5 -0.5q179 0 325.5 68t255.5 202q29 35 61 94t56 59q16 0 24.5 -9t8.5 -25q0 -28 -35 -86t-90 -117q-119 -125 -268.5 -189.5t-319.5 -64.5q-168 0 -309.5 56.5t-253.5 168.5q-110 110 -167.5 249t-57.5 294q0 154 59 294.5t170 250.5
q111 111 250.5 167t306.5 56q153 0 284.5 -47.5t252.5 -147.5q55 -45 85.5 -83.5t30.5 -61.5q0 -12 -9.5 -20.5t-22.5 -8.5q-22 0 -59 44q-30 35 -52 55q-115 102 -243 153t-271 51q-15 0 -31.5 -0.5t-52.5 -3.5v-1396zM611 -406v56q63 -13 118.5 -20t98.5 -7q64 0 98.5 31
t34.5 88q0 48 -31 70t-98 22q-20 0 -30 -0.5t-19 -1.5v168h73v-110q28 7 53 10.5t46 3.5q79 0 126.5 -44t47.5 -118q0 -91 -62.5 -141t-177.5 -50q-58 0 -127.5 11t-150.5 32z" />
    <glyph glyph-name="Eacute" unicode="&#xc9;" horiz-adv-x="1493" 
d="M1399 0h-1280q1 66 2.5 145t1.5 88v979q0 10 -1.5 89t-2.5 145h1184q37 0 48 -8t11 -29q0 -22 -12.5 -30.5t-46.5 -8.5q-9 0 -53 2q-211 8 -416 8h-72v-333h92q220 0 440 6q42 2 49 2q45 0 58.5 -9t13.5 -34q0 -20 -11 -28.5t-36 -8.5q-9 0 -59 1q-271 5 -547 5v-915
q165 0 349 -2q46 -1 56 -1q116 0 228 9q21 2 24 2q18 0 28.5 -10t10.5 -27q0 -22 -10.5 -29.5t-48.5 -7.5zM818 1603h-252l108 285h377z" />
    <glyph glyph-name="Ntilde" unicode="&#xd1;" horiz-adv-x="1655" 
d="M190 690v-328q0 -98 5.5 -204t5.5 -113q0 -34 -10 -46.5t-35 -12.5q-27 0 -38.5 11t-11.5 38q0 58 8.5 217t8.5 262v977q338 -200 673 -384t668 -351v327q0 98 -6 203t-6 113q0 35 10 48t35 13q28 0 39.5 -11.5t11.5 -37.5q0 -58 -8 -218.5t-8 -262.5v-977
q-350 207 -685 391.5t-657 345.5zM645 1661q-30 8 -49 12t-31 4q-36 0 -68 -34t-45 -34q-9 0 -14.5 6.5t-5.5 18.5q0 25 17.5 65t47.5 82q47 65 97.5 94t113.5 29q28 0 59 -5t64 -15l170 -53q6 -2 14 -4q52 -15 66 -15q37 0 72 41t49 41q9 0 14.5 -6.5t5.5 -17.5
q0 -26 -20 -70.5t-53 -89.5q-47 -66 -97.5 -95.5t-113.5 -29.5q-24 0 -54 5.5t-69 16.5z" />
    <glyph glyph-name="Odieresis" unicode="&#xd6;" horiz-adv-x="1671" 
d="M764 25q11 -1 26 -1.5t44 -0.5q125 0 235.5 39t208.5 118q123 101 190.5 242.5t67.5 300.5q0 157 -68 300t-190 243q-96 79 -206 118t-236 39q-30 0 -45 -0.5t-27 -1.5v-1396zM66 723q0 155 58 294.5t169 250.5q108 108 248 165.5t295 57.5t294.5 -57.5t247.5 -165.5
q109 -109 167.5 -250t58.5 -295q0 -155 -58.5 -295.5t-167.5 -249.5q-108 -109 -247.5 -166t-294.5 -57q-156 0 -295 57t-248 166q-111 111 -169 250.5t-58 294.5zM873 1745q0 67 51 113t127 46q77 0 127.5 -46t50.5 -113q0 -68 -50.5 -113t-127.5 -45t-127.5 45t-50.5 113z
M441 1745q0 67 51.5 113t128.5 46q76 0 127 -46t51 -113q0 -68 -50.5 -113t-127.5 -45t-128.5 45.5t-51.5 112.5z" />
    <glyph glyph-name="Udieresis" unicode="&#xdc;" horiz-adv-x="1649" 
d="M111 508v704q0 10 -1.5 89t-2.5 145h648q0 -73 -2.5 -148.5t-2.5 -80.5v-1199h59q211 0 345.5 46t209.5 143q61 79 86 232t25 558v174q0 104 -6 207q-1 17 -1 21q0 33 10.5 46t37.5 13q24 0 33.5 -10.5t9.5 -38.5q0 -366 -12 -644t-29 -372q-40 -223 -216 -331.5
t-497 -108.5q-377 0 -535.5 127t-158.5 428zM938 1745q0 67 51 113t127 46q77 0 127.5 -46t50.5 -113q0 -68 -50.5 -113t-127.5 -45t-127.5 45t-50.5 113zM506 1745q0 67 51.5 113t128.5 46q76 0 127 -46t51 -113q0 -68 -50.5 -113t-127.5 -45t-128.5 45.5t-51.5 112.5z" />
    <glyph glyph-name="aacute" unicode="&#xe1;" horiz-adv-x="1524" 
d="M881 621q-48 38 -103 59.5t-106 21.5q-47 0 -67.5 -31.5t-20.5 -103.5v-407q0 -51 13.5 -72.5t43.5 -21.5q47 0 108.5 28.5t131.5 83.5v443zM881 0v102q-97 -73 -188 -107t-187 -34q-206 0 -330.5 115t-124.5 305q0 180 136 289.5t360 109.5q86 0 168.5 -19.5
t165.5 -60.5v238q0 98 -50 140t-163 42q-99 0 -164.5 -23t-124.5 -79l-25 -25q-67 -67 -110 -67q-22 0 -36.5 14.5t-14.5 34.5q0 83 169.5 152t407.5 69q145 0 267 -24.5t198 -67.5q59 -34 96 -68t60 -75q16 -30 24 -89t8 -147v-483q0 -83 12 -136.5t38 -105.5h-592z
M920 1292h-252l108 285h377z" />
    <glyph glyph-name="agrave" unicode="&#xe0;" horiz-adv-x="1524" 
d="M881 621q-48 38 -103 59.5t-106 21.5q-47 0 -67.5 -31.5t-20.5 -103.5v-407q0 -51 13.5 -72.5t43.5 -21.5q47 0 108.5 28.5t131.5 83.5v443zM881 0v102q-97 -73 -188 -107t-187 -34q-206 0 -330.5 115t-124.5 305q0 180 136 289.5t360 109.5q86 0 168.5 -19.5
t165.5 -60.5v238q0 98 -50 140t-163 42q-99 0 -164.5 -23t-124.5 -79l-25 -25q-67 -67 -110 -67q-22 0 -36.5 14.5t-14.5 34.5q0 83 169.5 152t407.5 69q145 0 267 -24.5t198 -67.5q59 -34 96 -68t60 -75q16 -30 24 -89t8 -147v-483q0 -83 12 -136.5t38 -105.5h-592z
M782 1292l-233 285h377l108 -285h-252z" />
    <glyph glyph-name="acircumflex" unicode="&#xe2;" horiz-adv-x="1524" 
d="M881 621q-48 38 -103 59.5t-106 21.5q-47 0 -67.5 -31.5t-20.5 -103.5v-407q0 -51 13.5 -72.5t43.5 -21.5q47 0 108.5 28.5t131.5 83.5v443zM881 0v102q-97 -73 -188 -107t-187 -34q-206 0 -330.5 115t-124.5 305q0 180 136 289.5t360 109.5q86 0 168.5 -19.5
t165.5 -60.5v238q0 98 -50 140t-163 42q-99 0 -164.5 -23t-124.5 -79l-25 -25q-67 -67 -110 -67q-22 0 -36.5 14.5t-14.5 34.5q0 83 169.5 152t407.5 69q145 0 267 -24.5t198 -67.5q59 -34 96 -68t60 -75q16 -30 24 -89t8 -147v-483q0 -83 12 -136.5t38 -105.5h-592z
M842 1292l-133 213l-193 -213q-5 -6 -12.5 -9t-15.5 -3q-13 0 -21 10t-8 25q0 6 2 12.5t6 9.5l211 240h344l219 -285h-399z" />
    <glyph glyph-name="adieresis" unicode="&#xe4;" horiz-adv-x="1524" 
d="M881 621q-48 38 -103 59.5t-106 21.5q-47 0 -67.5 -31.5t-20.5 -103.5v-407q0 -51 13.5 -72.5t43.5 -21.5q47 0 108.5 28.5t131.5 83.5v443zM881 0v102q-97 -73 -188 -107t-187 -34q-206 0 -330.5 115t-124.5 305q0 180 136 289.5t360 109.5q86 0 168.5 -19.5
t165.5 -60.5v238q0 98 -50 140t-163 42q-99 0 -164.5 -23t-124.5 -79l-25 -25q-67 -67 -110 -67q-22 0 -36.5 14.5t-14.5 34.5q0 83 169.5 152t407.5 69q145 0 267 -24.5t198 -67.5q59 -34 96 -68t60 -75q16 -30 24 -89t8 -147v-483q0 -83 12 -136.5t38 -105.5h-592z
M887 1434q0 67 51 113t127 46q77 0 127.5 -46t50.5 -113q0 -68 -50.5 -113t-127.5 -45t-127.5 45t-50.5 113zM455 1434q0 67 51.5 113t128.5 46q76 0 127 -46t51 -113q0 -68 -50.5 -113t-127.5 -45t-128.5 45.5t-51.5 112.5z" />
    <glyph glyph-name="atilde" unicode="&#xe3;" horiz-adv-x="1524" 
d="M881 621q-48 38 -103 59.5t-106 21.5q-47 0 -67.5 -31.5t-20.5 -103.5v-407q0 -51 13.5 -72.5t43.5 -21.5q47 0 108.5 28.5t131.5 83.5v443zM881 0v102q-97 -73 -188 -107t-187 -34q-206 0 -330.5 115t-124.5 305q0 180 136 289.5t360 109.5q86 0 168.5 -19.5
t165.5 -60.5v238q0 98 -50 140t-163 42q-99 0 -164.5 -23t-124.5 -79l-25 -25q-67 -67 -110 -67q-22 0 -36.5 14.5t-14.5 34.5q0 83 169.5 152t407.5 69q145 0 267 -24.5t198 -67.5q59 -34 96 -68t60 -75q16 -30 24 -89t8 -147v-483q0 -83 12 -136.5t38 -105.5h-592z
M668 1350q-30 8 -49 12t-31 4q-36 0 -68 -34t-45 -34q-9 0 -14.5 6.5t-5.5 18.5q0 25 17.5 65t47.5 82q47 65 97.5 94t113.5 29q28 0 59 -5t64 -15l170 -53q6 -2 14 -4q52 -15 66 -15q37 0 72 41t49 41q9 0 14.5 -6.5t5.5 -17.5q0 -26 -20 -70.5t-53 -89.5
q-47 -66 -97.5 -95.5t-113.5 -29.5q-24 0 -54 5.5t-69 16.5z" />
    <glyph glyph-name="aring" unicode="&#xe5;" horiz-adv-x="1524" 
d="M705 1485q0 -46 32 -79.5t76 -33.5q47 0 81 33t34 80q0 46 -33.5 78t-81.5 32q-45 0 -76.5 -32t-31.5 -78zM592 1485q0 94 64 158.5t159 64.5q94 0 158.5 -65t64.5 -158q0 -92 -66 -157.5t-157 -65.5t-157 65.5t-66 157.5zM881 621q-48 38 -103 59.5t-106 21.5
q-47 0 -67.5 -31.5t-20.5 -103.5v-407q0 -51 13.5 -72.5t43.5 -21.5q47 0 108.5 28.5t131.5 83.5v443zM881 0v102q-97 -73 -188 -107t-187 -34q-206 0 -330.5 115t-124.5 305q0 180 136 289.5t360 109.5q86 0 168.5 -19.5t165.5 -60.5v238q0 98 -50 140t-163 42
q-99 0 -164.5 -23t-124.5 -79l-25 -25q-67 -67 -110 -67q-22 0 -36.5 14.5t-14.5 34.5q0 83 169.5 152t407.5 69q145 0 267 -24.5t198 -67.5q59 -34 96 -68t60 -75q16 -30 24 -89t8 -147v-483q0 -83 12 -136.5t38 -105.5h-592z" />
    <glyph glyph-name="ccedilla" unicode="&#xe7;" horiz-adv-x="1270" 
d="M631 1055v-953q0 -43 17 -58t63 -15q83 0 175 39.5t163 107.5q36 35 85.5 102.5t75.5 67.5q18 0 28.5 -10.5t10.5 -28.5q0 -20 -27 -60.5t-71 -84.5q-104 -104 -218.5 -152.5t-254.5 -48.5q-99 0 -188 25.5t-166 76.5q-133 88 -205 224.5t-72 300.5q0 124 50 238t143 200
q91 85 202.5 127.5t243.5 42.5q102 0 195.5 -28.5t177.5 -86.5q55 -38 93 -82t38 -65q0 -17 -12 -28t-29 -11q-21 0 -58 44q-23 27 -38 42q-67 67 -161 107t-181 40q-46 0 -63 -15t-17 -58zM416 -406v56q63 -13 118.5 -20t98.5 -7q64 0 98.5 31t34.5 88q0 48 -31 70t-98 22
q-20 0 -30 -0.5t-19 -1.5v168h73v-110q28 7 53 10.5t46 3.5q79 0 126.5 -44t47.5 -118q0 -91 -62.5 -141t-177.5 -50q-58 0 -127.5 11t-150.5 32z" />
    <glyph glyph-name="eacute" unicode="&#xe9;" horiz-adv-x="1331" 
d="M547 610h274v406q0 65 -31 89.5t-110 24.5q-74 0 -103.5 -24.5t-29.5 -89.5v-406zM547 545v-389q0 -76 25.5 -101.5t97.5 -25.5q89 0 181 35t169 98q55 46 111.5 115t78.5 69q18 0 29.5 -12.5t11.5 -30.5q0 -27 -28 -64.5t-93 -93.5q-102 -90 -221 -137t-245 -47
q-98 0 -189 28.5t-172 84.5q-120 83 -188 216.5t-68 287.5q0 132 51.5 249t149.5 207q85 79 194.5 120.5t233.5 41.5q262 0 429.5 -179.5t176.5 -471.5h-735zM772 1292h-252l108 285h377z" />
    <glyph glyph-name="egrave" unicode="&#xe8;" horiz-adv-x="1331" 
d="M547 610h274v406q0 65 -31 89.5t-110 24.5q-74 0 -103.5 -24.5t-29.5 -89.5v-406zM547 545v-389q0 -76 25.5 -101.5t97.5 -25.5q89 0 181 35t169 98q55 46 111.5 115t78.5 69q18 0 29.5 -12.5t11.5 -30.5q0 -27 -28 -64.5t-93 -93.5q-102 -90 -221 -137t-245 -47
q-98 0 -189 28.5t-172 84.5q-120 83 -188 216.5t-68 287.5q0 132 51.5 249t149.5 207q85 79 194.5 120.5t233.5 41.5q262 0 429.5 -179.5t176.5 -471.5h-735zM634 1292l-233 285h377l108 -285h-252z" />
    <glyph glyph-name="ecircumflex" unicode="&#xea;" horiz-adv-x="1331" 
d="M547 610h274v406q0 65 -31 89.5t-110 24.5q-74 0 -103.5 -24.5t-29.5 -89.5v-406zM547 545v-389q0 -76 25.5 -101.5t97.5 -25.5q89 0 181 35t169 98q55 46 111.5 115t78.5 69q18 0 29.5 -12.5t11.5 -30.5q0 -27 -28 -64.5t-93 -93.5q-102 -90 -221 -137t-245 -47
q-98 0 -189 28.5t-172 84.5q-120 83 -188 216.5t-68 287.5q0 132 51.5 249t149.5 207q85 79 194.5 120.5t233.5 41.5q262 0 429.5 -179.5t176.5 -471.5h-735zM694 1292l-133 213l-193 -213q-5 -6 -12.5 -9t-15.5 -3q-13 0 -21 10t-8 25q0 6 2 12.5t6 9.5l211 240h344
l219 -285h-399z" />
    <glyph glyph-name="edieresis" unicode="&#xeb;" horiz-adv-x="1331" 
d="M547 610h274v406q0 65 -31 89.5t-110 24.5q-74 0 -103.5 -24.5t-29.5 -89.5v-406zM547 545v-389q0 -76 25.5 -101.5t97.5 -25.5q89 0 181 35t169 98q55 46 111.5 115t78.5 69q18 0 29.5 -12.5t11.5 -30.5q0 -27 -28 -64.5t-93 -93.5q-102 -90 -221 -137t-245 -47
q-98 0 -189 28.5t-172 84.5q-120 83 -188 216.5t-68 287.5q0 132 51.5 249t149.5 207q85 79 194.5 120.5t233.5 41.5q262 0 429.5 -179.5t176.5 -471.5h-735zM739 1434q0 67 51 113t127 46q77 0 127.5 -46t50.5 -113q0 -68 -50.5 -113t-127.5 -45t-127.5 45t-50.5 113z
M307 1434q0 67 51.5 113t128.5 46q76 0 127 -46t51 -113q0 -68 -50.5 -113t-127.5 -45t-128.5 45.5t-51.5 112.5z" />
    <glyph glyph-name="iacute" unicode="&#xed;" horiz-adv-x="788" 
d="M119 0q1 66 2.5 145t1.5 88v691q0 9 -1.5 88t-2.5 145h552q0 -74 -2.5 -151t-2.5 -82v-691q0 -4 2.5 -81.5t2.5 -151.5h-552zM465 1292h-252l108 285h377z" />
    <glyph glyph-name="igrave" unicode="&#xec;" horiz-adv-x="788" 
d="M119 0q1 66 2.5 145t1.5 88v691q0 9 -1.5 88t-2.5 145h552q0 -74 -2.5 -151t-2.5 -82v-691q0 -4 2.5 -81.5t2.5 -151.5h-552zM327 1292l-233 285h377l108 -285h-252z" />
    <glyph glyph-name="icircumflex" unicode="&#xee;" horiz-adv-x="788" 
d="M119 0q1 66 2.5 145t1.5 88v691q0 9 -1.5 88t-2.5 145h552q0 -74 -2.5 -151t-2.5 -82v-691q0 -4 2.5 -81.5t2.5 -151.5h-552zM387 1292l-133 213l-193 -213q-5 -6 -12.5 -9t-15.5 -3q-13 0 -21 10t-8 25q0 6 2 12.5t6 9.5l211 240h344l219 -285h-399z" />
    <glyph glyph-name="idieresis" unicode="&#xef;" horiz-adv-x="788" 
d="M119 0q1 66 2.5 145t1.5 88v691q0 9 -1.5 88t-2.5 145h552q0 -74 -2.5 -151t-2.5 -82v-691q0 -4 2.5 -81.5t2.5 -151.5h-552zM432 1434q0 67 51 113t127 46q77 0 127.5 -46t50.5 -113q0 -68 -50.5 -113t-127.5 -45t-127.5 45t-50.5 113zM0 1434q0 67 51.5 113t128.5 46
q76 0 127 -46t51 -113q0 -68 -50.5 -113t-127.5 -45t-128.5 45.5t-51.5 112.5z" />
    <glyph glyph-name="ntilde" unicode="&#xf1;" horiz-adv-x="1638" 
d="M113 0q1 66 2.5 145t1.5 88v691q0 9 -1.5 88t-2.5 145h552q-1 -36 -2.5 -75.5t-2.5 -83.5q128 93 246.5 138.5t236.5 45.5q93 0 171.5 -26t123.5 -71q53 -53 75.5 -124.5t22.5 -253.5v-474q0 -9 1.5 -88t2.5 -145h-552q0 65 1.5 144t1.5 89v728q0 46 -17.5 66t-55.5 20
q-49 0 -109 -30.5t-150 -101.5v-682q0 -3 2.5 -80.5t3.5 -152.5h-552zM670 1350q-30 8 -49 12t-31 4q-36 0 -68 -34t-45 -34q-9 0 -14.5 6.5t-5.5 18.5q0 25 17.5 65t47.5 82q47 65 97.5 94t113.5 29q28 0 59 -5t64 -15l170 -53q6 -2 14 -4q52 -15 66 -15q37 0 72 41t49 41
q9 0 14.5 -6.5t5.5 -17.5q0 -26 -20 -70.5t-53 -89.5q-47 -66 -97.5 -95.5t-113.5 -29.5q-24 0 -54 5.5t-69 16.5z" />
    <glyph glyph-name="oacute" unicode="&#xf3;" horiz-adv-x="1331" 
d="M631 29h12q248 0 412 157.5t164 391.5q0 232 -163.5 390t-408.5 158h-16v-1097zM47 578q0 125 46.5 236.5t135.5 201.5q88 87 200 133.5t237 46.5q124 0 236 -46.5t200 -133.5q87 -87 133.5 -200.5t46.5 -237.5q0 -125 -46.5 -237t-133.5 -200q-88 -88 -199.5 -134
t-236.5 -46q-126 0 -238 45.5t-199 132.5q-89 90 -135.5 201.5t-46.5 237.5zM736 1292h-252l108 285h377z" />
    <glyph glyph-name="ograve" unicode="&#xf2;" horiz-adv-x="1331" 
d="M631 29h12q248 0 412 157.5t164 391.5q0 232 -163.5 390t-408.5 158h-16v-1097zM47 578q0 125 46.5 236.5t135.5 201.5q88 87 200 133.5t237 46.5q124 0 236 -46.5t200 -133.5q87 -87 133.5 -200.5t46.5 -237.5q0 -125 -46.5 -237t-133.5 -200q-88 -88 -199.5 -134
t-236.5 -46q-126 0 -238 45.5t-199 132.5q-89 90 -135.5 201.5t-46.5 237.5zM598 1292l-233 285h377l108 -285h-252z" />
    <glyph glyph-name="ocircumflex" unicode="&#xf4;" horiz-adv-x="1331" 
d="M631 29h12q248 0 412 157.5t164 391.5q0 232 -163.5 390t-408.5 158h-16v-1097zM47 578q0 125 46.5 236.5t135.5 201.5q88 87 200 133.5t237 46.5q124 0 236 -46.5t200 -133.5q87 -87 133.5 -200.5t46.5 -237.5q0 -125 -46.5 -237t-133.5 -200q-88 -88 -199.5 -134
t-236.5 -46q-126 0 -238 45.5t-199 132.5q-89 90 -135.5 201.5t-46.5 237.5zM658 1292l-133 213l-193 -213q-5 -6 -12.5 -9t-15.5 -3q-13 0 -21 10t-8 25q0 6 2 12.5t6 9.5l211 240h344l219 -285h-399z" />
    <glyph glyph-name="odieresis" unicode="&#xf6;" horiz-adv-x="1331" 
d="M631 29h12q248 0 412 157.5t164 391.5q0 232 -163.5 390t-408.5 158h-16v-1097zM47 578q0 125 46.5 236.5t135.5 201.5q88 87 200 133.5t237 46.5q124 0 236 -46.5t200 -133.5q87 -87 133.5 -200.5t46.5 -237.5q0 -125 -46.5 -237t-133.5 -200q-88 -88 -199.5 -134
t-236.5 -46q-126 0 -238 45.5t-199 132.5q-89 90 -135.5 201.5t-46.5 237.5zM703 1434q0 67 51 113t127 46q77 0 127.5 -46t50.5 -113q0 -68 -50.5 -113t-127.5 -45t-127.5 45t-50.5 113zM271 1434q0 67 51.5 113t128.5 46q76 0 127 -46t51 -113q0 -68 -50.5 -113
t-127.5 -45t-128.5 45.5t-51.5 112.5z" />
    <glyph glyph-name="otilde" unicode="&#xf5;" horiz-adv-x="1331" 
d="M631 29h12q248 0 412 157.5t164 391.5q0 232 -163.5 390t-408.5 158h-16v-1097zM47 578q0 125 46.5 236.5t135.5 201.5q88 87 200 133.5t237 46.5q124 0 236 -46.5t200 -133.5q87 -87 133.5 -200.5t46.5 -237.5q0 -125 -46.5 -237t-133.5 -200q-88 -88 -199.5 -134
t-236.5 -46q-126 0 -238 45.5t-199 132.5q-89 90 -135.5 201.5t-46.5 237.5zM484 1350q-30 8 -49 12t-31 4q-36 0 -68 -34t-45 -34q-9 0 -14.5 6.5t-5.5 18.5q0 25 17.5 65t47.5 82q47 65 97.5 94t113.5 29q28 0 59 -5t64 -15l170 -53q6 -2 14 -4q52 -15 66 -15q37 0 72 41
t49 41q9 0 14.5 -6.5t5.5 -17.5q0 -26 -20 -70.5t-53 -89.5q-47 -66 -97.5 -95.5t-113.5 -29.5q-24 0 -54 5.5t-69 16.5z" />
    <glyph glyph-name="uacute" unicode="&#xfa;" horiz-adv-x="1638" 
d="M1525 1157q0 -74 -2.5 -151t-2.5 -82v-691q0 -4 2.5 -81.5t2.5 -151.5h-552q0 15 1 42q3 88 3 118q-128 -94 -247 -139.5t-236 -45.5q-94 0 -172.5 26t-122.5 71q-53 52 -75 122t-22 238v19v473q0 4 -2.5 81t-2.5 152h552q-1 -66 -2.5 -145t-1.5 -88v-729q0 -45 18 -64.5
t58 -19.5q48 0 106.5 29.5t149.5 101.5v682q0 9 -1.5 88t-2.5 145h552zM889 1292h-252l108 285h377z" />
    <glyph glyph-name="ugrave" unicode="&#xf9;" horiz-adv-x="1638" 
d="M1525 1157q0 -74 -2.5 -151t-2.5 -82v-691q0 -4 2.5 -81.5t2.5 -151.5h-552q0 15 1 42q3 88 3 118q-128 -94 -247 -139.5t-236 -45.5q-94 0 -172.5 26t-122.5 71q-53 52 -75 122t-22 238v19v473q0 4 -2.5 81t-2.5 152h552q-1 -66 -2.5 -145t-1.5 -88v-729q0 -45 18 -64.5
t58 -19.5q48 0 106.5 29.5t149.5 101.5v682q0 9 -1.5 88t-2.5 145h552zM751 1292l-233 285h377l108 -285h-252z" />
    <glyph glyph-name="ucircumflex" unicode="&#xfb;" horiz-adv-x="1638" 
d="M1525 1157q0 -74 -2.5 -151t-2.5 -82v-691q0 -4 2.5 -81.5t2.5 -151.5h-552q0 15 1 42q3 88 3 118q-128 -94 -247 -139.5t-236 -45.5q-94 0 -172.5 26t-122.5 71q-53 52 -75 122t-22 238v19v473q0 4 -2.5 81t-2.5 152h552q-1 -66 -2.5 -145t-1.5 -88v-729q0 -45 18 -64.5
t58 -19.5q48 0 106.5 29.5t149.5 101.5v682q0 9 -1.5 88t-2.5 145h552zM811 1292l-133 213l-193 -213q-5 -6 -12.5 -9t-15.5 -3q-13 0 -21 10t-8 25q0 6 2 12.5t6 9.5l211 240h344l219 -285h-399z" />
    <glyph glyph-name="udieresis" unicode="&#xfc;" horiz-adv-x="1638" 
d="M1525 1157q0 -74 -2.5 -151t-2.5 -82v-691q0 -4 2.5 -81.5t2.5 -151.5h-552q0 15 1 42q3 88 3 118q-128 -94 -247 -139.5t-236 -45.5q-94 0 -172.5 26t-122.5 71q-53 52 -75 122t-22 238v19v473q0 4 -2.5 81t-2.5 152h552q-1 -66 -2.5 -145t-1.5 -88v-729q0 -45 18 -64.5
t58 -19.5q48 0 106.5 29.5t149.5 101.5v682q0 9 -1.5 88t-2.5 145h552zM856 1434q0 67 51 113t127 46q77 0 127.5 -46t50.5 -113q0 -68 -50.5 -113t-127.5 -45t-127.5 45t-50.5 113zM424 1434q0 67 51.5 113t128.5 46q76 0 127 -46t51 -113q0 -68 -50.5 -113t-127.5 -45
t-128.5 45.5t-51.5 112.5z" />
    <glyph glyph-name="dagger" unicode="&#x2020;" horiz-adv-x="1337" 
d="M967 158q0 -11 1.5 -90t1.5 -144h-603q1 66 2.5 145t1.5 89v848h-297q-40 0 -50 6.5t-10 27.5q0 19 12 26t48 7h297v160q0 9 -1.5 87t-2.5 144h604q-1 -65 -2.5 -143t-1.5 -88v-160h295q37 0 49 -7t12 -26q0 -20 -10.5 -27t-50.5 -7h-295v-848z" />
    <glyph glyph-name="degree" unicode="&#xb0;" horiz-adv-x="674" 
d="M336 1303q-62 0 -106 -44.5t-44 -107.5q0 -64 44 -109t108 -45q62 0 106.5 46t44.5 108t-45 107t-108 45zM338 1473q134 0 227.5 -94.5t93.5 -229.5q0 -132 -94.5 -227t-228.5 -95t-228 93.5t-94 228.5q0 134 95.5 229t228.5 95z" />
    <glyph glyph-name="cent" unicode="&#xa2;" horiz-adv-x="1430" 
d="M631 -172v182q-243 42 -380.5 205.5t-137.5 411.5q0 232 140 393.5t378 204.5v182q0 18 10.5 28.5t28.5 10.5q10 0 18 -11t8 -28l1 -176q12 1 25 1.5t40 0.5q100 0 192.5 -28.5t171.5 -84.5q55 -38 92 -81.5t37 -65.5q0 -17 -11.5 -28t-29.5 -11q-20 0 -58 44
q-23 27 -38 42q-67 67 -160.5 107t-181.5 40q-46 0 -63 -15t-17 -58v-953q0 -42 18 -57.5t64 -15.5q83 0 174 39.5t162 107.5q36 35 86 102.5t76 67.5q17 0 28 -10.5t11 -28.5q0 -26 -46.5 -85.5t-117.5 -119.5q-84 -70 -190 -104.5t-240 -34.5h-25v-174q0 -17 -8 -28
t-18 -11q-18 0 -28.5 10.5t-10.5 28.5z" />
    <glyph glyph-name="sterling" unicode="&#xa3;" horiz-adv-x="1430" 
d="M264 711h-166q-38 0 -51.5 8t-13.5 29q0 20 12 29t39 9l170 1q-3 26 -4.5 53.5t-1.5 54.5q0 279 146 435.5t405 156.5q135 0 238 -31t186 -96q40 -32 56.5 -50.5t16.5 -31.5q0 -10 -9.5 -21.5t-16.5 -11.5q-9 0 -40 23q-125 92 -249 92q-108 0 -162.5 -76.5t-54.5 -226.5
v-33l8 -238h397q30 0 41 -7t11 -25q0 -25 -9.5 -34t-42.5 -9h-389v-107q0 -238 -87 -363t-294 -188q59 -19 166 -58q254 -93 371 -93q124 0 228 48t192 146q26 30 56 80.5t54 50.5q19 0 29 -11.5t10 -33.5q0 -29 -24.5 -71t-69.5 -88q-90 -93 -202 -141t-240 -48
q-131 0 -342 71q-14 5 -21 7l-42 14q-236 78 -331 78q-55 0 -115 -21.5t-65 -21.5q-19 0 -31 13t-12 32q0 21 57 47q30 13 48 23q88 48 127 129t39 223q0 47 -4 113.5t-13 169.5z" />
    <glyph glyph-name="section" unicode="&#xa7;" horiz-adv-x="1337" 
d="M944 530q51 31 75.5 62t24.5 63q0 38 -33.5 62.5t-107.5 42.5l-510 121q-52 -32 -77 -62t-25 -61q0 -37 34 -62t109 -43zM311 913q-82 34 -125 94.5t-43 141.5q0 155 134.5 249.5t359.5 94.5q80 0 161 -15t206 -57q32 -11 43.5 -21t11.5 -26q0 -18 -10 -28.5t-27 -10.5
q-8 0 -45 17q-178 80 -356 80q-122 0 -197.5 -32t-75.5 -81q0 -33 36.5 -55.5t121.5 -40.5l356 -78q206 -45 292.5 -119.5t86.5 -204.5q0 -95 -49.5 -169.5t-165.5 -151.5q84 -36 125 -97t41 -149q0 -170 -128.5 -263t-363.5 -93q-202 0 -352.5 60.5t-150.5 123.5
q0 16 10 25.5t26 9.5q18 0 57 -25q16 -10 23 -14q115 -68 199.5 -91.5t185.5 -23.5q145 0 217 31t72 94q0 40 -32.5 62.5t-123.5 42.5l-358 75q-206 45 -292.5 120t-86.5 204q0 94 50 168.5t167 152.5z" />
    <glyph glyph-name="bullet" unicode="&#x2022;" horiz-adv-x="1208" 
d="M307 762q0 123 87 209t210 86q122 0 208.5 -86.5t86.5 -208.5t-87.5 -209.5t-209.5 -87.5q-123 0 -209 87t-86 210z" />
    <glyph glyph-name="paragraph" unicode="&#xb6;" 
d="M1014 1479v-142h-101v-1337h-202v1337h-140v-1337h-202v784q-163 8 -261 103t-98 243q0 157 106.5 253t282.5 96h615z" />
    <glyph glyph-name="germandbls" unicode="&#xdf;" horiz-adv-x="1556" 
d="M1298 653q78 -52 118 -124.5t40 -161.5q0 -161 -109.5 -268t-277.5 -107q-122 0 -213.5 76t-91.5 163q0 15 9.5 25t25.5 10q28 0 41 -38q2 -6 4 -11q34 -81 91 -121.5t138 -40.5q133 0 222 89t89 221q0 80 -38.5 144t-115.5 111q-37 -5 -65 -7.5t-51 -2.5
q-87 0 -137.5 25.5t-50.5 66.5q0 16 7.5 24.5t20.5 8.5q1 0 56.5 -28.5t115.5 -28.5q136 0 225 89t89 226q0 172 -130.5 288t-322.5 116q-164 0 -246 -83.5t-82 -250.5v-787q0 -60 -7 -129.5t-21 -146.5h-547q16 104 24.5 206.5t8.5 203.5v508q0 176 44 280t150 184
q86 67 216 103.5t286 36.5q316 0 504 -146.5t188 -388.5q0 -115 -51 -197.5t-156 -136.5z" />
    <glyph glyph-name="registered" unicode="&#xae;" horiz-adv-x="1683" 
d="M787 729q6 -1 13 -1.5t19 -0.5q72 0 109 43t37 127q0 64 -32 103.5t-85 39.5q-32 0 -47 -14t-15 -45zM461 1102h409q149 0 239.5 -56.5t90.5 -146.5q0 -89 -64.5 -139t-207.5 -72q112 -17 170.5 -78.5t58.5 -160.5v-48q0 -29 9 -44t26 -15q25 0 38 30.5t13 88.5v12h62
v-33q0 -89 -49 -135.5t-144 -46.5q-173 0 -187 219q-1 13 -1 19q-7 91 -36.5 131.5t-90.5 40.5h-11v-242q0 -44 15.5 -61.5t58.5 -26.5v-59h-399v59q50 5 69 24t19 64v528q0 45 -17.5 62.5t-70.5 23.5v62zM842 1313q-129 0 -246 -48.5t-205 -138.5q-90 -91 -137 -205.5
t-47 -242.5q0 -129 48 -244.5t138 -204.5q93 -91 206 -137.5t241 -46.5t242 47.5t204 136.5q90 92 139.5 209t49.5 240q0 127 -49 245.5t-138 204.5q-89 88 -206 136.5t-240 48.5zM842 1438q155 0 299.5 -62.5t251.5 -175.5q98 -104 152 -241t54 -281q0 -119 -37 -232.5
t-108 -212.5q-108 -149 -268.5 -231t-345.5 -82q-112 0 -218 32t-198 93q-162 107 -251 272.5t-89 360.5q0 151 57 289.5t164 246.5q106 108 245.5 166t291.5 58z" />
    <glyph glyph-name="copyright" unicode="&#xa9;" horiz-adv-x="1683" 
d="M1130 1108h54l6 -336h-57q-34 132 -101 201t-162 69q-103 0 -155.5 -90.5t-52.5 -267.5q0 -181 58.5 -277t168.5 -96q72 0 138 44.5t124 131.5l55 -34q-67 -113 -157.5 -167.5t-208.5 -54.5q-192 0 -319.5 126t-127.5 315q0 190 127.5 315t321.5 125q87 0 161 -32.5
t76 -32.5q20 0 31.5 13t19.5 48zM842 1313q-129 0 -246 -48.5t-205 -138.5q-90 -91 -137 -205.5t-47 -242.5q0 -129 48 -244.5t138 -204.5q92 -90 206 -137t243 -47q127 0 240.5 47t203.5 137q90 92 139.5 209t49.5 240q0 127 -49 245.5t-138 204.5q-89 88 -206 136.5
t-240 48.5zM844 1438q148 0 287.5 -58t244.5 -163q106 -105 164.5 -246.5t58.5 -292.5q0 -150 -57.5 -288.5t-165.5 -248.5q-106 -107 -243.5 -164t-290.5 -57q-154 0 -289 56t-246 165q-108 107 -165.5 245t-57.5 292q0 151 57 289.5t164 246.5q106 108 246 166t293 58z
" />
    <glyph glyph-name="trademark" unicode="&#x2122;" horiz-adv-x="1683" 
d="M731 1468h236l120 -342l111 342h221v-28l-21 -9q-16 -5 -22 -14t-6 -33v-385q0 -23 6 -32t23 -15l20 -8v-37h-268v37l30 8q17 5 23 15.5t6 31.5v340l-135 -432h-53l-162 447v-355q0 -22 7 -33t22 -14l37 -8v-37h-195v37l34 8q17 4 24.5 15t7.5 32v377q0 21 -7.5 32.5
t-23.5 14.5l-35 9v36zM219 1468h461l12 -206h-39q-6 77 -35.5 114.5t-82.5 38.5v-416q0 -21 6 -32.5t19 -14.5l30 -8v-37h-281v37l33 8q12 3 18.5 14.5t6.5 32.5v416q-55 0 -85 -38.5t-36 -114.5h-39z" />
    <glyph glyph-name="acute" unicode="&#xb4;" 
d="M582 1292h-252l108 285h377z" />
    <glyph glyph-name="dieresis" unicode="&#xa8;" 
d="M549 1434q0 67 51 113t127 46q77 0 127.5 -46t50.5 -113q0 -68 -50.5 -113t-127.5 -45t-127.5 45t-50.5 113zM117 1434q0 67 51.5 113t128.5 46q76 0 127 -46t51 -113q0 -68 -50.5 -113t-127.5 -45t-128.5 45.5t-51.5 112.5z" />
    <glyph glyph-name="notequal" unicode="&#x2260;" horiz-adv-x="1706" 
d="M1188 1278l196 -162l-112 -139h180v-260h-358l-172 -211h530v-262h-704l-242 -299l-199 159l113 140h-166v262h340l170 211h-510v260h690z" />
    <glyph glyph-name="AE" unicode="&#xc6;" horiz-adv-x="2316" 
d="M948 244h-823q-36 -52 -90 -133q-81 -123 -107 -123q-17 0 -30 13.5t-13 33.5q0 25 94 146q49 64 78 104l858 1161h1213q37 0 48 -8t11 -29q0 -23 -11.5 -31t-45.5 -8q-9 0 -55 2q-210 8 -414 8h-72v-333q32 -2 66.5 -2.5t99.5 -0.5q166 0 353 9q49 2 61 2q44 0 58 -9
t14 -34q-1 -20 -12 -28.5t-36 -8.5q-9 0 -58 1q-270 5 -546 5v-915q165 0 348 -2q45 -1 56 -1q115 0 227 9q21 2 25 2q18 0 29.5 -10t11.5 -27q0 -21 -12.5 -29t-49.5 -8h-1280q0 11 1 32q3 150 3 212zM948 315v1065l-772 -1065h772z" />
    <glyph glyph-name="Oslash" unicode="&#xd8;" horiz-adv-x="1671" 
d="M1249 1286q-95 71 -200 106t-218 35q-12 0 -25.5 -0.5t-41.5 -3.5v-716zM764 25q11 -1 26 -1.5t44 -0.5q125 0 235.5 39t208.5 118q123 101 190.5 242.5t67.5 300.5q0 147 -60 281t-173 241l-539 -645v-575zM166 -8l143 174q-121 118 -182 257.5t-61 299.5
q0 159 60.5 301.5t176.5 253.5q108 103 245 158t288 55q126 0 240 -37.5t216 -112.5l138 160q19 23 29.5 31t21.5 8q13 0 24 -8.5t11 -18.5q0 -14 -27 -45q-6 -7 -8 -10l-135 -164q127 -121 192.5 -266t65.5 -305q0 -155 -59.5 -296.5t-170.5 -252.5
q-105 -106 -244.5 -162.5t-293.5 -56.5q-127 0 -247 41.5t-227 122.5l-145 -172q-19 -23 -30 -31t-21 -8q-13 0 -24 8.5t-11 17.5q0 16 32 54z" />
    <glyph glyph-name="infinity" unicode="&#x221e;" horiz-adv-x="1706" 
d="M975 561q40 -57 95 -86t124 -29q84 0 137 43t53 109q0 65 -48 109.5t-117 44.5q-66 0 -122.5 -44t-121.5 -147zM731 653q-41 58 -95 86.5t-124 28.5q-84 0 -136 -43t-52 -111q0 -64 47.5 -107.5t117.5 -43.5q67 0 123 44t119 146zM850 424q-67 -129 -146.5 -191.5
t-175.5 -62.5q-144 0 -245 126t-101 312q0 195 89.5 315.5t232.5 120.5q85 0 161 -53t191 -200q69 128 149 190.5t175 62.5q143 0 244.5 -126t101.5 -312q0 -194 -90.5 -315t-233.5 -121q-88 0 -164 53t-188 201z" />
    <glyph glyph-name="plusminus" unicode="&#xb1;" horiz-adv-x="1706" 
d="M254 231h1198v-272h-1198v272zM713 1262h280v-310h459v-272h-459v-309h-280v309h-459v272h459v310z" />
    <glyph glyph-name="lessequal" unicode="&#x2264;" horiz-adv-x="1706" 
d="M254 236h1200v-271h-1200v271zM1452 1282v-283l-704 -208l704 -209v-281l-1198 371v237z" />
    <glyph glyph-name="greaterequal" unicode="&#x2265;" horiz-adv-x="1706" 
d="M254 236h1200v-271h-1200v271zM256 1282l1196 -373v-237l-1196 -371v281l705 209l-705 208v283z" />
    <glyph glyph-name="yen" unicode="&#xa5;" horiz-adv-x="1839" 
d="M741 190l146 195l-219 285h-559q-22 0 -27.5 6.5t-5.5 28.5q0 21 5.5 27.5t27.5 6.5h505l-168 215h-337q-22 1 -27.5 7.5t-5.5 27.5q0 22 6 28.5t27 6.5h282l-340 422h789l420 -549l114 158q72 97 169 243q112 166 143 166q15 0 25.5 -9.5t10.5 -22.5q0 -21 -37 -69
q-12 -15 -18 -24l-233 -315h286q21 0 27 -6.5t6 -28.5q0 -21 -5.5 -27.5t-27.5 -7.5h-340l-151 -215h491q22 0 27.5 -6.5t5.5 -27.5q0 -22 -5.5 -28.5t-27.5 -6.5h-542l-406 -555q-16 -23 -43 -61q-64 -93 -98 -93q-15 0 -25 9.5t-10 23.5q0 19 64 95q50 61 81 101z" />
    <glyph glyph-name="mu" unicode="&#xb5;" horiz-adv-x="1270" 
d="M268 165q-17 -113 -31 -252.5t-18 -164.5q-15 -102 -48 -139t-105 -37q-63 0 -100.5 38.5t-37.5 104.5q0 48 69.5 269t106.5 395l107 506h336l-117 -543q-7 -31 -10.5 -59t-3.5 -52q0 -47 23.5 -73.5t66.5 -26.5q56 0 90.5 51.5t62.5 179.5l115 523h334l-111 -514
q-4 -19 -6 -38t-2 -36q0 -43 20.5 -66.5t57.5 -23.5q54 0 104 84l2 3q22 37 34.5 46.5t29.5 9.5q15 0 25 -11.5t10 -29.5q0 -22 -15 -69.5t-38 -89.5q-48 -87 -111.5 -130t-142.5 -43q-89 0 -138 49.5t-55 145.5q-41 -96 -109.5 -143t-166.5 -47q-99 0 -158.5 48t-69.5 135z
" />
    <glyph glyph-name="partialdiff" unicode="&#x2202;" horiz-adv-x="1139" 
d="M770 715q25 127 35 210t10 150q0 105 -26.5 159t-77.5 54q-32 0 -57 -21t-52 -71q-44 -80 -91.5 -119t-100.5 -39q-62 0 -103 37.5t-41 95.5q0 87 102.5 148t249.5 61q224 0 352 -162.5t128 -449.5q0 -348 -167.5 -569.5t-432.5 -221.5q-215 0 -338 115.5t-123 317.5
q0 204 126 340.5t308 136.5q96 0 172 -43.5t127 -128.5zM694 553q0 114 -34 172.5t-99 58.5q-90 0 -150.5 -140.5t-60.5 -354.5q0 -115 34 -172.5t101 -57.5q90 0 149.5 140t59.5 354z" />
    <glyph glyph-name="summation" unicode="&#x2211;" horiz-adv-x="1640" 
d="M33 1473h1327l174 -506h-100l-115 274q-31 74 -89.5 104.5t-176.5 30.5h-72h-391l491 -725v-43l-624 -614h829q5 0 15.5 1t15.5 1q54 0 71 12t27 49l70 232h100l-207 -682h-1351v110l696 682l-690 992v82z" />
    <glyph glyph-name="product" unicode="&#x220f;" horiz-adv-x="1841" 
d="M39 1473h1753v-97h-193v-1673h193v-96h-825v96h159v1673h-421v-1673h159v-96h-825v96h192v1673h-192v97z" />
    <glyph glyph-name="pi" unicode="&#x3c0;" horiz-adv-x="1561" 
d="M1528 887l-80 -375h-370q0 -84 14 -205.5t14 -159.5q0 -97 -38.5 -145.5t-115.5 -48.5q-68 0 -103.5 31t-35.5 92q0 72 61 216.5t82 219.5h-382q1 -85 14.5 -206t13.5 -159q0 -97 -38.5 -145.5t-114.5 -48.5q-69 0 -104.5 31t-35.5 92q0 72 61 216.5t83 219.5h-242
q-80 0 -103 -18.5t-36 -71.5h-82q50 265 152 365t325 100h1061z" />
    <glyph glyph-name="integral" unicode="&#x222b;" horiz-adv-x="1331" 
d="M379 -244q28 0 54 42t42 114q19 92 26 385q4 185 9 293q23 515 144 742t368 227q118 0 190 -58.5t72 -150.5q0 -69 -46 -112.5t-116 -43.5q-67 0 -101 40.5t-34 119.5q0 2 1 10.5t1 15.5q0 26 -8.5 38t-26.5 12q-103 0 -126 -661q-2 -58 -3 -88q-11 -334 -36 -484.5
t-74 -266.5q-65 -150 -166.5 -226.5t-237.5 -76.5q-118 0 -189 57t-71 152q0 72 45 114t121 42q62 0 96.5 -37.5t34.5 -104.5q0 -12 -1 -30t-1 -23q0 -20 8.5 -30.5t24.5 -10.5z" />
    <glyph glyph-name="ordfeminine" unicode="&#xaa;" horiz-adv-x="1143" 
d="M662 1067q-36 27 -78 42t-80 15q-34 0 -50 -22t-16 -72v-285q0 -36 10 -51.5t33 -15.5q36 0 82 20.5t99 59.5v309zM662 633v72q-74 -51 -142 -75t-141 -24q-154 0 -247 80.5t-93 212.5q0 127 101.5 204t269.5 77q66 0 128 -14.5t124 -43.5v168q0 68 -37.5 97.5
t-122.5 29.5q-76 0 -125 -16t-93 -56q-7 -6 -20 -18q-49 -47 -82 -47q-15 0 -26 10.5t-11 24.5q0 58 126.5 106.5t306.5 48.5q109 0 200 -17t148 -48q45 -24 72 -47.5t44 -52.5q13 -20 19 -59t6 -105v-338q0 -57 9 -95t28 -75h-442z" />
    <glyph glyph-name="ordmasculine" unicode="&#xba;" horiz-adv-x="999" 
d="M473 653h10q186 0 308 110t122 273t-122 274t-306 111h-12v-768zM35 1036q0 88 35 166.5t102 140.5t151 94.5t177 32.5t177 -32.5t150 -94.5t101 -141t35 -166q0 -85 -35 -164t-101 -141q-65 -61 -149 -93t-178 -32q-95 0 -178.5 32t-149.5 93q-67 62 -102 140.5
t-35 164.5z" />
    <glyph glyph-name="Omega" unicode="&#x3a9;" horiz-adv-x="1597" 
d="M1180 346v-18h272l29 96h86l-127 -424h-559q69 190 104 411.5t35 467.5q0 254 -56.5 386t-164.5 132q-111 0 -166 -135t-55 -408q0 -226 35.5 -443.5t105.5 -410.5h-561l-127 424h88l28 -96h273v18q-171 36 -275 170.5t-104 317.5q0 283 216 473t542 190
q323 0 541.5 -189.5t218.5 -465.5q0 -190 -103 -324.5t-276 -171.5z" />
    <glyph glyph-name="ae" unicode="&#xe6;" horiz-adv-x="2228" 
d="M977 250q-48 87 -72 176.5t-24 181.5v13q-48 38 -103 59.5t-106 21.5q-47 0 -67.5 -31.5t-20.5 -103.5v-407q0 -51 13.5 -72.5t43.5 -21.5q53 0 131 42.5t205 141.5zM1016 195q-178 -136 -290.5 -185t-227.5 -49q-200 0 -323.5 116t-123.5 304q0 180 136 289.5t360 109.5
q86 0 168.5 -19.5t165.5 -60.5v238q0 98 -50 140t-163 42q-99 0 -164.5 -23t-124.5 -79l-25 -25q-67 -67 -110 -67q-22 0 -36.5 14.5t-14.5 34.5q0 81 165.5 151t391.5 70q120 0 227 -25.5t209 -78.5q95 52 186 78t178 26q265 0 433.5 -179t176.5 -472h-737v-389
q0 -75 26.5 -101t98.5 -26q90 0 182 35t168 98q55 46 112 115t79 69q17 0 29 -12.5t12 -30.5q0 -27 -28.5 -64.5t-92.5 -93.5q-104 -92 -226 -138t-261 -46q-161 0 -286 58t-220 176zM1423 610h277v406q0 65 -31 89.5t-110 24.5q-75 0 -105.5 -25t-30.5 -89v-406z" />
    <glyph glyph-name="oslash" unicode="&#xf8;" horiz-adv-x="1331" 
d="M631 27h4q252 0 418 157.5t166 393.5q0 108 -42.5 209t-121.5 182l-424 -508v-434zM1008 1012q-80 60 -166 89t-183 29h-28v-571zM186 -74q-7 -9 -15.5 -13.5t-16.5 -4.5q-16 0 -23.5 8.5t-7.5 26.5q0 6 2 11t6 9l125 152q-102 91 -155.5 209.5t-53.5 253.5
q0 125 49.5 242t139.5 202q86 82 199.5 128t230.5 46q109 0 203 -32.5t182 -100.5l108 129q9 10 16 14t15 4q16 0 24.5 -8t8.5 -24q0 -5 -2 -10.5t-7 -12.5l-116 -137q90 -89 137 -201.5t47 -238.5q0 -121 -45.5 -232.5t-130.5 -200.5q-84 -86 -200.5 -135t-239.5 -49
q-98 0 -189.5 28.5t-169.5 84.5z" />
    <glyph glyph-name="questiondown" unicode="&#xbf;" horiz-adv-x="1251" 
d="M721 887v-862q155 11 257.5 91t102.5 181q0 20 -8 50.5t-8 41.5q0 17 13.5 29t31.5 12q23 0 36 -19.5t13 -54.5q0 -174 -143.5 -284.5t-376.5 -110.5q-248 0 -393.5 114t-145.5 306q0 187 147 295t406 113v98h68zM1006 1247q0 -108 -85 -174.5t-225 -66.5t-224.5 66
t-84.5 175q0 111 84 177.5t225 66.5t225.5 -66.5t84.5 -177.5z" />
    <glyph glyph-name="exclamdown" unicode="&#xa1;" horiz-adv-x="788" 
d="M358 864h70q12 -86 45.5 -161.5t112.5 -178.5q76 -96 102.5 -158.5t26.5 -129.5q0 -124 -87.5 -199.5t-232.5 -75.5q-146 0 -233.5 75t-87.5 200q0 67 26.5 129.5t102.5 158.5q76 100 109.5 176t45.5 164zM84 1247q0 111 84 177.5t225 66.5q142 0 227 -67t85 -177
q0 -109 -85.5 -175t-226.5 -66q-140 0 -224.5 66.5t-84.5 174.5z" />
    <glyph glyph-name="logicalnot" unicode="&#xac;" horiz-adv-x="1706" 
d="M254 868h1198v-501h-272v235h-926v266z" />
    <glyph glyph-name="radical" unicode="&#x221a;" horiz-adv-x="1395" 
d="M1171 1737h228v-172h-86l-588 -1606h-143l-301 827l-156 -59l-41 154l395 139l209 -600z" />
    <glyph glyph-name="florin" unicode="&#x192;" horiz-adv-x="1430" 
d="M442 881h-198q-20 0 -32.5 10.5t-12.5 26.5q0 20 8.5 28t44.5 8h201l14 115q26 214 143 315t336 101q135 0 237.5 -41t102.5 -86q0 -20 -11.5 -32.5t-29.5 -12.5q-13 0 -52.5 32.5t-78.5 32.5q-42 0 -64 -40t-36 -152l-29 -232h209q37 0 49 -9t12 -34q0 -18 -12 -24
t-59 -6h-211l-68 -541q-20 -165 -49 -248.5t-80 -140.5q-62 -69 -149.5 -104t-194.5 -35q-151 0 -255.5 41t-104.5 96q0 17 11 30t26 13q19 0 63.5 -38t75.5 -38q41 0 64.5 56.5t45.5 232.5z" />
    <glyph glyph-name="approxequal" unicode="&#x2248;" horiz-adv-x="1706" 
d="M1530 608v-299q-106 -69 -195.5 -101t-177.5 -32q-87 0 -280 64.5t-316 64.5q-82 0 -172.5 -37t-210.5 -121v299q115 74 213 108t197 34q119 0 308.5 -64.5t268.5 -64.5q83 0 169 34.5t196 114.5zM1530 1073v-299q-106 -70 -195 -101.5t-176 -31.5q-88 0 -281 64.5
t-317 64.5q-85 0 -174.5 -36.5t-208.5 -121.5v299q115 74 213 108t197 34q119 0 308.5 -63.5t268.5 -63.5q85 0 171 34.5t194 112.5z" />
    <glyph glyph-name="Delta" unicode="&#x2206;" horiz-adv-x="1339" 
d="M504 1044l-324 -655h647zM631 1497h82l741 -1497h-1569z" />
    <glyph glyph-name="guillemotleft" unicode="&#xab;" horiz-adv-x="801" 
d="M504 756l192 -178v-400l-241 223v400l198 182q4 4 10.5 6t12.5 2q15 0 24 -8t9 -20q0 -9 -3.5 -17t-9.5 -14zM156 756l190 -178v-400l-240 223v400l197 182q4 4 10 6t13 2q15 0 24.5 -8t9.5 -20q0 -8 -3.5 -16.5t-10.5 -14.5z" />
    <glyph glyph-name="guillemotright" unicode="&#xbb;" horiz-adv-x="801" 
d="M297 414l-191 178v399l240 -223v-399l-196 -183q-4 -3 -10.5 -5.5t-12.5 -2.5q-15 0 -25 8t-10 21q0 7 4 15.5t10 15.5zM647 414l-192 178v399l241 -223v-399l-196 -183q-4 -3 -10.5 -5.5t-12.5 -2.5q-15 0 -25 8t-10 21q0 7 4 15.5t11 15.5z" />
    <glyph glyph-name="ellipsis" unicode="&#x2026;" horiz-adv-x="2048" 
d="M31 205q0 109 85 176.5t224 67.5q141 0 225.5 -67.5t84.5 -176.5q0 -111 -84.5 -177.5t-225.5 -66.5t-225 66.5t-84 177.5zM713 205q0 109 85 176.5t224 67.5q141 0 225.5 -67.5t84.5 -176.5q0 -111 -84.5 -177.5t-225.5 -66.5t-225 66.5t-84 177.5zM1397 205
q0 109 85 176.5t224 67.5q141 0 225.5 -67.5t84.5 -176.5q0 -111 -84.5 -177.5t-225.5 -66.5t-225 66.5t-84 177.5z" />
    <glyph glyph-name="nonbreakingspace" unicode="&#xa0;" horiz-adv-x="1430" 
 />
    <glyph glyph-name="Agrave" unicode="&#xc0;" horiz-adv-x="1618" 
d="M805 268q-83 158 -163 300t-159 270l-338 -570h660zM948 0l-104 197h-740q-26 -43 -63 -112q-53 -97 -80 -97q-16 0 -28.5 12.5t-12.5 28.5q0 14 117.5 201t214.5 354l561 962l885 -1546h-750zM741 1603l-233 285h377l108 -285h-252z" />
    <glyph glyph-name="Atilde" unicode="&#xc3;" horiz-adv-x="1618" 
d="M805 268q-83 158 -163 300t-159 270l-338 -570h660zM948 0l-104 197h-740q-26 -43 -63 -112q-53 -97 -80 -97q-16 0 -28.5 12.5t-12.5 28.5q0 14 117.5 201t214.5 354l561 962l885 -1546h-750zM627 1661q-30 8 -49 12t-31 4q-36 0 -68 -34t-45 -34q-9 0 -14.5 6.5
t-5.5 18.5q0 25 17.5 65t47.5 82q47 65 97.5 94t113.5 29q28 0 59 -5t64 -15l170 -53q6 -2 14 -4q52 -15 66 -15q37 0 72 41t49 41q9 0 14.5 -6.5t5.5 -17.5q0 -26 -20 -70.5t-53 -89.5q-47 -66 -97.5 -95.5t-113.5 -29.5q-24 0 -54 5.5t-69 16.5z" />
    <glyph glyph-name="Otilde" unicode="&#xd5;" horiz-adv-x="1671" 
d="M764 25q11 -1 26 -1.5t44 -0.5q125 0 235.5 39t208.5 118q123 101 190.5 242.5t67.5 300.5q0 157 -68 300t-190 243q-96 79 -206 118t-236 39q-30 0 -45 -0.5t-27 -1.5v-1396zM66 723q0 155 58 294.5t169 250.5q108 108 248 165.5t295 57.5t294.5 -57.5t247.5 -165.5
q109 -109 167.5 -250t58.5 -295q0 -155 -58.5 -295.5t-167.5 -249.5q-108 -109 -247.5 -166t-294.5 -57q-156 0 -295 57t-248 166q-111 111 -169 250.5t-58 294.5zM654 1661q-30 8 -49 12t-31 4q-36 0 -68 -34t-45 -34q-9 0 -14.5 6.5t-5.5 18.5q0 25 17.5 65t47.5 82
q47 65 97.5 94t113.5 29q28 0 59 -5t64 -15l170 -53q6 -2 14 -4q52 -15 66 -15q37 0 72 41t49 41q9 0 14.5 -6.5t5.5 -17.5q0 -26 -20 -70.5t-53 -89.5q-47 -66 -97.5 -95.5t-113.5 -29.5q-24 0 -54 5.5t-69 16.5z" />
    <glyph glyph-name="OE" unicode="&#x152;" horiz-adv-x="2898" 
d="M1532 0q1 66 2.5 145t1.5 88v177q-98 -213 -284.5 -334t-415.5 -121q-161 0 -305.5 63t-258.5 183q-99 104 -152.5 239t-53.5 283q0 154 60 298.5t169 250.5q108 105 249 162t292 57q226 0 411 -119t289 -334v174q0 10 -1.5 89t-2.5 144l1184 1q37 0 48 -8t11 -29
q0 -23 -11.5 -31t-45.5 -8q-10 0 -55 2q-210 8 -414 8h-72v-333q258 0 518 6q52 2 62 2q44 0 57.5 -9t13.5 -34q0 -21 -10.5 -29t-36.5 -8q-9 0 -52 1q-220 5 -437 5h-115v-915q8 -1 24 -1q151 -4 216 -4q193 0 379 11q31 2 36 2q19 0 30 -10t11 -27q0 -21 -11 -29t-50 -8
h-1280zM764 25q11 -1 26 -1.5t44 -0.5q125 0 235.5 39t208.5 118q123 101 190.5 242.5t67.5 300.5q0 157 -68 300t-190 243q-96 79 -206 118t-236 39q-30 0 -45 -0.5t-27 -1.5v-1396z" />
    <glyph glyph-name="oe" unicode="&#x153;" horiz-adv-x="2501" 
d="M1249 381q-73 -196 -228.5 -308t-354.5 -112q-122 0 -234 46t-199 130q-90 89 -138 202.5t-48 238.5q0 132 50 247t147 205q86 80 195 123t227 43q202 0 357.5 -113t227.5 -313q72 199 226.5 310.5t359.5 111.5q269 0 438 -177.5t178 -473.5h-737v-387q0 -76 26.5 -102.5
t98.5 -26.5q90 0 182 34.5t168 98.5q56 46 112.5 116t78.5 70q17 0 29 -13t12 -32q0 -27 -28.5 -64.5t-92.5 -93.5q-103 -90 -222.5 -137t-248.5 -47q-206 0 -359.5 112t-222.5 312zM1718 610h275v406q0 65 -31.5 89.5t-110.5 24.5q-74 0 -103.5 -24.5t-29.5 -89.5v-406z
M631 29h12q248 0 412 157.5t164 391.5q0 232 -163.5 390t-408.5 158h-16v-1097z" />
    <glyph glyph-name="endash" unicode="&#x2013;" 
d="M0 377v416h1024v-416h-1024z" />
    <glyph glyph-name="emdash" unicode="&#x2014;" horiz-adv-x="2048" 
d="M0 377v416h2048v-416h-2048z" />
    <glyph glyph-name="quotedblleft" unicode="&#x201c;" horiz-adv-x="1591" 
d="M911 1208q47 62 117 93.5t162 31.5q141 0 225 -66.5t84 -176.5t-84.5 -177t-224.5 -67q-156 0 -253 90t-97 233q0 162 124.5 258.5t338.5 96.5q24 0 36 -0.5t23 -2.5v-52q-11 0 -25.5 0.5t-42.5 0.5q-173 0 -265.5 -63.5t-117.5 -198.5zM162 1208q46 62 116.5 93.5
t161.5 31.5q141 0 225.5 -66.5t84.5 -176.5t-84.5 -177t-225.5 -67q-156 0 -253 90t-97 233q0 163 124 259t337 96q24 0 36 -0.5t23 -2.5v-52q-11 0 -25 0.5t-42 0.5q-172 0 -264.5 -63.5t-116.5 -198.5z" />
    <glyph glyph-name="quotedblright" unicode="&#x201d;" horiz-adv-x="1591" 
d="M1427 1128q-45 -61 -115 -91.5t-163 -30.5q-142 0 -225.5 65.5t-83.5 175.5t84.5 177t224.5 67q157 0 254.5 -90.5t97.5 -233.5q0 -161 -125 -257.5t-338 -96.5q-24 0 -36 0.5t-23 2.5v52q12 -1 26 -1.5t42 -0.5q171 0 263.5 64t116.5 198zM678 1128q-46 -61 -116 -91.5
t-163 -30.5q-141 0 -225 65.5t-84 175.5t84.5 177t224.5 67q157 0 254 -90.5t97 -233.5q0 -162 -124.5 -258t-336.5 -96q-25 0 -37 0.5t-22 1.5v53q12 -1 25.5 -1.5t41.5 -0.5q172 0 264.5 64t116.5 198z" />
    <glyph glyph-name="quoteleft" unicode="&#x2018;" horiz-adv-x="840" 
d="M162 1208q46 62 116.5 93.5t161.5 31.5q141 0 225.5 -66.5t84.5 -176.5t-84.5 -177t-225.5 -67q-156 0 -254 90.5t-98 232.5q0 162 125 258.5t338 96.5q24 0 36 -0.5t23 -2.5v-52q-11 0 -25 0.5t-42 0.5q-172 0 -264.5 -63.5t-116.5 -198.5z" />
    <glyph glyph-name="quoteright" unicode="&#x2019;" horiz-adv-x="840" 
d="M678 1128q-46 -61 -116 -91.5t-163 -30.5q-141 0 -225 65.5t-84 175.5t84.5 177t224.5 67q157 0 254 -90.5t97 -233.5q0 -162 -124.5 -258t-336.5 -96q-25 0 -37 0.5t-22 1.5v53q12 -1 25.5 -1.5t41.5 -0.5q172 0 264.5 64t116.5 198z" />
    <glyph glyph-name="divide" unicode="&#xf7;" horiz-adv-x="1706" 
d="M854 371q74 0 128 -54t54 -129q0 -74 -54 -128t-130 -54t-129 53t-53 129q0 77 53.5 130t130.5 53zM254 748h1198v-273h-1198v273zM854 1217q74 0 128 -55t54 -130q0 -74 -54 -128t-130 -54t-129 53t-53 129q0 77 54 131t130 54z" />
    <glyph glyph-name="lozenge" unicode="&#x25ca;" horiz-adv-x="1012" 
d="M506 1409l-385 -817l385 -825l385 825zM506 1653l500 -1061l-500 -1069l-500 1069z" />
    <glyph glyph-name="ydieresis" unicode="&#xff;" horiz-adv-x="1335" 
d="M608 145l-364 592q-26 42 -104 155t-187 265h680q67 -150 146.5 -282.5t170.5 -245.5l176 274q41 63 93 161q62 116 94 116q23 0 38 -15t15 -37q0 -29 -71 -115t-113 -151l-447 -672q-86 -128 -180.5 -200t-175.5 -72q-63 0 -102 25.5t-39 66.5q0 25 15.5 39t41.5 14
q25 0 70.5 -20t68.5 -20q35 0 81.5 32.5t92.5 89.5zM705 1434q0 67 51 113t127 46q77 0 127.5 -46t50.5 -113q0 -68 -50.5 -113t-127.5 -45t-127.5 45t-50.5 113zM273 1434q0 67 51.5 113t128.5 46q76 0 127 -46t51 -113q0 -68 -50.5 -113t-127.5 -45t-128.5 45.5
t-51.5 112.5z" />
    <glyph glyph-name="Ydieresis" unicode="&#x178;" horiz-adv-x="1548" 
d="M616 190l146 195q-187 248 -393.5 510.5t-440.5 550.5h787l420 -549l114 158q72 97 169 243q112 166 143 166q16 0 27 -9.5t11 -22.5q0 -20 -35 -65q-14 -17 -22 -28l-895 -1224q-16 -23 -43 -61q-63 -93 -98 -93q-15 0 -24 9t-9 24q0 20 66 99q48 59 77 97zM811 1745
q0 67 51 113t127 46q77 0 127.5 -46t50.5 -113q0 -68 -50.5 -113t-127.5 -45t-127.5 45t-50.5 113zM379 1745q0 67 51.5 113t128.5 46q76 0 127 -46t51 -113q0 -68 -50.5 -113t-127.5 -45t-128.5 45.5t-51.5 112.5z" />
    <glyph glyph-name="fraction" unicode="&#x2215;" horiz-adv-x="342" 
d="M-221 -33q-5 -8 -13.5 -13t-17.5 -5q-16 0 -24.5 8t-8.5 25q0 4 2.5 10t6.5 13l837 1474q5 7 14.5 12.5t18.5 5.5q15 0 23 -9t8 -26q0 -3 -2.5 -8.5t-6.5 -12.5z" />
    <glyph glyph-name="currency" unicode="&#xa4;" horiz-adv-x="1430" 
d="M1401 385q0 -30 -29 -87.5t-76 -113.5q-93 -111 -210.5 -167t-260.5 -56q-141 0 -261 56.5t-214 166.5q-71 83 -116 183t-62 211h-121q-21 0 -26.5 6t-6.5 28q0 21 6 28t27 7h110q0 13 -0.5 29t-0.5 47q0 34 2 63t6 56h-117q-21 0 -26.5 6t-6.5 29q1 22 6.5 28t26.5 6
h129q22 98 65.5 187.5t106.5 165.5q95 110 213 165.5t258 55.5q128 0 239 -47.5t214 -145.5q47 -45 72.5 -83.5t25.5 -61.5q0 -12 -8 -20.5t-20 -8.5q-18 0 -50 45q-25 34 -43 54q-102 106 -210 159.5t-224 53.5q-12 -1 -18 -2.5t-17 -2.5v-514h461q22 0 27.5 -6.5
t5.5 -27.5q0 -22 -6 -28.5t-27 -6.5h-461v-195h371q21 0 27 -7t6 -28t-5.5 -27.5t-27.5 -6.5h-371v-558q8 0 12 -1t13 -1q146 0 264.5 63.5t202.5 186.5q24 35 51 93.5t47 58.5q13 0 20 -9t7 -26z" />
    <glyph glyph-name="guilsinglleft" unicode="&#x2039;" horiz-adv-x="453" 
d="M156 756l190 -178v-400l-240 223v400l197 182q4 4 10 6t13 2q15 0 24.5 -8t9.5 -20q0 -8 -3.5 -16.5t-10.5 -14.5z" />
    <glyph glyph-name="guilsinglright" unicode="&#x203a;" horiz-adv-x="453" 
d="M297 414l-193 178v399l242 -223v-399l-196 -183q-4 -3 -10.5 -5.5t-12.5 -2.5q-15 0 -25 8t-10 21q0 7 4 15.5t10 15.5z" />
    <glyph glyph-name="fi" unicode="&#xf001;" horiz-adv-x="1655" 
d="M983 1370q0 67 77.5 109.5t205.5 42.5t205 -42t77 -110q0 -67 -77 -108t-205 -41q-129 0 -206 41t-77 108zM992 0q0 65 1.5 144t1.5 89v691q0 10 -1.5 89t-1.5 144h550q-1 -66 -2.5 -145t-1.5 -88v-691q0 -9 1.5 -88t2.5 -145h-550zM132 0q0 66 1.5 143.5t1.5 87.5v848
q-29 -1 -61 -2.5t-35 -1.5q-32 0 -44.5 8.5t-12.5 28.5q0 24 12 33.5t43 9.5h12q2 0 30.5 -2.5t55.5 -3.5q22 181 140 276t321 95q144 0 247 -37t103 -82q0 -19 -14 -31t-35 -12q-9 0 -44.5 31.5t-76.5 31.5q-48 0 -73 -45t-25 -133v-94l16 1q106 9 127 9q35 0 51.5 -12
t16.5 -37q0 -22 -12.5 -30.5t-45.5 -8.5q-10 0 -61.5 3.5t-91.5 4.5v-848q0 -4 2.5 -80.5t3.5 -150.5h-552z" />
    <glyph glyph-name="fl" unicode="&#xf002;" horiz-adv-x="1655" 
d="M995 1233q0 42 -0.5 91t-3.5 140h557q-5 -75 -7.5 -137t-2.5 -94v-1000q0 -9 1.5 -88t2.5 -145h-550q0 65 1.5 144t1.5 89v1000zM132 0q0 66 1.5 143.5t1.5 87.5v848q-29 -1 -61 -2.5t-35 -1.5q-32 0 -44.5 8.5t-12.5 28.5q0 24 12 33.5t43 9.5h12q2 0 30.5 -2.5
t55.5 -3.5q22 181 140 276t321 95q144 0 247 -37t103 -82q0 -19 -14 -31t-35 -12q-9 0 -44.5 31.5t-76.5 31.5q-48 0 -73 -45t-25 -133v-94l16 1q106 9 127 9q35 0 51.5 -12t16.5 -37q0 -22 -12.5 -30.5t-45.5 -8.5q-10 0 -61.5 3.5t-91.5 4.5v-848q0 -4 2.5 -80.5
t3.5 -150.5h-552z" />
    <glyph glyph-name="daggerdbl" unicode="&#x2021;" horiz-adv-x="1337" 
d="M371 1040h-297q-40 0 -50 7t-10 28q0 19 12 26t48 7h297v125q0 9 -1.5 87t-2.5 144h604q-1 -65 -2.5 -143t-1.5 -88v-125h295q37 0 49 -7.5t12 -25.5q0 -20 -10.5 -27.5t-50.5 -7.5h-295v-692h295q43 0 52 -6.5t9 -26.5q0 -19 -13 -26.5t-48 -7.5h-295v-123
q0 -11 1.5 -90t1.5 -144h-603q1 66 2.5 145t1.5 89v123h-297q-35 0 -47.5 7.5t-12.5 26.5q0 20 9 26.5t51 6.5h297v692z" />
    <glyph glyph-name="periodcentered" unicode="&#xb7;" horiz-adv-x="715" 
d="M106 731q0 106 72.5 178t179.5 72q106 0 178 -72t72 -178q0 -104 -74 -179t-176 -75q-103 0 -177.5 75t-74.5 179z" />
    <glyph glyph-name="quotesinglbase" unicode="&#x201a;" horiz-adv-x="840" 
d="M635 86q-47 -62 -117 -93.5t-162 -31.5q-141 0 -225 66.5t-84 177.5q0 109 84.5 176.5t224.5 67.5q157 0 254 -90.5t97 -233.5q0 -162 -124.5 -258t-336.5 -96q-25 0 -37 0.5t-23 1.5l1 53q11 -1 25 -1.5t42 -0.5q172 0 264.5 63.5t116.5 198.5z" />
    <glyph glyph-name="quotedblbase" unicode="&#x201e;" horiz-adv-x="1591" 
d="M1384 86q-46 -62 -115.5 -93.5t-160.5 -31.5q-141 0 -226 67t-85 177q0 109 85.5 176.5t225.5 67.5q156 0 253 -90.5t97 -233.5q0 -162 -125 -258t-338 -96q-24 0 -36.5 0.5t-22.5 1.5v52q11 0 25.5 -0.5t42.5 -0.5q171 0 263.5 63.5t116.5 198.5zM635 86
q-47 -62 -117 -93.5t-162 -31.5q-141 0 -225 66.5t-84 177.5q0 109 84.5 176.5t224.5 67.5q157 0 254 -90.5t97 -233.5q0 -162 -124.5 -258t-336.5 -96q-25 0 -37 0.5t-23 1.5l1 53q11 -1 25 -1.5t42 -0.5q172 0 264.5 63.5t116.5 198.5z" />
    <glyph glyph-name="perthousand" unicode="&#x2030;" horiz-adv-x="2525" 
d="M2087 756v-701h4q138 0 221.5 96t83.5 255q0 158 -83.5 254t-221.5 96h-4zM1733 406q0 179 101 293t259 114q159 0 260 -113.5t101 -293.5t-100.5 -293t-260.5 -113q-158 0 -259 113t-101 293zM1272 756v-701h4q137 0 220 96t83 255q0 158 -83 254t-220 96h-4zM918 406
q0 179 100 293t258 114q159 0 260.5 -114t101.5 -293q0 -180 -101 -293t-261 -113q-158 0 -258 113t-100 293zM514 -39q-5 -10 -13 -14t-22 -4q-13 0 -20.5 9t-7.5 23q0 4 1.5 8.5t6.5 12.5l735 1489q5 9 14 13.5t23 4.5q12 0 19 -8.5t7 -24.5q0 -7 -1 -11.5t-5 -11.5z
M426 1389v-701h4q137 0 220 95.5t83 254.5t-83 255t-220 96h-4zM72 1038q0 180 100 294t258 114q160 0 261.5 -114t101.5 -294q0 -179 -101.5 -292t-261.5 -113q-158 0 -258 113t-100 292z" />
    <glyph glyph-name="Acircumflex" unicode="&#xc2;" horiz-adv-x="1618" 
d="M805 268q-83 158 -163 300t-159 270l-338 -570h660zM948 0l-104 197h-740q-26 -43 -63 -112q-53 -97 -80 -97q-16 0 -28.5 12.5t-12.5 28.5q0 14 117.5 201t214.5 354l561 962l885 -1546h-750zM801 1603l-133 213l-193 -213q-5 -6 -12.5 -9t-15.5 -3q-13 0 -21 10t-8 25
q0 6 2 12.5t6 9.5l211 240h344l219 -285h-399z" />
    <glyph glyph-name="Ecircumflex" unicode="&#xca;" horiz-adv-x="1493" 
d="M1399 0h-1280q1 66 2.5 145t1.5 88v979q0 10 -1.5 89t-2.5 145h1184q37 0 48 -8t11 -29q0 -22 -12.5 -30.5t-46.5 -8.5q-9 0 -53 2q-211 8 -416 8h-72v-333h92q220 0 440 6q42 2 49 2q45 0 58.5 -9t13.5 -34q0 -20 -11 -28.5t-36 -8.5q-9 0 -59 1q-271 5 -547 5v-915
q165 0 349 -2q46 -1 56 -1q116 0 228 9q21 2 24 2q18 0 28.5 -10t10.5 -27q0 -22 -10.5 -29.5t-48.5 -7.5zM740 1603l-133 213l-193 -213q-5 -6 -12.5 -9t-15.5 -3q-13 0 -21 10t-8 25q0 6 2 12.5t6 9.5l211 240h344l219 -285h-399z" />
    <glyph glyph-name="Aacute" unicode="&#xc1;" horiz-adv-x="1618" 
d="M805 268q-83 158 -163 300t-159 270l-338 -570h660zM948 0l-104 197h-740q-26 -43 -63 -112q-53 -97 -80 -97q-16 0 -28.5 12.5t-12.5 28.5q0 14 117.5 201t214.5 354l561 962l885 -1546h-750zM879 1603h-252l108 285h377z" />
    <glyph glyph-name="Edieresis" unicode="&#xcb;" horiz-adv-x="1493" 
d="M1399 0h-1280q1 66 2.5 145t1.5 88v979q0 10 -1.5 89t-2.5 145h1184q37 0 48 -8t11 -29q0 -22 -12.5 -30.5t-46.5 -8.5q-9 0 -53 2q-211 8 -416 8h-72v-333h92q220 0 440 6q42 2 49 2q45 0 58.5 -9t13.5 -34q0 -20 -11 -28.5t-36 -8.5q-9 0 -59 1q-271 5 -547 5v-915
q165 0 349 -2q46 -1 56 -1q116 0 228 9q21 2 24 2q18 0 28.5 -10t10.5 -27q0 -22 -10.5 -29.5t-48.5 -7.5zM785 1745q0 67 51 113t127 46q77 0 127.5 -46t50.5 -113q0 -68 -50.5 -113t-127.5 -45t-127.5 45t-50.5 113zM353 1745q0 67 51.5 113t128.5 46q76 0 127 -46
t51 -113q0 -68 -50.5 -113t-127.5 -45t-128.5 45.5t-51.5 112.5z" />
    <glyph glyph-name="Egrave" unicode="&#xc8;" horiz-adv-x="1493" 
d="M1399 0h-1280q1 66 2.5 145t1.5 88v979q0 10 -1.5 89t-2.5 145h1184q37 0 48 -8t11 -29q0 -22 -12.5 -30.5t-46.5 -8.5q-9 0 -53 2q-211 8 -416 8h-72v-333h92q220 0 440 6q42 2 49 2q45 0 58.5 -9t13.5 -34q0 -20 -11 -28.5t-36 -8.5q-9 0 -59 1q-271 5 -547 5v-915
q165 0 349 -2q46 -1 56 -1q116 0 228 9q21 2 24 2q18 0 28.5 -10t10.5 -27q0 -22 -10.5 -29.5t-48.5 -7.5zM680 1603l-233 285h377l108 -285h-252z" />
    <glyph glyph-name="Iacute" unicode="&#xcd;" horiz-adv-x="897" 
d="M125 0q1 66 2.5 144.5t1.5 88.5v979q0 11 -1.5 88.5t-2.5 144.5l649 1q-1 -75 -3.5 -152.5t-2.5 -81.5v-979q0 -3 2.5 -81t3.5 -152h-649zM519 1603h-252l108 285h377z" />
    <glyph glyph-name="Icircumflex" unicode="&#xce;" horiz-adv-x="897" 
d="M125 0q1 66 2.5 144.5t1.5 88.5v979q0 11 -1.5 88.5t-2.5 144.5l649 1q-1 -75 -3.5 -152.5t-2.5 -81.5v-979q0 -3 2.5 -81t3.5 -152h-649zM441 1603l-133 213l-193 -213q-5 -6 -12.5 -9t-15.5 -3q-13 0 -21 10t-8 25q0 6 2 12.5t6 9.5l211 240h344l219 -285h-399z" />
    <glyph glyph-name="Idieresis" unicode="&#xcf;" horiz-adv-x="897" 
d="M125 0q1 66 2.5 144.5t1.5 88.5v979q0 11 -1.5 88.5t-2.5 144.5l649 1q-1 -75 -3.5 -152.5t-2.5 -81.5v-979q0 -3 2.5 -81t3.5 -152h-649zM486 1745q0 67 51 113t127 46q77 0 127.5 -46t50.5 -113q0 -68 -50.5 -113t-127.5 -45t-127.5 45t-50.5 113zM54 1745
q0 67 51.5 113t128.5 46q76 0 127 -46t51 -113q0 -68 -50.5 -113t-127.5 -45t-128.5 45.5t-51.5 112.5z" />
    <glyph glyph-name="Igrave" unicode="&#xcc;" horiz-adv-x="897" 
d="M125 0q1 66 2.5 144.5t1.5 88.5v979q0 11 -1.5 88.5t-2.5 144.5l649 1q-1 -75 -3.5 -152.5t-2.5 -81.5v-979q0 -3 2.5 -81t3.5 -152h-649zM381 1603l-233 285h377l108 -285h-252z" />
    <glyph glyph-name="Oacute" unicode="&#xd3;" horiz-adv-x="1671" 
d="M764 25q11 -1 26 -1.5t44 -0.5q125 0 235.5 39t208.5 118q123 101 190.5 242.5t67.5 300.5q0 157 -68 300t-190 243q-96 79 -206 118t-236 39q-30 0 -45 -0.5t-27 -1.5v-1396zM66 723q0 155 58 294.5t169 250.5q108 108 248 165.5t295 57.5t294.5 -57.5t247.5 -165.5
q109 -109 167.5 -250t58.5 -295q0 -155 -58.5 -295.5t-167.5 -249.5q-108 -109 -247.5 -166t-294.5 -57q-156 0 -295 57t-248 166q-111 111 -169 250.5t-58 294.5zM906 1603h-252l108 285h377z" />
    <glyph glyph-name="Ocircumflex" unicode="&#xd4;" horiz-adv-x="1671" 
d="M764 25q11 -1 26 -1.5t44 -0.5q125 0 235.5 39t208.5 118q123 101 190.5 242.5t67.5 300.5q0 157 -68 300t-190 243q-96 79 -206 118t-236 39q-30 0 -45 -0.5t-27 -1.5v-1396zM66 723q0 155 58 294.5t169 250.5q108 108 248 165.5t295 57.5t294.5 -57.5t247.5 -165.5
q109 -109 167.5 -250t58.5 -295q0 -155 -58.5 -295.5t-167.5 -249.5q-108 -109 -247.5 -166t-294.5 -57q-156 0 -295 57t-248 166q-111 111 -169 250.5t-58 294.5zM828 1603l-133 213l-193 -213q-5 -6 -12.5 -9t-15.5 -3q-13 0 -21 10t-8 25q0 6 2 12.5t6 9.5l211 240h344
l219 -285h-399z" />
    <glyph glyph-name="apple" unicode="&#xf000;" horiz-adv-x="1618" 
d="M836 1216q-1 6 -1.5 14t-0.5 23q0 124 95 229.5t236 131.5q1 -10 1.5 -23t0.5 -39q0 -131 -103.5 -234.5t-203.5 -103.5h-8q-3 0 -7.5 1t-8.5 1zM1505 403q-114 -247 -205 -342.5t-204 -95.5q-50 0 -131.5 33t-122.5 33q-45 0 -131 -33t-127 -33q-64 0 -128.5 44
t-129.5 132q-102 140 -157.5 295.5t-55.5 300.5q0 219 125 356.5t323 137.5q68 0 155 -34t124 -34q34 0 121.5 35t152.5 35q110 0 198 -40t161 -124q-102 -65 -151.5 -145.5t-49.5 -182.5q0 -113 60 -200t173 -138z" />
    <glyph glyph-name="Ograve" unicode="&#xd2;" horiz-adv-x="1671" 
d="M764 25q11 -1 26 -1.5t44 -0.5q125 0 235.5 39t208.5 118q123 101 190.5 242.5t67.5 300.5q0 157 -68 300t-190 243q-96 79 -206 118t-236 39q-30 0 -45 -0.5t-27 -1.5v-1396zM66 723q0 155 58 294.5t169 250.5q108 108 248 165.5t295 57.5t294.5 -57.5t247.5 -165.5
q109 -109 167.5 -250t58.5 -295q0 -155 -58.5 -295.5t-167.5 -249.5q-108 -109 -247.5 -166t-294.5 -57q-156 0 -295 57t-248 166q-111 111 -169 250.5t-58 294.5zM768 1603l-233 285h377l108 -285h-252z" />
    <glyph glyph-name="Uacute" unicode="&#xda;" horiz-adv-x="1649" 
d="M111 508v704q0 10 -1.5 89t-2.5 145h648q0 -73 -2.5 -148.5t-2.5 -80.5v-1199h59q211 0 345.5 46t209.5 143q61 79 86 232t25 558v174q0 104 -6 207q-1 17 -1 21q0 33 10.5 46t37.5 13q24 0 33.5 -10.5t9.5 -38.5q0 -366 -12 -644t-29 -372q-40 -223 -216 -331.5
t-497 -108.5q-377 0 -535.5 127t-158.5 428zM971 1603h-252l108 285h377z" />
    <glyph glyph-name="Ucircumflex" unicode="&#xdb;" horiz-adv-x="1649" 
d="M111 508v704q0 10 -1.5 89t-2.5 145h648q0 -73 -2.5 -148.5t-2.5 -80.5v-1199h59q211 0 345.5 46t209.5 143q61 79 86 232t25 558v174q0 104 -6 207q-1 17 -1 21q0 33 10.5 46t37.5 13q24 0 33.5 -10.5t9.5 -38.5q0 -366 -12 -644t-29 -372q-40 -223 -216 -331.5
t-497 -108.5q-377 0 -535.5 127t-158.5 428zM893 1603l-133 213l-193 -213q-5 -6 -12.5 -9t-15.5 -3q-13 0 -21 10t-8 25q0 6 2 12.5t6 9.5l211 240h344l219 -285h-399z" />
    <glyph glyph-name="Ugrave" unicode="&#xd9;" horiz-adv-x="1649" 
d="M111 508v704q0 10 -1.5 89t-2.5 145h648q0 -73 -2.5 -148.5t-2.5 -80.5v-1199h59q211 0 345.5 46t209.5 143q61 79 86 232t25 558v174q0 104 -6 207q-1 17 -1 21q0 33 10.5 46t37.5 13q24 0 33.5 -10.5t9.5 -38.5q0 -366 -12 -644t-29 -372q-40 -223 -216 -331.5
t-497 -108.5q-377 0 -535.5 127t-158.5 428zM833 1603l-233 285h377l108 -285h-252z" />
    <glyph glyph-name="dotlessi" unicode="&#x131;" horiz-adv-x="788" 
d="M119 0q1 66 2.5 145t1.5 88v691q0 9 -1.5 88t-2.5 145h552q0 -74 -2.5 -151t-2.5 -82v-691q0 -4 2.5 -81.5t2.5 -151.5h-552z" />
    <glyph glyph-name="circumflex" unicode="&#x2c6;" 
d="M504 1292l-133 213l-193 -213q-5 -6 -12.5 -9t-15.5 -3q-13 0 -21 10t-8 25q0 6 2 12.5t6 9.5l211 240h344l219 -285h-399z" />
    <glyph glyph-name="tilde" unicode="&#x2dc;" 
d="M330 1350q-30 8 -49 12t-31 4q-36 0 -68 -34t-45 -34q-9 0 -14.5 6.5t-5.5 18.5q0 25 17.5 65t47.5 82q47 65 97.5 94t113.5 29q28 0 59 -5t64 -15l170 -53q6 -2 14 -4q52 -15 66 -15q37 0 72 41t49 41q9 0 14.5 -6.5t5.5 -17.5q0 -26 -20 -70.5t-53 -89.5
q-47 -66 -97.5 -95.5t-113.5 -29.5q-24 0 -54 5.5t-69 16.5z" />
    <glyph glyph-name="macron" unicode="&#xaf;" 
d="M143 1341v187h738v-187h-738z" />
    <glyph glyph-name="breve" unicode="&#x2d8;" 
d="M512 1458q73 0 129.5 18t101.5 56q14 11 33 33q31 34 53 34q13 0 20 -7.5t7 -20.5q0 -25 -16.5 -65t-46.5 -87q-51 -76 -119.5 -112.5t-161.5 -36.5t-161.5 36.5t-119.5 112.5q-30 47 -46.5 87t-16.5 65q0 13 7 20.5t20 7.5q22 0 53 -34q19 -22 33 -33q43 -38 100 -56
t131 -18z" />
    <glyph glyph-name="dotaccent" unicode="&#x2d9;" 
d="M367 1438q0 58 43.5 101.5t101.5 43.5q59 0 102 -43t43 -102q0 -62 -42 -104t-103 -42q-60 0 -102.5 43t-42.5 103z" />
    <glyph glyph-name="ring" unicode="&#x2da;" 
d="M420 1505q0 -38 27 -65t65 -27q40 0 67 27t27 65t-27.5 65t-66.5 27q-37 0 -64.5 -27t-27.5 -65zM291 1507q0 94 64 158t159 64q94 0 157.5 -64t63.5 -158q0 -92 -65 -158.5t-156 -66.5t-157 66.5t-66 158.5z" />
    <glyph glyph-name="cedilla" unicode="&#xb8;" 
d="M285 -406v56q63 -13 118.5 -20t98.5 -7q64 0 98.5 31t34.5 88q0 48 -31 70t-98 22q-20 0 -30 -0.5t-19 -1.5v168h73v-110q28 7 53 10.5t46 3.5q79 0 126.5 -44t47.5 -118q0 -91 -62.5 -141t-177.5 -50q-58 0 -127.5 11t-150.5 32z" />
    <glyph glyph-name="hungarumlaut" unicode="&#x2dd;" 
d="M698 1577h211l-196 -285h-121zM401 1577h211l-198 -285h-119z" />
    <glyph glyph-name="ogonek" unicode="&#x2db;" 
d="M643 0q-79 -51 -114 -94.5t-35 -87.5q0 -37 21 -54.5t65 -17.5h137v-174h-72q-150 0 -213 41.5t-63 136.5q0 72 47.5 133t146.5 117h80z" />
    <glyph glyph-name="caron" unicode="&#x2c7;" 
d="M520 1577l133 -213l190 212q5 6 13.5 9.5t17.5 3.5q14 0 21.5 -9.5t7.5 -25.5q0 -5 -2 -10.5t-6 -9.5l-211 -242h-344l-219 285h399z" />
    <glyph glyph-name="Lslash" unicode="&#x141;" horiz-adv-x="1436" 
d="M127 0q1 74 3.5 151.5t2.5 81.5v330l-86 -63l-9 -6q-10 -7 -13 -7q-10 0 -22.5 16t-12.5 29q0 7 4 13.5t12 11.5l127 90v565q0 5 -2.5 82.5t-3.5 150.5l651 1q-1 -75 -3.5 -152.5t-2.5 -81.5v-241l277 192q1 1 4 3q12 7 16 8q10 0 23.5 -16t13.5 -30q0 -5 -4 -10t-14 -12
l-316 -223v-586q0 -4 2.5 -80.5t3.5 -150.5h117q257 0 494 12q35 2 41 2q20 0 29 -10t9 -31q0 -23 -12 -31t-47 -8h-1282z" />
    <glyph glyph-name="lslash" unicode="&#x142;" horiz-adv-x="809" 
d="M133 569l-84 -61q-7 -5 -12.5 -7.5t-9.5 -2.5q-10 0 -23.5 17.5t-13.5 29.5q0 5 4 10t15 13l124 91v574q0 5 -2.5 81.5t-3.5 149.5h553q-1 -65 -2.5 -143t-1.5 -88v-291l83 59q7 5 13.5 8t9.5 3q10 0 23.5 -16t13.5 -29q0 -6 -4 -11t-14 -12l-125 -92v-619q0 -10 1.5 -89
t1.5 -144h-552q1 74 3.5 151.5t2.5 81.5v336z" />
    <glyph glyph-name="Scaron" unicode="&#x160;" horiz-adv-x="1296" 
d="M565 322l-213 235q-153 167 -214.5 280.5t-61.5 219.5q0 192 162 313t424 121q102 0 191.5 -23t184.5 -73q48 -26 74.5 -51t26.5 -44q0 -11 -9 -19.5t-22 -8.5q-18 0 -58 35q-22 20 -36 30q-59 44 -132 67t-151 23q-63 0 -100 -23.5t-37 -64.5q0 -37 34 -89.5t109 -131.5
l275 -289q111 -117 167 -227.5t56 -212.5q0 -195 -165.5 -314.5t-440.5 -119.5q-137 0 -260.5 40.5t-231.5 121.5q-54 41 -72 60.5t-18 35.5q0 15 10.5 26t24.5 11q22 0 67 -39q28 -24 46 -37q107 -80 190 -114.5t162 -34.5q68 0 106.5 25.5t38.5 70.5q0 34 -28.5 80
t-98.5 121zM657 1888l133 -213l190 212q5 6 13.5 9.5t17.5 3.5q14 0 21.5 -9.5t7.5 -25.5q0 -5 -2 -10.5t-6 -9.5l-211 -242h-344l-219 285h399z" />
    <glyph glyph-name="scaron" unicode="&#x161;" horiz-adv-x="1057" 
d="M457 258l-176 186q-122 131 -174 224t-52 178q0 153 133.5 251.5t343.5 98.5q156 0 283 -54t127 -104q0 -15 -12 -26t-29 -11q-9 0 -112 64.5t-203 64.5q-46 0 -74.5 -20.5t-28.5 -54.5q0 -45 95 -141q12 -12 18 -19l223 -231q91 -94 136.5 -182.5t45.5 -170.5
q0 -155 -135.5 -252.5t-357.5 -97.5q-93 0 -191.5 29t-183.5 82q-35 21 -52.5 41.5t-17.5 40.5q0 17 10.5 29t26.5 12q20 0 59 -32t60 -46q66 -42 128 -64t114 -22q55 0 87 17.5t32 47.5t-102 139zM536 1577l133 -213l190 212q5 6 13.5 9.5t17.5 3.5q14 0 21.5 -9.5
t7.5 -25.5q0 -5 -2 -10.5t-6 -9.5l-211 -242h-344l-219 285h399z" />
    <glyph glyph-name="Zcaron" unicode="&#x17d;" horiz-adv-x="1333" 
d="M-41 0q178 355 347.5 699.5t330.5 680.5q-237 0 -469 -10q-42 -2 -49 -2q-44 0 -57 8.5t-13 30.5q0 20 15.5 29.5t50.5 9.5h1241q-168 -327 -334 -668t-338 -712q30 -2 62 -2.5t92 -0.5q125 0 264 6.5t153 6.5q36 0 51 -9t15 -30q0 -20 -13 -28.5t-46 -8.5h-1303z
M676 1888l133 -213l190 212q5 6 13.5 9.5t17.5 3.5q14 0 21.5 -9.5t7.5 -25.5q0 -5 -2 -10.5t-6 -9.5l-211 -242h-344l-219 285h399z" />
    <glyph glyph-name="zcaron" unicode="&#x17e;" horiz-adv-x="1366" 
d="M-31 0q72 95 126 170t69 98l520 815h-299q-121 0 -234 -10q-19 -2 -22 -2q-13 0 -22 11.5t-9 29.5q0 28 15 41.5t47 13.5q17 0 100.5 -5t149.5 -5h745q13 0 88.5 1.5t134.5 2.5q-109 -157 -211 -311l-10 -14l-500 -762h299q109 0 221.5 12t116.5 12q28 0 40 -12.5
t12 -42.5q0 -29 -16 -39t-75 -10q-64 0 -162 3t-130 3h-994zM692 1577l133 -213l190 212q5 6 13.5 9.5t17.5 3.5q14 0 21.5 -9.5t7.5 -25.5q0 -5 -2 -10.5t-6 -9.5l-211 -242h-344l-219 285h399z" />
    <glyph glyph-name="brokenbar" unicode="&#xa6;" 
d="M373 408h280v-758h-280v758zM373 1432h280v-758h-280v758z" />
    <glyph glyph-name="Eth" unicode="&#xd0;" horiz-adv-x="1657" 
d="M133 233v648h-104q-22 0 -27.5 6.5t-5.5 27.5q0 23 6 30t27 7h104v260q0 32 -1.5 90t-4.5 144h645q244 0 369.5 -39.5t226.5 -132.5q108 -100 165.5 -242.5t57.5 -308.5t-57.5 -308.5t-165.5 -242.5q-101 -94 -226.5 -133t-369.5 -39h-647q1 26 3 74q5 119 5 159zM772 66
h35q203 0 314 35.5t202 119.5q98 90 149.5 219t51.5 283t-51.5 283t-149.5 219q-91 84 -202 119.5t-314 35.5h-35v-428h320q20 0 26 -7t6 -30q0 -21 -5.5 -27.5t-26.5 -6.5h-320v-815z" />
    <glyph glyph-name="eth" unicode="&#xf0;" horiz-adv-x="1331" 
d="M1114 840q-45 175 -122.5 306t-180.5 204l-168 -160q-2 -2 -8 -7q-12 -11 -21 -12q-13 1 -23.5 10.5t-10.5 20.5q0 6 4.5 13t15.5 18l156 151q-56 31 -132.5 49t-76.5 48q0 14 13 22t34 8q37 0 91 -19.5t122 -57.5l80 69l7 7q13 11 21 12q14 0 24.5 -9t10.5 -20
q0 -7 -5 -15.5t-13 -17.5l-70 -65q162 -130 261.5 -359.5t99.5 -474.5q0 -94 -19.5 -176t-56.5 -145q-75 -132 -202 -205.5t-279 -73.5q-111 0 -213 42.5t-183 121.5q-78 78 -118.5 177.5t-40.5 213.5t40.5 214.5t118.5 178.5q80 79 182 121.5t214 42.5q138 0 256 -61.5
t192 -171.5zM635 31h12q219 0 364.5 140t145.5 347q0 205 -145.5 346.5t-360.5 141.5h-16v-975z" />
    <glyph glyph-name="Yacute" unicode="&#xdd;" horiz-adv-x="1548" 
d="M616 190l146 195q-187 248 -393.5 510.5t-440.5 550.5h787l420 -549l114 158q72 97 169 243q112 166 143 166q16 0 27 -9.5t11 -22.5q0 -20 -35 -65q-14 -17 -22 -28l-895 -1224q-16 -23 -43 -61q-63 -93 -98 -93q-15 0 -24 9t-9 24q0 20 66 99q48 59 77 97zM844 1603
h-252l108 285h377z" />
    <glyph glyph-name="yacute" unicode="&#xfd;" horiz-adv-x="1335" 
d="M608 145l-364 592q-26 42 -104 155t-187 265h680q67 -150 146.5 -282.5t170.5 -245.5l176 274q41 63 93 161q62 116 94 116q23 0 38 -15t15 -37q0 -29 -71 -115t-113 -151l-447 -672q-86 -128 -180.5 -200t-175.5 -72q-63 0 -102 25.5t-39 66.5q0 25 15.5 39t41.5 14
q25 0 70.5 -20t68.5 -20q35 0 81.5 32.5t92.5 89.5zM738 1292h-252l108 285h377z" />
    <glyph glyph-name="Thorn" unicode="&#xde;" horiz-adv-x="1657" 
d="M762 250q30 -3 60.5 -4.5t60.5 -1.5q294 0 459 130.5t165 362.5q0 237 -168 364.5t-483 127.5h-94v-979zM119 0q1 68 2.5 146t1.5 87v979q0 10 -1.5 88t-2.5 146h643v-154h94q343 0 533 -145.5t190 -405.5q0 -257 -187 -409t-507 -152q-30 0 -60 1.5t-63 4.5v-186h-643z
" />
    <glyph glyph-name="thorn" unicode="&#xfe;" horiz-adv-x="1585" 
d="M659 928v-570q63 -75 121.5 -116t102.5 -41q39 0 55 28t16 97v635q0 69 -16 96.5t-55 27.5q-44 0 -102.5 -41t-121.5 -116zM113 -82q1 68 2.5 146t1.5 88v1081q0 9 -1.5 86t-2.5 145h552q-3 -74 -4.5 -126.5t-1.5 -88.5v-231q87 87 178 127.5t197 40.5q230 0 366 -146.5
t136 -396.5q0 -249 -136 -396t-366 -147q-106 0 -197 41t-178 127v-116q0 -4 2.5 -81t3.5 -153h-552z" />
    <glyph glyph-name="minus" unicode="&#x2212;" horiz-adv-x="1706" 
d="M254 750h1198v-277h-1198v277z" />
    <glyph glyph-name="multiply" unicode="&#xd7;" horiz-adv-x="1706" 
d="M446 1231l428 -428l429 428l192 -193l-428 -428l428 -428l-192 -190l-429 428l-428 -428l-190 190l428 428l-428 428z" />
    <glyph glyph-name="onesuperior" unicode="&#xb9;" horiz-adv-x="942" 
d="M299 578q1 58 1.5 112t0.5 109v534q-61 -14 -120 -32.5t-62 -18.5q-12 0 -19.5 8t-7.5 21q0 8 8 15t22 11q5 1 28 6q253 51 550 127q-1 -53 -1.5 -102t-0.5 -100v-461q0 -95 1 -142t3 -87h-403z" />
    <glyph glyph-name="twosuperior" unicode="&#xb2;" horiz-adv-x="944" 
d="M2 578q88 87 197 224.5t243 330.5q11 15 30 43q114 162 114 198q0 31 -31.5 44.5t-112.5 13.5q-141 0 -242.5 -70t-101.5 -164q0 -61 44 -118q12 -15 12 -19q0 -8 -7.5 -13.5t-17.5 -5.5q-27 0 -51.5 45.5t-24.5 102.5q0 124 119.5 201t316.5 77q191 0 297.5 -69
t106.5 -191q0 -86 -70.5 -201t-312.5 -389h100q114 0 228 14q24 3 28 3q13 0 20 -4.5t7 -12.5q0 -25 -14.5 -36t-49.5 -11q-29 0 -116 3.5t-144 3.5h-567z" />
    <glyph glyph-name="threesuperior" unicode="&#xb3;" horiz-adv-x="944" 
d="M460 596l1 428h-180q-22 0 -31.5 5t-9.5 18q0 11 8 15.5t33 4.5h180v360q-87 0 -154.5 -16t-118.5 -49q-18 -13 -45.5 -40.5t-40.5 -27.5q-12 0 -20 7t-8 18q0 17 18.5 35.5t54.5 38.5q69 38 148.5 56.5t177.5 18.5q182 0 282.5 -56t100.5 -157q0 -97 -85 -149.5
t-253 -58.5q195 -13 290 -69t95 -159q0 -124 -128.5 -195t-356.5 -71q-117 0 -199.5 22.5t-148.5 71.5q-34 23 -55 47.5t-21 38.5q0 11 10.5 18t26.5 7q18 0 40.5 -34t41.5 -50q49 -41 121.5 -60.5t173.5 -19.5q21 0 32.5 0.5t19.5 1.5z" />
    <glyph glyph-name="onequarter" unicode="&#xbc;" horiz-adv-x="2142" 
d="M1589 205v260l-291 -260h291zM1587 0q1 29 1.5 55t0.5 51v56h-309q-17 0 -28 8.5t-11 22.5q0 5 2.5 10t7.5 10l731 655q-1 -24 -1.5 -61t-0.5 -131v-471h121q26 0 34.5 -5t8.5 -18q0 -11 -9 -15.5t-30 -4.5h-125v-162h-393zM680 -33q-5 -8 -13.5 -13t-17.5 -5
q-16 0 -24.5 8t-8.5 25q0 4 2.5 10t6.5 13l837 1473q5 8 14.5 13.5t18.5 5.5q15 0 23 -9t8 -26q0 -3 -2 -8t-7 -13zM287 637q0 65 1 134t1 73v497q-59 -13 -115.5 -30t-58.5 -17q-13 0 -20 7.5t-7 19.5q0 8 6.5 13.5t21.5 10.5q6 2 31 7q242 48 523 118q-2 -50 -3 -95.5
t-1 -92.5v-430q0 -56 1.5 -109.5t3.5 -105.5h-384z" />
    <glyph glyph-name="onehalf" unicode="&#xbd;" horiz-adv-x="2142" 
d="M1245 0q81 78 183.5 203.5t238.5 314.5l25 36q110 155 110 189q0 30 -29.5 42t-107.5 12q-135 0 -232.5 -65t-97.5 -152q0 -58 43 -111q11 -13 11 -16q0 -8 -7 -13.5t-16 -5.5q-26 0 -49 42t-23 95q0 117 114 188.5t302 71.5q182 0 283.5 -63.5t101.5 -177.5
q0 -83 -68 -191.5t-296 -359.5h94q109 0 219 12q21 2 27 2q11 0 17.5 -4.5t6.5 -11.5q0 -23 -13.5 -33t-45.5 -10q-29 0 -112.5 3t-137.5 3h-541zM680 -33q-5 -8 -13.5 -13t-17.5 -5q-16 0 -24.5 8t-8.5 25q0 4 2.5 10t6.5 13l837 1473q5 8 14.5 13.5t18.5 5.5q15 0 23 -9
t8 -26q0 -3 -2 -8t-7 -13zM287 637q0 65 1 134t1 73v497q-59 -13 -115.5 -30t-58.5 -17q-13 0 -20 7.5t-7 19.5q0 8 6.5 13.5t21.5 10.5q6 2 31 7q242 48 523 118q-2 -50 -3 -95.5t-1 -92.5v-430q0 -56 1.5 -109.5t3.5 -105.5h-384z" />
    <glyph glyph-name="threequarters" unicode="&#xbe;" horiz-adv-x="2142" 
d="M1589 205v260l-291 -260h291zM1587 0q1 29 1.5 55t0.5 51v56h-309q-17 0 -28 8.5t-11 22.5q0 5 2.5 10t7.5 10l731 655q-1 -24 -1.5 -61t-0.5 -131v-471h121q26 0 34.5 -5t8.5 -18q0 -11 -9 -15.5t-30 -4.5h-125v-162h-393zM680 -33q-5 -8 -13.5 -13t-17.5 -5
q-16 0 -24.5 8t-8.5 25q0 4 2.5 10t6.5 13l837 1473q5 8 14.5 13.5t18.5 5.5q15 0 23 -9t8 -26q0 -3 -2 -8t-7 -13zM440 653v400h-174q-19 0 -28 5t-9 15q0 12 7.5 16.5t31.5 4.5h172v338q-82 0 -146.5 -16t-113.5 -48q-19 -12 -44.5 -36.5t-39.5 -24.5q-10 0 -17 6.5
t-7 15.5q0 16 17.5 33t51.5 35q68 37 143.5 54t168.5 17q172 0 268 -52.5t96 -145.5q0 -91 -80.5 -140t-242.5 -57q187 -11 277.5 -63t90.5 -148q0 -115 -122.5 -181.5t-340.5 -66.5q-111 0 -190.5 21t-142.5 65q-34 25 -53 47t-19 35q0 10 10 16.5t25 6.5q18 0 40 -32
t40 -46q46 -37 115 -55.5t165 -18.5h51z" />
    <glyph glyph-name="franc" unicode="&#x20a3;" horiz-adv-x="2525" 
d="M123 233v979q0 10 -1.5 88t-2.5 146h1175q38 0 49 -8t11 -29q0 -22 -12.5 -30.5t-47.5 -8.5q-9 0 -55 2q-206 8 -405 8h-72v-333h90q215 0 433 6q43 2 50 2q44 0 58 -9t14 -34q0 -21 -10.5 -29t-36.5 -8q-9 0 -53 1q-219 5 -433 5h-112v-748q0 -4 2.5 -81.5t3.5 -151.5
h-649q1 66 2.5 145t1.5 88zM2086 233q0 -3 2.5 -80.5t3.5 -152.5h-552q1 66 2.5 145t1.5 88v691q0 9 -1.5 88t-2.5 145h552q-1 -59 -2.5 -114t-3.5 -107q102 125 199 186.5t193 61.5q51 0 82.5 -26t31.5 -68q0 -35 -19.5 -53.5t-55.5 -18.5q-17 0 -60.5 15.5t-77.5 15.5
q-68 0 -146 -57.5t-147 -157.5v-601z" />
    <glyph glyph-name="Gbreve" unicode="&#x11e;" horiz-adv-x="1706" 
d="M764 1421v-1396q16 -2 32.5 -2h49.5q307 0 495 168.5t230 482.5h-617q-43 0 -55 7.5t-12 27.5q0 19 9.5 25.5t51.5 6.5h697q-20 -369 -230 -577.5t-561 -208.5q-168 0 -309.5 56.5t-253.5 168.5q-109 109 -167 249t-58 294t59 294.5t170 250.5q111 111 250.5 167
t306.5 56q152 0 283 -47.5t254 -147.5q51 -41 79.5 -77t28.5 -58q0 -13 -8.5 -22t-22.5 -9q-22 0 -60 44q-26 30 -44 47q-115 102 -243 153t-271 51q-15 0 -31.5 -0.5t-52.5 -3.5zM854 1769q73 0 129.5 18t101.5 56q14 11 33 33q31 34 53 34q13 0 20 -7.5t7 -20.5
q0 -25 -16.5 -65t-46.5 -87q-51 -76 -119.5 -112.5t-161.5 -36.5t-161.5 36.5t-119.5 112.5q-30 47 -46.5 87t-16.5 65q0 13 7 20.5t20 7.5q22 0 53 -34q19 -22 33 -33q43 -38 100 -56t131 -18z" />
    <glyph glyph-name="gbreve" unicode="&#x11f;" horiz-adv-x="1253" 
d="M729 504v540q0 51 -24 73t-78 22q-55 0 -79 -22t-24 -73v-540q0 -50 24 -72t79 -22q54 0 78 22t24 72zM223 451q-77 50 -118.5 130t-41.5 177q0 190 158 314t406 124q36 0 119.5 -6t130.5 -6q39 0 70 13.5t48 39.5q6 7 14 23q23 43 54 43q21 0 35 -12.5t14 -30.5
q0 -36 -45.5 -67t-138.5 -58q126 -63 194 -161.5t68 -217.5q0 -187 -153 -299.5t-410 -112.5q-93 0 -176.5 16t-161.5 50q-26 -17 -36.5 -32t-10.5 -32q0 -32 24.5 -45.5t83.5 -13.5h17l450 8h17q127 0 193.5 -44t66.5 -128q0 -86 -75 -139.5t-214 -65.5q24 26 34.5 44
t10.5 34q0 13 -13.5 21t-35.5 8q-41 0 -187 -25t-247 -25q-135 0 -217 65.5t-82 170.5q0 70 38 129.5t117 110.5zM627 1458q73 0 129.5 18t101.5 56q14 11 33 33q31 34 53 34q13 0 20 -7.5t7 -20.5q0 -25 -16.5 -65t-46.5 -87q-51 -76 -119.5 -112.5t-161.5 -36.5
t-161.5 36.5t-119.5 112.5q-30 47 -46.5 87t-16.5 65q0 13 7 20.5t20 7.5q22 0 53 -34q19 -22 33 -33q43 -38 100 -56t131 -18z" />
    <glyph glyph-name="Idotaccent" unicode="&#x130;" horiz-adv-x="897" 
d="M125 0q1 66 2.5 144.5t1.5 88.5v979q0 11 -1.5 88.5t-2.5 144.5l649 1q-1 -75 -3.5 -152.5t-2.5 -81.5v-979q0 -3 2.5 -81t3.5 -152h-649zM304 1749q0 58 43.5 101.5t101.5 43.5q59 0 102 -43t43 -102q0 -62 -42 -104t-103 -42q-60 0 -102.5 43t-42.5 103z" />
    <glyph glyph-name="Scedilla" unicode="&#x15e;" horiz-adv-x="1296" 
d="M565 322l-213 235q-153 167 -214.5 280.5t-61.5 219.5q0 192 162 313t424 121q102 0 191.5 -23t184.5 -73q48 -26 74.5 -51t26.5 -44q0 -11 -9 -19.5t-22 -8.5q-18 0 -58 35q-22 20 -36 30q-59 44 -132 67t-151 23q-63 0 -100 -23.5t-37 -64.5q0 -37 34 -89.5t109 -131.5
l275 -289q111 -117 167 -227.5t56 -212.5q0 -195 -165.5 -314.5t-440.5 -119.5q-137 0 -260.5 40.5t-231.5 121.5q-54 41 -72 60.5t-18 35.5q0 15 10.5 26t24.5 11q22 0 67 -39q28 -24 46 -37q107 -80 190 -114.5t162 -34.5q68 0 106.5 25.5t38.5 70.5q0 34 -28.5 80
t-98.5 121zM422 -406v56q63 -13 118.5 -20t98.5 -7q64 0 98.5 31t34.5 88q0 48 -31 70t-98 22q-20 0 -30 -0.5t-19 -1.5v168h73v-110q28 7 53 10.5t46 3.5q79 0 126.5 -44t47.5 -118q0 -91 -62.5 -141t-177.5 -50q-58 0 -127.5 11t-150.5 32z" />
    <glyph glyph-name="scedilla" unicode="&#x15f;" horiz-adv-x="1057" 
d="M457 258l-176 186q-122 131 -174 224t-52 178q0 153 133.5 251.5t343.5 98.5q156 0 283 -54t127 -104q0 -15 -12 -26t-29 -11q-9 0 -112 64.5t-203 64.5q-46 0 -74.5 -20.5t-28.5 -54.5q0 -45 95 -141q12 -12 18 -19l223 -231q91 -94 136.5 -182.5t45.5 -170.5
q0 -155 -135.5 -252.5t-357.5 -97.5q-93 0 -191.5 29t-183.5 82q-35 21 -52.5 41.5t-17.5 40.5q0 17 10.5 29t26.5 12q20 0 59 -32t60 -46q66 -42 128 -64t114 -22q55 0 87 17.5t32 47.5t-102 139zM301 -406v56q63 -13 118.5 -20t98.5 -7q64 0 98.5 31t34.5 88q0 48 -31 70
t-98 22q-20 0 -30 -0.5t-19 -1.5v168h73v-110q28 7 53 10.5t46 3.5q79 0 126.5 -44t47.5 -118q0 -91 -62.5 -141t-177.5 -50q-58 0 -127.5 11t-150.5 32z" />
    <glyph glyph-name="Cacute" unicode="&#x106;" horiz-adv-x="1602" 
d="M764 25q12 -1 27.5 -1.5t44.5 -0.5q179 0 325.5 68t255.5 202q29 35 61 94t56 59q16 0 24.5 -9t8.5 -25q0 -28 -35 -86t-90 -117q-119 -125 -268.5 -189.5t-319.5 -64.5q-168 0 -309.5 56.5t-253.5 168.5q-110 110 -167.5 249t-57.5 294q0 154 59 294.5t170 250.5
q111 111 250.5 167t306.5 56q153 0 284.5 -47.5t252.5 -147.5q55 -45 85.5 -83.5t30.5 -61.5q0 -12 -9.5 -20.5t-22.5 -8.5q-22 0 -59 44q-30 35 -52 55q-115 102 -243 153t-271 51q-15 0 -31.5 -0.5t-52.5 -3.5v-1396zM944 1603h-252l108 285h377z" />
    <glyph glyph-name="cacute" unicode="&#x107;" horiz-adv-x="1270" 
d="M631 1055v-953q0 -43 17 -58t63 -15q83 0 175 39.5t163 107.5q36 35 85.5 102.5t75.5 67.5q18 0 28.5 -10.5t10.5 -28.5q0 -20 -27 -60.5t-71 -84.5q-104 -104 -218.5 -152.5t-254.5 -48.5q-99 0 -188 25.5t-166 76.5q-133 88 -205 224.5t-72 300.5q0 124 50 238t143 200
q91 85 202.5 127.5t243.5 42.5q102 0 195.5 -28.5t177.5 -86.5q55 -38 93 -82t38 -65q0 -17 -12 -28t-29 -11q-21 0 -58 44q-23 27 -38 42q-67 67 -161 107t-181 40q-46 0 -63 -15t-17 -58zM779 1292h-252l108 285h377z" />
    <glyph glyph-name="Ccaron" unicode="&#x10c;" horiz-adv-x="1602" 
d="M764 25q12 -1 27.5 -1.5t44.5 -0.5q179 0 325.5 68t255.5 202q29 35 61 94t56 59q16 0 24.5 -9t8.5 -25q0 -28 -35 -86t-90 -117q-119 -125 -268.5 -189.5t-319.5 -64.5q-168 0 -309.5 56.5t-253.5 168.5q-110 110 -167.5 249t-57.5 294q0 154 59 294.5t170 250.5
q111 111 250.5 167t306.5 56q153 0 284.5 -47.5t252.5 -147.5q55 -45 85.5 -83.5t30.5 -61.5q0 -12 -9.5 -20.5t-22.5 -8.5q-22 0 -59 44q-30 35 -52 55q-115 102 -243 153t-271 51q-15 0 -31.5 -0.5t-52.5 -3.5v-1396zM882 1888l133 -213l190 212q5 6 13.5 9.5t17.5 3.5
q14 0 21.5 -9.5t7.5 -25.5q0 -5 -2 -10.5t-6 -9.5l-211 -242h-344l-219 285h399z" />
    <glyph glyph-name="ccaron" unicode="&#x10d;" horiz-adv-x="1270" 
d="M631 1055v-953q0 -43 17 -58t63 -15q83 0 175 39.5t163 107.5q36 35 85.5 102.5t75.5 67.5q18 0 28.5 -10.5t10.5 -28.5q0 -20 -27 -60.5t-71 -84.5q-104 -104 -218.5 -152.5t-254.5 -48.5q-99 0 -188 25.5t-166 76.5q-133 88 -205 224.5t-72 300.5q0 124 50 238t143 200
q91 85 202.5 127.5t243.5 42.5q102 0 195.5 -28.5t177.5 -86.5q55 -38 93 -82t38 -65q0 -17 -12 -28t-29 -11q-21 0 -58 44q-23 27 -38 42q-67 67 -161 107t-181 40q-46 0 -63 -15t-17 -58zM717 1577l133 -213l190 212q5 6 13.5 9.5t17.5 3.5q14 0 21.5 -9.5t7.5 -25.5
q0 -5 -2 -10.5t-6 -9.5l-211 -242h-344l-219 285h399z" />
    <glyph glyph-name="dcroat" unicode="&#x111;" horiz-adv-x="1632" 
d="M963 229v699q-53 74 -121.5 118t-128.5 44q-45 0 -63.5 -28.5t-18.5 -100.5v-764q0 -73 18.5 -101t63.5 -28q60 0 128.5 43.5t121.5 117.5zM1511 0h-552q1 23 2 69t2 70q-87 -91 -171.5 -129.5t-197.5 -38.5q-233 0 -390 171t-157 436q0 264 157.5 436t389.5 172
q113 0 197.5 -38.5t171.5 -129.5v248h-439v71h439v127h542v-127h127v-71h-127v-1037q0 -2 2.5 -77t3.5 -152z" />
    <glyph glyph-name="sfthyphen" unicode="&#xad;" horiz-adv-x="1065" 
d="M133 360v449h797v-449h-797z" />
    <glyph glyph-name="periodcentered" unicode="&#x2219;" horiz-adv-x="715" 
d="M106 731q0 106 72.5 178t179.5 72q106 0 178 -72t72 -178q0 -104 -74 -179t-176 -75q-103 0 -177.5 75t-74.5 179z" />
    <glyph glyph-name="Euro" horiz-adv-x="1430" 
d="M1401 385q0 -30 -29 -87.5t-76 -113.5q-93 -111 -210.5 -167t-260.5 -56q-141 0 -261 56.5t-214 166.5q-71 83 -116 183t-62 211h-121q-21 0 -26.5 6t-6.5 28q0 21 6 28t27 7h110q0 13 -0.5 29t-0.5 47q0 34 2 63t6 56h-117q-21 0 -26.5 6t-6.5 29q1 22 6.5 28t26.5 6
h129q22 98 65.5 187.5t106.5 165.5q95 110 213 165.5t258 55.5q128 0 239 -47.5t214 -145.5q47 -45 72.5 -83.5t25.5 -61.5q0 -12 -8 -20.5t-20 -8.5q-18 0 -50 45q-25 34 -43 54q-102 106 -210 159.5t-224 53.5q-12 -1 -18 -2.5t-17 -2.5v-514h461q22 0 27.5 -6.5
t5.5 -27.5q0 -22 -6 -28.5t-27 -6.5h-461v-195h371q21 0 27 -7t6 -28t-5.5 -27.5t-27.5 -6.5h-371v-558q8 0 12 -1t13 -1q146 0 264.5 63.5t202.5 186.5q24 35 51 93.5t47 58.5q13 0 20 -9t7 -26z" />
    <glyph glyph-name="Euro" unicode="&#x20ac;" horiz-adv-x="1430" 
d="M1401 385q0 -30 -29 -87.5t-76 -113.5q-93 -111 -210.5 -167t-260.5 -56q-141 0 -261 56.5t-214 166.5q-71 83 -116 183t-62 211h-121q-21 0 -26.5 6t-6.5 28q0 21 6 28t27 7h110q0 13 -0.5 29t-0.5 47q0 34 2 63t6 56h-117q-21 0 -26.5 6t-6.5 29q1 22 6.5 28t26.5 6
h129q22 98 65.5 187.5t106.5 165.5q95 110 213 165.5t258 55.5q128 0 239 -47.5t214 -145.5q47 -45 72.5 -83.5t25.5 -61.5q0 -12 -8 -20.5t-20 -8.5q-18 0 -50 45q-25 34 -43 54q-102 106 -210 159.5t-224 53.5q-12 -1 -18 -2.5t-17 -2.5v-514h461q22 0 27.5 -6.5
t5.5 -27.5q0 -22 -6 -28.5t-27 -6.5h-461v-195h371q21 0 27 -7t6 -28t-5.5 -27.5t-27.5 -6.5h-371v-558q8 0 12 -1t13 -1q146 0 264.5 63.5t202.5 186.5q24 35 51 93.5t47 58.5q13 0 20 -9t7 -26z" />
    </font>
</defs>
</svg>
