<?xml version="1.0" standalone="no"?>
<!DOCTYPE svg PUBLIC "-//W3C//DTD SVG 1.1//EN" "http://www.w3.org/Graphics/SVG/1.1/DTD/svg11.dtd" >
<svg xmlns="http://www.w3.org/2000/svg" xmlns:xlink="http://www.w3.org/1999/xlink" version="1.1">
<metadata>
Created by FontForge 20170910 at Wed May 28 11:52:09 2008
 By Jimmy Wärting
(c) 2008 Microsoft Corporation. All Rights Reserved.
</metadata>
<defs>
<font id="MalgunGothicBold" horiz-adv-x="2048" vert-adv-y="2048" >
  <font-face 
    font-family="Malgun Gothic"
    font-weight="700"
    font-stretch="normal"
    units-per-em="2048"
    panose-1="2 11 8 3 2 0 0 2 0 4"
    ascent="1638"
    descent="-410"
    x-height="1051"
    cap-height="1472"
    bbox="-240 -503 2533 1950"
    underline-thickness="119"
    underline-position="-577"
    unicode-range="U+000D-FFE6"
  />
<missing-glyph horiz-adv-x="1357" vert-adv-y="1515" 
d="M170 0v1435h1016v-1435h-1016zM322 152h713v1131h-713v-1131z" />
    <glyph glyph-name=".notdef" horiz-adv-x="1357" vert-adv-y="1515" 
d="M170 0v1435h1016v-1435h-1016zM322 152h713v1131h-713v-1131z" />
    <glyph glyph-name=".null" horiz-adv-x="973" vert-adv-y="973" 
 />
    <glyph glyph-name=".null" horiz-adv-x="973" vert-adv-y="973" 
 />
    <glyph glyph-name="nonmarkingreturn" horiz-adv-x="682" 
 />
    <glyph glyph-name="CR" unicode="&#xd;" horiz-adv-x="204" vert-adv-y="204" 
 />
    <glyph glyph-name="space" unicode=" " horiz-adv-x="720" vert-adv-y="720" 
 />
    <glyph glyph-name="exclam" unicode="!" horiz-adv-x="662" vert-adv-y="1574" 
d="M476 1472l-34 -1026h-227l-33 1026h294zM164 131q0 67 49 110t119 43t117.5 -44.5t47.5 -108.5q0 -65 -46.5 -109t-108.5 -44q-84 0 -131 45t-47 108z" />
    <glyph glyph-name="quotedbl" unicode="&#x22;" horiz-adv-x="975" vert-adv-y="536" 
d="M415 1472l-30 -455h-183l-30 455h243zM802 1472l-32 -456h-180l-31 456h243z" />
    <glyph glyph-name="numbersign" unicode="#" horiz-adv-x="1245" vert-adv-y="1424" 
d="M1205 1086l-36 -163h-212l-59 -270h234l-40 -162h-227l-83 -370h-183l78 370h-241l-79 -370h-183l77 370h-213l32 162h216l57 270h-230l31 163h232l79 379h186l-78 -379h242l80 379h185l-79 -379h214zM772 923h-244l-60 -270h245z" />
    <glyph glyph-name="dollar" unicode="$" horiz-adv-x="1187" vert-adv-y="1957" 
d="M675 -215h-138v216q-211 2 -378 93v254q58 -49 172.5 -89t205.5 -44v418q-211 80 -305 182t-94 257q0 157 113 270.5t286 130.5v189h138v-186q212 -9 309 -66v-247q-133 86 -309 101v-434q208 -83 306 -180t98 -249q0 -163 -107 -266.5t-297 -125.5v-224zM537 1260
q-156 -30 -156 -170q0 -62 32.5 -106.5t123.5 -94.5v371zM675 220q161 29 161 167q0 111 -161 189v-356z" />
    <glyph glyph-name="percent" unicode="%" horiz-adv-x="1793" vert-adv-y="1594" 
d="M88 1095q0 180 99.5 288.5t269.5 108.5q162 0 252 -98.5t90 -272.5q0 -178 -100.5 -285.5t-266.5 -107.5q-154 0 -249 100.5t-95 266.5zM283 1105q0 -216 162 -216q163 0 163 224q0 219 -158 219q-167 0 -167 -227zM1481 1472l-955 -1475h-219l952 1475h222zM994 346
q0 180 99.5 289t267.5 109q164 0 253 -97t89 -275q0 -176 -100 -285t-265 -109q-154 0 -249 100.5t-95 267.5zM1187 356q0 -216 162 -216t162 224q0 106 -42.5 162t-115.5 56q-166 0 -166 -226z" />
    <glyph glyph-name="ampersand" unicode="&#x26;" horiz-adv-x="1755" vert-adv-y="1600" 
d="M1162 172q-224 -196 -532 -196q-249 0 -394 118.5t-145 324.5q0 289 352 432q-177 139 -177 307q0 157 117 247.5t311 90.5q180 0 293 -88.5t113 -229.5q0 -224 -267 -336q212 -92 367 -329q159 209 159 496q0 80 -19 141h244q18 -59 18 -136q0 -374 -276 -682
q117 -135 222 -135q87 0 172 38v-219q-101 -40 -212 -40q-185 0 -346 196zM656 949q194 70 194 209q0 66 -46.5 105.5t-109.5 39.5q-79 0 -127 -44t-48 -108q0 -121 137 -202zM1038 352q-173 280 -426 380q-239 -102 -239 -303q0 -107 74.5 -171.5t193.5 -64.5
q227 0 397 159z" />
    <glyph glyph-name="quotesingle" unicode="'" horiz-adv-x="577" vert-adv-y="535" 
d="M409 1472l-32 -455h-179l-30 455h241z" />
    <glyph glyph-name="parenleft" unicode="(" horiz-adv-x="733" vert-adv-y="1886" 
d="M484 -334q-328 364 -328 896q0 521 328 910h230q-314 -405 -314 -909q0 -500 314 -897h-230z" />
    <glyph glyph-name="parenright" unicode=")" horiz-adv-x="733" vert-adv-y="1886" 
d="M19 -334q316 390 316 897q0 502 -316 909h232q329 -391 329 -910q0 -528 -330 -896h-231z" />
    <glyph glyph-name="asterisk" unicode="*" horiz-adv-x="934" vert-adv-y="840" 
d="M861 1095l-281 -43l200 -226l-166 -114l-147 265l-146 -265l-165 114l199 226l-281 43l65 185l261 -109l-38 301h212l-39 -301l260 109z" />
    <glyph glyph-name="plus" unicode="+" horiz-adv-x="1473" vert-adv-y="1070" 
d="M1231 511h-401v-401h-186v401h-402v187h402v402h186v-402h401v-187z" />
    <glyph glyph-name="comma" unicode="," horiz-adv-x="536" vert-adv-y="594" 
d="M409 251l-154 -514h-214l108 514h260z" />
    <glyph glyph-name="hyphen" unicode="-" horiz-adv-x="847" vert-adv-y="280" 
d="M708 468h-561v200h561v-200z" />
    <glyph glyph-name="period" unicode="." horiz-adv-x="536" vert-adv-y="386" 
d="M99 128q0 67 50.5 110t119.5 43t118 -43t49 -110q0 -68 -49 -110.5t-122 -42.5q-69 0 -117.5 44t-48.5 109z" />
    <glyph glyph-name="slash" unicode="/" horiz-adv-x="899" vert-adv-y="1796" 
d="M921 1472l-714 -1716h-251l712 1716h253z" />
    <glyph glyph-name="zero" unicode="0" horiz-adv-x="1187" vert-adv-y="1602" 
d="M77 711q0 384 137.5 584.5t399.5 200.5q498 0 498 -751q0 -370 -135.5 -570.5t-392.5 -200.5q-507 0 -507 737zM360 718q0 -526 236 -526q231 0 231 540q0 547 -226 547q-241 0 -241 -561z" />
    <glyph glyph-name="one" unicode="1" horiz-adv-x="1187" vert-adv-y="1578" 
d="M1077 0h-901v225h312v982l-321 -77v232l600 136v-1273h310v-225z" />
    <glyph glyph-name="two" unicode="2" horiz-adv-x="1187" vert-adv-y="1576" 
d="M1054 0h-945v222l424 412q146 142 199 230.5t53 185.5q0 221 -237 221q-191 0 -367 -156v254q185 127 423 127q211 0 337 -109.5t126 -302.5q0 -259 -323 -556l-314 -288v-5h624v-235z" />
    <glyph glyph-name="three" unicode="3" horiz-adv-x="1187" vert-adv-y="1602" 
d="M146 303q149 -111 344 -111q128 0 206 58.5t78 167.5q0 229 -346 229h-130v218h121q310 0 310 214q0 200 -238 200q-149 0 -289 -98v235q150 80 354 80q203 0 330 -96t127 -266q0 -287 -293 -364v-4q153 -16 246 -112.5t93 -233.5q0 -209 -151.5 -327.5t-401.5 -118.5
q-220 0 -360 76v253z" />
    <glyph glyph-name="four" unicode="4" horiz-adv-x="1187" vert-adv-y="1552" 
d="M1127 335h-180v-335h-258v335h-656v178l628 959h286v-933h180v-204zM689 539v513q0 64 4 144h-5q-8 -18 -20 -47q-12 -30 -35 -67l-357 -543h413z" />
    <glyph glyph-name="five" unicode="5" horiz-adv-x="1187" vert-adv-y="1578" 
d="M167 286q151 -94 318 -94q131 0 212.5 67.5t81.5 187.5q0 244 -329 244q-87 0 -239 -16v797h785v-232h-543v-335q66 6 124 6q223 0 354.5 -117.5t131.5 -323.5q0 -228 -151.5 -362t-402.5 -134q-208 0 -342 63v249z" />
    <glyph glyph-name="six" unicode="6" horiz-adv-x="1187" vert-adv-y="1602" 
d="M1013 1217q-111 62 -243 62q-177 0 -281.5 -143.5t-104.5 -367.5h6q105 171 317 171q186 0 296 -126.5t110 -329.5q0 -223 -140 -366t-355 -143q-249 0 -380.5 183t-131.5 498q0 373 172 607t476 234q168 0 259 -41v-238zM394 483q0 -119 61 -205t164 -86q101 0 160 77
t59 194q0 264 -220 264q-99 0 -161.5 -69.5t-62.5 -174.5z" />
    <glyph glyph-name="seven" unicode="7" horiz-adv-x="1187" vert-adv-y="1552" 
d="M1097 1350l-537 -1350h-294l531 1240h-701v232h1001v-122z" />
    <glyph glyph-name="eight" unicode="8" horiz-adv-x="1187" vert-adv-y="1602" 
d="M392 771q-256 111 -256 341q0 174 136 279t334 105t326 -98.5t128 -262.5q0 -241 -277 -363v-3q149 -46 233 -146t84 -234q0 -198 -144.5 -306.5t-388.5 -108.5q-207 0 -342.5 108t-135.5 289q0 270 303 396v4zM793 1110q0 83 -53 131t-139 48q-84 0 -140.5 -51
t-56.5 -129q0 -154 195 -233q194 81 194 234zM584 656q-228 -90 -228 -270q0 -91 70.5 -148t170.5 -57q104 0 170 55.5t66 148.5q0 185 -249 271z" />
    <glyph glyph-name="nine" unicode="9" horiz-adv-x="1187" vert-adv-y="1602" 
d="M168 266q118 -74 274 -74q183 0 279 131.5t96 362.5l-5 2q-95 -158 -306 -158q-187 0 -304 130.5t-117 323.5q0 227 141 369.5t365 142.5q238 0 369 -181t131 -504q0 -393 -164 -615t-464 -222q-172 0 -295 55v237zM360 1011q0 -122 60.5 -194t167.5 -72q96 0 157 68
t61 165q0 123 -62 212t-164 89q-101 0 -160.5 -79t-59.5 -189z" />
    <glyph glyph-name="colon" unicode=":" horiz-adv-x="536" vert-adv-y="1171" 
d="M99 914q0 67 51 109.5t119 42.5q69 0 118 -43t49 -109q0 -69 -49 -111.5t-122 -42.5q-67 0 -116.5 43.5t-49.5 110.5zM99 128q0 67 50.5 110t119.5 43t118 -43t49 -110q0 -68 -49 -110.5t-122 -42.5q-69 0 -117.5 44t-48.5 109z" />
    <glyph glyph-name="semicolon" unicode=";" horiz-adv-x="536" vert-adv-y="1409" 
d="M105 914q0 67 50.5 109.5t120.5 42.5q69 0 118 -43t49 -109q0 -69 -49 -111.5t-122 -42.5q-67 0 -117 43.5t-50 110.5zM409 251l-154 -514h-214l108 514h260z" />
    <glyph glyph-name="less" unicode="&#x3c;" horiz-adv-x="1473" vert-adv-y="1124" 
d="M1205 84l-936 439v134l936 471v-219l-676 -313v-6l676 -289v-217z" />
    <glyph glyph-name="equal" unicode="=" horiz-adv-x="1473" vert-adv-y="712" 
d="M1231 732h-989v188h989v-188zM1231 288h-989v188h989v-188z" />
    <glyph glyph-name="greater" unicode="&#x3e;" horiz-adv-x="1473" vert-adv-y="1121" 
d="M1205 532l-936 -439v217l678 288v4l-678 315v217l936 -467v-135z" />
    <glyph glyph-name="question" unicode="?" horiz-adv-x="926" vert-adv-y="1598" 
d="M292 421q-22 59 -22 132q0 158 157 293q107 95 135 148t28 106q0 74 -51 119t-132 45q-179 0 -322 -135v271q158 96 353 96q199 0 314.5 -94t115.5 -263q0 -99 -44 -183t-168 -188q-98 -84 -125 -133t-27 -104q0 -59 27 -110h-239zM257 131q0 63 48.5 108t120.5 45
q70 0 117.5 -44.5t47.5 -108.5q0 -65 -46.5 -109t-108.5 -44q-81 0 -130 45t-49 108z" />
    <glyph glyph-name="at" unicode="@" horiz-adv-x="2005" vert-adv-y="1764" 
d="M1399 1085q-46 -476 -46 -572q0 -163 91 -163q93 0 151 115.5t58 286.5q0 253 -161 414t-447 161q-295 0 -491.5 -207t-196.5 -509q0 -296 177 -468t485 -172q239 0 426 87v-176q-177 -75 -449 -75q-376 0 -611.5 219.5t-235.5 584.5q0 374 249 627t640 253
q362 0 591.5 -200.5t229.5 -526.5q0 -260 -133.5 -419.5t-330.5 -159.5q-101 0 -164.5 55t-67.5 155h-6q-73 -210 -270 -210q-141 0 -228 101.5t-87 284.5q0 235 120 383.5t296 148.5q156 0 196 -124h4q2 23 5 49q3 25 5 57h201zM783 572q0 -102 42 -163t115 -61
q106 0 166.5 112.5t60.5 291.5q0 91 -41 140t-113 49q-102 0 -166 -108.5t-64 -260.5z" />
    <glyph glyph-name="A" unicode="A" horiz-adv-x="1441" vert-adv-y="1552" 
d="M1423 0h-311l-119 352h-553l-116 -352h-311l545 1472h329zM922 578l-180 533q-11 32 -23 122h-7q-8 -67 -25 -120l-181 -535h416z" />
    <glyph glyph-name="B" unicode="B" horiz-adv-x="1305" vert-adv-y="1552" 
d="M175 0v1472h501q227 0 355 -90.5t128 -252.5q0 -118 -75 -208.5t-202 -129.5v-3q156 -20 248 -116t92 -238q0 -198 -142 -316t-380 -118h-525zM460 1253v-386h155q115 0 180 54.5t65 153.5q0 178 -254 178h-146zM460 647v-428h196q126 0 196 58t70 161q0 209 -276 209
h-186z" />
    <glyph glyph-name="C" unicode="C" horiz-adv-x="1308" vert-adv-y="1602" 
d="M1214 55q-160 -81 -416 -81q-327 0 -521.5 199.5t-194.5 531.5q0 348 217 569.5t557 221.5q214 0 358 -57v-278q-150 87 -340 87q-223 0 -357.5 -145t-134.5 -378q0 -229 128 -366t341 -137q201 0 363 96v-263z" />
    <glyph glyph-name="D" unicode="D" horiz-adv-x="1527" vert-adv-y="1552" 
d="M175 0v1472h488q782 0 782 -718q0 -342 -220.5 -548t-567.5 -206h-482zM460 1235v-999h180q237 0 371 137.5t134 376.5q0 235 -134 360t-369 125h-182z" />
    <glyph glyph-name="E" unicode="E" horiz-adv-x="1103" vert-adv-y="1552" 
d="M1027 0h-852v1472h819v-237h-534v-375h496v-236h-496v-388h567v-236z" />
    <glyph glyph-name="F" unicode="F" horiz-adv-x="1074" vert-adv-y="1552" 
d="M995 1235h-535v-405h493v-234h-493v-596h-285v1472h820v-237z" />
    <glyph glyph-name="G" unicode="G" horiz-adv-x="1479" vert-adv-y="1602" 
d="M1352 100q-217 -126 -524 -126q-342 0 -544 198.5t-202 540.5q0 344 220 563.5t582 219.5q236 0 410 -68v-277q-170 103 -418 103q-219 0 -356.5 -144.5t-137.5 -381.5q0 -242 124 -376.5t340 -134.5q132 0 220 43v325h-302v232h588v-717z" />
    <glyph glyph-name="H" unicode="H" horiz-adv-x="1576" vert-adv-y="1552" 
d="M1399 0h-285v620h-654v-620h-285v1472h285v-605h654v605h285v-1472z" />
    <glyph glyph-name="I" unicode="I" horiz-adv-x="635" vert-adv-y="1552" 
d="M589 1246h-130v-1021h130v-225h-543v225h128v1021h-128v226h543v-226z" />
    <glyph glyph-name="J" unicode="J" horiz-adv-x="882" vert-adv-y="1578" 
d="M720 567q0 -289 -131 -441t-366 -152q-101 0 -192 36v269q77 -57 177 -57q228 0 228 355v895h284v-905z" />
    <glyph glyph-name="K" unicode="K" horiz-adv-x="1321" vert-adv-y="1552" 
d="M1340 0h-367l-469 649q-16 23 -39 72h-5v-721h-285v1472h285v-696h5q12 28 40 74l448 622h343l-548 -703z" />
    <glyph glyph-name="L" unicode="L" horiz-adv-x="1049" vert-adv-y="1552" 
d="M1017 0h-842v1472h285v-1236h557v-236z" />
    <glyph glyph-name="M" unicode="M" horiz-adv-x="1975" vert-adv-y="1552" 
d="M1518 0v912q0 100 12 306h-6q-25 -126 -46 -180l-390 -1038h-217l-395 1029q-15 40 -46 189h-7q11 -163 11 -354v-864h-259v1472h410l344 -917q43 -114 57 -202h7q22 87 62 204l347 915h398v-1472h-282z" />
    <glyph glyph-name="N" unicode="N" horiz-adv-x="1634" vert-adv-y="1552" 
d="M1458 0h-298l-651 997q-40 61 -66 114h-4q8 -70 8 -228v-883h-272v1472h318l628 -971q48 -74 70 -114h4q-8 39 -8 206v879h271v-1472z" />
    <glyph glyph-name="O" unicode="O" horiz-adv-x="1590" vert-adv-y="1602" 
d="M82 717q0 347 199.5 563t530.5 216q314 0 505.5 -209.5t191.5 -537.5q0 -346 -197.5 -560.5t-522.5 -214.5q-316 0 -511.5 209t-195.5 534zM382 733q0 -224 110.5 -367.5t300.5 -143.5q197 0 306.5 136.5t109.5 370.5q0 241 -106 380t-300 139q-196 0 -308.5 -145.5
t-112.5 -369.5z" />
    <glyph glyph-name="P" unicode="P" horiz-adv-x="1259" vert-adv-y="1552" 
d="M460 522v-522h-285v1472h486q538 0 538 -461q0 -223 -162.5 -359t-408.5 -130h-168zM460 1245v-500h145q295 0 295 255q0 245 -289 245h-151z" />
    <glyph glyph-name="Q" unicode="Q" horiz-adv-x="1590" vert-adv-y="2007" 
d="M1596 -405q-93 -26 -211 -26q-145 0 -278.5 77.5t-354.5 329.5q-303 8 -486.5 219.5t-183.5 521.5q0 351 198 565t536 214q307 0 500 -206.5t193 -540.5q0 -271 -122 -464t-348 -265q105 -112 194.5 -158t214.5 -46q90 0 148 25v-246zM382 733q0 -234 113.5 -372.5
t297.5 -138.5q191 0 303.5 133.5t112.5 373.5q0 243 -107 381t-299 138q-193 0 -307 -142t-114 -373z" />
    <glyph glyph-name="R" unicode="R" horiz-adv-x="1339" vert-adv-y="1552" 
d="M1357 0h-330l-234 389q-71 118 -121 155t-108 37h-104v-581h-285v1472h500q510 0 510 -398q0 -146 -85.5 -253.5t-243.5 -152.5v-4q101 -34 223 -227zM460 1250v-446h170q116 0 185.5 67.5t69.5 168.5q0 210 -250 210h-175z" />
    <glyph glyph-name="S" unicode="S" horiz-adv-x="1159" vert-adv-y="1602" 
d="M107 349q175 -145 401 -145q136 0 203 47.5t67 124.5q0 67 -56 123t-271 148q-183 82 -265.5 184.5t-82.5 240.5q0 199 154 311.5t404 112.5q224 0 353 -56v-273q-143 98 -345 98q-119 0 -192.5 -45t-73.5 -124q0 -63 51 -115t239 -135q216 -94 300 -197.5t84 -247.5
q0 -208 -148.5 -317.5t-416.5 -109.5q-249 0 -405 83v292z" />
    <glyph glyph-name="T" unicode="T" horiz-adv-x="1193" vert-adv-y="1552" 
d="M1161 1235h-421v-1235h-286v1235h-420v237h1127v-237z" />
    <glyph glyph-name="U" unicode="U" horiz-adv-x="1497" vert-adv-y="1578" 
d="M1340 625q0 -651 -602 -651q-579 0 -579 633v865h286v-865q0 -385 308 -385q302 0 302 372v878h285v-847z" />
    <glyph glyph-name="V" unicode="V" horiz-adv-x="1374" vert-adv-y="1552" 
d="M1361 1472l-517 -1472h-321l-511 1472h309l336 -1066q21 -67 30 -143h6q4 56 32 146l337 1063h299z" />
    <glyph glyph-name="W" unicode="W" horiz-adv-x="2068" vert-adv-y="1552" 
d="M2046 1472l-396 -1472h-319l-261 982q-19 71 -24 161h-4q-11 -103 -26 -160l-267 -983h-329l-400 1472h313l237 -1025q15 -66 21 -161h7q3 70 29 165l284 1021h300l262 -1032q12 -48 23 -152h5q5 81 23 158l232 1026h290z" />
    <glyph glyph-name="X" unicode="X" horiz-adv-x="1338" vert-adv-y="1552" 
d="M1322 0h-339l-279 504q-14 26 -30 91h-4q-16 -51 -34 -94l-283 -501h-342l476 736l-435 736h347l237 -464q25 -49 46 -118h4q15 42 50 123l257 459h319l-447 -730z" />
    <glyph glyph-name="Y" unicode="Y" horiz-adv-x="1242" vert-adv-y="1552" 
d="M1241 1472l-482 -943v-529h-285v523l-468 949h326l263 -584q6 -14 34 -111h4q12 62 33 109l272 586h303z" />
    <glyph glyph-name="Z" unicode="Z" horiz-adv-x="1252" vert-adv-y="1552" 
d="M1204 1328l-775 -1092h770v-236h-1160v149l784 1086h-725v237h1106v-144z" />
    <glyph glyph-name="bracketleft" unicode="[" horiz-adv-x="733" vert-adv-y="1886" 
d="M668 -334h-451v1806h451v-182h-219v-1443h219v-181z" />
    <glyph glyph-name="backslash" unicode="\" horiz-adv-x="1564" vert-adv-y="1552" 
d="M1595 656h-224l-124 -656h-258l-121 656h-166l-122 -656h-267l-125 656h-216v170h184l-122 646h235l108 -646h177l126 646h236l115 -646h167l105 646h223l-123 -646h192v-170zM481 446l40 210h-116l36 -213q6 -34 9 -73.5t5 -89.5h5q3 71 21 166zM1125.5 358
q3.5 39 10.5 82l35 216h-110l40 -222q5 -27 8.5 -65t7.5 -87h3q2 37 5.5 76zM734 826h102l-26 145q-11 57 -15.5 97.5t-6.5 81.5h-4q-2 -40 -7 -80.5t-16 -98.5z" />
    <glyph glyph-name="bracketright" unicode="]" horiz-adv-x="733" vert-adv-y="1886" 
d="M519 -334h-452v181h219v1443h-219v182h452v-1806z" />
    <glyph glyph-name="asciicircum" unicode="^" horiz-adv-x="1473" vert-adv-y="946" 
d="M1259 630h-222l-307 612h-5l-289 -612h-220l440 866h136z" />
    <glyph glyph-name="underscore" unicode="_" horiz-adv-x="872" vert-adv-y="203" 
d="M872 -305h-872v123h872v-123z" />
    <glyph glyph-name="grave" unicode="`" horiz-adv-x="632" vert-adv-y="412" 
d="M575 1217h-204l-306 332h254z" />
    <glyph glyph-name="a" unicode="a" horiz-adv-x="1112" vert-adv-y="1182" 
d="M171 984q71 41 184 66.5t203 25.5q426 0 426 -432v-644h-266v155h-5q-106 -181 -315 -181q-152 0 -241 85.5t-89 229.5q0 301 358 349l293 40q0 201 -196 201q-187 0 -352 -117v222zM510 480q-180 -23 -180 -161q0 -62 43 -101t116 -39q100 0 165 70.5t65 177.5v80z" />
    <glyph glyph-name="b" unicode="b" horiz-adv-x="1283" vert-adv-y="1661" 
d="M425 131v-131h-279v1555h279v-670h3q122 191 348 191q200 0 313 -140t113 -381q0 -263 -129.5 -422t-344.5 -159q-197 0 -300 157h-3zM421 449q0 -109 67 -183t168 -74q122 0 191 95t69 267q0 143 -63 224t-178 81q-111 0 -182.5 -82t-71.5 -209v-119z" />
    <glyph glyph-name="c" unicode="c" horiz-adv-x="998" vert-adv-y="1182" 
d="M920 41q-113 -67 -309 -67q-236 0 -382.5 145.5t-146.5 380.5q0 268 157 422t419 154q171 0 262 -50v-245q-106 78 -234 78q-146 0 -234 -91.5t-88 -247.5q0 -154 83 -241t228 -87q127 0 245 80v-231z" />
    <glyph glyph-name="d" unicode="d" horiz-adv-x="1282" vert-adv-y="1661" 
d="M1136 0h-278v155h-5q-112 -181 -335 -181q-198 0 -317 142t-119 386q0 259 133 416.5t346 157.5q207 0 292 -153h5v632h278v-1555zM862 601q0 111 -68 184.5t-171 73.5q-120 0 -189.5 -94t-69.5 -255q0 -151 67 -234.5t181 -83.5q110 0 180 87t70 222v100z" />
    <glyph glyph-name="e" unicode="e" horiz-adv-x="1126" vert-adv-y="1182" 
d="M1061 447h-702q17 -268 304 -268q175 0 312 92v-212q-146 -85 -375 -85q-245 0 -381.5 142t-136.5 397q0 250 146.5 406.5t366.5 156.5t343 -135t123 -371v-123zM798 630q0 250 -206 250q-86 0 -151.5 -68t-81.5 -182h439z" />
    <glyph glyph-name="f" unicode="f" horiz-adv-x="763" vert-adv-y="1659" 
d="M783 1337q-57 25 -117 25q-162 0 -162 -185v-126h241v-212h-241v-839h-278v839h-178v212h178v141q0 177 111 282t294 105q95 0 152 -19v-223z" />
    <glyph glyph-name="g" unicode="g" horiz-adv-x="1282" vert-adv-y="1650" 
d="M1137 109q0 -292 -161 -447.5t-467 -155.5q-208 0 -338 65v242q165 -95 331 -95q170 0 263.5 90.5t93.5 257.5v93h-4q-114 -185 -337 -185q-196 0 -316 141t-120 380q0 265 131.5 423t346.5 158q195 0 295 -154h4v129h278v-942zM862 600q0 107 -67 183t-170 76
q-120 0 -190.5 -93t-70.5 -260q0 -144 67 -229t178 -85q113 0 183 85t70 219v104z" />
    <glyph glyph-name="h" unicode="h" horiz-adv-x="1243" vert-adv-y="1635" 
d="M1114 0h-278v599q0 260 -190 260q-98 0 -159.5 -73.5t-61.5 -186.5v-599h-279v1555h279v-666h3q120 187 330 187q356 0 356 -430v-646z" />
    <glyph glyph-name="i" unicode="i" horiz-adv-x="562" vert-adv-y="1627" 
d="M120 1397q0 64 45.5 107t117.5 43q70 0 117 -42.5t47 -107.5t-46.5 -108t-117.5 -43t-117 44t-46 107zM142 0v1051h278v-1051h-278z" />
    <glyph glyph-name="j" unicode="j" horiz-adv-x="572" vert-adv-y="2121" 
d="M124 1397q0 65 46.5 107.5t117.5 42.5t118 -42t47 -108q0 -65 -47 -108t-118 -43q-70 0 -117 44t-47 107zM426 26q0 -253 -111.5 -386.5t-319.5 -133.5q-69 0 -151 31v226q72 -39 127 -39q176 0 176 277v1050h279v-1025z" />
    <glyph glyph-name="k" unicode="k" horiz-adv-x="1137" vert-adv-y="1635" 
d="M1146 0h-345l-373 517h-3v-517h-279v1555h279v-989h3l351 485h337l-409 -498z" />
    <glyph glyph-name="l" unicode="l" horiz-adv-x="562" vert-adv-y="1635" 
d="M142 0v1555h278v-1555h-278z" />
    <glyph glyph-name="m" unicode="m" horiz-adv-x="1891" vert-adv-y="1156" 
d="M1763 0h-278v600q0 259 -188 259q-87 0 -145.5 -78.5t-58.5 -188.5v-592h-278v611q0 248 -187 248q-89 0 -146 -73.5t-57 -196.5v-589h-279v1051h279v-166h3q118 191 337 191q222 0 302 -202q120 202 351 202q345 0 345 -424v-652z" />
    <glyph glyph-name="n" unicode="n" horiz-adv-x="1246" vert-adv-y="1156" 
d="M1119 0h-278v589q0 270 -195 270q-98 0 -159.5 -73.5t-61.5 -186.5v-599h-279v1051h279v-169h3q116 194 341 194q350 0 350 -433v-643z" />
    <glyph glyph-name="o" unicode="o" horiz-adv-x="1269" vert-adv-y="1182" 
d="M82 519q0 258 152 407.5t412 149.5q251 0 396.5 -146.5t145.5 -392.5q0 -256 -150.5 -409.5t-407.5 -153.5q-252 0 -400 147.5t-148 397.5zM364 523q0 -331 275 -331q265 0 265 339q0 328 -266 328q-130 0 -202 -89.5t-72 -246.5z" />
    <glyph glyph-name="p" unicode="p" horiz-adv-x="1283" vert-adv-y="1640" 
d="M425 131v-615h-279v1535h279v-166h3q122 191 346 191q199 0 313.5 -139t114.5 -382q0 -262 -130.5 -421.5t-345.5 -159.5q-194 0 -298 157h-3zM421 457q0 -114 66 -189.5t169 -75.5q122 0 191 95t69 267q0 305 -241 305q-114 0 -184 -85t-70 -214v-103z" />
    <glyph glyph-name="q" unicode="q" horiz-adv-x="1282" vert-adv-y="1640" 
d="M1136 -484h-278v639h-5q-110 -181 -333 -181q-198 0 -318 138t-120 388q0 264 132 420t347 156q197 0 292 -154h5v129h278v-1535zM862 598q0 107 -66 184t-172 77q-121 0 -190.5 -93.5t-69.5 -257.5q0 -148 67.5 -232t175.5 -84q119 0 187 87t68 214v105z" />
    <glyph glyph-name="r" unicode="r" horiz-adv-x="806" vert-adv-y="1149" 
d="M791 794q-55 33 -135 33q-105 0 -168 -85.5t-63 -229.5v-512h-279v1051h279v-202h3q77 220 277 220q57 0 86 -14v-261z" />
    <glyph glyph-name="s" unicode="s" horiz-adv-x="946" vert-adv-y="1182" 
d="M111 270q156 -98 308 -98q196 0 196 111q0 77 -155 130q-226 76 -287 149.5t-61 188.5q0 152 124 238.5t319 86.5q136 0 272 -43v-227q-123 73 -269 73q-77 0 -124 -29t-47 -77q0 -79 131 -125q149 -54 219 -90.5t109 -99.5t39 -148q0 -160 -127.5 -248t-336.5 -88
q-176 0 -310 56v240z" />
    <glyph glyph-name="t" unicode="t" horiz-adv-x="787" vert-adv-y="1472" 
d="M737 11q-71 -36 -198 -36q-323 0 -323 342v522h-174v212h174v235l278 81v-316h243v-212h-243v-473q0 -174 137 -174q57 0 106 32v-213z" />
    <glyph glyph-name="u" unicode="u" horiz-adv-x="1246" vert-adv-y="1157" 
d="M1102 0h-278v162h-5q-116 -188 -322 -188q-369 0 -369 444v633h279v-604q0 -255 198 -255q97 0 158 69.5t61 186.5v603h278v-1051z" />
    <glyph glyph-name="v" unicode="v" horiz-adv-x="1099" vert-adv-y="1131" 
d="M1096 1051l-400 -1051h-309l-380 1051h300l207 -682q29 -97 36 -174h5q8 75 36 169l213 687h292z" />
    <glyph glyph-name="w" unicode="w" horiz-adv-x="1629" vert-adv-y="1131" 
d="M1609 1051l-306 -1051h-292l-173 656q-13 48 -17 123h-6q-6 -75 -20 -121l-186 -658h-288l-303 1051h286l165 -717q13 -58 16 -110h6q3 51 18 114l200 713h264l177 -718q7 -29 15 -111h7q3 43 17 111l159 718h261z" />
    <glyph glyph-name="x" unicode="x" horiz-adv-x="1103" vert-adv-y="1131" 
d="M1089 1051l-349 -516l346 -535h-323l-167 300q-30 53 -45 91h-4q-8 -23 -43 -89l-171 -302h-320l356 521l-337 530h324l165 -314q31 -59 43 -94h4q21 53 44 93l172 315h305z" />
    <glyph glyph-name="y" unicode="y" horiz-adv-x="1097" vert-adv-y="1625" 
d="M1099 1051l-443 -1160q-147 -385 -436 -385q-100 0 -169 23v227q60 -32 130 -32q125 0 179 128l64 150l-422 1049h309l221 -689q10 -33 27 -123h4q8 52 30 121l228 691h278z" />
    <glyph glyph-name="z" unicode="z" horiz-adv-x="990" vert-adv-y="1131" 
d="M948 0h-919v110l554 729h-501v212h864v-129l-535 -710h537v-212z" />
    <glyph glyph-name="braceleft" unicode="{" horiz-adv-x="733" vert-adv-y="1886" 
d="M656 -334q-208 0 -300.5 83.5t-92.5 274.5v264q0 194 -158 197v169q158 3 158 203v250q0 197 94.5 281t298.5 84v-175q-163 0 -163 -185v-243q0 -237 -157 -297v-5q157 -58 157 -299v-236q0 -102 36.5 -147.5t126.5 -45.5v-173z" />
    <glyph glyph-name="bar" unicode="|" horiz-adv-x="632" vert-adv-y="2181" 
d="M430 -494h-227v2101h227v-2101z" />
    <glyph glyph-name="braceright" unicode="}" horiz-adv-x="733" vert-adv-y="1886" 
d="M631 485q-158 -3 -158 -199v-257q0 -191 -89 -277t-304 -86v173q87 1 125.5 44.5t38.5 146.5v242q0 237 156 294v4q-156 60 -156 304v238q0 185 -164 185v175q207 0 300 -86t93 -276v-255q0 -198 158 -201v-169z" />
    <glyph glyph-name="asciitilde" unicode="~" horiz-adv-x="1473" vert-adv-y="444" 
d="M1269 786q-7 -169 -90 -263.5t-221 -94.5q-108 0 -266 97q-109 66 -162 66q-131 0 -137 -169h-189q7 171 92 264.5t223 93.5q111 0 243 -82q132 -83 190 -83q57 0 92 46.5t37 124.5h188z" />
    <glyph glyph-name="nonbreakingspace" unicode="&#xa0;" horiz-adv-x="720" vert-adv-y="579" 
 />
    <glyph glyph-name="exclamdown" unicode="&#xa1;" horiz-adv-x="662" vert-adv-y="1573" 
d="M164 922q0 66 48.5 109.5t119.5 43.5q68 0 116.5 -44t48.5 -109q0 -64 -47.5 -107.5t-112.5 -43.5q-79 0 -126 43t-47 108zM480 -418h-293l32 1028h227z" />
    <glyph glyph-name="cent" unicode="&#xa2;" horiz-adv-x="1187" vert-adv-y="1577" 
d="M1015 214q-79 -48 -198 -62v-194h-155v191q-221 18 -352 164t-131 359q0 227 129 382t354 185v216h155v-210q115 -4 198 -48v-250q-88 64 -198 74v-652q115 17 198 76v-231zM662 1011q-217 -64 -217 -319q0 -254 217 -315v634z" />
    <glyph glyph-name="sterling" unicode="&#xa3;" horiz-adv-x="1187" vert-adv-y="1576" 
d="M1111 0h-976v205q206 58 206 290v140h-184v199h184v212q0 200 122.5 325t323.5 125q128 0 233 -48v-234q-101 65 -214 65q-203 0 -203 -259v-186h283v-199h-283v-110q0 -206 -168 -307h676v-218z" />
    <glyph glyph-name="currency" unicode="&#xa4;" horiz-adv-x="1169" vert-adv-y="1106" 
d="M1101 367l-130 -135l-145 143q-108 -69 -242 -69q-133 0 -241 69l-145 -143l-131 135l144 139q-70 113 -70 238q0 127 70 237l-144 143l131 134l145 -144q110 71 241 71q132 0 241 -71l146 144l130 -134l-143 -143q72 -115 72 -237q0 -119 -72 -238zM328 746
q0 -105 75 -180.5t181 -75.5t182.5 75.5t76.5 180.5q0 101 -78.5 178t-180.5 77q-105 0 -180.5 -74.5t-75.5 -180.5z" />
    <glyph glyph-name="yen" unicode="&#xa5;" horiz-adv-x="1187" vert-adv-y="1552" 
d="M1152 1472l-363 -664h267v-178h-321v-173h321v-179h-321v-278h-273v278h-332v179h332v173h-332v178h274l-355 664h291l227 -506q33 -75 41 -96h4q14 38 42 100l223 502h275z" />
    <glyph glyph-name="brokenbar" unicode="&#xa6;" horiz-adv-x="632" vert-adv-y="2181" 
d="M430 712h-227v895h227v-895zM430 -494h-227v905h227v-905z" />
    <glyph glyph-name="section" unicode="&#xa7;" horiz-adv-x="997" vert-adv-y="1677" 
d="M744 440q86 -77 86 -183q0 -143 -107.5 -233.5t-285.5 -90.5q-158 0 -282 65v228q170 -98 301 -98q144 0 144 113q0 69 -148 145q-209 105 -263.5 193t-54.5 172q0 153 135 243q-96 89 -96 222q0 141 104.5 227.5t272.5 86.5q135 0 254 -53v-229q-133 89 -256 89
q-139 0 -139 -112q0 -50 32 -83.5t204 -109.5q252 -114 252 -313q0 -171 -153 -279zM433 899q-78 -44 -78 -128q0 -69 60.5 -118t183.5 -101q74 54 74 141q0 66 -54.5 110t-185.5 96z" />
    <glyph glyph-name="dieresis" unicode="&#xa8;" horiz-adv-x="941" vert-adv-y="339" 
d="M549 1356q0 56 39.5 92.5t100.5 36.5q60 0 100.5 -36.5t40.5 -92.5t-40 -93t-100 -37t-100.5 37t-40.5 93zM100 1356q0 56 40.5 92.5t99.5 36.5q63 0 102.5 -36t39.5 -93t-39 -93.5t-102 -36.5q-60 0 -100.5 37t-40.5 93z" />
    <glyph glyph-name="copyright" unicode="&#xa9;" horiz-adv-x="1847" vert-adv-y="1608" 
d="M143 732q0 323 226.5 545t558.5 222q329 0 552.5 -217.5t223.5 -546.5q0 -324 -227.5 -544t-554.5 -220q-335 0 -557 216.5t-222 544.5zM267 735q0 -280 189 -467t469 -187q277 0 466.5 189t189.5 464q0 281 -189 469t-467 188q-281 0 -469.5 -188t-188.5 -468zM1238 295
q-127 -71 -279 -71q-215 0 -357 139.5t-142 349.5q0 242 147.5 387t383.5 145q129 0 244 -56v-216q-100 77 -253 77q-129 0 -216.5 -87.5t-87.5 -234.5q0 -141 88.5 -227.5t222.5 -86.5q146 0 249 78v-197z" />
    <glyph glyph-name="ordfeminine" unicode="&#xaa;" horiz-adv-x="850" vert-adv-y="857" 
d="M550 735v92h-5q-87 -112 -228 -112q-105 0 -172.5 62.5t-67.5 160.5q0 214 265 248l208 26q0 134 -146 134q-126 0 -256 -82v166q119 62 289 62q306 0 306 -299v-458h-193zM406 1069q-134 -18 -134 -110q0 -99 118 -99q63 0 111.5 47t48.5 110v71z" />
    <glyph glyph-name="guillemotleft" unicode="&#xab;" horiz-adv-x="1174" vert-adv-y="777" 
d="M1110 206h-246l-328 345l328 352h247l-336 -352zM640 206h-245l-329 345l329 352h243l-333 -352z" />
    <glyph glyph-name="logicalnot" unicode="&#xac;" horiz-adv-x="1473" vert-adv-y="679" 
d="M1231 269h-186v411h-803v188h989v-599z" />
    <glyph glyph-name="sfthyphen" unicode="&#xad;" horiz-adv-x="841" vert-adv-y="280" 
d="M708 468h-561v200h561v-200z" />
    <glyph glyph-name="registered" unicode="&#xae;" horiz-adv-x="1847" vert-adv-y="1608" 
d="M143 732q0 323 226.5 545t558.5 222q329 0 552.5 -217.5t223.5 -546.5q0 -324 -227.5 -544t-554.5 -220q-335 0 -557 216.5t-222 544.5zM267 735q0 -280 189 -467t469 -187q277 0 466.5 189t189.5 464q0 281 -189 469t-467 188q-281 0 -469.5 -188t-188.5 -468zM1318 266
h-233l-87 238q-51 139 -131 139h-79v-377h-193v956h312q373 0 373 -268q0 -201 -229 -256v-4q89 -21 150 -159zM788 1060v-266h123q160 0 160 136q0 130 -183 130h-100z" />
    <glyph glyph-name="uni00AF" unicode="&#xaf;" horiz-adv-x="872" vert-adv-y="202" 
d="M872 1394h-872v122h872v-122z" />
    <glyph glyph-name="degree" unicode="&#xb0;" horiz-adv-x="796" vert-adv-y="654" 
d="M407 1496q117 0 203 -84t86 -203q0 -117 -85.5 -202t-203.5 -85q-119 0 -204.5 83.5t-85.5 203.5t84.5 203.5t205.5 83.5zM407 1068q58 0 99 42t41 99q0 58 -40.5 100t-99.5 42t-100 -41.5t-41 -100.5q0 -58 41 -99.5t100 -41.5z" />
    <glyph glyph-name="plusminus" unicode="&#xb1;" horiz-adv-x="1473" vert-adv-y="1371" 
d="M1231 700h-401v-403h-186v403h-400v186h400v405h186v-405h401v-186zM1229 0h-987v187h987v-187z" />
    <glyph glyph-name="twosuperior" unicode="&#xb2;" horiz-adv-x="827" vert-adv-y="973" 
d="M722 599h-605v149l252 240q83 79 107 122.5t24 96.5q0 48 -32 79t-85 31q-109 0 -219 -106v202q112 79 253 79q133 0 212 -69.5t79 -189.5q0 -81 -40 -153.5t-180 -196.5l-124 -114v-4h358v-166z" />
    <glyph glyph-name="threesuperior" unicode="&#xb3;" horiz-adv-x="827" vert-adv-y="994" 
d="M133 807q110 -74 226 -74q161 0 161 116q0 118 -191 118h-110v156h106q167 0 167 110q0 101 -129 101q-107 0 -200 -69v170q99 57 238 57q130 0 207 -61.5t77 -163.5q0 -152 -148 -203v-4q178 -42 178 -205q0 -122 -96.5 -199.5t-254.5 -77.5q-138 0 -231 54v175z" />
    <glyph glyph-name="acute" unicode="&#xb4;" horiz-adv-x="625" vert-adv-y="412" 
d="M590 1549l-306 -332h-204l256 332h254z" />
    <glyph glyph-name="mu1" unicode="&#xb5;" horiz-adv-x="1266" vert-adv-y="1537" 
d="M870 0q-24 65 -24 162h-5q-66 -186 -241 -186q-119 0 -172 84h-4v-466h-278v1457h278v-616q0 -234 198 -234q215 0 215 281v569h282v-743q0 -234 38 -308h-287z" />
    <glyph glyph-name="paragraph" unicode="&#xb6;" horiz-adv-x="1038" vert-adv-y="1552" 
d="M937 1322h-124v-1322h-158v1322h-133v-1322h-161v878q-122 5 -196 92.5t-74 207.5q0 126 85 210t208 84h553v-150z" />
    <glyph glyph-name="uni00B7" unicode="&#xb7;" horiz-adv-x="536" vert-adv-y="386" 
d="M265 510q-33 0 -63 11.5t-53 31.5t-36.5 48.5t-13.5 62.5q0 35 14 63t37.5 47.5t54.5 30.5t64 11t63.5 -11t53.5 -30.5t36.5 -47.5t13.5 -63q0 -36 -13.5 -64.5t-37 -48.5t-54.5 -30.5t-66 -10.5z" />
    <glyph glyph-name="cedilla" unicode="&#xb8;" horiz-adv-x="446" vert-adv-y="540" 
d="M52 -456v127q39 -6 73 -6q132 0 132 79q0 73 -119 73q-11 0 -39 -4v187h158v-91q192 -5 192 -166q0 -203 -313 -203q-44 0 -84 4z" />
    <glyph glyph-name="onesuperior" unicode="&#xb9;" horiz-adv-x="802" vert-adv-y="973" 
d="M715 599h-559v158h183v526l-197 -47v168l392 88v-735h181v-158z" />
    <glyph glyph-name="ordmasculine" unicode="&#xba;" horiz-adv-x="943" vert-adv-y="858" 
d="M74 1100q0 180 109.5 286t294.5 106q176 0 281.5 -103.5t105.5 -274.5q0 -184 -106.5 -292t-293.5 -108q-185 0 -288 103.5t-103 282.5zM282 1104q0 -229 188 -229q185 0 185 231q0 226 -184 226q-189 0 -189 -228z" />
    <glyph glyph-name="guillemotright" unicode="&#xbb;" horiz-adv-x="1174" vert-adv-y="777" 
d="M1111 551l-329 -345h-244l332 345l-331 352h243zM640 551l-328 -345h-246l336 345l-335 352h245z" />
    <glyph glyph-name="onequarter" unicode="&#xbc;" horiz-adv-x="1973" vert-adv-y="1572" 
d="M681 599h-559v158h183v526l-197 -47v168l392 88v-735h181v-158zM1510 1472l-905 -1472h-219l904 1472h220zM1852 190h-113v-190h-195v190h-404v129l364 554h235v-539h113v-144zM1542 710q-11 -30 -39 -78l-189 -298h230v288q0 33 5 88h-7z" />
    <glyph glyph-name="onehalf" unicode="&#xbd;" horiz-adv-x="2006" vert-adv-y="1572" 
d="M681 599h-559v158h183v526l-197 -47v168l392 88v-735h181v-158zM1510 1472l-905 -1472h-219l904 1472h220zM1861 0h-605v149l252 240q83 79 107 122.5t24 96.5q0 48 -32 79t-85 31q-109 0 -219 -106v202q112 79 253 79q133 0 212 -69.5t79 -189.5q0 -81 -40 -153.5
t-180 -196.5l-124 -114v-4h358v-166z" />
    <glyph glyph-name="threequarters" unicode="&#xbe;" horiz-adv-x="2026" vert-adv-y="1572" 
d="M133 807q110 -74 226 -74q161 0 161 116q0 118 -191 118h-110v156h106q167 0 167 110q0 101 -129 101q-107 0 -200 -69v170q99 57 238 57q130 0 207 -61.5t77 -163.5q0 -152 -148 -203v-4q178 -42 178 -205q0 -122 -96.5 -199.5t-254.5 -77.5q-138 0 -231 54v175z
M1573 1472l-905 -1472h-219l904 1472h220zM1904 190h-113v-190h-195v190h-404v129l364 554h235v-539h113v-144zM1594 710q-11 -30 -39 -78l-189 -298h230v288q0 33 5 88h-7z" />
    <glyph glyph-name="questiondown" unicode="&#xbf;" horiz-adv-x="926" vert-adv-y="1598" 
d="M693 922q0 -65 -49.5 -108.5t-119.5 -43.5q-71 0 -118.5 44.5t-47.5 107.5q0 66 47.5 109.5t118.5 43.5q69 0 119 -44t50 -109zM657 633q22 -55 22 -133q0 -153 -151 -287q-99 -88 -134 -141.5t-35 -119.5q0 -73 51 -118t133 -45q174 0 322 135v-271q-158 -96 -355 -96
q-199 0 -314 94t-115 263q0 94 41.5 178.5t181.5 204.5q83 73 112.5 118.5t29.5 107.5q0 54 -28 110h239z" />
    <glyph glyph-name="Agrave" unicode="&#xc0;" horiz-adv-x="1441" vert-adv-y="1986" 
d="M1423 0h-311l-119 352h-553l-116 -352h-311l545 1472h329zM922 578l-180 533q-11 32 -23 122h-7q-8 -67 -25 -120l-181 -535h416zM937 1574h-204l-306 332h254z" />
    <glyph glyph-name="Aacute" unicode="&#xc1;" horiz-adv-x="1441" vert-adv-y="1986" 
d="M1423 0h-311l-119 352h-553l-116 -352h-311l545 1472h329zM922 578l-180 533q-11 32 -23 122h-7q-8 -67 -25 -120l-181 -535h416zM1002 1906l-306 -332h-204l256 332h254z" />
    <glyph glyph-name="Acircumflex" unicode="&#xc2;" horiz-adv-x="1441" vert-adv-y="1985" 
d="M1423 0h-311l-119 352h-553l-116 -352h-311l545 1472h329zM922 578l-180 533q-11 32 -23 122h-7q-8 -67 -25 -120l-181 -535h416zM1061 1573h-187l-159 203l-159 -203h-186l236 332h219z" />
    <glyph glyph-name="Atilde" unicode="&#xc3;" horiz-adv-x="1441" vert-adv-y="1959" 
d="M1423 0h-311l-119 352h-553l-116 -352h-311l545 1472h329zM922 578l-180 533q-11 32 -23 122h-7q-8 -67 -25 -120l-181 -535h416zM1072 1879q0 -133 -55 -209t-149 -76q-83 0 -171 47q-84 47 -125 47q-84 0 -84 -112h-131q0 134 54 208.5t153 74.5q79 0 167 -51
q80 -45 125 -45q82 0 82 116h134z" />
    <glyph glyph-name="Adieresis" unicode="&#xc4;" horiz-adv-x="1441" vert-adv-y="1921" 
d="M1423 0h-311l-119 352h-553l-116 -352h-311l545 1472h329zM922 578l-180 533q-11 32 -23 122h-7q-8 -67 -25 -120l-181 -535h416zM798 1712q0 56 39.5 92.5t100.5 36.5q60 0 100.5 -36.5t40.5 -92.5t-40 -93t-100 -37t-100.5 37t-40.5 93zM349 1712q0 56 40.5 92.5
t99.5 36.5q63 0 102.5 -36t39.5 -93t-39 -93.5t-102 -36.5q-60 0 -100.5 37t-40.5 93z" />
    <glyph glyph-name="Aring" unicode="&#xc5;" horiz-adv-x="1441" vert-adv-y="1892" 
d="M1423 0h-311l-119 352h-553l-116 -352h-311l530 1435q-68 56 -68 149q0 99 70.5 163.5t177.5 64.5q106 0 175 -62t69 -162q0 -91 -67 -149zM609 1587q0 -105 109 -105q49 0 80 30t31 75q0 46 -31 75.5t-80 29.5t-79 -30t-30 -75zM919 590l-178 521q-11 33 -22 116h-7
q-8 -68 -24 -114l-178 -523h409z" />
    <glyph glyph-name="AE" unicode="&#xc6;" horiz-adv-x="1919" vert-adv-y="1552" 
d="M1843 0h-851v352h-494l-165 -352h-331l736 1472h1072v-237h-534v-375h497v-236h-497v-388h567v-236zM992 578v657h-85l-309 -657h394z" />
    <glyph glyph-name="Ccedilla" unicode="&#xc7;" horiz-adv-x="1308" vert-adv-y="2036" 
d="M1214 55q-151 -74 -381 -81v-65q193 -5 193 -166q0 -203 -313 -203q-44 0 -84 4v127q39 -6 73 -6q132 0 132 79q0 73 -120 73q-11 0 -39 -4v170q-276 34 -434.5 231t-158.5 491q0 348 217 569.5t557 221.5q214 0 358 -57v-278q-150 87 -340 87q-219 0 -355.5 -142.5
t-136.5 -380.5q0 -229 128 -366t341 -137q201 0 363 96v-263z" />
    <glyph glyph-name="Egrave" unicode="&#xc8;" horiz-adv-x="1103" vert-adv-y="1986" 
d="M1027 0h-852v1472h819v-237h-534v-375h496v-236h-496v-388h567v-236zM794 1574h-204l-306 332h254z" />
    <glyph glyph-name="Eacute" unicode="&#xc9;" horiz-adv-x="1103" vert-adv-y="1985" 
d="M1027 0h-852v1472h819v-237h-534v-375h496v-236h-496v-388h567v-236zM876 1905l-306 -332h-204l256 332h254z" />
    <glyph glyph-name="Ecircumflex" unicode="&#xca;" horiz-adv-x="1103" vert-adv-y="1987" 
d="M1027 0h-852v1472h819v-237h-534v-375h496v-236h-496v-388h567v-236zM917 1575h-187l-159 203l-159 -203h-186l236 332h219z" />
    <glyph glyph-name="Edieresis" unicode="&#xcb;" horiz-adv-x="1103" vert-adv-y="1922" 
d="M1027 0h-852v1472h819v-237h-534v-375h496v-236h-496v-388h567v-236zM678 1713q0 56 39.5 92.5t100.5 36.5q60 0 100.5 -36.5t40.5 -92.5t-40 -93t-100 -37t-100.5 37t-40.5 93zM229 1713q0 56 40.5 92.5t99.5 36.5q63 0 102.5 -36t39.5 -93t-39 -93.5t-102 -36.5
q-60 0 -100.5 37t-40.5 93z" />
    <glyph glyph-name="Igrave" unicode="&#xcc;" horiz-adv-x="635" vert-adv-y="1983" 
d="M589 1246h-130v-1021h130v-225h-543v225h128v1021h-128v226h543v-226zM513 1571h-204l-306 332h254z" />
    <glyph glyph-name="Iacute" unicode="&#xcd;" horiz-adv-x="635" vert-adv-y="1983" 
d="M589 1246h-130v-1021h130v-225h-543v225h128v1021h-128v226h543v-226zM634 1903l-306 -332h-204l256 332h254z" />
    <glyph glyph-name="Icircumflex" unicode="&#xce;" horiz-adv-x="635" vert-adv-y="1983" 
d="M589 1246h-130v-1021h130v-225h-543v225h128v1021h-128v226h543v-226zM663 1571h-187l-159 203l-159 -203h-186l236 332h219z" />
    <glyph glyph-name="Idieresis" unicode="&#xcf;" horiz-adv-x="635" vert-adv-y="1919" 
d="M589 1246h-130v-1021h130v-225h-543v225h128v1021h-128v226h543v-226zM403 1710q0 56 39.5 92.5t100.5 36.5q60 0 100.5 -36.5t40.5 -92.5t-40 -93t-100 -37t-100.5 37t-40.5 93zM-46 1710q0 56 40.5 92.5t99.5 36.5q63 0 102.5 -36t39.5 -93t-39 -93.5t-102 -36.5
q-60 0 -100.5 37t-40.5 93z" />
    <glyph glyph-name="Eth" unicode="&#xd0;" horiz-adv-x="1527" vert-adv-y="1552" 
d="M176 0v618h-167v239h167v615h487q782 0 782 -718q0 -342 -215.5 -548t-571.5 -206h-482zM461 1235v-378h297v-239h-297v-382h180q235 0 370 136.5t135 377.5q0 234 -132 359.5t-372 125.5h-181z" />
    <glyph glyph-name="Ntilde" unicode="&#xd1;" horiz-adv-x="1634" vert-adv-y="1959" 
d="M1458 0h-298l-651 997q-40 61 -66 114h-4q8 -70 8 -228v-883h-272v1472h318l628 -971q48 -74 70 -114h4q-8 39 -8 206v879h271v-1472zM1181 1879q0 -133 -55 -209t-149 -76q-83 0 -171 47q-84 47 -125 47q-84 0 -84 -112h-131q0 134 54 208.5t153 74.5q79 0 167 -51
q80 -45 125 -45q82 0 82 116h134z" />
    <glyph glyph-name="Ograve" unicode="&#xd2;" horiz-adv-x="1590" vert-adv-y="2009" 
d="M82 717q0 347 199.5 563t530.5 216q314 0 505.5 -209.5t191.5 -537.5q0 -346 -197.5 -560.5t-522.5 -214.5q-316 0 -511.5 209t-195.5 534zM382 733q0 -224 110.5 -367.5t300.5 -143.5q197 0 306.5 136.5t109.5 370.5q0 241 -106 380t-300 139q-196 0 -308.5 -145.5
t-112.5 -369.5zM997 1571h-204l-306 332h254z" />
    <glyph glyph-name="Oacute" unicode="&#xd3;" horiz-adv-x="1590" vert-adv-y="2009" 
d="M82 717q0 347 199.5 563t530.5 216q314 0 505.5 -209.5t191.5 -537.5q0 -346 -197.5 -560.5t-522.5 -214.5q-316 0 -511.5 209t-195.5 534zM382 733q0 -224 110.5 -367.5t300.5 -143.5q197 0 306.5 136.5t109.5 370.5q0 241 -106 380t-300 139q-196 0 -308.5 -145.5
t-112.5 -369.5zM1094 1903l-306 -332h-204l256 332h254z" />
    <glyph glyph-name="Ocircumflex" unicode="&#xd4;" horiz-adv-x="1590" vert-adv-y="2009" 
d="M82 717q0 347 199.5 563t530.5 216q314 0 505.5 -209.5t191.5 -537.5q0 -346 -197.5 -560.5t-522.5 -214.5q-316 0 -511.5 209t-195.5 534zM382 733q0 -224 110.5 -367.5t300.5 -143.5q197 0 306.5 136.5t109.5 370.5q0 241 -106 380t-300 139q-196 0 -308.5 -145.5
t-112.5 -369.5zM1140 1571h-187l-159 203l-159 -203h-186l236 332h219z" />
    <glyph glyph-name="Otilde" unicode="&#xd5;" horiz-adv-x="1590" vert-adv-y="1985" 
d="M82 717q0 347 199.5 563t530.5 216q314 0 505.5 -209.5t191.5 -537.5q0 -346 -197.5 -560.5t-522.5 -214.5q-316 0 -511.5 209t-195.5 534zM382 733q0 -224 110.5 -367.5t300.5 -143.5q197 0 306.5 136.5t109.5 370.5q0 241 -106 380t-300 139q-196 0 -308.5 -145.5
t-112.5 -369.5zM1153 1879q0 -133 -55 -209t-149 -76q-83 0 -171 47q-84 47 -125 47q-84 0 -84 -112h-131q0 134 54 208.5t153 74.5q79 0 167 -51q80 -45 125 -45q82 0 82 116h134z" />
    <glyph glyph-name="Odieresis" unicode="&#xd6;" horiz-adv-x="1590" vert-adv-y="1946" 
d="M82 717q0 347 199.5 563t530.5 216q314 0 505.5 -209.5t191.5 -537.5q0 -346 -197.5 -560.5t-522.5 -214.5q-316 0 -511.5 209t-195.5 534zM382 733q0 -224 110.5 -367.5t300.5 -143.5q197 0 306.5 136.5t109.5 370.5q0 241 -106 380t-300 139q-196 0 -308.5 -145.5
t-112.5 -369.5zM880 1711q0 56 39.5 92.5t100.5 36.5q60 0 100.5 -36.5t40.5 -92.5t-40 -93t-100 -37t-100.5 37t-40.5 93zM431 1711q0 56 40.5 92.5t99.5 36.5q63 0 102.5 -36t39.5 -93t-39 -93.5t-102 -36.5q-60 0 -100.5 37t-40.5 93z" />
    <glyph glyph-name="multiply" unicode="&#xd7;" horiz-adv-x="1473" vert-adv-y="1043" 
d="M1218 257l-134 -133l-347 350l-348 -350l-134 135l349 345l-349 349l132 134l350 -350l351 350l129 -138l-348 -345z" />
    <glyph glyph-name="Oslash" unicode="&#xd8;" horiz-adv-x="1590" vert-adv-y="1669" 
d="M200 -60l-114 95l155 185q-159 200 -159 497q0 349 200.5 564t529.5 215q240 0 413 -125l134 158l114 -94l-140 -164q176 -203 176 -522q0 -346 -198 -560.5t-522 -214.5q-253 0 -439 145zM1064 1181q-105 86 -261 86q-198 0 -318 -148.5t-120 -388.5q0 -173 63 -295z
M517 311q112 -109 276 -109q198 0 315.5 142.5t117.5 382.5q0 198 -73 334z" />
    <glyph glyph-name="Ugrave" unicode="&#xd9;" horiz-adv-x="1497" vert-adv-y="2012" 
d="M1340 625q0 -651 -602 -651q-579 0 -579 633v865h286v-865q0 -385 308 -385q302 0 302 372v878h285v-847zM944 1574h-204l-306 332h254z" />
    <glyph glyph-name="Uacute" unicode="&#xda;" horiz-adv-x="1497" vert-adv-y="2011" 
d="M1340 625q0 -651 -602 -651q-579 0 -579 633v865h286v-865q0 -385 308 -385q302 0 302 372v878h285v-847zM1051 1905l-306 -332h-204l256 332h254z" />
    <glyph glyph-name="Ucircumflex" unicode="&#xdb;" horiz-adv-x="1497" vert-adv-y="2013" 
d="M1340 625q0 -651 -602 -651q-579 0 -579 633v865h286v-865q0 -385 308 -385q302 0 302 372v878h285v-847zM1094 1575h-187l-159 203l-159 -203h-186l236 332h219z" />
    <glyph glyph-name="Udieresis" unicode="&#xdc;" horiz-adv-x="1497" vert-adv-y="1949" 
d="M1340 625q0 -651 -602 -651q-579 0 -579 633v865h286v-865q0 -385 308 -385q302 0 302 372v878h285v-847zM842 1714q0 56 39.5 92.5t100.5 36.5q60 0 100.5 -36.5t40.5 -92.5t-40 -93t-100 -37t-100.5 37t-40.5 93zM393 1714q0 56 40.5 92.5t99.5 36.5q63 0 102.5 -36
t39.5 -93t-39 -93.5t-102 -36.5q-60 0 -100.5 37t-40.5 93z" />
    <glyph glyph-name="Yacute" unicode="&#xdd;" horiz-adv-x="1242" vert-adv-y="1983" 
d="M1241 1472l-482 -943v-529h-285v523l-468 949h326l263 -584q6 -14 34 -111h4q12 62 33 109l272 586h303zM913 1903l-306 -332h-204l256 332h254z" />
    <glyph glyph-name="Thorn" unicode="&#xde;" horiz-adv-x="1259" vert-adv-y="1552" 
d="M460 299v-299h-285v1472h285v-222h201q538 0 538 -461q0 -219 -158 -354.5t-414 -135.5h-167zM460 1025v-501h145q295 0 295 254q0 247 -289 247h-151z" />
    <glyph glyph-name="germandbls" unicode="&#xdf;" horiz-adv-x="1268" vert-adv-y="1685" 
d="M534 245q80 -53 179 -53q93 0 149 60t56 164q0 131 -94.5 207t-265.5 86v199q115 12 182.5 81t67.5 174q0 94 -48 146.5t-132 52.5q-203 0 -203 -270v-1092h-279v1095q0 222 135.5 353t362.5 131q202 0 325.5 -107t123.5 -281q0 -120 -72 -219t-194 -137v-5
q377 -72 377 -418q0 -187 -128.5 -312.5t-333.5 -125.5q-109 0 -208 33v238z" />
    <glyph glyph-name="agrave" unicode="&#xe0;" horiz-adv-x="1112" vert-adv-y="1655" 
d="M171 984q71 41 184 66.5t203 25.5q426 0 426 -432v-644h-266v155h-5q-106 -181 -315 -181q-152 0 -241 85.5t-89 229.5q0 301 358 349l293 40q0 201 -196 201q-187 0 -352 -117v222zM510 480q-180 -23 -180 -161q0 -62 43 -101t116 -39q100 0 165 70.5t65 177.5v80z
M770 1217h-204l-306 332h254z" />
    <glyph glyph-name="aacute" unicode="&#xe1;" horiz-adv-x="1112" vert-adv-y="1655" 
d="M171 984q71 41 184 66.5t203 25.5q426 0 426 -432v-644h-266v155h-5q-106 -181 -315 -181q-152 0 -241 85.5t-89 229.5q0 301 358 349l293 40q0 201 -196 201q-187 0 -352 -117v222zM510 480q-180 -23 -180 -161q0 -62 43 -101t116 -39q100 0 165 70.5t65 177.5v80z
M843 1549l-306 -332h-204l256 332h254z" />
    <glyph glyph-name="acircumflex" unicode="&#xe2;" horiz-adv-x="1112" vert-adv-y="1655" 
d="M171 984q71 41 184 66.5t203 25.5q426 0 426 -432v-644h-266v155h-5q-106 -181 -315 -181q-152 0 -241 85.5t-89 229.5q0 301 358 349l293 40q0 201 -196 201q-187 0 -352 -117v222zM510 480q-180 -23 -180 -161q0 -62 43 -101t116 -39q100 0 165 70.5t65 177.5v80z
M895 1217h-187l-159 203l-159 -203h-186l236 332h219z" />
    <glyph glyph-name="atilde" unicode="&#xe3;" horiz-adv-x="1112" vert-adv-y="1631" 
d="M171 984q71 41 184 66.5t203 25.5q426 0 426 -432v-644h-266v155h-5q-106 -181 -315 -181q-152 0 -241 85.5t-89 229.5q0 301 358 349l293 40q0 201 -196 201q-187 0 -352 -117v222zM510 480q-180 -23 -180 -161q0 -62 43 -101t116 -39q100 0 165 70.5t65 177.5v80z
M901 1525q0 -133 -55 -209t-149 -76q-83 0 -171 47q-84 47 -125 47q-84 0 -84 -112h-131q0 134 54 208.5t153 74.5q79 0 167 -51q80 -45 125 -45q82 0 82 116h134z" />
    <glyph glyph-name="adieresis" unicode="&#xe4;" horiz-adv-x="1112" vert-adv-y="1591" 
d="M171 984q71 41 184 66.5t203 25.5q426 0 426 -432v-644h-266v155h-5q-106 -181 -315 -181q-152 0 -241 85.5t-89 229.5q0 301 358 349l293 40q0 201 -196 201q-187 0 -352 -117v222zM510 480q-180 -23 -180 -161q0 -62 43 -101t116 -39q100 0 165 70.5t65 177.5v80z
M636 1356q0 56 39.5 92.5t100.5 36.5q60 0 100.5 -36.5t40.5 -92.5t-40 -93t-100 -37t-100.5 37t-40.5 93zM187 1356q0 56 40.5 92.5t99.5 36.5q63 0 102.5 -36t39.5 -93t-39 -93.5t-102 -36.5q-60 0 -100.5 37t-40.5 93z" />
    <glyph glyph-name="aring" unicode="&#xe5;" horiz-adv-x="1112" vert-adv-y="1753" 
d="M171 984q71 41 184 66.5t203 25.5q426 0 426 -432v-644h-266v155h-5q-106 -181 -315 -181q-152 0 -241 85.5t-89 229.5q0 301 358 349l293 40q0 201 -196 201q-187 0 -352 -117v222zM510 480q-180 -23 -180 -161q0 -62 43 -101t116 -39q100 0 165 70.5t65 177.5v80z
M320 1427q0 98 70 159t171 61q102 0 167.5 -59t65.5 -154q0 -94 -68 -157t-171 -63q-100 0 -167.5 60.5t-67.5 152.5zM448 1431q0 -102 107 -102q48 0 78 29.5t30 72.5q0 45 -29 73.5t-79 28.5q-51 0 -79 -28.5t-28 -73.5z" />
    <glyph glyph-name="ae" unicode="&#xe6;" horiz-adv-x="1743" vert-adv-y="1182" 
d="M1677 447h-702q17 -268 304 -268q167 0 312 92v-210q-151 -87 -382 -87q-276 0 -403 199h-4q-148 -199 -379 -199q-168 0 -261.5 85t-93.5 231q0 313 385 342l265 18q0 229 -198 229q-178 0 -349 -115v220q180 92 373 92q240 0 325 -157h4q130 157 344 157
q216 0 338 -136.5t122 -373.5v-119zM1415 630q-2 250 -206 250q-87 0 -153 -69t-80 -181h439zM718 475l-175 -12q-215 -15 -215 -151q0 -59 43.5 -96t116.5 -37q99 0 164.5 70t65.5 175v51z" />
    <glyph glyph-name="ccedilla" unicode="&#xe7;" horiz-adv-x="998" vert-adv-y="1616" 
d="M920 41q-108 -61 -274 -67v-65q190 -4 190 -166q0 -203 -312 -203q-45 0 -83 4v127q38 -6 73 -6q132 0 132 79q0 73 -120 73q-11 0 -39 -4v174q-186 34 -295.5 176t-109.5 337q0 263 157 419.5t419 156.5q171 0 262 -50v-245q-106 78 -234 78q-148 0 -235 -93t-87 -246
q0 -152 83.5 -240t227.5 -88q127 0 245 80v-231z" />
    <glyph glyph-name="egrave" unicode="&#xe8;" horiz-adv-x="1126" vert-adv-y="1655" 
d="M1061 447h-702q17 -268 304 -268q175 0 312 92v-212q-146 -85 -375 -85q-245 0 -381.5 142t-136.5 397q0 250 146.5 406.5t366.5 156.5t343 -135t123 -371v-123zM798 630q0 250 -206 250q-86 0 -151.5 -68t-81.5 -182h439zM822 1217h-204l-306 332h254z" />
    <glyph glyph-name="eacute" unicode="&#xe9;" horiz-adv-x="1126" vert-adv-y="1655" 
d="M1061 447h-702q17 -268 304 -268q175 0 312 92v-212q-146 -85 -375 -85q-245 0 -381.5 142t-136.5 397q0 250 146.5 406.5t366.5 156.5t343 -135t123 -371v-123zM798 630q0 250 -206 250q-86 0 -151.5 -68t-81.5 -182h439zM872 1549l-306 -332h-204l256 332h254z" />
    <glyph glyph-name="ecircumflex" unicode="&#xea;" horiz-adv-x="1126" vert-adv-y="1655" 
d="M1061 447h-702q17 -268 304 -268q175 0 312 92v-212q-146 -85 -375 -85q-245 0 -381.5 142t-136.5 397q0 250 146.5 406.5t366.5 156.5t343 -135t123 -371v-123zM798 630q0 250 -206 250q-86 0 -151.5 -68t-81.5 -182h439zM935 1217h-187l-159 203l-159 -203h-186
l236 332h219z" />
    <glyph glyph-name="edieresis" unicode="&#xeb;" horiz-adv-x="1126" vert-adv-y="1591" 
d="M1061 447h-702q17 -268 304 -268q175 0 312 92v-212q-146 -85 -375 -85q-245 0 -381.5 142t-136.5 397q0 250 146.5 406.5t366.5 156.5t343 -135t123 -371v-123zM798 630q0 250 -206 250q-86 0 -151.5 -68t-81.5 -182h439zM675 1356q0 56 39.5 92.5t100.5 36.5
q60 0 100.5 -36.5t40.5 -92.5t-40 -93t-100 -37t-100.5 37t-40.5 93zM226 1356q0 56 40.5 92.5t99.5 36.5q63 0 102.5 -36t39.5 -93t-39 -93.5t-102 -36.5q-60 0 -100.5 37t-40.5 93z" />
    <glyph glyph-name="igrave" unicode="&#xec;" horiz-adv-x="562" vert-adv-y="1629" 
d="M142 0v1051h278v-1051h-278zM487 1217h-204l-306 332h254z" />
    <glyph glyph-name="iacute" unicode="&#xed;" horiz-adv-x="562" vert-adv-y="1629" 
d="M142 0v1051h278v-1051h-278zM588 1549l-306 -332h-204l256 332h254z" />
    <glyph glyph-name="icircumflex" unicode="&#xee;" horiz-adv-x="562" vert-adv-y="1629" 
d="M142 0v1051h278v-1051h-278zM628 1217h-187l-159 203l-159 -203h-186l236 332h219z" />
    <glyph glyph-name="idieresis" unicode="&#xef;" horiz-adv-x="562" vert-adv-y="1565" 
d="M142 0v1051h278v-1051h-278zM367 1356q0 56 39.5 92.5t100.5 36.5q60 0 100.5 -36.5t40.5 -92.5t-40 -93t-100 -37t-100.5 37t-40.5 93zM-82 1356q0 56 40.5 92.5t99.5 36.5q63 0 102.5 -36t39.5 -93t-39 -93.5t-102 -36.5q-60 0 -100.5 37t-40.5 93z" />
    <glyph glyph-name="eth" unicode="&#xf0;" horiz-adv-x="1226" vert-adv-y="1689" 
d="M789 993q-89 157 -202 252l-300 -149l-75 131l257 123q-132 109 -275 205h321q18 -10 147 -111l285 140l72 -128l-234 -115q359 -302 359 -775q0 -259 -149 -425t-391 -166t-382 146.5t-140 401.5q0 242 136.5 394t354.5 152q122 0 212 -78zM364 524q0 -156 67.5 -244
t183.5 -88q112 0 178.5 92t66.5 247q0 328 -241 328q-119 0 -187 -90t-68 -245z" />
    <glyph glyph-name="ntilde" unicode="&#xf1;" horiz-adv-x="1246" vert-adv-y="1605" 
d="M1119 0h-278v589q0 270 -195 270q-98 0 -159.5 -73.5t-61.5 -186.5v-599h-279v1051h279v-169h3q116 194 341 194q350 0 350 -433v-643zM987 1525q0 -133 -55 -209t-149 -76q-83 0 -171 47q-84 47 -125 47q-84 0 -84 -112h-131q0 134 54 208.5t153 74.5q79 0 167 -51
q80 -45 125 -45q82 0 82 116h134z" />
    <glyph glyph-name="ograve" unicode="&#xf2;" horiz-adv-x="1269" vert-adv-y="1655" 
d="M82 519q0 258 152 407.5t412 149.5q251 0 396.5 -146.5t145.5 -392.5q0 -256 -150.5 -409.5t-407.5 -153.5q-252 0 -400 147.5t-148 397.5zM364 523q0 -331 275 -331q265 0 265 339q0 328 -266 328q-130 0 -202 -89.5t-72 -246.5zM851 1217h-204l-306 332h254z" />
    <glyph glyph-name="oacute" unicode="&#xf3;" horiz-adv-x="1269" vert-adv-y="1655" 
d="M82 519q0 258 152 407.5t412 149.5q251 0 396.5 -146.5t145.5 -392.5q0 -256 -150.5 -409.5t-407.5 -153.5q-252 0 -400 147.5t-148 397.5zM364 523q0 -331 275 -331q265 0 265 339q0 328 -266 328q-130 0 -202 -89.5t-72 -246.5zM921 1549l-306 -332h-204l256 332h254z
" />
    <glyph glyph-name="ocircumflex" unicode="&#xf4;" horiz-adv-x="1269" vert-adv-y="1655" 
d="M82 519q0 258 152 407.5t412 149.5q251 0 396.5 -146.5t145.5 -392.5q0 -256 -150.5 -409.5t-407.5 -153.5q-252 0 -400 147.5t-148 397.5zM364 523q0 -331 275 -331q265 0 265 339q0 328 -266 328q-130 0 -202 -89.5t-72 -246.5zM979 1217h-187l-159 203l-159 -203h-186
l236 332h219z" />
    <glyph glyph-name="otilde" unicode="&#xf5;" horiz-adv-x="1269" vert-adv-y="1631" 
d="M82 519q0 258 152 407.5t412 149.5q251 0 396.5 -146.5t145.5 -392.5q0 -256 -150.5 -409.5t-407.5 -153.5q-252 0 -400 147.5t-148 397.5zM364 523q0 -331 275 -331q265 0 265 339q0 328 -266 328q-130 0 -202 -89.5t-72 -246.5zM990 1525q0 -133 -55 -209t-149 -76
q-83 0 -171 47q-84 47 -125 47q-84 0 -84 -112h-131q0 134 54 208.5t153 74.5q79 0 167 -51q80 -45 125 -45q82 0 82 116h134z" />
    <glyph glyph-name="odieresis" unicode="&#xf6;" horiz-adv-x="1269" vert-adv-y="1591" 
d="M82 519q0 258 152 407.5t412 149.5q251 0 396.5 -146.5t145.5 -392.5q0 -256 -150.5 -409.5t-407.5 -153.5q-252 0 -400 147.5t-148 397.5zM364 523q0 -331 275 -331q265 0 265 339q0 328 -266 328q-130 0 -202 -89.5t-72 -246.5zM717 1356q0 56 39.5 92.5t100.5 36.5
q60 0 100.5 -36.5t40.5 -92.5t-40 -93t-100 -37t-100.5 37t-40.5 93zM268 1356q0 56 40.5 92.5t99.5 36.5q63 0 102.5 -36t39.5 -93t-39 -93.5t-102 -36.5q-60 0 -100.5 37t-40.5 93z" />
    <glyph glyph-name="divide" unicode="&#xf7;" horiz-adv-x="1473" vert-adv-y="1157" 
d="M609 1006q0 57 37 97.5t96 40.5q61 0 96 -36.5t35 -99.5q0 -57 -38.5 -95t-92.5 -38t-93.5 37.5t-39.5 93.5zM1231 511h-989v187h989v-187zM604 197q0 59 38.5 98.5t95.5 39.5q60 0 95 -36.5t35 -99.5q0 -58 -38.5 -95t-91.5 -37q-57 0 -95.5 38t-38.5 92z" />
    <glyph glyph-name="oslash" unicode="&#xf8;" horiz-adv-x="1269" vert-adv-y="1309" 
d="M1228 1048l-152 -161q112 -145 112 -348q0 -261 -148.5 -412t-409.5 -151q-200 0 -335 93l-140 -150l-111 101l144 153q-106 143 -106 348q0 259 154 407.5t413 148.5q187 0 318 -88l150 159zM808 825q-64 51 -168 51q-289 0 -289 -352q0 -94 28 -154zM457 233
q68 -55 181 -55q284 0 284 353q0 94 -28 164z" />
    <glyph glyph-name="ugrave" unicode="&#xf9;" horiz-adv-x="1246" vert-adv-y="1655" 
d="M1102 0h-278v162h-5q-116 -188 -322 -188q-369 0 -369 444v633h279v-604q0 -255 198 -255q97 0 158 69.5t61 186.5v603h278v-1051zM815 1217h-204l-306 332h254z" />
    <glyph glyph-name="uacute" unicode="&#xfa;" horiz-adv-x="1246" vert-adv-y="1655" 
d="M1102 0h-278v162h-5q-116 -188 -322 -188q-369 0 -369 444v633h279v-604q0 -255 198 -255q97 0 158 69.5t61 186.5v603h278v-1051zM914 1549l-306 -332h-204l256 332h254z" />
    <glyph glyph-name="ucircumflex" unicode="&#xfb;" horiz-adv-x="1246" vert-adv-y="1655" 
d="M1102 0h-278v162h-5q-116 -188 -322 -188q-369 0 -369 444v633h279v-604q0 -255 198 -255q97 0 158 69.5t61 186.5v603h278v-1051zM958 1217h-187l-159 203l-159 -203h-186l236 332h219z" />
    <glyph glyph-name="udieresis" unicode="&#xfc;" horiz-adv-x="1246" vert-adv-y="1591" 
d="M1102 0h-278v162h-5q-116 -188 -322 -188q-369 0 -369 444v633h279v-604q0 -255 198 -255q97 0 158 69.5t61 186.5v603h278v-1051zM700 1356q0 56 39.5 92.5t100.5 36.5q60 0 100.5 -36.5t40.5 -92.5t-40 -93t-100 -37t-100.5 37t-40.5 93zM251 1356q0 56 40.5 92.5
t99.5 36.5q63 0 102.5 -36t39.5 -93t-39 -93.5t-102 -36.5q-60 0 -100.5 37t-40.5 93z" />
    <glyph glyph-name="yacute" unicode="&#xfd;" horiz-adv-x="1097" vert-adv-y="2123" 
d="M1099 1051l-443 -1160q-147 -385 -436 -385q-100 0 -169 23v227q60 -32 130 -32q125 0 179 128l64 150l-422 1049h309l221 -689q10 -33 27 -123h4q8 52 30 121l228 691h278zM856 1549l-306 -332h-204l256 332h254z" />
    <glyph glyph-name="thorn" unicode="&#xfe;" horiz-adv-x="1283" vert-adv-y="2119" 
d="M425 131v-615h-279v2039h279v-670h3q122 191 346 191q199 0 313.5 -139t114.5 -382q0 -262 -130.5 -421.5t-345.5 -159.5q-194 0 -298 157h-3zM421 457q0 -114 66 -189.5t169 -75.5q122 0 191 95t69 267q0 305 -241 305q-114 0 -184 -85t-70 -214v-103z" />
    <glyph glyph-name="ydieresis" unicode="&#xff;" horiz-adv-x="1097" vert-adv-y="2059" 
d="M1099 1051l-443 -1160q-147 -385 -436 -385q-100 0 -169 23v227q60 -32 130 -32q125 0 179 128l64 150l-422 1049h309l221 -689q10 -33 27 -123h4q8 52 30 121l228 691h278zM644 1356q0 56 39.5 92.5t100.5 36.5q60 0 100.5 -36.5t40.5 -92.5t-40 -93t-100 -37t-100.5 37
t-40.5 93zM195 1356q0 56 40.5 92.5t99.5 36.5q63 0 102.5 -36t39.5 -93t-39 -93.5t-102 -36.5q-60 0 -100.5 37t-40.5 93z" />
    <glyph glyph-name="dcroat" unicode="&#x111;" horiz-adv-x="1302" vert-adv-y="1661" 
d="M1281 1211h-145v-1211h-278v155h-5q-112 -181 -335 -181q-205 0 -320.5 143.5t-115.5 384.5q0 251 128.5 412.5t350.5 161.5q207 0 292 -153h5v288h-339v188h339v156h278v-156h145v-188zM862 601q0 110 -68 184t-171 74q-126 0 -192.5 -95.5t-66.5 -253.5
q0 -150 66.5 -234t181.5 -84t184.5 91t65.5 218v100z" />
    <glyph glyph-name="Hbar" unicode="&#x126;" horiz-adv-x="1576" vert-adv-y="1552" 
d="M1568 1047h-169v-1047h-285v620h-653v-620h-285v1047h-167v195h167v230h285v-230h653v230h285v-230h169v-195zM1114 867v180h-653v-180h653z" />
    <glyph glyph-name="hbar" unicode="&#x127;" horiz-adv-x="1264" vert-adv-y="1635" 
d="M1139 0h-275v579q0 259 -190 259q-101 0 -162 -72.5t-61 -185.5v-580h-277v1216h-145v156h145v183h277v-183h339v-156h-339v-343h4q119 186 331 186q353 0 353 -430v-629z" />
    <glyph glyph-name="dotlessi" unicode="&#x131;" horiz-adv-x="562" vert-adv-y="1131" 
d="M142 0v1051h278v-1051h-278z" />
    <glyph glyph-name="IJ" unicode="&#x132;" horiz-adv-x="1528" vert-adv-y="1578" 
d="M589 1246h-130v-1021h130v-225h-543v225h128v1021h-128v226h543v-226zM1366 567q0 -289 -131 -441t-366 -152q-101 0 -192 36v269q77 -57 177 -57q228 0 228 355v895h284v-905z" />
    <glyph glyph-name="ij" unicode="&#x133;" horiz-adv-x="1144" vert-adv-y="2121" 
d="M120 1397q0 64 45.5 107t117.5 43q70 0 117 -42.5t47 -107.5t-46.5 -108t-117.5 -43t-117 44t-46 107zM142 0v1051h278v-1051h-278zM696 1397q0 65 46.5 107.5t117.5 42.5t118 -42t47 -108q0 -65 -47 -108t-118 -43q-70 0 -117 44t-47 107zM998 26q0 -253 -111.5 -386.5
t-319.5 -133.5q-69 0 -151 31v226q72 -39 127 -39q176 0 176 277v1050h279v-1025z" />
    <glyph glyph-name="kgreenlandic" unicode="&#x138;" horiz-adv-x="1137" vert-adv-y="1131" 
d="M1146 0h-345l-373 517h-3v-517h-279v1051h279v-485h3l351 485h337l-409 -498z" />
    <glyph glyph-name="Ldot" unicode="&#x13f;" horiz-adv-x="1049" vert-adv-y="1552" 
d="M1017 0h-842v1472h285v-1236h557v-236zM652 791q0 56 42 91.5t100 35.5t98.5 -35.5t40.5 -91.5q0 -55 -40 -92.5t-99 -37.5q-61 0 -101.5 37.5t-40.5 92.5z" />
    <glyph glyph-name="ldot" unicode="&#x140;" horiz-adv-x="841" vert-adv-y="1635" 
d="M142 0v1555h278v-1555h-278zM558 791q0 56 42 91.5t100 35.5t98.5 -35.5t40.5 -91.5q0 -55 -40 -92.5t-99 -37.5q-61 0 -101.5 37.5t-40.5 92.5z" />
    <glyph glyph-name="Lslash" unicode="&#x141;" horiz-adv-x="1049" vert-adv-y="1552" 
d="M1018 0h-842v503l-165 -92v238l165 89v734h285v-588l304 169v-237l-304 -168v-412h557v-236z" />
    <glyph glyph-name="lslash" unicode="&#x142;" horiz-adv-x="627" vert-adv-y="1635" 
d="M414 0h-277v501l-127 -81v235l127 80v820h277v-644l147 95v-234l-147 -94v-678z" />
    <glyph glyph-name="napostrophe" unicode="&#x149;" horiz-adv-x="1392" vert-adv-y="1583" 
d="M302 1503l-182 -456h-177l117 456h242zM1262 0h-278v589q0 270 -195 270q-95 0 -158.5 -73.5t-63.5 -186.5v-599h-278v1051h278v-169h5q115 194 340 194q350 0 350 -433v-643z" />
    <glyph glyph-name="Eng" unicode="&#x14a;" horiz-adv-x="1634" vert-adv-y="1984" 
d="M1459 77q0 -509 -398 -509q-112 0 -189 32v230q73 -40 144 -40q167 0 170 212l-676 995q-41 61 -66 114h-5q8 -52 8 -228v-883h-271v1472h317l629 -930q42 -63 69 -116h5q-9 59 -9 209v837h272v-1395z" />
    <glyph glyph-name="eng" unicode="&#x14b;" horiz-adv-x="1246" vert-adv-y="1589" 
d="M1119 53q0 -486 -405 -486q-89 0 -166 32v230q70 -41 127 -41q166 0 166 250v551q0 270 -195 270q-96 0 -158.5 -72.5t-62.5 -187.5v-599h-279v1051h279v-169h3q116 194 341 194q350 0 350 -433v-590z" />
    <glyph glyph-name="OE" unicode="&#x152;" horiz-adv-x="1969" vert-adv-y="1602" 
d="M1893 0h-817q-6 0 -65 -7q-162 -19 -229 -19q-313 0 -506.5 207t-193.5 536q0 351 199.5 565t526.5 214q37 0 277 -24h775v-237h-534v-378h496v-237h-496v-384h567v-236zM1035 1202q-114 46 -232 46q-188 0 -304 -142.5t-116 -374.5q0 -227 115.5 -368t298.5 -141
q120 0 238 47v933z" />
    <glyph glyph-name="oe" unicode="&#x153;" horiz-adv-x="1944" vert-adv-y="1183" 
d="M1881 447h-704q13 -268 306 -268q172 0 310 92v-212q-146 -85 -358 -85q-263 0 -399 208h-4q-140 -206 -421 -206q-240 0 -384.5 149t-144.5 394q0 255 148.5 406.5t397.5 151.5q286 0 406 -198h3q123 197 390 197q210 0 332 -137t122 -366v-126zM1616 630
q-3 250 -201 250q-90 0 -157 -69.5t-80 -180.5h438zM364 523q0 -329 273 -329q267 0 267 333q0 159 -68.5 245.5t-196.5 86.5q-129 0 -202 -90t-73 -246z" />
    <glyph glyph-name="Scaron" unicode="&#x160;" horiz-adv-x="1159" vert-adv-y="2009" 
d="M107 349q175 -145 401 -145q136 0 203 47.5t67 124.5q0 67 -56 123t-271 148q-183 82 -265.5 184.5t-82.5 240.5q0 199 154 311.5t404 112.5q224 0 353 -56v-273q-143 98 -345 98q-119 0 -192.5 -45t-73.5 -124q0 -63 51 -115t239 -135q216 -94 300 -197.5t84 -247.5
q0 -208 -148.5 -317.5t-416.5 -109.5q-249 0 -405 83v292zM968 1903l-236 -332h-219l-237 332h184l161 -202l163 202h184z" />
    <glyph glyph-name="scaron" unicode="&#x161;" horiz-adv-x="946" vert-adv-y="1655" 
d="M111 270q156 -98 308 -98q196 0 196 111q0 77 -155 130q-226 76 -287 149.5t-61 188.5q0 152 124 238.5t319 86.5q136 0 272 -43v-227q-123 73 -269 73q-77 0 -124 -29t-47 -77q0 -79 131 -125q149 -54 219 -90.5t109 -99.5t39 -148q0 -160 -127.5 -248t-336.5 -88
q-176 0 -310 56v240zM854 1549l-236 -332h-219l-237 332h184l161 -202l163 202h184z" />
    <glyph glyph-name="Tbar" unicode="&#x166;" horiz-adv-x="1193" vert-adv-y="1552" 
d="M1161 1235h-421v-412h246v-240h-246v-583h-286v583h-247v240h247v412h-420v237h1127v-237z" />
    <glyph glyph-name="tbar" unicode="&#x167;" horiz-adv-x="787" vert-adv-y="1472" 
d="M713 510h-219v-144q0 -174 137 -174q57 0 106 32v-213q-71 -36 -198 -36q-323 0 -323 342v193h-163v187h163v142h-174v212h174v235l278 81v-316h243v-212h-243v-142h219v-187z" />
    <glyph glyph-name="Ydieresis" unicode="&#x178;" horiz-adv-x="1242" vert-adv-y="1921" 
d="M1241 1472l-482 -943v-529h-285v523l-468 949h326l263 -584q6 -14 34 -111h4q12 62 33 109l272 586h303zM702 1712q0 56 39.5 92.5t100.5 36.5q60 0 100.5 -36.5t40.5 -92.5t-40 -93t-100 -37t-100.5 37t-40.5 93zM253 1712q0 56 40.5 92.5t99.5 36.5q63 0 102.5 -36
t39.5 -93t-39 -93.5t-102 -36.5q-60 0 -100.5 37t-40.5 93z" />
    <glyph glyph-name="Zcaron" unicode="&#x17d;" horiz-adv-x="1252" vert-adv-y="1985" 
d="M1204 1328l-775 -1092h770v-236h-1160v149l784 1086h-725v237h1106v-144zM983 1905l-236 -332h-219l-237 332h184l161 -202l163 202h184z" />
    <glyph glyph-name="zcaron" unicode="&#x17e;" horiz-adv-x="990" vert-adv-y="1629" 
d="M948 0h-919v110l554 729h-501v212h864v-129l-535 -710h537v-212zM868 1549l-236 -332h-219l-237 332h184l161 -202l163 202h184z" />
    <glyph glyph-name="florin" unicode="&#x192;" horiz-adv-x="1187" vert-adv-y="1865" 
d="M1044 1232q-66 31 -129 31q-134 0 -158 -149l-26 -161h165v-198h-196l-93 -625q-31 -207 -138 -321t-269 -114q-41 0 -115 19v219q34 -20 93 -20q133 0 169 233l90 609h-106v198h140l24 174q21 155 126.5 254t272.5 99q81 0 150 -23v-225z" />
    <glyph glyph-name="circumflex" unicode="&#x2c6;" horiz-adv-x="798" vert-adv-y="412" 
d="M744 1217h-187l-159 203l-159 -203h-186l236 332h219z" />
    <glyph glyph-name="caron" unicode="&#x2c7;" horiz-adv-x="798" vert-adv-y="412" 
d="M745 1549l-236 -332h-219l-237 332h184l161 -202l163 202h184z" />
    <glyph glyph-name="uni02d0" unicode="&#x2d0;" horiz-adv-x="467" vert-adv-y="1131" 
d="M233 778l-174 273h351zM233 272l177 -272h-351z" />
    <glyph glyph-name="breve" unicode="&#x2d8;" horiz-adv-x="702" vert-adv-y="378" 
d="M677 1515q-14 -141 -104.5 -219.5t-224.5 -78.5q-137 0 -228 81.5t-96 216.5h160q17 -144 167 -144q144 0 166 144h160z" />
    <glyph glyph-name="dotaccent" unicode="&#x2d9;" horiz-adv-x="500" vert-adv-y="337" 
d="M109 1356q0 56 42 91.5t100 35.5t98.5 -35.5t40.5 -91.5q0 -55 -40 -92.5t-99 -37.5q-61 0 -101.5 37.5t-40.5 92.5z" />
    <glyph glyph-name="ring" unicode="&#x2da;" horiz-adv-x="574" vert-adv-y="513" 
d="M50 1427q0 98 70 159t171 61q102 0 167.5 -59t65.5 -154q0 -94 -68 -157t-171 -63q-100 0 -167.5 60.5t-67.5 152.5zM178 1431q0 -102 107 -102q48 0 78 29.5t30 72.5q0 45 -29 73.5t-79 28.5q-51 0 -79 -28.5t-28 -73.5z" />
    <glyph glyph-name="ogonek" unicode="&#x2db;" horiz-adv-x="510" vert-adv-y="453" 
d="M338 0q-88 -107 -88 -183q0 -59 62 -59q47 0 103 23v-132q-63 -22 -137 -22q-84 0 -136 48t-52 124q0 96 100 201h148z" />
    <glyph glyph-name="tilde" unicode="&#x2dc;" horiz-adv-x="777" vert-adv-y="383" 
d="M746 1525q0 -133 -55 -209t-149 -76q-83 0 -171 47q-84 47 -125 47q-84 0 -84 -112h-131q0 134 54 208.5t153 74.5q79 0 167 -51q80 -45 125 -45q82 0 82 116h134z" />
    <glyph glyph-name="hungarumlaut" unicode="&#x2dd;" horiz-adv-x="804" vert-adv-y="412" 
d="M827 1549l-257 -332h-181l217 332h221zM478 1549l-252 -332h-182l215 332h219z" />
    <glyph glyph-name="Alpha" unicode="&#x391;" horiz-adv-x="1441" vert-adv-y="1552" 
d="M1423 0h-311l-119 352h-553l-116 -352h-311l545 1472h329zM922 578l-180 533q-11 32 -23 122h-7q-8 -67 -25 -120l-181 -535h416z" />
    <glyph glyph-name="Beta" unicode="&#x392;" horiz-adv-x="1305" vert-adv-y="1552" 
d="M175 0v1472h501q227 0 355 -90.5t128 -252.5q0 -118 -75 -208.5t-202 -129.5v-3q156 -20 248 -116t92 -238q0 -198 -142 -316t-380 -118h-525zM460 1253v-386h155q115 0 180 54.5t65 153.5q0 178 -254 178h-146zM460 647v-428h196q126 0 196 58t70 161q0 209 -276 209
h-186z" />
    <glyph glyph-name="Gamma" unicode="&#x393;" horiz-adv-x="1052" vert-adv-y="1552" 
d="M1019 1231h-559v-1231h-285v1472h844v-241z" />
    <glyph glyph-name="Delta" unicode="&#x394;" horiz-adv-x="1441" vert-adv-y="1552" 
d="M42 0v114l509 1358h329l502 -1358v-114h-1340zM747 1081q-15 44 -24 80.5t-11 65.5h-8q-8 -62 -36 -145q-67 -198 -139 -408t-151 -438h661z" />
    <glyph glyph-name="Epsilon" unicode="&#x395;" horiz-adv-x="1103" vert-adv-y="1552" 
d="M1027 0h-852v1472h819v-237h-534v-375h496v-236h-496v-388h567v-236z" />
    <glyph glyph-name="Zeta" unicode="&#x396;" horiz-adv-x="1252" vert-adv-y="1552" 
d="M1204 1328l-775 -1092h770v-236h-1160v149l784 1086h-725v237h1106v-144z" />
    <glyph glyph-name="Eta" unicode="&#x397;" horiz-adv-x="1576" vert-adv-y="1552" 
d="M1399 0h-285v620h-654v-620h-285v1472h285v-605h654v605h285v-1472z" />
    <glyph glyph-name="Theta" unicode="&#x398;" horiz-adv-x="1590" vert-adv-y="1602" 
d="M82 717q0 347 200 563t529 216q308 0 503 -206t195 -541q0 -348 -198.5 -561.5t-521.5 -213.5q-311 0 -509 206.5t-198 536.5zM383 734q0 -232 114 -371.5t296 -139.5q192 0 303.5 135t111.5 371q0 241 -107 379.5t-298 138.5q-189 0 -304.5 -140.5t-115.5 -372.5z
M1041 623h-490v223h490v-223z" />
    <glyph glyph-name="Iota" unicode="&#x399;" horiz-adv-x="635" vert-adv-y="1552" 
d="M589 1246h-130v-1021h130v-225h-543v225h128v1021h-128v226h543v-226z" />
    <glyph glyph-name="Kappa" unicode="&#x39a;" horiz-adv-x="1321" vert-adv-y="1552" 
d="M1340 0h-367l-469 649q-16 23 -39 72h-5v-721h-285v1472h285v-696h5q12 28 40 74l448 622h343l-548 -703z" />
    <glyph glyph-name="Lambda" unicode="&#x39b;" horiz-adv-x="1417" vert-adv-y="1552" 
d="M1397 0h-313l-348 1099q-19 61 -27 133h-8q-9 -66 -29 -130l-351 -1102h-306l526 1472h343z" />
    <glyph glyph-name="Mu" unicode="&#x39c;" horiz-adv-x="1975" vert-adv-y="1552" 
d="M1518 0v912q0 100 12 306h-6q-25 -126 -46 -180l-390 -1038h-217l-395 1029q-15 40 -46 189h-7q11 -163 11 -354v-864h-259v1472h410l344 -917q43 -114 57 -202h7q22 87 62 204l347 915h398v-1472h-282z" />
    <glyph glyph-name="Nu" unicode="&#x39d;" horiz-adv-x="1634" vert-adv-y="1552" 
d="M1458 0h-298l-651 997q-40 61 -66 114h-4q8 -70 8 -228v-883h-272v1472h318l628 -971q48 -74 70 -114h4q-8 39 -8 206v879h271v-1472z" />
    <glyph glyph-name="Xi" unicode="&#x39e;" horiz-adv-x="1137" vert-adv-y="1552" 
d="M1051 1228h-965v244h965v-244zM904 622h-671v238h671v-238zM1076 0h-1014v245h1014v-245z" />
    <glyph glyph-name="Omicron" unicode="&#x39f;" horiz-adv-x="1590" vert-adv-y="1602" 
d="M82 717q0 347 199.5 563t530.5 216q314 0 505.5 -209.5t191.5 -537.5q0 -346 -197.5 -560.5t-522.5 -214.5q-316 0 -511.5 209t-195.5 534zM382 733q0 -224 110.5 -367.5t300.5 -143.5q197 0 306.5 136.5t109.5 370.5q0 241 -106 380t-300 139q-196 0 -308.5 -145.5
t-112.5 -369.5z" />
    <glyph glyph-name="Pi" unicode="&#x3a0;" horiz-adv-x="1575" vert-adv-y="1552" 
d="M1401 0h-286v1220h-655v-1220h-285v1472h1226v-1472z" />
    <glyph glyph-name="Rho" unicode="&#x3a1;" horiz-adv-x="1259" vert-adv-y="1552" 
d="M460 522v-522h-285v1472h486q538 0 538 -461q0 -223 -162.5 -359t-408.5 -130h-168zM460 1245v-500h145q295 0 295 255q0 245 -289 245h-151z" />
    <glyph glyph-name="Sigma" unicode="&#x3a3;" horiz-adv-x="1162" vert-adv-y="1552" 
d="M1119 0h-1075v148l475 601l-444 561v162h980v-240h-575l369 -472l-404 -526h674v-234z" />
    <glyph glyph-name="Tau" unicode="&#x3a4;" horiz-adv-x="1193" vert-adv-y="1552" 
d="M1161 1235h-421v-1235h-286v1235h-420v237h1127v-237z" />
    <glyph glyph-name="Upsilon" unicode="&#x3a5;" horiz-adv-x="1242" vert-adv-y="1552" 
d="M1241 1472l-482 -943v-529h-285v523l-468 949h326l263 -584q6 -14 34 -111h4q12 62 33 109l272 586h303z" />
    <glyph glyph-name="Phi" unicode="&#x3a6;" horiz-adv-x="1676" vert-adv-y="1588" 
d="M971 185v-204h-264v204h-31q-265 0 -428.5 166t-163.5 419q0 252 168 409t426 157h29v153h264v-154h29q261 0 426.5 -155.5t165.5 -405.5q0 -257 -167.5 -423t-424.5 -166h-29zM971 1117v-708h27q147 0 232.5 97t85.5 262q0 155 -86.5 252t-232.5 97h-26zM708 409v708
h-26q-144 0 -232 -95t-88 -255q0 -169 85.5 -263.5t232.5 -94.5h28z" />
    <glyph glyph-name="Chi" unicode="&#x3a7;" horiz-adv-x="1338" vert-adv-y="1552" 
d="M1322 0h-339l-279 504q-14 26 -30 91h-4q-16 -51 -34 -94l-283 -501h-342l476 736l-435 736h347l237 -464q25 -49 46 -118h4q15 42 50 123l257 459h319l-447 -730z" />
    <glyph glyph-name="Psi" unicode="&#x3a8;" horiz-adv-x="1705" vert-adv-y="1552" 
d="M1568 922q0 -239 -155 -392t-401 -157h-34v-373h-250v373h-34q-239 0 -397.5 153t-158.5 395v551h254v-535q0 -321 301 -323h35v858h250v-858h34q300 0 300 323v535h256v-550z" />
    <glyph glyph-name="Omega" unicode="&#x3a9;" horiz-adv-x="1603" vert-adv-y="1576" 
d="M920 0v233q294 241 294 571q0 101 -31 183.5t-85.5 141t-129 90t-162.5 31.5q-91 0 -167.5 -31.5t-131.5 -90t-86 -142.5t-31 -189q0 -318 291 -564v-233h-592v234l351 -1q-350 213 -350 604q0 151 52.5 272.5t147 207.5t224.5 132.5t286 46.5q159 0 290.5 -47t225 -133
t145 -206.5t51.5 -268.5q0 -397 -357 -608l356 1v-234h-591z" />
    <glyph glyph-name="alpha" unicode="&#x3b1;" horiz-adv-x="1323" vert-adv-y="1182" 
d="M1063 523q43 -180 82.5 -243t92.5 -63q45 0 70 13q-3 -156 -3 -220q-66 -23 -138 -23q-109 0 -169.5 63.5t-90.5 189.5h-5q-134 -266 -395 -266q-197 0 -311.5 146.5t-114.5 375.5q0 252 133 416t358 164q257 0 355 -239h5l66 214h283zM840 538q-67 323 -239 323
q-111 0 -175.5 -99.5t-64.5 -249.5q0 -140 54 -228t148 -88q168 0 262 294z" />
    <glyph glyph-name="beta" unicode="&#x3b2;" horiz-adv-x="1262" vert-adv-y="2143" 
d="M425 32v-520h-278v1583q0 219 131 349.5t353 130.5q215 0 338.5 -104.5t123.5 -280.5q0 -120 -72.5 -217.5t-195.5 -138.5v-4q172 -33 267.5 -140.5t95.5 -267.5q0 -198 -136 -322.5t-354 -124.5q-144 0 -273 57zM558 709v199q115 11 183.5 82.5t68.5 172.5
q0 93 -47.5 144t-133.5 51q-204 0 -204 -260v-831q119 -74 240 -74q238 0 238 233q0 261 -345 283z" />
    <glyph glyph-name="gamma" unicode="&#x3b3;" horiz-adv-x="1162" vert-adv-y="1624" 
d="M671 -75q0 -328 -4 -418h-287q18 198 18 512q-37 200 -165.5 514t-251.5 518h322q230 -435 306 -807h4q214 361 214 662q0 66 -12 145h276q6 -63 6 -104q0 -224 -78.5 -436.5t-347.5 -585.5z" />
    <glyph glyph-name="delta" unicode="&#x3b4;" horiz-adv-x="1269" vert-adv-y="1681" 
d="M461 964q-220 137 -220 317q0 140 119 217t315 77q169 0 375 -74v-272q-190 127 -358 127q-167 0 -167 -100q0 -43 50 -88.5t231 -145.5q382 -217 382 -518q0 -246 -153.5 -388t-411.5 -142q-234 0 -388.5 137.5t-154.5 358.5q0 344 381 494zM643 839q-129 -45 -203 -140
t-74 -211q0 -133 73 -214.5t197 -81.5t196.5 81.5t72.5 217.5q0 196 -262 348z" />
    <glyph glyph-name="epsilon" unicode="&#x3b5;" horiz-adv-x="958" vert-adv-y="1182" 
d="M751 439q-72 7 -147 7q-248 0 -248 -142q0 -133 225 -133q155 0 308 69v-218q-150 -48 -364 -48q-207 0 -329.5 78.5t-122.5 227.5q0 204 243 260v3q-86 20 -145 88.5t-59 149.5q0 140 113 217.5t318 77.5q165 0 301 -42v-219q-145 65 -272 65q-177 0 -177 -117
q0 -134 235 -134q87 0 121 6v-196z" />
    <glyph glyph-name="zeta" unicode="&#x3b6;" horiz-adv-x="963" vert-adv-y="1952" 
d="M572 -317q114 82 114 172q0 99 -178 142q-160 38 -223 67.5t-113.5 87t-76 136t-25.5 178.5q0 392 559 879v4h-410v206h683v-208q-546 -496 -546 -851q0 -218 261 -282q190 -51 265.5 -128t75.5 -189q0 -119 -86 -214h-300z" />
    <glyph glyph-name="eta" unicode="&#x3b7;" horiz-adv-x="1263" vert-adv-y="1644" 
d="M1118 -488h-281v1052q0 271 -192 271q-99 0 -160 -71.5t-61 -180.5v-583h-278v699q0 259 -41 352h285q32 -72 32 -171h5q115 196 342 196q349 0 349 -432v-1132z" />
    <glyph glyph-name="theta" unicode="&#x3b8;" horiz-adv-x="1270" vert-adv-y="1682" 
d="M82 770q0 383 150 594.5t417 211.5q258 0 398.5 -204t140.5 -579q0 -387 -148.5 -603t-412.5 -216q-255 0 -400 211t-145 585zM900 888q-21 469 -263 469q-241 0 -269 -469h532zM367 683q18 -489 270 -489q243 0 264 489h-534z" />
    <glyph glyph-name="iota" unicode="&#x3b9;" horiz-adv-x="652" vert-adv-y="1149" 
d="M630 13q-69 -31 -171 -31q-297 0 -297 327v742h278v-706q0 -136 94 -136q44 0 96 22v-218z" />
    <glyph glyph-name="kappa" unicode="&#x3ba;" horiz-adv-x="1169" vert-adv-y="1146" 
d="M1161 0h-328l-301 456l-107 -114v-342h-279v1051h279v-456l219 266q169 205 306 205q78 0 130 -12v-229q-36 11 -88 11q-70 0 -177 -116l-88 -93z" />
    <glyph glyph-name="lambda" unicode="&#x3bb;" horiz-adv-x="1122" vert-adv-y="1631" 
d="M1097 0h-293l-228 762l-273 -762h-301l463 1042l-48 137q-48 138 -158 138q-66 0 -138 -33v245q75 22 182 22q148 0 235.5 -80.5t153.5 -275.5z" />
    <glyph glyph-name="mu" unicode="&#x3bc;" horiz-adv-x="1286" vert-adv-y="1562" 
d="M840 170q-35 -94 -97 -144t-159 -50q-49 0 -90.5 18t-64.5 50h-4v-475h-279v1482h279v-615q0 -109 48.5 -171.5t146.5 -62.5q105 0 156.5 75.5t51.5 205.5v568h281v-666q0 -93 24.5 -132t75.5 -39q14 0 26.5 2.5t26.5 5.5l-1 -214q-35 -10 -71.5 -16t-91.5 -6
q-109 0 -171 47t-82 137h-5z" />
    <glyph glyph-name="nu" unicode="&#x3bd;" horiz-adv-x="1147" vert-adv-y="1131" 
d="M406 0l-420 1051h298l292 -820q208 265 208 555q0 176 -54 265h282q36 -73 36 -231q0 -376 -386 -820h-256z" />
    <glyph glyph-name="xi" unicode="&#x3be;" horiz-adv-x="984" vert-adv-y="1954" 
d="M881 -319h-301q114 78 114 167q0 59 -47 90.5t-180 56.5q-397 72 -397 414q0 141 93 255t256 165q-102 36 -158.5 100t-56.5 136q0 184 290 280v6l-332 -2v206h701v-201q-401 -78 -401 -281q0 -143 208 -178l171 8v-228q-56 4 -139 4q-150 0 -248.5 -64.5t-98.5 -176.5
q0 -176 247 -223q214 -43 289 -117.5t75 -190.5q0 -126 -85 -226z" />
    <glyph glyph-name="omicron" unicode="&#x3bf;" horiz-adv-x="1269" vert-adv-y="1182" 
d="M82 519q0 258 152 407.5t412 149.5q251 0 396.5 -146.5t145.5 -392.5q0 -256 -150.5 -409.5t-407.5 -153.5q-252 0 -400 147.5t-148 397.5zM364 523q0 -331 275 -331q265 0 265 339q0 328 -266 328q-130 0 -202 -89.5t-72 -246.5z" />
    <glyph glyph-name="pi" unicode="&#x3c0;" horiz-adv-x="1416" vert-adv-y="1147" 
d="M1340 842h-228v-487q0 -146 95 -146q21 0 44.5 5.5t50.5 16.5v-218q-77 -29 -165 -29q-303 0 -303 330v528h-296v-532q0 -106 -10 -183t-29 -127h-284q45 114 45 322v520q-125 -3 -249 -88v229q88 68 252 68h1077v-209z" />
    <glyph glyph-name="rho" unicode="&#x3c1;" horiz-adv-x="1279" vert-adv-y="1562" 
d="M422 81v-487h-280v933q0 263 135 406t383 143q245 0 391.5 -148t146.5 -391q0 -260 -130 -411.5t-349 -151.5q-178 0 -293 107h-4zM422 301q92 -109 231 -109q261 0 261 336q0 144 -73.5 237.5t-184.5 93.5q-234 0 -234 -309v-249z" />
    <glyph glyph-name="sigma" unicode="&#x3c3;" horiz-adv-x="1264" vert-adv-y="1157" 
d="M1245 846h-240q121 -154 121 -352q0 -234 -138.5 -377t-374.5 -143q-243 0 -387 149t-144 398q0 530 555 530h608v-205zM661 846q-294 0 -294 -337q0 -140 64 -228.5t180 -88.5q108 0 169.5 87.5t61.5 241.5q0 178 -92 325h-89z" />
    <glyph glyph-name="tau" unicode="&#x3c4;" horiz-adv-x="1115" vert-adv-y="1149" 
d="M1071 846h-378v-500q0 -137 112 -137q55 0 109 22v-218q-74 -31 -191 -31q-309 0 -309 330v534h-105q-141 0 -274 -101v227q91 79 295 79h741v-205z" />
    <glyph glyph-name="upsilon" unicode="&#x3c5;" horiz-adv-x="1263" vert-adv-y="1172" 
d="M166 697q0 148 -87 148q-29 0 -57 -9v207q60 23 155 23q145 0 206.5 -72.5t61.5 -249.5v-256q0 -288 227 -288q216 0 216 279q0 291 -131 572h295q116 -253 116 -567q0 -237 -132.5 -373.5t-370.5 -136.5t-368.5 125.5t-130.5 352.5v245z" />
    <glyph glyph-name="phi" unicode="&#x3c6;" horiz-adv-x="1547" vert-adv-y="1650" 
d="M644 -494v468q-14 -2 -23 0q-247 0 -393 149.5t-146 399.5q0 317 186 528h297q-97 -88 -156.5 -235t-59.5 -285q0 -154 73 -247t200 -93h22v529q0 174 91 265t263 91q221 0 344 -153t123 -413q0 -239 -151 -390t-393 -146q-8 -2 -25 0v-468h-252zM896 191h28
q128 0 200 93.5t72 241.5q0 143 -50 238.5t-143 95.5q-107 0 -107 -126v-543z" />
    <glyph glyph-name="chi" unicode="&#x3c7;" horiz-adv-x="1155" vert-adv-y="1647" 
d="M1152 -474q-49 -17 -133 -17q-105 0 -185.5 73t-155.5 252l-117 274l-279 -584h-298l454 828l-144 334q-71 164 -148 164q-52 0 -98 -23v231q38 18 142 18q196 0 293 -233l106 -257l211 465h300l-385 -705l192 -431q48 -109 84 -144t75 -35q46 0 86 21v-231z" />
    <glyph glyph-name="psi" unicode="&#x3c8;" horiz-adv-x="1637" vert-adv-y="1939" 
d="M1503 573q0 -261 -141.5 -429.5t-391.5 -168.5h-27v-469h-250v469h-27q-245 0 -388.5 165.5t-143.5 432.5v478h264v-478q0 -158 73 -267t204 -109h18v1168h250v-1168h18q130 0 203.5 108t73.5 268v478h265v-478z" />
    <glyph glyph-name="omega" unicode="&#x3c9;" horiz-adv-x="1733" vert-adv-y="1156" 
d="M867 161h-3q-102 -186 -321 -186q-208 0 -324 140.5t-116 371.5q0 265 132 564h287q-154 -309 -154 -567q0 -283 185 -283q181 0 181 280v289h265v-289q0 -280 180 -280q185 0 185 283q0 258 -154 567h288q132 -299 132 -564q0 -229 -117 -370.5t-326 -141.5
q-221 0 -320 186z" />
    <glyph glyph-name="afii10023" unicode="&#x401;" horiz-adv-x="1103" vert-adv-y="1919" 
d="M1027 0h-852v1472h819v-237h-534v-375h496v-236h-496v-388h567v-236zM673 1710q0 56 39.5 92.5t100.5 36.5q60 0 100.5 -36.5t40.5 -92.5t-40 -93t-100 -37t-100.5 37t-40.5 93zM224 1710q0 56 40.5 92.5t99.5 36.5q63 0 102.5 -36t39.5 -93t-39 -93.5t-102 -36.5
q-60 0 -100.5 37t-40.5 93z" />
    <glyph glyph-name="afii10017" unicode="&#x410;" horiz-adv-x="1441" vert-adv-y="1552" 
d="M1423 0h-311l-119 352h-553l-116 -352h-311l545 1472h329zM922 578l-180 533q-11 32 -23 122h-7q-8 -67 -25 -120l-181 -535h416z" />
    <glyph glyph-name="afii10018" unicode="&#x411;" horiz-adv-x="1305" vert-adv-y="1552" 
d="M175 0v1472h899v-238h-614v-365h282q222 0 353.5 -107.5t131.5 -302.5q0 -215 -135 -337t-376 -122h-541zM460 654v-437h208q257 0 257 224q0 213 -250 213h-215z" />
    <glyph glyph-name="afii10019" unicode="&#x412;" horiz-adv-x="1305" vert-adv-y="1552" 
d="M175 0v1472h501q227 0 355 -90.5t128 -252.5q0 -118 -75 -208.5t-202 -129.5v-3q156 -20 248 -116t92 -238q0 -198 -142 -316t-380 -118h-525zM460 1253v-386h155q115 0 180 54.5t65 153.5q0 178 -254 178h-146zM460 647v-428h196q126 0 196 58t70 161q0 209 -276 209
h-186z" />
    <glyph glyph-name="afii10020" unicode="&#x413;" horiz-adv-x="1052" vert-adv-y="1552" 
d="M1019 1231h-559v-1231h-285v1472h844v-241z" />
    <glyph glyph-name="afii10021" unicode="&#x414;" horiz-adv-x="1579" vert-adv-y="1951" 
d="M1504 -399h-253v399h-968v-399h-251v637h130q298 541 331 1234h806v-1234h205v-637zM1013 238v992h-287q-30 -481 -268 -992h555z" />
    <glyph glyph-name="afii10022" unicode="&#x415;" horiz-adv-x="1103" vert-adv-y="1552" 
d="M1027 0h-852v1472h819v-237h-534v-375h496v-236h-496v-388h567v-236z" />
    <glyph glyph-name="afii10024" unicode="&#x416;" horiz-adv-x="2008" vert-adv-y="1552" 
d="M2022 0h-359l-476 645q-20 27 -39 68h-5v-713h-277v713h-4q-12 -25 -40 -68l-476 -645h-359l594 767l-552 705h342l451 -623q22 -31 40 -62h4v685h277v-685h5q13 31 39 62l451 623h341l-551 -705z" />
    <glyph glyph-name="afii10025" unicode="&#x417;" horiz-adv-x="1163" vert-adv-y="1602" 
d="M82 316q175 -119 396 -119q297 0 297 224q0 226 -328 226h-178v218h169q292 0 292 214q0 195 -245 195q-170 0 -355 -108v243q182 87 405 87q216 0 353.5 -97.5t137.5 -270.5q0 -284 -288 -358v-4q154 -22 244 -115.5t90 -230.5q0 -215 -154.5 -330.5t-425.5 -115.5
q-266 0 -410 82v260z" />
    <glyph glyph-name="afii10026" unicode="&#x418;" horiz-adv-x="1636" vert-adv-y="1552" 
d="M1458 0h-271v883q0 140 10 228h-7q-21 -45 -66 -114l-651 -997h-298v1472h272v-879q0 -154 -8 -206h4q3 9 70 114l629 971h316v-1472z" />
    <glyph glyph-name="afii10027" unicode="&#x419;" horiz-adv-x="1636" vert-adv-y="1949" 
d="M1458 0h-271v883q0 140 10 228h-7q-21 -45 -66 -114l-651 -997h-298v1472h272v-879q0 -154 -8 -206h4q3 9 70 114l629 971h316v-1472zM1133 1869q-14 -141 -104.5 -219.5t-224.5 -78.5q-137 0 -228 81.5t-96 216.5h160q17 -144 167 -144q144 0 166 144h160z" />
    <glyph glyph-name="afii10028" unicode="&#x41a;" horiz-adv-x="1321" vert-adv-y="1552" 
d="M1340 0h-367l-469 649q-16 23 -39 72h-5v-721h-285v1472h285v-696h5q12 28 40 74l448 622h343l-548 -703z" />
    <glyph glyph-name="afii10029" unicode="&#x41b;" horiz-adv-x="1499" vert-adv-y="1574" 
d="M1322 0h-284v1230h-327q-122 -885 -222.5 -1068.5t-299.5 -183.5q-85 0 -167 28v233q58 -22 106 -22q42 0 81.5 35t87.5 196.5t77 337.5l104 686h844v-1472z" />
    <glyph glyph-name="afii10030" unicode="&#x41c;" horiz-adv-x="1975" vert-adv-y="1552" 
d="M1518 0v912q0 100 12 306h-6q-25 -126 -46 -180l-390 -1038h-217l-395 1029q-15 40 -46 189h-7q11 -163 11 -354v-864h-259v1472h410l344 -917q43 -114 57 -202h7q22 87 62 204l347 915h398v-1472h-282z" />
    <glyph glyph-name="afii10031" unicode="&#x41d;" horiz-adv-x="1576" vert-adv-y="1552" 
d="M1399 0h-285v620h-654v-620h-285v1472h285v-605h654v605h285v-1472z" />
    <glyph glyph-name="afii10032" unicode="&#x41e;" horiz-adv-x="1590" vert-adv-y="1602" 
d="M82 717q0 347 199.5 563t530.5 216q314 0 505.5 -209.5t191.5 -537.5q0 -346 -197.5 -560.5t-522.5 -214.5q-316 0 -511.5 209t-195.5 534zM382 733q0 -224 110.5 -367.5t300.5 -143.5q197 0 306.5 136.5t109.5 370.5q0 241 -106 380t-300 139q-196 0 -308.5 -145.5
t-112.5 -369.5z" />
    <glyph glyph-name="afii10033" unicode="&#x41f;" horiz-adv-x="1575" vert-adv-y="1552" 
d="M1401 0h-286v1220h-655v-1220h-285v1472h1226v-1472z" />
    <glyph glyph-name="afii10034" unicode="&#x420;" horiz-adv-x="1259" vert-adv-y="1552" 
d="M460 522v-522h-285v1472h486q538 0 538 -461q0 -223 -162.5 -359t-408.5 -130h-168zM460 1245v-500h145q295 0 295 255q0 245 -289 245h-151z" />
    <glyph glyph-name="afii10035" unicode="&#x421;" horiz-adv-x="1308" vert-adv-y="1602" 
d="M1214 55q-160 -81 -416 -81q-327 0 -521.5 199.5t-194.5 531.5q0 348 217 569.5t557 221.5q214 0 358 -57v-278q-150 87 -340 87q-223 0 -357.5 -145t-134.5 -378q0 -229 128 -366t341 -137q201 0 363 96v-263z" />
    <glyph glyph-name="afii10036" unicode="&#x422;" horiz-adv-x="1193" vert-adv-y="1552" 
d="M1161 1235h-421v-1235h-286v1235h-420v237h1127v-237z" />
    <glyph glyph-name="afii10037" unicode="&#x423;" horiz-adv-x="1263" vert-adv-y="1578" 
d="M1273 1472l-459 -1015q-137 -304 -256.5 -393.5t-262.5 -89.5q-112 0 -189 34v265q84 -54 172 -54q134 0 245 228l-488 1025h324l277 -647q11 -26 35 -113h2q9 45 37 111l262 649h301z" />
    <glyph glyph-name="afii10038" unicode="&#x424;" horiz-adv-x="1694" vert-adv-y="1590" 
d="M986 169v-175h-274v175h-33q-266 0 -432.5 166t-166.5 428q0 253 164.5 410.5t431.5 157.5h36v173h274v-173h34q272 0 436 -156.5t164 -411.5q0 -260 -167.5 -427t-434.5 -167h-32zM986 1113v-721h18q147 0 234.5 100.5t87.5 263.5q0 160 -86.5 258.5t-233.5 98.5h-20z
M712 392v721h-20q-143 0 -231.5 -97.5t-88.5 -259.5q0 -167 87 -265.5t234 -98.5h19z" />
    <glyph glyph-name="afii10039" unicode="&#x425;" horiz-adv-x="1338" vert-adv-y="1552" 
d="M1322 0h-339l-279 504q-14 26 -30 91h-4q-16 -51 -34 -94l-283 -501h-342l476 736l-435 736h347l237 -464q25 -49 46 -118h4q15 42 50 123l257 459h319l-447 -730z" />
    <glyph glyph-name="afii10040" unicode="&#x426;" horiz-adv-x="1678" vert-adv-y="1951" 
d="M1606 -399h-253v399h-1178v1472h285v-1226h653v1226h286v-1226h207v-645z" />
    <glyph glyph-name="afii10041" unicode="&#x427;" horiz-adv-x="1486" vert-adv-y="1552" 
d="M1301 0h-286v607q-220 -117 -423 -117q-442 0 -442 423v559h285v-537q0 -204 222 -204q171 0 358 104v637h286v-1472z" />
    <glyph glyph-name="afii10042" unicode="&#x428;" horiz-adv-x="2086" vert-adv-y="1552" 
d="M1910 0h-1735v1472h285v-1226h440v1226h284v-1226h441v1226h285v-1472z" />
    <glyph glyph-name="afii10043" unicode="&#x429;" horiz-adv-x="2188" vert-adv-y="1951" 
d="M2116 -399h-238v399h-1703v1472h285v-1226h440v1226h285v-1226h440v1226h285v-1226h206v-645z" />
    <glyph glyph-name="afii10044" unicode="&#x42a;" horiz-adv-x="1560" vert-adv-y="1552" 
d="M454 0v1233h-420v239h706v-572h236q511 0 511 -427q0 -223 -140.5 -348t-388.5 -125h-504zM740 676v-452h177q270 0 270 230q0 222 -266 222h-181z" />
    <glyph glyph-name="afii10045" unicode="&#x42b;" horiz-adv-x="1817" vert-adv-y="1552" 
d="M1641 0h-284v1472h284v-1472zM176 0v1472h285v-572h234q512 0 512 -427q0 -225 -140.5 -349t-387.5 -124h-503zM461 676v-452h176q270 0 270 230q0 222 -266 222h-180z" />
    <glyph glyph-name="afii10046" unicode="&#x42c;" horiz-adv-x="1281" vert-adv-y="1552" 
d="M176 0v1472h285v-572h234q512 0 512 -427q0 -222 -139.5 -347.5t-388.5 -125.5h-503zM461 676v-452h176q270 0 270 230q0 222 -266 222h-180z" />
    <glyph glyph-name="afii10047" unicode="&#x42d;" horiz-adv-x="1305" vert-adv-y="1602" 
d="M95 309q160 -97 371 -97q399 0 448 404h-592v230h593q-65 413 -450 413q-205 0 -370 -87v264q167 60 393 60q340 0 537.5 -206t197.5 -563q0 -338 -195.5 -545.5t-523.5 -207.5q-247 0 -409 81v254z" />
    <glyph glyph-name="afii10048" unicode="&#x42e;" horiz-adv-x="2208" vert-adv-y="1602" 
d="M461 633v-633h-285v1472h285v-598h308q42 294 227 458t459 164q301 0 485.5 -205.5t184.5 -541.5q0 -355 -190.5 -565t-503.5 -210q-273 0 -456.5 176t-212.5 483h-301zM1057 739q0 -249 99 -383t279 -134q184 0 286.5 132t102.5 375q0 246 -97 382.5t-276 136.5
q-183 0 -288.5 -134t-105.5 -375z" />
    <glyph glyph-name="afii10049" unicode="&#x42f;" horiz-adv-x="1315" vert-adv-y="1552" 
d="M1139 0h-286v588h-124q-124 0 -204 -186l-167 -402h-331l211 454q80 172 212 216v5q-321 74 -321 378q0 196 141.5 307.5t385.5 111.5h483v-1472zM853 808v439h-167q-255 0 -255 -214q0 -102 69.5 -163.5t183.5 -61.5h169z" />
    <glyph glyph-name="afii10065" unicode="&#x430;" horiz-adv-x="1112" vert-adv-y="1182" 
d="M171 984q71 41 184 66.5t203 25.5q426 0 426 -432v-644h-266v155h-5q-106 -181 -315 -181q-152 0 -241 85.5t-89 229.5q0 301 358 349l293 40q0 201 -196 201q-187 0 -352 -117v222zM510 480q-180 -23 -180 -161q0 -62 43 -101t116 -39q100 0 165 70.5t65 177.5v80z" />
    <glyph glyph-name="afii10066" unicode="&#x431;" horiz-adv-x="1262" vert-adv-y="1682" 
d="M1042 1349q-44 -36 -132 -49q-243 -38 -325 -63.5t-133.5 -102.5t-69.5 -257h5q117 147 324 147q215 0 342 -135t127 -369q0 -246 -148 -396t-396 -150q-262 0 -403 172.5t-141 502.5q0 266 61 438.5t154 253.5t201 111t391 72q96 24 143 52v-227zM378 668
q-17 -243 59.5 -359.5t204.5 -116.5q113 0 183.5 87t70.5 225q0 145 -72 229.5t-191 84.5q-168 0 -255 -150z" />
    <glyph glyph-name="afii10067" unicode="&#x432;" horiz-adv-x="1188" vert-adv-y="1131" 
d="M146 0v1051h549q364 0 364 -257q0 -193 -209 -240q116 -15 180.5 -79t64.5 -163q0 -139 -100.5 -225.5t-268.5 -86.5h-580zM425 868v-242h186q164 0 164 128q0 114 -152 114h-198zM425 448v-263h217q170 0 170 137q0 126 -180 126h-207z" />
    <glyph glyph-name="afii10068" unicode="&#x433;" horiz-adv-x="846" vert-adv-y="1131" 
d="M802 835h-377v-835h-279v1051h656v-216z" />
    <glyph glyph-name="afii10069" unicode="&#x434;" horiz-adv-x="1257" vert-adv-y="1514" 
d="M1203 -383h-230v383h-729v-383h-227v586h94q237 362 246 848h682v-848h164v-586zM760 203v645h-181q-29 -369 -192 -645h373z" />
    <glyph glyph-name="afii10070" unicode="&#x435;" horiz-adv-x="1126" vert-adv-y="1182" 
d="M1061 447h-702q17 -268 304 -268q175 0 312 92v-212q-146 -85 -375 -85q-245 0 -381.5 142t-136.5 397q0 250 146.5 406.5t366.5 156.5t343 -135t123 -371v-123zM798 630q0 250 -206 250q-86 0 -151.5 -68t-81.5 -182h439z" />
    <glyph glyph-name="afii10072" unicode="&#x436;" horiz-adv-x="1720" vert-adv-y="1131" 
d="M1714 0h-337l-378 523h-3v-523h-273v523h-4l-376 -523h-336l434 548l-418 503h332l364 -496h4v496h273v-496h3l364 496h332l-418 -503z" />
    <glyph glyph-name="afii10073" unicode="&#x437;" horiz-adv-x="989" vert-adv-y="1178" 
d="M82 242q150 -71 308 -71q236 0 236 136q0 140 -257 140h-134v183h134q223 0 223 133q0 120 -198 120q-137 0 -283 -67v204q183 56 329 56q437 0 437 -283q0 -197 -236 -244v-6q124 -9 197 -77.5t73 -171.5q0 -316 -491 -316q-203 0 -338 51v213z" />
    <glyph glyph-name="afii10074" unicode="&#x438;" horiz-adv-x="1291" vert-adv-y="1131" 
d="M1142 0h-253v732q-33 -68 -81 -143l-394 -589h-268v1051h255v-714q27 58 65 121l399 593h277v-1051z" />
    <glyph glyph-name="afii10075" unicode="&#x439;" horiz-adv-x="1291" vert-adv-y="1595" 
d="M1142 0h-253v732q-33 -68 -81 -143l-394 -589h-268v1051h255v-714q27 58 65 121l399 593h277v-1051zM965 1515q-14 -141 -104.5 -219.5t-224.5 -78.5q-137 0 -228 81.5t-96 216.5h160q17 -144 167 -144q144 0 166 144h160z" />
    <glyph glyph-name="afii10076" unicode="&#x43a;" horiz-adv-x="1137" vert-adv-y="1131" 
d="M1146 0h-345l-373 517h-3v-517h-279v1051h279v-485h3l351 485h337l-409 -498z" />
    <glyph glyph-name="afii10077" unicode="&#x43b;" horiz-adv-x="1221" vert-adv-y="1144" 
d="M1074 0h-280v847h-197q-58 -522 -172 -691t-293 -169q-66 0 -116 19v198q37 -17 77 -17q90 0 158 166.5t121 697.5h702v-1051z" />
    <glyph glyph-name="afii10078" unicode="&#x43c;" horiz-adv-x="1587" vert-adv-y="1131" 
d="M1440 0h-263v832q-15 -65 -59 -194l-221 -638h-246l-223 638q-39 112 -60 192v-830h-222v1051h364l222 -625q41 -115 58 -192q2 16 60 190l218 627h372v-1051z" />
    <glyph glyph-name="afii10079" unicode="&#x43d;" horiz-adv-x="1265" vert-adv-y="1131" 
d="M1117 0h-279v450h-413v-450h-279v1051h279v-401h413v401h279v-1051z" />
    <glyph glyph-name="afii10080" unicode="&#x43e;" horiz-adv-x="1269" vert-adv-y="1182" 
d="M82 519q0 258 152 407.5t412 149.5q251 0 396.5 -146.5t145.5 -392.5q0 -256 -150.5 -409.5t-407.5 -153.5q-252 0 -400 147.5t-148 397.5zM364 523q0 -331 275 -331q265 0 265 339q0 328 -266 328q-130 0 -202 -89.5t-72 -246.5z" />
    <glyph glyph-name="afii10081" unicode="&#x43f;" horiz-adv-x="1265" vert-adv-y="1131" 
d="M1117 0h-279v846h-413v-846h-279v1051h971v-1051z" />
    <glyph glyph-name="afii10082" unicode="&#x440;" horiz-adv-x="1283" vert-adv-y="1640" 
d="M425 131v-615h-279v1535h279v-166h3q122 191 346 191q199 0 313.5 -139t114.5 -382q0 -262 -130.5 -421.5t-345.5 -159.5q-194 0 -298 157h-3zM421 457q0 -114 66 -189.5t169 -75.5q122 0 191 95t69 267q0 305 -241 305q-114 0 -184 -85t-70 -214v-103z" />
    <glyph glyph-name="afii10083" unicode="&#x441;" horiz-adv-x="998" vert-adv-y="1182" 
d="M920 41q-113 -67 -309 -67q-236 0 -382.5 145.5t-146.5 380.5q0 268 157 422t419 154q171 0 262 -50v-245q-106 78 -234 78q-146 0 -234 -91.5t-88 -247.5q0 -154 83 -241t228 -87q127 0 245 80v-231z" />
    <glyph glyph-name="afii10084" unicode="&#x442;" horiz-adv-x="928" vert-adv-y="1131" 
d="M896 835h-292v-835h-279v835h-294v216h865v-216z" />
    <glyph glyph-name="afii10085" unicode="&#x443;" horiz-adv-x="1097" vert-adv-y="1625" 
d="M1099 1051l-443 -1160q-147 -385 -436 -385q-100 0 -169 23v227q60 -32 130 -32q125 0 179 128l64 150l-422 1049h309l221 -689q10 -33 27 -123h4q8 52 30 121l228 691h278z" />
    <glyph glyph-name="afii10086" unicode="&#x444;" horiz-adv-x="1587" vert-adv-y="2071" 
d="M922 -16v-473h-258v473h-46q-246 0 -393 146.5t-147 388.5q0 250 146.5 399t398.5 149h41v435h258v-435h40q250 0 399 -147.5t149 -400.5q0 -241 -147 -388t-394 -147h-47zM922 864v-677h17q131 0 209 90t78 244q0 162 -77.5 252.5t-206.5 90.5h-20zM664 187v677h-19
q-128 0 -205.5 -91t-77.5 -252q0 -154 78 -244t209 -90h15z" />
    <glyph glyph-name="afii10087" unicode="&#x445;" horiz-adv-x="1103" vert-adv-y="1131" 
d="M1089 1051l-349 -516l346 -535h-323l-167 300q-30 53 -45 91h-4q-8 -23 -43 -89l-171 -302h-320l356 521l-337 530h324l165 -314q31 -59 43 -94h4q21 53 44 93l172 315h305z" />
    <glyph glyph-name="afii10088" unicode="&#x446;" horiz-adv-x="1338" vert-adv-y="1514" 
d="M1282 -383h-229v383h-907v1051h279v-848h413v848h279v-848h165v-586z" />
    <glyph glyph-name="afii10089" unicode="&#x447;" horiz-adv-x="1240" vert-adv-y="1131" 
d="M1093 0h-279v380q-169 -94 -325 -94q-355 0 -355 365v400h269v-362q0 -182 160 -182q117 0 251 71v473h279v-1051z" />
    <glyph glyph-name="afii10090" unicode="&#x448;" horiz-adv-x="1774" vert-adv-y="1131" 
d="M1626 0h-1480v1051h279v-847h321v847h279v-847h321v847h280v-1051z" />
    <glyph glyph-name="afii10091" unicode="&#x449;" horiz-adv-x="1848" vert-adv-y="1514" 
d="M1792 -383h-230v383h-1416v1051h279v-848h321v848h279v-848h322v848h279v-848h166v-586z" />
    <glyph glyph-name="afii10092" unicode="&#x44a;" horiz-adv-x="1327" vert-adv-y="1131" 
d="M331 0v835h-302v216h583v-378h277q174 0 272.5 -86.5t98.5 -240.5q0 -156 -98.5 -251t-263.5 -95h-567zM612 485v-297h184q178 0 178 153q0 144 -175 144h-187z" />
    <glyph glyph-name="afii10093" unicode="&#x44b;" horiz-adv-x="1647" vert-adv-y="1131" 
d="M1501 0h-279v1051h279v-1051zM146 0v1051h279v-378h278q173 0 272 -87t99 -240q0 -157 -98 -251.5t-264 -94.5h-566zM425 485v-297h184q178 0 178 153q0 144 -176 144h-186z" />
    <glyph glyph-name="afii10094" unicode="&#x44c;" horiz-adv-x="1141" vert-adv-y="1131" 
d="M146 0v1051h279v-378h278q173 0 272 -87t99 -240q0 -157 -98 -251.5t-264 -94.5h-566zM425 485v-297h184q178 0 178 153q0 144 -176 144h-186z" />
    <glyph glyph-name="afii10095" unicode="&#x44d;" horiz-adv-x="996" vert-adv-y="1182" 
d="M82 255q115 -79 259 -79q264 0 295 258h-407v178h408q-30 261 -304 261q-136 0 -241 -73v219q120 57 277 57q265 0 407 -143.5t142 -414.5q0 -243 -146.5 -393.5t-390.5 -150.5q-166 0 -299 71v210z" />
    <glyph glyph-name="afii10096" unicode="&#x44e;" horiz-adv-x="1815" vert-adv-y="1182" 
d="M425 443v-443h-279v1051h279v-403h246q35 204 178 316t355 112q246 0 386 -144t140 -395q0 -261 -144.5 -412t-398.5 -151q-228 0 -364 121t-159 348h-239zM944 527q0 -335 254 -335q248 0 248 339q0 328 -252 328q-250 0 -250 -332z" />
    <glyph glyph-name="afii10097" unicode="&#x44f;" horiz-adv-x="1154" vert-adv-y="1131" 
d="M1010 0h-278v406h-93q-89 0 -163 -155l-120 -251h-312l160 306q67 129 182 166q-260 41 -260 273q0 306 432 306h452v-1051zM732 583v280h-144q-181 0 -181 -138q0 -142 179 -142h146z" />
    <glyph glyph-name="afii10071" unicode="&#x451;" horiz-adv-x="1126" vert-adv-y="1591" 
d="M1061 447h-702q17 -268 304 -268q175 0 312 92v-212q-146 -85 -375 -85q-245 0 -381.5 142t-136.5 397q0 250 146.5 406.5t366.5 156.5t343 -135t123 -371v-123zM798 630q0 250 -206 250q-86 0 -151.5 -68t-81.5 -182h439zM675 1356q0 56 39.5 92.5t100.5 36.5
q60 0 100.5 -36.5t40.5 -92.5t-40 -93t-100 -37t-100.5 37t-40.5 93zM226 1356q0 56 40.5 92.5t99.5 36.5q63 0 102.5 -36t39.5 -93t-39 -93.5t-102 -36.5q-60 0 -100.5 37t-40.5 93z" />
    <glyph glyph-name="uni1100" unicode="&#x1100;" vert-adv-y="2176" 
d="M1620 823h-264v492h-981v211h1245v-703z" />
    <glyph glyph-name="uni1101" unicode="&#x1101;" vert-adv-y="2176" 
d="M1718 858h-264v453h-399v215h663v-668zM963 856h-265v455h-426v215h691v-670z" />
    <glyph glyph-name="uni1102" unicode="&#x1102;" vert-adv-y="2176" 
d="M1651 872h-1215v660h262v-453h953v-207z" />
    <glyph glyph-name="uni1103" unicode="&#x1103;" vert-adv-y="2176" 
d="M1653 870h-1213v656h1180v-209h-918v-240h951v-207z" />
    <glyph glyph-name="uni1104" unicode="&#x1104;" vert-adv-y="2176" 
d="M1790 887h-700v641h673v-215h-407v-209l434 -2v-215zM1020 942q-107 -22 -324 -38.5t-389 -16.5v641h654v-215h-388v-207q105 0 210.5 12t197.5 37z" />
    <glyph glyph-name="uni1105" unicode="&#x1105;" vert-adv-y="2176" 
d="M1659 731h-1235v490h938v114h-938v193h1198v-477h-938v-127h975v-193z" />
    <glyph glyph-name="uni1106" unicode="&#x1106;" vert-adv-y="2176" 
d="M1626 854h-1196v672h1196v-672zM1366 1061v258h-676v-258h676z" />
    <glyph glyph-name="uni1107" unicode="&#x1107;" vert-adv-y="2176" 
d="M1610 834h-1186v696h260v-166h668v166h258v-696zM1352 1026v145h-668v-145h668z" />
    <glyph glyph-name="uni1108" unicode="&#x1108;" vert-adv-y="2176" 
d="M1784 827h-703v715h260v-170h183v170h260v-715zM971 827h-703v715h258v-170h185v170h260v-715zM1524 1030v139h-183v-139h183zM711 1030v139h-185v-139h185z" />
    <glyph glyph-name="uni1109" unicode="&#x1109;" vert-adv-y="2176" 
d="M1835 1077l-117 -194q-160 23 -310 84q-126 51 -237 126q-91 62 -145 121q-47 -61 -146 -128q-107 -73 -239 -125q-151 -60 -301 -78l-133 194q218 0 388 78q140 64 224 166q72 87 72 152v71h266v-71q0 -64 70 -150q83 -102 220 -166q172 -80 388 -80z" />
    <glyph glyph-name="uni110A" unicode="&#x110a;" vert-adv-y="2176" 
d="M1860 1053l-148 -172q-102 50 -180 116t-127 142q-34 -66 -120.5 -150t-172.5 -133l-162 160q130 46 225 152q109 121 109 259v123h236v-123q0 -127 98 -231q94 -100 242 -143zM1010 1133l-156 -156q-57 29 -114 80q-62 55 -89 104q-32 -70 -130.5 -153.5t-198.5 -126.5
l-158 163q147 38 255.5 154.5t108.5 243.5v110h236v-106q0 -96 69 -186.5t177 -126.5z" />
    <glyph glyph-name="uni110B" unicode="&#x110b;" vert-adv-y="2176" 
d="M1675 1182q0 -176 -171.5 -272.5t-479.5 -96.5q-307 0 -479 96.5t-172 272.5q0 175 171.5 270.5t479.5 95.5q307 0 479 -95.5t172 -270.5zM1419 1182q0 79 -92 124q-102 50 -303 50q-195 0 -299 -50q-96 -46 -96 -124q0 -79 99.5 -126.5t295.5 -47.5q201 0 302 49
q93 45 93 125z" />
    <glyph glyph-name="uni110C" unicode="&#x110c;" vert-adv-y="2176" 
d="M1843 1030l-121 -188q-238 39 -435 132q-170 81 -263 179q-84 -96 -285.5 -188t-402.5 -121l-141 186q239 0 443 99q179 87 234 194h-538v211h1380v-211h-536q58 -103 237 -192q204 -101 428 -101z" />
    <glyph glyph-name="uni110D" unicode="&#x110d;" vert-adv-y="2176" 
d="M1839 997l-143 -176q-98 37 -197.5 102.5t-155.5 133.5q-33 -61 -125.5 -142t-179.5 -127l-172 150q155 63 248 159q103 107 103 228h-386q7 -74 34 -119q42 -71 143 -112l-189 -127q-38 28 -55 41q-40 30 -66 61q-61 -78 -152 -140.5t-202 -105.5l-160 158
q153 39 266 130q121 98 138 214h-301v211h1474v-211h-303q0 -117 117 -211q108 -87 264 -117z" />
    <glyph glyph-name="uni110E" unicode="&#x110e;" vert-adv-y="2176" 
d="M1860 993l-123 -196q-183 0 -408 91q-212 86 -303 183q-93 -100 -295 -184q-225 -94 -428 -94l-131 198q218 0 411 63q202 66 279 171h-536v205h573v172h252v-172h571v-205h-534q76 -101 266.5 -166.5t405.5 -65.5z" />
    <glyph glyph-name="uni110F" unicode="&#x110f;" vert-adv-y="2176" 
d="M1620 758h-262v194h-942v209h942v148h-942v211h1204v-762z" />
    <glyph glyph-name="uni1110" unicode="&#x1110;" vert-adv-y="2176" 
d="M1673 756h-1274v776h1254v-201h-1000v-94h963v-188h-963v-93h1020v-200z" />
    <glyph glyph-name="uni1111" unicode="&#x1111;" vert-adv-y="2176" 
d="M1702 799h-1368v227h270v272h-239v228h1306v-228h-239v-272h270v-227zM1169 1026v272h-303v-272h303z" />
    <glyph glyph-name="uni1112" unicode="&#x1112;" vert-adv-y="2176" 
d="M1759 1270h-1470v192h610v148h248v-148h612v-192zM1665 938q0 -138 -162 -206t-479 -68q-316 0 -479.5 68t-163.5 206q0 139 165.5 207.5t477.5 68.5q319 0 480 -68t161 -208zM1409 938q0 52 -90.5 76t-294.5 24q-207 0 -297 -23.5t-90 -76.5q0 -52 90.5 -75t296.5 -23
t295.5 22.5t89.5 75.5z" />
    <glyph glyph-name="uni1113" unicode="&#x1113;" vert-adv-y="2176" 
d="M1657 803h-260v493h-445v228h705v-721zM1106 973q-114 -66 -330.5 -111t-388.5 -45v705h260v-451q91 8 185 34q106 29 194 73z" />
    <glyph glyph-name="uni1114" unicode="&#x1114;" vert-adv-y="2176" 
d="M1835 817h-754v721h269v-494h485v-227zM1001 866q-146 -22 -317 -35.5t-367 -13.5v721h269v-496q132 0 200.5 8.5t174.5 36.5z" />
    <glyph glyph-name="uni1115" unicode="&#x1115;" vert-adv-y="2176" 
d="M1790 838h-711v690h684v-228h-417v-237l442 2zM1001 866q-146 -22 -317 -35.5t-367 -13.5v721h269v-496q132 0 200.5 8.5t174.5 36.5z" />
    <glyph glyph-name="uni1116" unicode="&#x1116;" vert-adv-y="2176" 
d="M1759 819h-725v715h260v-182h205v182h260v-715zM981 866q-146 -22 -317 -35.5t-367 -13.5v721h268v-496q133 0 201 8.5t174 36.5zM1499 1020v131h-205v-131h205z" />
    <glyph glyph-name="uni1117" unicode="&#x1117;" vert-adv-y="2176" 
d="M1739 803h-262v493h-390v228h652v-721zM1008 1077l-4 -227l-721 -2v680h698v-230h-434v-221h461z" />
    <glyph glyph-name="uni1118" unicode="&#x1118;" vert-adv-y="2176" 
d="M1831 709h-653v821l266 -2v-608h387v-211zM1077 733q-148 -13 -381.5 -22t-384.5 -9v508h453v109h-453v209h719v-502h-452v-117q62 0 121.5 3t166.5 11.5t193 16.5z" />
    <glyph glyph-name="uni1119" unicode="&#x1119;" vert-adv-y="2176" 
d="M1841 733h-725v494h422v96h-422v209h688v-479h-422v-113h459v-207zM1036 756q-86 0 -236 -8q-39 -2 -259 -14q-166 -9 -230 -9v489h412v105h-412v209h678v-488h-411v-108q88 0 190.5 7.5t249.5 23.5z" />
    <glyph glyph-name="uni111A" unicode="&#x111a;" vert-adv-y="2176" 
d="M1870 1262h-854v194h295v156h268v-156h291v-194zM1808 934q0 -115 -90 -196q-101 -91 -278 -91t-279 91q-90 80 -90 196q0 115 89 195q102 92 280 92q176 0 278 -92q90 -81 90 -195zM991 727q-89 0 -234.5 -7.5t-300 -15.5t-218.5 -8v506h440v98h-440v211h704v-495h-440
v-113q88 0 213 8t258 21zM1554 934q0 33 -21 58q-30 36 -93 36q-64 0 -94 -36q-21 -26 -21 -58q0 -36 20 -60q30 -36 95 -36q64 0 93 35q21 25 21 61z" />
    <glyph glyph-name="uni111B" unicode="&#x111b;" vert-adv-y="2176" 
d="M1661 799h-1237v463h938v96h-938v192h1198v-458h-936v-101h975v-192zM1432 367q0 -138 -104 -227q-113 -97 -310 -97q-198 0 -309 96q-103 89 -103 228q0 135 100 224q113 101 316 101q194 0 307 -100q103 -91 103 -225zM1182 369q0 38 -28 67q-43 45 -136 45
q-94 0 -135 -44q-27 -29 -27 -68q0 -60 46 -91q42 -28 116 -28q73 0 114 27q50 33 50 92z" />
    <glyph glyph-name="uni111C" unicode="&#x111c;" vert-adv-y="2176" 
d="M1821 809h-723v717h260v-152h203v152h260v-717zM1001 809h-714v719h714v-719zM1561 1012v162h-203v-162h203zM743 1022v295h-196v-295h196z" />
    <glyph glyph-name="uni111D" unicode="&#x111d;" vert-adv-y="2176" 
d="M1626 829h-1196v697h1196v-697zM1427 393q0 -137 -104 -226q-113 -97 -307 -97q-195 0 -307 97q-103 89 -103 226q0 135 100 225q113 101 314 101q193 0 305 -101q102 -92 102 -225zM1366 1057v239h-676v-239h676zM1180 393q0 55 -48 87q-43 28 -116 28q-94 0 -135 -45
q-27 -30 -27 -70q0 -43 27 -72q41 -45 135 -45q93 0 135 45q29 31 29 72z" />
    <glyph glyph-name="uni111E" unicode="&#x111e;" vert-adv-y="2176" 
d="M1747 803h-264v495h-369v230h633v-725zM1008 813h-740v719h258v-172h224v172h258v-719zM750 1016v141h-224v-141h224z" />
    <glyph glyph-name="uni111F" unicode="&#x111f;" vert-adv-y="2176" 
d="M1835 829h-713v709h267v-477h446v-232zM995 827h-747v715h260v-149h225v149h262v-715zM733 1030v160h-225v-160h225z" />
    <glyph glyph-name="uni1120" unicode="&#x1120;" vert-adv-y="2176" 
d="M1769 831l-628 -2v703h604v-229h-340v-244h364v-228zM1032 834h-723v708h260v-164h203v164h260v-708zM772 1036v140h-203v-140h203z" />
    <glyph glyph-name="uni1121" unicode="&#x1121;" vert-adv-y="2176" 
d="M1827 983l-141 -211q-93 54 -180 125t-132 133q-42 -71 -111.5 -139.5t-154.5 -124.5l-137 147v-114h-723v729h260v-176h203v176h260v-551q121 54 195 163q67 99 67 197v191h260v-191q0 -100 93 -204q99 -110 241 -150zM711 1001v148h-203v-148h203z" />
    <glyph glyph-name="uni1122" unicode="&#x1122;" vert-adv-y="2176" 
d="M1845 846h-237v481h-230v203h467v-684zM1507 973l-145 -166q-60 39 -118 96q-62 61 -97 119q-62 -125 -201 -225l-96 96v-70h-608v705h231v-154h143v154h234v-524q80 55 130 142t50 179v211h238v-211q0 -129 66 -216q55 -72 173 -136zM616 1026v145h-143v-145h143z" />
    <glyph glyph-name="uni1123" unicode="&#x1123;" vert-adv-y="2176" 
d="M1866 1059l-2 -211h-441v67l-96 -108q-60 38 -117.5 96.5t-93.5 118.5q-63 -127 -201 -225l-106 106v-80h-567v705h211v-154h143v154h213v-531q85 52 137.5 141.5t52.5 186.5v211h238v-211q0 -113 51 -194q45 -71 135 -127v524h426v-209h-211v-262zM596 1026v145h-143
v-145h143z" />
    <glyph glyph-name="uni1124" unicode="&#x1124;" vert-adv-y="2176" 
d="M1903 823h-568v86l-92 -102q-60 38 -117.5 96.5t-93.5 118.5q-63 -127 -201 -225l-106 106v-80h-567v705h211v-154h143v154h213v-531q85 52 137.5 141.5t52.5 186.5v211h238v-211q0 -112 50 -191q42 -67 132 -126v520h209v-154h146v154h213v-705zM1690 1026v145h-146
v-145h146zM512 1026v145h-143v-145h143z" />
    <glyph glyph-name="uni1125" unicode="&#x1125;" vert-adv-y="2176" 
d="M1925 952l-162 -151q-45 41 -84 86q-42 50 -90 129q-28 -53 -70 -105q-49 -61 -116 -116l-148 155q102 61 161 168.5t59 224.5v193h223v-193q0 -118 52 -213q57 -105 175 -178zM1362 1110l-145 -143q-53 39 -84 86q-27 -58 -78 -124q-58 -75 -125 -134l-150 155
q102 60 160.5 169.5t58.5 230.5v186h224v-193q0 -92 45 -154q33 -46 94 -79zM776 823h-547v705h211v-154h123v154h213v-705zM563 1026v145h-123v-145h123z" />
    <glyph glyph-name="uni1126" unicode="&#x1126;" vert-adv-y="2176" 
d="M1925 952l-162 -151q-45 41 -84 86q-42 50 -90 129q-28 -53 -70 -105q-49 -61 -116 -116l-148 155q104 63 162 163.5t58 215.5v31h-158v168h555v-168h-174v-31q0 -116 52 -206q56 -97 175 -171zM1362 1110l-145 -143q-53 39 -84 86q-27 -58 -78 -124q-58 -75 -125 -134
l-150 155q102 60 160.5 169.5t58.5 230.5v186h215v-193q0 -91 50 -154q34 -43 98 -79zM776 823h-547v705h211v-154h123v154h213v-705zM563 1026v145h-123v-145h123z" />
    <glyph glyph-name="uni1127" unicode="&#x1127;" vert-adv-y="2176" 
d="M1888 969l-141 -197q-89 51 -179 130q-84 73 -132 138q-46 -75 -115.5 -147.5t-149.5 -126.5l-180 180q133 47 222 169q81 111 81 218h-229v191h725v-191h-236q9 -104 100 -210q99 -115 234 -154zM971 799h-723v729h260v-176h203v176h260v-729zM711 1001v148h-203v-148
h203z" />
    <glyph glyph-name="uni1128" unicode="&#x1128;" vert-adv-y="2176" 
d="M1884 903l-137 -192q-96 55 -180 126q-88 75 -131 142q-44 -71 -116 -146t-149 -128l-170 180q139 48 221.5 146t82.5 208h-263v191h265v159h241v-159h264v-191h-264q0 -108 96 -201.5t240 -134.5zM971 717h-723v811h260v-217h203v217h260v-811zM711 920v188h-203v-188
h203z" />
    <glyph glyph-name="uni1129" unicode="&#x1129;" vert-adv-y="2176" 
d="M1769 791l-628 -3v744h604v-189h-348v-77h303v-189h-303v-100h372v-186zM1032 793h-723v749h260v-184h203v184h260v-749zM772 995v160h-203v-160h203z" />
    <glyph glyph-name="uni112A" unicode="&#x112a;" vert-adv-y="2176" 
d="M1751 823h-729v209h106v295h-102v209h721v-209h-109v-295h113v-209zM971 827h-682v715h237v-170h205v170h240v-715zM1427 1032v295h-84v-295h84zM731 1030v139h-205v-139h205z" />
    <glyph glyph-name="uni112B" unicode="&#x112b;" vert-adv-y="2176" 
d="M1610 874h-1186v656h260v-146h668v146h258v-656zM1427 434q0 -137 -104 -226q-113 -97 -307 -97q-195 0 -307 97q-103 89 -103 226q0 135 100 225q113 101 312 101q193 0 306 -101q103 -92 103 -225zM1352 1067v125h-668v-125h668zM1180 434q0 54 -50 87q-43 28 -114 28
q-94 0 -135 -45q-27 -30 -27 -70q0 -59 46 -90q41 -27 116 -27q93 0 135 45q29 31 29 72z" />
    <glyph glyph-name="uni112C" unicode="&#x112c;" vert-adv-y="2176" 
d="M1784 827h-703v715h260v-170h183v170h260v-715zM971 827h-703v715h258v-170h185v170h260v-715zM1427 393q0 -137 -104 -226q-113 -97 -307 -97q-195 0 -307 97q-103 89 -103 226q0 135 100 225q113 101 312 101q193 0 306 -101q103 -92 103 -225zM1524 1030v139h-183
v-139h183zM711 1030v139h-185v-139h185zM1180 393q0 54 -50 87q-43 28 -114 28q-94 0 -135 -45q-27 -30 -27 -70q0 -59 46 -90q41 -27 116 -27q93 0 135 45q29 31 29 72z" />
    <glyph glyph-name="uni112D" unicode="&#x112d;" vert-adv-y="2176" 
d="M1720 813h-264v506h-407v209h671v-715zM1157 967l-143 -195q-100 54 -181 122q-76 64 -128 134q-42 -69 -116 -136q-69 -62 -169 -124l-172 170q149 72 238 184q85 107 85 211v193h258v-191q0 -102 96 -211t232 -157z" />
    <glyph glyph-name="uni112E" unicode="&#x112e;" vert-adv-y="2176" 
d="M1815 791h-621v735h270v-504h351v-231zM1157 967l-143 -195q-100 54 -181 122q-76 64 -128 134q-42 -69 -116 -136q-69 -62 -169 -124l-172 170q149 72 238 184q85 107 85 211v193h258v-191q0 -102 96 -211t232 -157z" />
    <glyph glyph-name="uni112F" unicode="&#x112f;" vert-adv-y="2176" 
d="M1827 1038l-2 -229h-656v717h631v-232h-364v-256h391zM1157 967l-143 -195q-100 54 -181 122q-76 64 -128 134q-42 -69 -116 -136q-69 -62 -169 -124l-172 170q149 72 238 184q85 107 85 211v193h258v-191q0 -102 96 -211t232 -157z" />
    <glyph glyph-name="uni1130" unicode="&#x1130;" vert-adv-y="2176" 
d="M1872 793h-698v456h395v90h-395v189h661v-443h-395v-86h432v-206zM1157 946l-143 -194q-94 49 -182 128q-73 65 -127 138q-89 -147 -285 -270l-172 170q148 71 238 189q85 111 85 216v223h258v-221q0 -103 96.5 -217t231.5 -162z" />
    <glyph glyph-name="uni1131" unicode="&#x1131;" vert-adv-y="2176" 
d="M1782 821h-660v107l-112 -152q-101 53 -180 120q-73 61 -125 132q-42 -69 -116 -136q-69 -62 -169 -124l-172 170q149 72 238 184q85 107 85 211v193h258v-191q0 -95 83.5 -198t209.5 -154v545h660v-707zM1542 1024v301h-180v-301h180z" />
    <glyph glyph-name="uni1132" unicode="&#x1132;" vert-adv-y="2176" 
d="M1806 821h-686v94l-106 -143q-100 54 -181 122q-76 64 -128 134q-42 -69 -116 -136q-69 -62 -169 -124l-172 170q149 72 238 184q85 107 85 211v203h258v-201q0 -95 83.5 -198.5t207.5 -155.5v561h240v-172h207v172h239v-721zM1567 1026v139h-207v-139h207z" />
    <glyph glyph-name="uni1133" unicode="&#x1133;" vert-adv-y="2176" 
d="M1845 846h-237v481h-230v203h467v-684zM1321 823h-588v97l-96 -113q-63 38 -121 95q-63 61 -94 120q-66 -125 -201 -225l-168 168q108 47 178 144q74 102 74 216v211h236v-211q0 -115 53 -196q45 -69 139 -128v527h232v-154h122v154h234v-705zM1087 1026v145h-122v-145
h122z" />
    <glyph glyph-name="uni1134" unicode="&#x1134;" vert-adv-y="2176" 
d="M1835 952l-164 -151q-48 44 -82 86q-29 35 -92 129q-26 -53 -69 -105q-47 -58 -115 -116l-150 155q104 60 164 170q57 105 57 223v193h224v-193q0 -118 52 -213q57 -105 175 -178zM1270 1110l-144 -145q-26 20 -47.5 43.5t-36.5 44.5q-26 -56 -78 -124q-58 -75 -126 -136
l-150 155q103 65 161 173t58 229v184h226v-191q0 -91 44 -154q34 -48 93 -79zM795 1110l-146 -145q-26 20 -47.5 43.5t-36.5 44.5q-21 -54 -77.5 -127.5t-125.5 -132.5l-149 155q103 65 161 173t58 229v184h221v-191q0 -90 48 -155q35 -48 94 -78z" />
    <glyph glyph-name="uni1135" unicode="&#x1135;" vert-adv-y="2176" 
d="M1849 1165q0 -149 -103 -261q-118 -128 -316 -128q-200 0 -317 127q-103 111 -103 262q0 146 102 257q119 130 322 130q196 0 314 -131q101 -112 101 -256zM1051 971l-144 -193q-95 50 -170 119q-56 51 -116 131q-42 -69 -116 -136q-69 -62 -169 -124l-172 170
q149 72 238 184q85 107 85 211v193h258l-2 -191q0 -105 83 -208q88 -109 225 -156zM1593 1165q0 55 -35 99q-45 57 -128 57q-81 0 -126 -56q-36 -45 -36 -100q0 -58 35 -103q45 -58 127 -58q81 0 126 57q37 46 37 104z" />
    <glyph glyph-name="uni1136" unicode="&#x1136;" vert-adv-y="2176" 
d="M1835 975l-141 -197q-89 51 -180 130q-83 73 -132 139q-47 -78 -114.5 -149t-151.5 -126l-106 109l-72 -97q-96 50 -171 119q-58 53 -116 131q-44 -72 -115 -136q-67 -61 -169 -124l-172 170q146 71 235 184q86 109 86 211v193h258l-2 -191q0 -93 69 -189
q73 -103 187 -155q89 54 148 151q53 86 61 171h-225v211h727l-2 -211h-236q24 -105 109 -200q96 -107 225 -144z" />
    <glyph glyph-name="uni1137" unicode="&#x1137;" vert-adv-y="2176" 
d="M1843 897l-137 -192q-100 56 -182 125q-90 76 -129 143q-48 -74 -116 -145q-76 -80 -151 -130l-159 164q124 56 208 157q89 107 89 214h-265v190h265v160h239v-160h264v-190h-262q0 -109 97 -203q93 -90 239 -133zM1032 965l-153 -193q-93 47 -166 119q-32 32 -113 131
q-42 -71 -114 -136q-67 -61 -171 -124l-172 170q147 71 239 186q87 109 87 209v193h256v-191q0 -103 83 -207q88 -110 224 -157z" />
    <glyph glyph-name="uni1138" unicode="&#x1138;" vert-adv-y="2176" 
d="M1739 799h-242v245h-405v189h405v102h-410v189h652v-725zM1135 971l-144 -193q-96 52 -170 120q-58 53 -116 132q-42 -69 -117 -136q-69 -61 -170 -124l-172 168q150 71 240 186q85 108 85 211v191h256v-191q0 -105 83 -208q88 -109 225 -156z" />
    <glyph glyph-name="uni1139" unicode="&#x1139;" vert-adv-y="2176" 
d="M1769 791l-628 -3v744h604v-189h-348v-77h303v-189h-303v-100h372v-186zM1124 971l-143 -193q-95 53 -169 121q-62 57 -118 131q-42 -70 -115 -136q-69 -61 -171 -124l-172 168q147 71 238 186q87 110 87 211v191h256l2 -191q0 -105 82 -208q87 -109 223 -156z" />
    <glyph glyph-name="uni113A" unicode="&#x113a;" vert-adv-y="2176" 
d="M1792 823h-729v54l-72 -99q-96 52 -170 120q-58 53 -116 132q-42 -69 -117 -136q-69 -61 -170 -124l-172 168q150 71 240 186q85 108 85 211v191h256v-191q0 -89 65 -182.5t171 -151.5v31h106v295h-102v209h721v-209h-109v-295h113v-209zM1468 1032v295h-84v-295h84z" />
    <glyph glyph-name="uni113B" unicode="&#x113b;" vert-adv-y="2176" 
d="M1849 1255h-813v195h277v162h258v-162h278v-195zM1804 924q0 -116 -95 -202q-105 -95 -273 -95q-128 0 -220 55q-83 49 -122 133l-119 -153q-92 55 -171 134q-72 72 -110 140q-43 -77 -114 -151q-80 -84 -172 -138l-168 170q145 70 237 197q84 117 84 223v289h256v-289
q0 -95 68 -196q74 -110 188 -164q-6 24 -6 47q0 118 91 203q103 96 278 96q167 0 273 -96q95 -86 95 -203zM1554 924q0 31 -28 63q-35 41 -90 41q-63 0 -95 -40q-24 -30 -24 -64q0 -32 28 -64q36 -41 91 -41q53 0 89 41q29 33 29 64z" />
    <glyph glyph-name="uni113C" unicode="&#x113c;" vert-adv-y="2176" 
d="M1640 1051l-186 -162l-336 366l-682 -696l-180 152l866 880z" />
    <glyph glyph-name="uni113D" unicode="&#x113d;" vert-adv-y="2176" 
d="M1972 1053l-180 -152l-301 320l-707 -709l-170 141l484 488l-125 135l-709 -711l-172 142l883 882l280 -293l240 240z" />
    <glyph glyph-name="uni113E" unicode="&#x113e;" vert-adv-y="2176" 
d="M1792 731l-180 -151l-682 696l-346 -367l-176 162l518 543z" />
    <glyph glyph-name="uni113F" unicode="&#x113f;" vert-adv-y="2176" 
d="M1964 713l-186 -154l-701 698l-108 -118l479 -480l-186 -151l-699 696l-295 -313l-194 160l487 489l238 -233l276 286z" />
    <glyph glyph-name="uni1140" unicode="&#x1140;" vert-adv-y="2176" 
d="M1733 776h-1436l709 832zM1227 991l-219 240l-207 -240h426z" />
    <glyph glyph-name="uni1141" unicode="&#x1141;" vert-adv-y="2176" 
d="M1739 801h-262v497h-371v230h633v-727zM1075 1165q0 -159 -98 -269q-113 -126 -311 -126q-191 0 -306 126q-102 112 -102 269q0 156 95 265q112 129 317 129q196 0 307 -124q98 -109 98 -270zM831 1165q0 70 -37 118q-45 58 -128 58q-86 0 -128 -58q-34 -47 -34 -118
q0 -68 39 -120q45 -60 123 -60q87 0 131 63q34 49 34 117z" />
    <glyph glyph-name="uni1142" unicode="&#x1142;" vert-adv-y="2176" 
d="M1769 825h-634v707h608v-213h-342v-283h366zM1075 1165q0 -159 -98 -269q-113 -126 -311 -126q-191 0 -306 126q-102 112 -102 269q0 156 95 265q112 129 317 129q196 0 307 -124q98 -109 98 -270zM831 1165q0 70 -37 118q-45 58 -128 58q-86 0 -128 -58
q-34 -47 -34 -118q0 -68 39 -120q45 -60 123 -60q87 0 131 63q34 49 34 117z" />
    <glyph glyph-name="uni1143" unicode="&#x1143;" vert-adv-y="2176" 
d="M1802 821h-680v709h680v-709zM1075 1165q0 -159 -98 -269q-113 -126 -311 -126q-191 0 -306 126q-102 112 -102 269q0 156 95 265q112 129 317 129q196 0 307 -124q98 -109 98 -270zM1559 1024v303h-189v-303h189zM831 1165q0 70 -37 118q-45 58 -128 58q-86 0 -128 -58
q-34 -47 -34 -118q0 -68 39 -120q45 -60 123 -60q87 0 131 63q34 49 34 117z" />
    <glyph glyph-name="uni1144" unicode="&#x1144;" vert-adv-y="2176" 
d="M1841 809h-702v717h260v-152h182v152h260v-717zM1075 1165q0 -159 -98 -269q-113 -126 -311 -126q-191 0 -306 126q-102 112 -102 269q0 156 95 265q112 129 317 129q196 0 307 -124q98 -109 98 -270zM1581 1012v162h-182v-162h182zM831 1165q0 70 -37 118
q-45 58 -128 58q-86 0 -128 -58q-34 -47 -34 -118q0 -68 39 -120q45 -60 123 -60q87 0 131 63q34 49 34 117z" />
    <glyph glyph-name="uni1145" unicode="&#x1145;" vert-adv-y="2176" 
d="M1870 961l-141 -209q-93 49 -182 123q-85 70 -132 135q-43 -72 -113 -144q-75 -77 -151 -123l-158 172q-52 -68 -134.5 -106.5t-192.5 -38.5q-191 0 -306 126q-102 112 -102 269q0 156 95 265q112 129 317 129q196 0 307 -124q98 -109 98 -270q0 -60 -11.5 -108
t-41.5 -96q116 54 188 160q66 98 66 194v211h258v-209q0 -103 92 -206q99 -112 244 -150zM831 1165q0 70 -37 118q-45 58 -128 58q-86 0 -128 -58q-34 -47 -34 -118q0 -68 39 -120q45 -60 123 -60q87 0 131 63q34 49 34 117z" />
    <glyph glyph-name="uni1146" unicode="&#x1146;" vert-adv-y="2176" 
d="M1976 811h-1038l510 836zM1014 1165q0 -159 -98 -269q-113 -126 -312 -126q-191 0 -305 126q-102 113 -102 269t95 265q112 129 316 129q197 0 308 -124q98 -110 98 -270zM1597 1010l-141 223l-141 -223h282zM770 1165q0 70 -37 118q-45 58 -129 58q-86 0 -128 -58
q-34 -47 -34 -118q0 -68 40 -120q46 -60 122 -60q85 0 130 63q36 51 36 117z" />
    <glyph glyph-name="uni1147" unicode="&#x1147;" vert-adv-y="2176" 
d="M1878 1165q0 -159 -98 -269q-113 -126 -312 -126q-191 0 -305 126q-102 113 -102 269q0 155 96 265q112 129 313 129q200 0 311 -124q97 -108 97 -270zM1018 1165q0 -159 -98 -269q-113 -126 -312 -126q-191 0 -305 126q-102 113 -102 269q0 155 96 265q112 129 313 129
q200 0 311 -124q97 -108 97 -270zM1632 1165q0 71 -35 118q-44 58 -129 58t-128 -58q-35 -47 -35 -118q0 -67 41 -120q47 -60 122 -60q85 0 129 63q35 50 35 117zM772 1165q0 71 -35 118q-44 58 -129 58q-86 0 -129 -58q-35 -47 -35 -118q0 -68 41 -120q47 -60 123 -60
q87 0 130 63q34 50 34 117z" />
    <glyph glyph-name="uni1148" unicode="&#x1148;" vert-adv-y="2176" 
d="M1929 969l-141 -197q-89 51 -179 130q-84 73 -132 138q-46 -75 -115.5 -147.5t-149.5 -126.5l-180 180q133 47 222 169q81 111 81 218h-229v191h725v-191h-236q9 -104 100 -210q99 -115 234 -154zM1075 1165q0 -159 -98 -269q-113 -126 -311 -126q-191 0 -306 126
q-102 112 -102 269q0 156 95 265q112 129 317 129q196 0 307 -124q98 -109 98 -270zM831 1165q0 70 -37 118q-45 58 -128 58q-86 0 -128 -58q-34 -47 -34 -118q0 -68 39 -120q45 -60 123 -60q87 0 131 63q34 49 34 117z" />
    <glyph glyph-name="uni1149" unicode="&#x1149;" vert-adv-y="2176" 
d="M1925 903l-137 -192q-96 55 -180 126q-88 75 -131 142q-44 -71 -116 -146t-149 -128l-170 180q105 36 194.5 141.5t106.5 212.5h-245v191h250v159h241v-159h250l-2 -191h-244q17 -105 113 -202t219 -134zM1075 1165q0 -159 -98 -269q-113 -126 -311 -126q-191 0 -306 126
q-102 112 -102 269q0 156 95 265q112 129 317 129q196 0 307 -124q98 -109 98 -270zM831 1165q0 70 -37 118q-45 58 -128 58q-86 0 -128 -58q-34 -47 -34 -118q0 -68 39 -120q45 -60 123 -60q87 0 131 63q34 49 34 117z" />
    <glyph glyph-name="uni114A" unicode="&#x114a;" vert-adv-y="2176" 
d="M1769 791l-628 -3v744h604v-189h-348v-77h303v-189h-303v-100h372v-186zM1075 1165q0 -159 -98 -269q-113 -126 -311 -126q-191 0 -306 126q-102 112 -102 269q0 156 95 265q112 129 317 129q196 0 307 -124q98 -109 98 -270zM831 1165q0 70 -37 118q-45 58 -128 58
q-86 0 -128 -58q-34 -47 -34 -118q0 -68 39 -120q45 -60 123 -60q87 0 131 63q34 49 34 117z" />
    <glyph glyph-name="uni114B" unicode="&#x114b;" vert-adv-y="2176" 
d="M1812 823h-729v209h107v295h-103v209h721v-209h-108v-295h112v-209zM1075 1165q0 -159 -98 -269q-113 -126 -311 -126q-191 0 -306 126q-102 112 -102 269q0 156 95 265q112 129 317 129q196 0 307 -124q98 -109 98 -270zM1489 1032v295h-84v-295h84zM831 1165
q0 70 -37 118q-45 58 -128 58q-86 0 -128 -58q-34 -47 -34 -118q0 -68 39 -120q45 -60 123 -60q87 0 131 63q34 49 34 117z" />
    <glyph glyph-name="uni114C" unicode="&#x114c;" vert-adv-y="2176" 
d="M1675 1141q0 -175 -170 -265t-481 -90q-310 0 -478 89q-173 92 -173 266q0 159 136 252q140 96 386 96v131h262v-131q243 0 380.5 -95t137.5 -253zM1419 1141q0 77 -92 118q-99 44 -303 44q-198 0 -296.5 -43t-98.5 -119q0 -78 98 -120t297 -42q203 0 299 42t96 120z" />
    <glyph glyph-name="uni114D" unicode="&#x114d;" vert-adv-y="2176" 
d="M1851 1165q0 -159 -98 -269q-113 -126 -311 -126q-191 0 -306 126q-102 112 -102 269q0 156 95 265q112 129 317 129q196 0 307 -124q98 -109 98 -270zM1063 969l-141 -197q-91 52 -180 130q-81 71 -132 138q-41 -73 -113 -147q-68 -70 -151 -127l-180 180
q132 47 221 169q82 113 82 218h-229v191h725v-191h-236q0 -102 95 -210q101 -114 239 -154zM1608 1165q0 70 -37 118q-45 58 -129 58q-86 0 -128 -58q-34 -47 -34 -118q0 -68 39 -120q45 -60 123 -60q87 0 131 63q35 50 35 117z" />
    <glyph glyph-name="uni114E" unicode="&#x114e;" vert-adv-y="2176" 
d="M1640 985l-186 -164l-334 373l-684 -705l-180 154l666 682h-453v203h1155v-203h-309z" />
    <glyph glyph-name="uni114F" unicode="&#x114f;" vert-adv-y="2176" 
d="M1976 887l-194 -160l-295 311l-699 -694l-186 152l481 477l-110 119l-701 -697l-186 154l768 760h-518v217h1476v-217h-256zM1421 1309h-329l161 -168z" />
    <glyph glyph-name="uni1150" unicode="&#x1150;" vert-adv-y="2176" 
d="M1804 643l-182 -154l-682 705l-334 -373l-186 164l325 340h-309v203h1155v-203h-454z" />
    <glyph glyph-name="uni1151" unicode="&#x1151;" vert-adv-y="2176" 
d="M1976 549l-186 -154l-700 705l-109 -127l479 -477l-186 -152l-699 700l-294 -317l-195 160l420 422h-256v217h1476v-217h-518zM973 1309h-332l170 -168z" />
    <glyph glyph-name="uni1152" unicode="&#x1152;" vert-adv-y="2176" 
d="M1739 758h-242v266h-405v188h405v123h-410v189h652v-766zM1071 903l-137 -192q-104 57 -182 119q-86 68 -131 135q-43 -71 -114 -140q-66 -64 -151 -120l-170 180q118 44 204.5 145.5t98.5 208.5h-262v191h265v172h241v-172h264v-191h-262q13 -109 105.5 -202.5
t230.5 -133.5z" />
    <glyph glyph-name="uni1153" unicode="&#x1153;" vert-adv-y="2176" 
d="M1849 1255h-813v195h277v162h258v-162h278v-195zM1804 924q0 -116 -95 -202q-105 -95 -273 -95q-167 0 -273 95q-96 86 -96 202q0 118 91 203q103 96 278 96q167 0 273 -96q95 -86 95 -203zM1051 903l-138 -192q-104 55 -182 118q-84 67 -131 136q-42 -72 -113 -140
q-64 -62 -151 -120l-170 180q118 45 204.5 146.5t98.5 207.5h-262v191h264v172h242v-172h262l2 -191h-262q12 -110 103.5 -202.5t232.5 -133.5zM1554 924q0 31 -28 63q-35 41 -90 41q-63 0 -95 -40q-24 -30 -24 -64q0 -32 28 -64q36 -41 91 -41q53 0 89 41q29 33 29 64z" />
    <glyph glyph-name="uni1154" unicode="&#x1154;" vert-adv-y="2176" 
d="M1640 862l-186 -166l-334 391l-684 -731l-180 156l645 676h-432v221h522v184h252v-184h381v-221h-289z" />
    <glyph glyph-name="uni1155" unicode="&#x1155;" vert-adv-y="2176" 
d="M1792 526l-180 -155l-684 725l-334 -387l-186 165l313 324h-297v217h381v193h252v-193h522v-217h-436z" />
    <glyph glyph-name="uni1156" unicode="&#x1156;" vert-adv-y="2176" 
d="M1765 821h-686v721h240v-172h207v172h239v-721zM1022 823h-729v209h106v295h-102v209h721v-209h-109v-295h113v-209zM1526 1026v139h-207v-139h207zM696 1032v295h-84v-295h84z" />
    <glyph glyph-name="uni1157" unicode="&#x1157;" vert-adv-y="2176" 
d="M1702 799h-1368v227h270v272h-239v228h1306v-228h-239v-272h270v-227zM1427 373q0 -138 -104 -227q-113 -97 -307 -97q-196 0 -307 96q-103 89 -103 228q0 136 100 225q112 100 312 100q192 0 306 -101q103 -91 103 -224zM1169 1026v272h-303v-272h303zM1180 373
q0 39 -29 69q-43 45 -135 45q-94 0 -135 -44q-27 -29 -27 -70q0 -59 46 -90q41 -27 116 -27q93 0 135 45q29 31 29 72z" />
    <glyph glyph-name="uni1158" unicode="&#x1158;" vert-adv-y="2176" 
d="M1829 1255h-793v195h256v162h258v-162h279v-195zM1784 924q0 -117 -94 -202q-105 -95 -275 -95q-167 0 -272 95q-96 87 -96 202q0 118 92 203q104 96 276 96q169 0 274 -96q95 -87 95 -203zM1006 1255h-791v195h277v162h256v-162h258v-195zM983 924q0 -117 -94 -202
q-105 -95 -277 -95q-166 0 -271 95q-95 86 -95 202q0 117 92 203q103 96 274 96q170 0 276 -96q95 -86 95 -203zM1534 924q0 31 -28 63q-35 41 -91 41q-63 0 -95 -40q-24 -30 -24 -64q0 -32 27 -64q35 -41 92 -41q54 0 90 41q29 33 29 64zM733 924q0 30 -29 63
q-36 41 -92 41q-60 0 -92 -40q-24 -30 -24 -64q0 -32 27 -64q34 -41 89 -41q54 0 91 41q30 34 30 64z" />
    <glyph glyph-name="uni1159" unicode="&#x1159;" vert-adv-y="2176" 
d="M1759 1331h-1470v193h1470v-193zM1665 999q0 -139 -162.5 -206.5t-478.5 -67.5q-317 0 -477 66q-166 69 -166 208q0 141 164.5 209t478.5 68q321 0 481 -67.5t160 -209.5zM1409 999q0 52 -91 76.5t-294 24.5q-202 0 -294.5 -24.5t-92.5 -76.5t91 -75t296 -23
q206 0 295.5 22.5t89.5 75.5z" />
    <glyph glyph-name="uni115F" unicode="&#x115f;" 
 />
    <glyph glyph-name="uni1160" unicode="&#x1160;" 
 />
    <glyph glyph-name="uni1161" unicode="&#x1161;" vert-adv-y="2176" 
d="M1505 705h-331v-705h-226v1579h226v-668h331v-206z" />
    <glyph glyph-name="uni1162" unicode="&#x1162;" vert-adv-y="2176" 
d="M1378 0h-239v664h-162v-609h-240v1487h240v-661h162v698h239v-1579z" />
    <glyph glyph-name="uni1163" unicode="&#x1163;" vert-adv-y="2176" 
d="M1526 473h-355v-473h-225v1579h225v-420h355v-207h-355v-272h355v-207z" />
    <glyph glyph-name="uni1164" unicode="&#x1164;" vert-adv-y="2176" 
d="M1423 0h-241v446h-213v-391h-240v1487h240v-360h213v397h241v-1579zM1182 664v301h-213v-301h213z" />
    <glyph glyph-name="uni1165" unicode="&#x1165;" vert-adv-y="2176" 
d="M1268 0h-238v694h-391v207h391v678h238v-1579z" />
    <glyph glyph-name="uni1166" unicode="&#x1166;" vert-adv-y="2176" 
d="M1518 0h-256v1579h256v-1579zM1094 55h-254v650h-357v217h357v620h254v-1487z" />
    <glyph glyph-name="uni1167" unicode="&#x1167;" vert-adv-y="2176" 
d="M1270 0h-240v449h-379v206h379v297h-379v207h379v420h240v-1579z" />
    <glyph glyph-name="uni1168" unicode="&#x1168;" vert-adv-y="2176" 
d="M1520 0h-256v1579h256v-1579zM1100 39h-254v448h-350v207h350v207h-350v207h350v434h254v-1503z" />
    <glyph glyph-name="uni1169" unicode="&#x1169;" vert-adv-y="2176" 
d="M1919 403h-1790v238h758v602h274v-602h758v-238z" />
    <glyph glyph-name="uni116A" unicode="&#x116a;" vert-adv-y="2176" 
d="M1980 727h-292v-727h-273v307q-155 0 -409 -8t-518.5 -16.5t-360.5 -8.5l-31 215q109 0 182.5 1.5t180 3.5t174.5 2v653h260v-649q80 0 175 4.5t198 10t149 5.5v1059h273v-635h292v-217z" />
    <glyph glyph-name="uni116B" unicode="&#x116b;" vert-adv-y="2176" 
d="M1827 0h-271v678h-147v-623h-268v279q-130 0 -344 -8q-118 -4 -355.5 -13.5t-320.5 -9.5l-31 215q103 0 223 1.5t197 2.5v467h254v-461q38 0 230 13q89 6 147 6v995h268v-627h147v664h271v-1579z" />
    <glyph glyph-name="uni116C" unicode="&#x116c;" vert-adv-y="2176" 
d="M1706 0h-268v295q-154 0 -404 -8t-510.5 -16.5t-357.5 -8.5l-29 236q123 0 188 1q325 5 343 5v655h268v-651q76 0 167 4.5t189.5 10t145.5 5.5v1051h268v-1579z" />
    <glyph glyph-name="uni116D" unicode="&#x116d;" vert-adv-y="2176" 
d="M1919 428h-1790v238h446v581h273v-581h352v585h273v-585h446v-238z" />
    <glyph glyph-name="uni116E" unicode="&#x116e;" vert-adv-y="2176" 
d="M1919 727h-758v-786h-274v786h-758v229h1790v-229z" />
    <glyph glyph-name="uni116F" unicode="&#x116f;" vert-adv-y="2176" 
d="M1790 0h-270v416h-414v217h414v946h270v-1579zM1399 829q-77 0 -182 -6q-244 -14 -322 -14v-743h-268v737q-116 0 -188 -1.5t-170 -3t-134 -1.5l-26 213q131 0 383.5 8t505.5 16t384 8z" />
    <glyph glyph-name="uni1170" unicode="&#x1170;" vert-adv-y="2176" 
d="M1829 0h-270v1579h270v-1579zM1442 59h-268v394h-320v200h320v889h268v-1483zM1053 827q-79 0 -144 -5q-168 -13 -207 -13v-739h-268v729q-62 0 -220 -7q-90 -4 -142 -4l-27 218q131 0 314.5 8l367 16t313.5 8z" />
    <glyph glyph-name="uni1171" unicode="&#x1171;" vert-adv-y="2176" 
d="M1769 0h-268v1579h268v-1579zM1399 809q-68 0 -277 -14q-105 -7 -186 -7v-682h-268v676q-117 0 -193.5 -1.5t-181 -3t-137.5 -1.5l-27 213q142 0 384 8t499.5 16.5t369.5 8.5z" />
    <glyph glyph-name="uni1172" unicode="&#x1172;" vert-adv-y="2176" 
d="M1919 752h-446v-799h-273v799h-352v-799h-273v799h-446v233h1790v-233z" />
    <glyph glyph-name="uni1173" unicode="&#x1173;" vert-adv-y="2176" 
d="M1919 428h-1790v229h1790v-229z" />
    <glyph glyph-name="uni1174" unicode="&#x1174;" vert-adv-y="2176" 
d="M1753 0h-268v1579h268v-1579zM1401 322q-127 0 -390.5 -9t-524 -17.5t-373.5 -8.5l-27 213q123 0 385.5 8.5t525.5 17.5t387 9z" />
    <glyph glyph-name="uni1175" unicode="&#x1175;" vert-adv-y="2176" 
d="M1192 0h-268v1579h268v-1579z" />
    <glyph glyph-name="uni1176" unicode="&#x1176;" vert-adv-y="2176" 
d="M1688 801v-482h-271v1260h271v-551h292v-227h-292zM129 -47v233h760v519h274v-519h760v-233h-1794z" />
    <glyph glyph-name="uni1177" unicode="&#x1177;" vert-adv-y="2176" 
d="M1688 944v-348h-271v983h271v-401h292v-234h-292zM1163 250v-501h-274v501h-760v235h1794v-235h-760z" />
    <glyph glyph-name="uni1178" unicode="&#x1178;" vert-adv-y="2176" 
d="M1688 1044v-196h290v-213h-290v-295h-271v1239h271v-322h292v-213h-292zM129 -67v233h760v518h274v-518h760v-233h-1794z" />
    <glyph glyph-name="uni1179" unicode="&#x1179;" vert-adv-y="2176" 
d="M1688 1044v-196h290v-213h-290v-336h-271v1280h271v-322h292v-213h-292zM129 -67v233h383v479h274v-479h209v481h275v-481h612v-233h-1753z" />
    <glyph glyph-name="uni117A" unicode="&#x117a;" vert-adv-y="2176" 
d="M1421 299v588h-368v235h368v457h271v-1280h-271zM129 -67v233h737v463h275v-463h778v-233h-1790z" />
    <glyph glyph-name="uni117B" unicode="&#x117b;" vert-adv-y="2176" 
d="M1403 596v346h-406v215h406v422h270v-983h-270zM1161 250v-501h-274v501h-758v235h1790v-235h-758z" />
    <glyph glyph-name="uni117C" unicode="&#x117c;" vert-adv-y="2176" 
d="M1403 307v563h-406v213h406v496h270v-1272h-270zM129 -73v233h1790v-233h-1790z" />
    <glyph glyph-name="uni117D" unicode="&#x117d;" vert-adv-y="2176" 
d="M1421 319v449h-364v213h364v195h-366v213h366v190h271v-1260h-271zM129 -67v233h758v463h274v-463h758v-233h-1790z" />
    <glyph glyph-name="uni117E" unicode="&#x117e;" vert-adv-y="2176" 
d="M1401 582v264h-365v215h365v149h-367v215h367v154h270v-997h-270zM1171 270v-521h-274v521h-758v215h1790v-215h-758z" />
    <glyph glyph-name="uni117F" unicode="&#x117f;" vert-adv-y="2176" 
d="M1569 0v930h-420v217h420v432h268v-1579h-268zM168 223l-29 215q271 2 516 6v514h269l2 -509q194 6 471 18l14 -209q-618 -33 -1243 -35z" />
    <glyph glyph-name="uni1180" unicode="&#x1180;" vert-adv-y="2176" 
d="M1590 0v1579h271v-1579h-271zM1216 57v801h-299v215h299v471h262v-1487h-262zM112 262l-31 213q154 0 373 4v635h268v-629q186 9 356 19l17 -209q-500 -29 -983 -33z" />
    <glyph glyph-name="uni1181" unicode="&#x1181;" vert-adv-y="2176" 
d="M1530 0v1579h270v-1579h-270zM1176 55v615h-299v215h299v151h-299v217h299v289h262v-1487h-262zM92 201l-31 213q154 0 373 4v696h268v-690q187 8 357 18l16 -209q-500 -28 -983 -32z" />
    <glyph glyph-name="uni1182" unicode="&#x1182;" vert-adv-y="2176" 
d="M129 811v231h758v461h274v-461h758v-231h-1790zM129 -67v233h758v530h274v-530h758v-233h-1790z" />
    <glyph glyph-name="uni1183" unicode="&#x1183;" vert-adv-y="2176" 
d="M129 809v233h758v461h274v-461h758v-233h-1790zM1161 403v-572h-274v572h-758v234h1790v-234h-758z" />
    <glyph glyph-name="uni1184" unicode="&#x1184;" vert-adv-y="2176" 
d="M1648 1579v-399h305v-217h-305v-285h305v-217h-305v-461h-273v1579h273zM144 223l-28 217q121 0 235 2v678h250v-674q90 0 178 3v671h250v-663q125 4 223 10l17 -209q-584 -33 -1125 -35z" />
    <glyph glyph-name="uni1185" unicode="&#x1185;" vert-adv-y="2176" 
d="M1442 1542v-348h135v385h270v-1579h-270v438h-135v-362h-268v1466h268zM1577 977h-135v-322h135v322zM61 457q86 0 191 2v624h254v-618q82 2 162 6v612h254v-600q82 2 159 9l13 -213q-525 -33 -1002 -41z" />
    <glyph glyph-name="uni1186" unicode="&#x1186;" vert-adv-y="2176" 
d="M1519 0v707h-336v215h336v182h-336v217h336v258h270v-1579h-270zM122 424q106 0 211 2v637h254v-631q82 2 162 6v625h254v-612q106 2 221 8l12 -213q-586 -33 -1083 -41z" />
    <glyph glyph-name="uni1187" unicode="&#x1187;" vert-adv-y="2176" 
d="M129 758v231h446v498h273v-498h352v504h273v-504h446v-231h-1790zM129 -98v233h758v512h274v-512h758v-233h-1790z" />
    <glyph glyph-name="uni1188" unicode="&#x1188;" vert-adv-y="2176" 
d="M1808 1579v-1579h-272v1579h272zM207 223l-29 217q121 0 277 2v678h250v-674q110 0 219 3v671h250v-663q124 4 243 10l17 -209q-625 -33 -1227 -35z" />
    <glyph glyph-name="uni1189" unicode="&#x1189;" vert-adv-y="2176" 
d="M1642 692v-692h-270v1579h270v-670h304v-217h-304zM862 735v-649h-270v643q-213 -6 -473 -10l-27 217q629 4 1168 33l14 -211q-187 -15 -412 -23z" />
    <glyph glyph-name="uni118A" unicode="&#x118a;" vert-adv-y="2176" 
d="M1418 1542v-598h146v635h268v-1579h-268v727h-146v-672h-270v1487h270zM712 791v-674h-248v663q-170 -8 -352 -12l-31 217q520 8 979 33l12 -205q-174 -14 -360 -22z" />
    <glyph glyph-name="uni118B" unicode="&#x118b;" vert-adv-y="2176" 
d="M1499 -350v811h-416v217h416v901h270v-1929h-270zM129 -77v216h1243v-216h-1243zM903 879v-609h-270v602q-213 -6 -473 -10l-27 217q629 4 1167 33l15 -211q-187 -14 -412 -22z" />
    <glyph glyph-name="uni118C" unicode="&#x118c;" vert-adv-y="2176" 
d="M1560 0v1579h268v-1579h-268zM1201 72v200h-311v197h311v125h-311v190h311v758h258v-1470h-258zM712 872v-735h-248v725q-170 -8 -352 -12l-31 217q520 8 979 33l12 -205q-174 -14 -360 -23z" />
    <glyph glyph-name="uni118D" unicode="&#x118d;" vert-adv-y="2176" 
d="M1161 1204v-526h-274v526h-758v234h1790v-234h-758zM1161 299v-561h-274v561h-758v233h1790v-233h-758z" />
    <glyph glyph-name="uni118E" unicode="&#x118e;" vert-adv-y="2176" 
d="M78 694l-27 217q670 2 1209 31l14 -209q-111 -6 -223 -12v-641h-258v631q-99 -2 -199 -6v-625h-258v618q-127 -2 -258 -4zM1655 1579v-649h299v-217h-299v-713h-271v1579h271z" />
    <glyph glyph-name="uni118F" unicode="&#x118f;" vert-adv-y="2176" 
d="M119 797l-27 217q666 2 1237 30l10 -208q-122 -7 -247 -13v-723h-258v713q-99 -2 -199 -6v-707h-258v701q-127 -2 -258 -4zM1520 0v424h-301v217h301v938h270v-1579h-270z" />
    <glyph glyph-name="uni1190" unicode="&#x1190;" vert-adv-y="2176" 
d="M99 848l-30 217q532 8 1032 37l12 -209l-209 -12v-754h-246v741q-65 -2 -129 -6v-735h-245v725q-92 -2 -185 -4zM1263 59v430h-277v203h277v850h268v-1483h-268zM1621 0v1579h268v-1579h-268z" />
    <glyph glyph-name="uni1191" unicode="&#x1191;" vert-adv-y="2176" 
d="M121 879l-27 217q666 2 1237 30l10 -208q-133 -7 -268 -13v-784h-258v774q-88 -4 -178 -6v-768h-258v762q-127 -2 -258 -4zM1522 0v268h-316v187h316v141h-316v186h316v797h268v-1579h-268z" />
    <glyph glyph-name="uni1192" unicode="&#x1192;" vert-adv-y="2176" 
d="M80 868l-31 217q533 9 1012 37l12 -209q-102 -6 -205 -12v-764h-233v752q-70 -4 -137 -6v-746h-234v735zM1223 59v228h-236v182h236v135h-236v178h236v760h268v-1483h-268zM1581 0v1579h268v-1579h-268z" />
    <glyph glyph-name="uni1193" unicode="&#x1193;" vert-adv-y="2176" 
d="M1473 1225v-496h-273v496h-352v-496h-273v496h-446v233h1790v-233h-446zM1161 401v-560h-274v560h-758v234h1790v-234h-758z" />
    <glyph glyph-name="uni1194" unicode="&#x1194;" vert-adv-y="2176" 
d="M131 715l-27 217q656 2 1227 31l10 -209q-108 -6 -219 -11v-622h-258v612q-114 -4 -233 -8v-604h-258v598zM1460 0v1579h269v-1579h-269z" />
    <glyph glyph-name="uni1195" unicode="&#x1195;" vert-adv-y="2176" 
d="M129 1077v228h1790v-228h-1790zM1161 616v-642h-274v642h-758v230h1790v-230h-758z" />
    <glyph glyph-name="uni1196" unicode="&#x1196;" vert-adv-y="2176" 
d="M129 954v228h1790v-228h-1790zM129 465v227h1790v-227h-1790z" />
    <glyph glyph-name="uni1197" unicode="&#x1197;" vert-adv-y="2176" 
d="M1495 645v934h270v-934h-270zM1161 340v-600h-274v600h-758v235h1790v-235h-758zM162 797l-27 217q666 2 1237 30l10 -208q-575 -29 -1220 -39z" />
    <glyph glyph-name="uni1198" unicode="&#x1198;" vert-adv-y="2176" 
d="M1558 715v-715h-256v1579h256v-647h323v-217h-323zM849 96v1446h254v-1446h-254z" />
    <glyph glyph-name="uni1199" unicode="&#x1199;" vert-adv-y="2176" 
d="M1555 432v-432h-253v1579h253v-399h326v-217h-326v-316h326v-215h-326zM849 98v1444h254v-1444h-254z" />
    <glyph glyph-name="uni119A" unicode="&#x119a;" vert-adv-y="2176" 
d="M1421 504v1075h271v-1075h-271zM129 -67v233h737v653h275v-653h778v-233h-1790z" />
    <glyph glyph-name="uni119B" unicode="&#x119b;" vert-adv-y="2176" 
d="M1421 715v864h271v-864h-271zM1161 365v-575h-274v575h-758v235h1790v-235h-758z" />
    <glyph glyph-name="uni119C" unicode="&#x119c;" vert-adv-y="2176" 
d="M1419 279v1300h271v-1300h-271zM129 -67v233h1790v-233h-1790z" />
    <glyph glyph-name="uni119D" unicode="&#x119d;" vert-adv-y="2176" 
d="M888 422v1157h270v-1157h-270zM1238 14q0 -42 -15.5 -82t-44 -70.5t-69.5 -50t-92 -19.5q-49 0 -89 17t-70 48t-46 72t-16 85q0 49 17 91t47 73t70 48.5t87 17.5t87 -17.5t69.5 -48.5t47 -73t17.5 -91z" />
    <glyph glyph-name="uni119E" unicode="&#x119e;" vert-adv-y="2176" 
d="M1238 842q0 -43 -15.5 -83t-44 -71t-69.5 -50.5t-92 -19.5q-49 0 -89 17.5t-70 48.5t-46 72t-16 86q0 49 17 91t47 72.5t70 48t87 17.5t87 -17.5t69.5 -48t47 -72.5t17.5 -91z" />
    <glyph glyph-name="uni119F" unicode="&#x119f;" vert-adv-y="2176" 
d="M1256 0v848h-512v258h512v473h256v-1579h-256zM904 496q0 -43 -16.5 -83t-46 -71t-69.5 -50.5t-89 -19.5q-47 0 -87 17.5t-69.5 48.5t-47 72t-17.5 86q0 49 17.5 91t47 71.5t69.5 47t87 17.5t87 -17.5t69.5 -47t47 -71.5t17.5 -91z" />
    <glyph glyph-name="uni11A0" unicode="&#x11a0;" vert-adv-y="2176" 
d="M1243 1309q0 -43 -16.5 -83t-46 -72t-69.5 -51.5t-89 -19.5q-47 0 -87 18.5t-69.5 49.5t-47 72t-17.5 86q0 49 17.5 91t47 71.5t69.5 47t87 17.5t87 -17.5t69.5 -47t47 -71.5t17.5 -91zM1161 457v-684h-274v684h-758v235h1790v-235h-758z" />
    <glyph glyph-name="uni11A1" unicode="&#x11a1;" vert-adv-y="2176" 
d="M1337 0v1579h256v-1579h-256zM965 840q0 -43 -16.5 -83t-45.5 -71t-68.5 -50.5t-89.5 -19.5q-51 0 -92 17.5t-70.5 48.5t-45 72t-15.5 86q0 49 17.5 91t47 71.5t69.5 47t87 17.5q48 0 87.5 -17.5t69.5 -47t47.5 -71.5t17.5 -91z" />
    <glyph glyph-name="uni11A2" unicode="&#x11a2;" vert-adv-y="2176" 
d="M1546 631q0 -86 -64.5 -155.5t-156.5 -69.5t-156.5 66.5t-64.5 158.5q0 98 63.5 163.5t157.5 65.5q93 0 157 -65t64 -164zM950 631q0 -86 -64.5 -155.5t-156.5 -69.5t-156.5 66.5t-64.5 158.5q0 98 63.5 163.5t157.5 65.5q93 0 157 -65t64 -164z" />
    <glyph glyph-name="uni11A8" unicode="&#x11a8;" vert-adv-y="2176" 
d="M1628 -356h-264v473h-981v229h1245v-702z" />
    <glyph glyph-name="uni11A9" unicode="&#x11a9;" vert-adv-y="2176" 
d="M1718 -346h-264v469h-387v227h651v-696zM975 -348h-264v471h-439v227h703v-698z" />
    <glyph glyph-name="uni11AA" unicode="&#x11aa;" vert-adv-y="2176" 
d="M1888 -160l-141 -209q-90 48 -177.5 121.5t-133.5 136.5q-44 -72 -113.5 -141.5t-153.5 -124.5l-157 172v-141h-267v504h-452v227h719v-559q128 55 208 166q74 103 74 203v190h260v-188q0 -102 93 -205q97 -108 241 -152z" />
    <glyph glyph-name="uni11AB" unicode="&#x11ab;" vert-adv-y="2176" 
d="M1651 -289h-1235v619h262v-414h973v-205z" />
    <glyph glyph-name="uni11AC" unicode="&#x11ac;" vert-adv-y="2176" 
d="M1815 -199l-142 -188q-94 54 -180.5 125t-130.5 133q-48 -76 -117 -145.5t-147 -118.5l-144 135q-129 -18 -282.5 -29.5t-333.5 -11.5v672h266v-443q123 0 193.5 8t175.5 33l28 -151q97 60 160 157q58 90 66 177h-236v211h725v-211h-237q13 -103 104 -204
q97 -107 232 -149z" />
    <glyph glyph-name="uni11AD" unicode="&#x11ad;" vert-adv-y="2176" 
d="M1825 268h-930v195h330v155h268v-155h332v-195zM1737 -72q0 -121 -94 -204q-105 -93 -289 -93q-185 0 -290 93q-93 82 -93 204q0 119 93 203q106 96 290 96q181 0 288 -96q95 -85 95 -203zM940 -244q-129 -25 -282 -40t-349 -15v754h254v-533q111 0 179 10q93 18 161 31z
M1473 -72q0 45 -36 73q-31 24 -83 24q-67 0 -98 -37q-21 -25 -21 -60q0 -37 20 -62q30 -38 99 -38q66 0 97 38q22 27 22 62z" />
    <glyph glyph-name="uni11AE" unicode="&#x11ae;" vert-adv-y="2176" 
d="M1659 -291h-1233v674h1200v-207h-938v-260h971v-207z" />
    <glyph glyph-name="uni11AF" unicode="&#x11af;" vert-adv-y="2176" 
d="M1659 -319h-1235v475h938v114h-938v193h1198v-477h-938v-113h975v-192z" />
    <glyph glyph-name="uni11B0" unicode="&#x11b0;" vert-adv-y="2176" 
d="M1749 -346h-258v559h-375v225h633v-784zM1077 -305q-99 0 -242.5 -8t-295 -16.5t-228.5 -8.5v469h453v94h-453v209h719v-471h-452v-96q88 0 217.5 8t263.5 21z" />
    <glyph glyph-name="uni11B1" unicode="&#x11b1;" vert-adv-y="2176" 
d="M1769 -322h-698v762h698v-762zM1004 -305q-145 -16 -357 -24.5t-377 -8.5v469h420v94h-420v209h686v-471h-419v-96q182 0 448 29zM1520 -106v333h-201v-333h201z" />
    <glyph glyph-name="uni11B2" unicode="&#x11b2;" vert-adv-y="2176" 
d="M1821 -326h-723v764h260v-190h203v190h260v-764zM1040 -305q-146 -16 -356 -24.5t-373 -8.5v469h416v94h-416v209h682v-471h-415v-96q181 0 444 29zM1561 -121v164h-203v-164h203z" />
    <glyph glyph-name="uni11B3" unicode="&#x11b3;" vert-adv-y="2176" 
d="M1888 -133l-141 -209q-90 48 -177.5 121.5t-133.5 136.5q-46 -73 -116.5 -144t-150.5 -122l-139 151l10 -106q-146 -16 -356 -24.5t-373 -8.5v469h416v94h-416v209h682v-471h-415v-96q181 0 444 29l4 -37q122 54 198 163q70 100 70 199v215h260v-213q0 -102 93 -206
q99 -110 241 -150z" />
    <glyph glyph-name="uni11B4" unicode="&#x11b4;" vert-adv-y="2176" 
d="M1769 -319h-669v755h645v-188h-389v-101h344v-180h-344v-98h413v-188zM1040 -305q-146 -16 -356 -24.5t-373 -8.5v469h416v94h-416v209h682v-471h-415v-96q181 0 444 29z" />
    <glyph glyph-name="uni11B5" unicode="&#x11b5;" vert-adv-y="2176" 
d="M1804 -322h-749v209h106v338h-102v209h741v-209h-108v-338h112v-209zM1012 -305q-145 -16 -355 -24.5t-374 -8.5v469h415v94h-415v209h682v-471h-416v-96q178 0 444 29zM1481 -113v338h-105v-338h105z" />
    <glyph glyph-name="uni11B6" unicode="&#x11b6;" vert-adv-y="2176" 
d="M1870 260h-854v195h295v176h268v-176h291v-195zM1808 -68q0 -115 -90 -195q-102 -91 -278 -91q-177 0 -279 91q-90 80 -90 195t89 195q102 92 280 92q176 0 278 -91q90 -81 90 -196zM991 -274q-145 -16 -361 -23.5t-392 -7.5v504h440v100h-440v211h704v-496h-440v-112
q83 0 210 8t261 20zM1554 -68q0 32 -21 57q-30 36 -93 36q-65 0 -94 -35q-21 -25 -21 -58q0 -36 20 -60q29 -36 95 -36q64 0 93 36q21 26 21 60z" />
    <glyph glyph-name="uni11B7" unicode="&#x11b7;" vert-adv-y="2176" 
d="M1626 -301h-1196v672h1196v-672zM1366 -94v258h-676v-258h676z" />
    <glyph glyph-name="uni11B8" unicode="&#x11b8;" vert-adv-y="2176" 
d="M1614 -297h-1186v696h260v-166h668v166h258v-696zM1356 -104v145h-668v-145h668z" />
    <glyph glyph-name="uni11B9" unicode="&#x11b9;" vert-adv-y="2176" 
d="M1827 -111l-141 -211q-88 47 -180 125q-84 71 -132 136q-43 -73 -112 -142t-154 -125l-137 150v-117h-723v729h260v-176h203v176h260v-551q122 54 195 163q67 99 67 198v190h260v-188q0 -103 93 -206q97 -107 241 -151zM711 -92v149h-203v-149h203z" />
    <glyph glyph-name="uni11BA" unicode="&#x11ba;" vert-adv-y="2176" 
d="M1835 -147l-117 -195q-162 23 -311 84q-126 52 -235 126q-90 62 -146 124q-80 -103 -256 -196q-204 -108 -430 -138l-133 195q217 0 388 78q139 63 224 166q72 87 72 151v74h266v-74q0 -64 70 -150q84 -103 220 -166q170 -79 388 -79z" />
    <glyph glyph-name="uni11BB" unicode="&#x11bb;" vert-adv-y="2176" 
d="M1860 -139l-148 -172q-102 50 -180 116t-127 142q-32 -65 -119.5 -149.5t-173.5 -133.5l-162 160q130 46 225 152q109 121 109 260v122h236v-122q0 -127 98 -232q94 -100 242 -143zM1010 -59l-156 -156q-57 29 -114 80q-62 55 -89 104q-32 -70 -130.5 -153.5
t-198.5 -126.5l-158 164q147 38 255.5 154t108.5 243v110h236v-106q0 -96 69 -186.5t177 -126.5z" />
    <glyph glyph-name="uni11BC" unicode="&#x11bc;" vert-adv-y="2176" 
d="M1675 39q0 -176 -171.5 -272.5t-479.5 -96.5q-307 0 -479 96.5t-172 272.5t171 271.5t480 95.5q308 0 479.5 -95.5t171.5 -271.5zM1419 39q0 79 -92 124q-102 50 -303 50q-195 0 -299 -50q-96 -46 -96 -124t96 -124q105 -50 299 -50q201 0 302 49q93 45 93 125z" />
    <glyph glyph-name="uni11BD" unicode="&#x11bd;" vert-adv-y="2176" 
d="M1843 -147l-121 -189q-238 39 -435 132q-174 82 -263 179q-84 -97 -286 -188.5t-402 -120.5l-141 187q241 0 443 97q180 86 234 195h-538v211h1380v-211h-536q60 -105 238 -193q201 -99 427 -99z" />
    <glyph glyph-name="uni11BE" unicode="&#x11be;" vert-adv-y="2176" 
d="M1860 -162l-123 -196q-183 0 -408 91q-212 86 -303 183q-93 -100 -295 -184q-225 -94 -428 -94l-131 198q218 0 411 63q202 66 279 171h-536v204h573v172h252v-172h571v-204h-534q76 -101 267 -166.5t405 -65.5z" />
    <glyph glyph-name="uni11BF" unicode="&#x11bf;" vert-adv-y="2176" 
d="M1620 -352h-262v194h-942v209h942v148h-942v211h1204v-762z" />
    <glyph glyph-name="uni11C0" unicode="&#x11c0;" vert-adv-y="2176" 
d="M1673 -311h-1274v776h1254v-201h-1000v-94h963v-188h-963v-93h1020v-200z" />
    <glyph glyph-name="uni11C1" unicode="&#x11c1;" vert-adv-y="2176" 
d="M1702 -328h-1368v228h270v272h-239v227h1306v-227h-239v-272h270v-228zM1169 -100v272h-303v-272h303z" />
    <glyph glyph-name="uni11C2" unicode="&#x11c2;" vert-adv-y="2176" 
d="M1759 266h-1470v193h610v147h248v-147h612v-193zM1665 -66q0 -139 -162.5 -206.5t-478.5 -67.5q-317 0 -477 66q-166 69 -166 208q0 141 164.5 209t478.5 68q321 0 481 -67.5t160 -209.5zM1409 -66q0 52 -91 76.5t-294 24.5q-202 0 -294.5 -24.5t-92.5 -76.5t91 -75
t296 -23q206 0 295.5 22.5t89.5 75.5z" />
    <glyph glyph-name="uni11C3" unicode="&#x11c3;" vert-adv-y="2176" 
d="M1759 -328h-704v480h401v96h-401v209h667v-486h-401v-92h438v-207zM930 -350h-258v579h-414v226h672v-805z" />
    <glyph glyph-name="uni11C4" unicode="&#x11c4;" vert-adv-y="2176" 
d="M1774 -352h-236v502h-235v202h471v-704zM1415 -225l-143 -168q-59 39 -118 97q-62 61 -97 120q-64 -128 -201 -227l-139 141v-90h-236v502h-231v202h467v-573q96 48 159.5 145t63.5 203v229h238v-229q0 -127 66 -215q54 -71 171 -137z" />
    <glyph glyph-name="uni11C5" unicode="&#x11c5;" vert-adv-y="2176" 
d="M1698 -360h-260v497h-404v225h664v-722zM1106 -201q-108 -62 -352 -106q-215 -39 -367 -39v706h260v-450q91 8 184 30q109 25 195 64z" />
    <glyph glyph-name="uni11C6" unicode="&#x11c6;" vert-adv-y="2176" 
d="M1790 -311h-711v690h684v-227h-417v-238h442zM1001 -283q-146 -22 -317 -35.5t-367 -13.5v721h269v-495q129 0 193 8.5t182 36.5z" />
    <glyph glyph-name="uni11C7" unicode="&#x11c7;" vert-adv-y="2176" 
d="M1001 -251q-147 -21 -302.5 -34.5t-352.5 -13.5v721h270v-495q129 0 178.5 8t166.5 37l18 -96q131 71 211 173q78 105 78 205v188h258v-188q0 -102 96 -212.5t233 -157.5l-145 -191q-100 51 -182 121q-74 62 -127 135q-43 -75 -113.5 -140t-163.5 -120l-135 121z" />
    <glyph glyph-name="uni11C8" unicode="&#x11c8;" vert-adv-y="2176" 
d="M1917 -289h-991l485 836zM965 -193q-111 -63 -319 -99q-174 -30 -337 -30v775h262v-519q69 0 169 34q65 22 143 59zM1552 -100l-131 237l-129 -237h260z" />
    <glyph glyph-name="uni11C9" unicode="&#x11c9;" vert-adv-y="2176" 
d="M1726 -291h-677v744h653v-189h-397v-96h352v-172h-352v-98h421v-189zM1018 -199q-112 -49 -341 -88q-205 -35 -329 -35v775h262v-516q77 0 177 23t159 50z" />
    <glyph glyph-name="uni11CA" unicode="&#x11ca;" vert-adv-y="2176" 
d="M1739 -352h-262v493h-394v230h656v-723zM1016 -74l-2 -231l-711 -2v680h684v-230h-420v-219z" />
    <glyph glyph-name="uni11CB" unicode="&#x11cb;" vert-adv-y="2176" 
d="M1800 -328h-704v480h401v96h-401v209h667v-486h-401v-92h438v-207zM1012 -94l-2 -230l-678 -2v775h651v-230h-387v-313h416z" />
    <glyph glyph-name="uni11CC" unicode="&#x11cc;" vert-adv-y="2176" 
d="M1956 -225l-154 -156q-59 50 -102.5 102.5t-77.5 116.5q-34 -63 -81.5 -117t-110.5 -104l-113 104v-73h-238v583h-211v205h449v-633q86 61 132 159.5t46 205.5v272h234v-272q0 -117 64 -224t163 -169zM870 -305q-156 -17 -304 -25t-298 -8v469h310v98h-310v205h545v-471
h-307v-100q105 0 173 4.5t173 23.5z" />
    <glyph glyph-name="uni11CD" unicode="&#x11cd;" vert-adv-y="2176" 
d="M1790 -332h-610v791h258v-578h352v-213zM1069 -328h-702v480h401v96h-401v209h667v-486h-401v-92h436v-207z" />
    <glyph glyph-name="uni11CE" unicode="&#x11ce;" vert-adv-y="2176" 
d="M1788 -319l-653 -3v762h628v-227h-370v-307h395v-225zM1063 -328h-717v473h416v86h-416v209h682v-471h-416v-90h451v-207z" />
    <glyph glyph-name="uni11CF" unicode="&#x11cf;" vert-adv-y="2176" 
d="M1894 172h-639v201h203v166h232v-166h204v-201zM1866 -113q0 -104 -71 -177q-83 -85 -228 -85q-142 0 -224 85q-71 74 -71 177q0 99 70 173q82 87 225 87t227 -87q72 -75 72 -173zM1241 -141l-2 -201l-428 2v774h403v-201h-182v-374h209zM778 -305q-150 -17 -293 -25
t-284 -8v469h297v98h-297v205h520v-471h-295v-100q99 0 165 4.5t169 23.5zM1640 -113q0 28 -17 50q-21 26 -56 26q-34 0 -53 -23.5t-19 -52.5q0 -33 18.5 -56.5t53.5 -23.5q38 0 57 25q16 21 16 55z" />
    <glyph glyph-name="uni11D0" unicode="&#x11d0;" vert-adv-y="2176" 
d="M1841 -319h-725v493h422v96h-422v209h688v-479h-422v-113h459v-206zM1036 -297q-86 0 -236 -8q-39 -2 -259 -14q-166 -9 -230 -9v490h412v104h-412v209h678v-487h-411v-109q88 0 190.5 7.5t249.5 23.5z" />
    <glyph glyph-name="uni11D1" unicode="&#x11d1;" vert-adv-y="2176" 
d="M1845 -352h-217v583h-196v205h413v-788zM1376 -322h-522v762h522v-762zM823 -305q-161 -17 -297.5 -25t-283.5 -8v469h288v98h-288v205h524v-471h-287v-100q98 0 159.5 4.5t166.5 23.5zM1169 -127v375h-108v-375h108z" />
    <glyph glyph-name="uni11D2" unicode="&#x11d2;" vert-adv-y="2176" 
d="M2003 -201l-145 -155q-62 52 -102 101q-43 53 -75 118q-31 -63 -78 -119q-43 -50 -106 -102l-121 116v-80h-522v762h522v-622q90 66 138.5 164.5t48.5 210.5v251h223v-251q0 -120 60 -225t157 -169zM823 -305q-161 -17 -297.5 -25t-283.5 -8v469h288v98h-288v205h524
v-471h-287v-100q98 0 159.5 4.5t166.5 23.5zM1169 -127v375h-108v-375h108z" />
    <glyph glyph-name="uni11D3" unicode="&#x11d3;" vert-adv-y="2176" 
d="M1999 -184l-141 -168q-57 37 -114 97t-89 120q-32 -65 -78.5 -120t-114.5 -105l-108 110v-84h-547v766h211v-194h125v194h211v-596q82 54 135 144.5t53 187.5v254h227v-254q0 -129 63 -216q53 -74 167 -136zM762 -305q-159 -17 -297 -25t-285 -8v469h289v98h-289v205h525
v-471h-287v-100q110 0 164 4t161 24zM1143 -131v166h-125v-166h125z" />
    <glyph glyph-name="uni11D4" unicode="&#x11d4;" vert-adv-y="2176" 
d="M1903 172h-615v201h193v166h223v-166h199v-201zM1874 -113q0 -104 -68 -177q-79 -85 -219 -85q-137 0 -216 85q-68 74 -68 177q0 100 66 173q79 87 218 87t219 -87q68 -74 68 -173zM1245 -334h-504v766h195v-194h115v194h194v-766zM700 -305q-148 -17 -275 -25t-261 -8
v469h266v98h-266v205h481v-471h-264v-100q91 0 147.5 4.5t155.5 23.5zM1657 -113q0 29 -16 50q-20 26 -54 26q-35 0 -52 -21.5t-17 -54.5t17 -56.5t52 -23.5q34 0 52 24t18 56zM1051 -131v166h-115v-166h115z" />
    <glyph glyph-name="uni11D5" unicode="&#x11d5;" vert-adv-y="2176" 
d="M1788 303h-803v629h229v-154h345v154h229v-629zM1751 -78q0 -129 -95 -211q-102 -88 -284 -88t-285 89q-94 82 -94 210q0 124 92 206q104 93 289 93q179 0 283 -92q94 -83 94 -207zM928 -113q-140 -15 -341 -23.5t-364 -8.5v489h391v105h-391v208h658v-487h-392v-107
q145 0 422 29zM1559 477v123h-345v-123h345zM1522 -78q0 48 -42 76.5t-108 28.5q-85 0 -123 -41q-26 -28 -26 -64q0 -40 25 -67q38 -41 124 -41t124 41q26 28 26 67z" />
    <glyph glyph-name="uni11D6" unicode="&#x11d6;" vert-adv-y="2176" 
d="M1876 -182l-162 -152q-58 52 -104 112q-25 33 -70 103q-29 -54 -70 -105q-48 -60 -116 -118l-148 156q103 66 161 171t58 224v225h224v-225q0 -122 52 -216q56 -102 175 -175zM1311 -25l-144 -145q-27 22 -47.5 44t-36.5 44q-26 -56 -77 -124q-59 -79 -125 -136l-127 133
l8 -96q-159 -17 -297 -25t-285 -8v469h289v98h-289v205h525v-471h-287v-100q110 0 164 4t161 24l7 -65q94 62 147 168.5t53 220.5v219h224v-225q0 -88 46 -154q34 -49 91 -80z" />
    <glyph glyph-name="uni11D7" unicode="&#x11d7;" vert-adv-y="2176" 
d="M1917 -324h-909l444 836zM995 -299q-89 0 -222 -7.5t-274 -15.5t-208 -8v490h405v104h-405v209h657v-487h-405v-109q87 0 186 7.5t248 23.5zM1593 -135l-131 237l-129 -237h260z" />
    <glyph glyph-name="uni11D8" unicode="&#x11d8;" vert-adv-y="2176" 
d="M1739 -352h-242v280h-405v189h405v127h-410v188h652v-784zM1057 -299q-86 0 -221 -7.5t-277 -15.5t-207 -8v461h406v107h-406v198h658v-469h-406v-104q87 0 185 7.5t249 23.5z" />
    <glyph glyph-name="uni11D9" unicode="&#x11d9;" vert-adv-y="2176" 
d="M1870 311h-854v195h854v-195zM1808 -43q0 -117 -90 -205q-103 -100 -278 -100q-176 0 -279 100q-90 87 -90 205q0 116 89 202q103 99 280 99q174 0 278 -99q90 -86 90 -202zM991 -274q-145 -16 -361 -23.5t-392 -7.5v504h440v100h-440v211h704v-496h-440v-112q83 0 210 8
t261 20zM1571 -43q0 39 -29 69q-36 37 -102 37t-101 -37q-28 -30 -28 -69q0 -41 27 -73q35 -42 102 -42q65 0 101 39q30 33 30 76z" />
    <glyph glyph-name="uni11DA" unicode="&#x11da;" vert-adv-y="2176" 
d="M1724 -352h-262v495h-348v230h610v-725zM1020 -330h-713v703h713v-703zM778 -115v275h-225v-275h225z" />
    <glyph glyph-name="uni11DB" unicode="&#x11db;" vert-adv-y="2176" 
d="M1759 -328h-674v480h371v96h-371v209h637v-486h-370v-92h407v-207zM979 -330h-672v781h672v-781zM737 -115v353h-184v-353h184z" />
    <glyph glyph-name="uni11DC" unicode="&#x11dc;" vert-adv-y="2176" 
d="M1821 -326h-723v740h260v-183h203v183h260v-740zM1020 -330h-713v744h713v-744zM1561 -121v148h-203v-148h203zM778 -115v316h-225v-316h225z" />
    <glyph glyph-name="uni11DD" unicode="&#x11dd;" vert-adv-y="2176" 
d="M1896 -154l-143 -192q-94 49 -181 128q-74 67 -128 140q-90 -152 -287 -274l-137 135v-113h-713v744h713v-578q133 72 214 184q77 107 77 205v201h256v-199q0 -104 95.5 -217.5t233.5 -163.5zM778 -115v316h-225v-316h225z" />
    <glyph glyph-name="uni11DE" unicode="&#x11de;" vert-adv-y="2176" 
d="M1915 -182l-162 -152q-61 54 -105 112q-26 34 -69 103q-29 -54 -70 -105q-48 -60 -116 -118l-148 156q103 66 161 171t58 224v225h224v-225q0 -122 52 -216q56 -102 175 -175zM1350 -25l-144 -145q-27 22 -47.5 44t-36.5 44q-25 -58 -76 -125q-58 -77 -128 -135l-130 135
v-115h-522v762h522v-614q93 65 147 170.5t54 218.5v219h221v-225q0 -89 47 -154q35 -48 93 -80zM580 -127v375h-107v-375h107z" />
    <glyph glyph-name="uni11DF" unicode="&#x11df;" vert-adv-y="2176" 
d="M1917 -324h-909l444 836zM979 -324h-672v764h672v-764zM1593 -135l-131 237l-129 -237h260zM737 -109v336h-184v-336h184z" />
    <glyph glyph-name="uni11E0" unicode="&#x11e0;" vert-adv-y="2176" 
d="M1884 -137l-137 -197q-108 60 -180 115q-90 68 -131 131q-41 -68 -114 -135q-62 -57 -151 -117l-165 178q136 49 217.5 144.5t81.5 203.5h-263v205h265v187h241v-187h264v-205h-262q0 -105 97 -195q92 -85 237 -128zM958 -324h-671v764h671v-764zM717 -109v336h-185v-336
h185z" />
    <glyph glyph-name="uni11E1" unicode="&#x11e1;" vert-adv-y="2176" 
d="M1884 236h-854v194h295v176h268v-176h291v-194zM1806 -88q0 -115 -87 -196q-98 -91 -267 -91t-266 91q-86 81 -86 196q0 114 86 195q98 92 266 92q169 0 267 -92q87 -81 87 -195zM973 -324h-672v785h672v-785zM1565 -88q0 32 -21 57q-30 35 -92 35q-60 0 -89 -35
q-20 -24 -20 -57q0 -35 20 -60q28 -36 89 -36q63 0 92 35q21 25 21 61zM731 -109v357h-184v-357h184z" />
    <glyph glyph-name="uni11E2" unicode="&#x11e2;" vert-adv-y="2176" 
d="M1626 365h-1196v677h1196v-677zM1427 -49q0 -138 -104 -227q-113 -97 -307 -97q-196 0 -307 96q-103 89 -103 228q0 134 100 224q113 101 314 101q192 0 305 -101q102 -91 102 -224zM1366 594v219h-676v-219h676zM1180 -49q0 39 -28 69q-43 46 -136 46q-94 0 -135 -45
q-27 -30 -27 -70q0 -43 27 -72q41 -45 135 -45q93 0 135 45q29 31 29 72z" />
    <glyph glyph-name="uni11E3" unicode="&#x11e3;" vert-adv-y="2176" 
d="M1862 -334h-699v475h396v103h-396v186h662v-450h-395v-107h432v-207zM1038 -334h-723v772h260v-198h203v198h260v-772zM778 -129v164h-203v-164h203z" />
    <glyph glyph-name="uni11E4" unicode="&#x11e4;" vert-adv-y="2176" 
d="M1833 -336h-750v209h107v356h-103v209h742v-209h-109v-356h113v-209zM1038 -334h-723v772h260v-198h203v198h260v-772zM1509 -127v356h-104v-356h104zM778 -129v164h-203v-164h203z" />
    <glyph glyph-name="uni11E5" unicode="&#x11e5;" vert-adv-y="2176" 
d="M1870 260h-813v195h274v176h268v-176h271v-195zM1829 -68q0 -114 -91 -195q-103 -91 -278 -91q-176 0 -278 91q-90 80 -90 195t89 195q102 92 279 92q175 0 277 -91q92 -82 92 -196zM997 -334h-712v813h260v-219h192v219h260v-813zM1575 -68q0 32 -22 57q-31 36 -93 36
q-65 0 -94 -35q-20 -24 -20 -58q0 -35 20 -60q29 -36 94 -36q63 0 93 36q22 26 22 60zM737 -129v184h-192v-184h192z" />
    <glyph glyph-name="uni11E6" unicode="&#x11e6;" vert-adv-y="2176" 
d="M1616 362h-1186v637h252v-141h680v141h254v-637zM1434 -37q0 -137 -104 -226q-113 -97 -308 -97t-307 97q-103 89 -103 226q0 135 100 225q113 101 312 101q194 0 307 -101q103 -92 103 -225zM1362 549v125h-680v-125h680zM1186 -37q0 57 -50 93q-42 30 -114 30
q-92 0 -134 -49q-28 -33 -28 -74q0 -62 47 -96q43 -31 115 -31t114 31q50 37 50 96z" />
    <glyph glyph-name="uni11E7" unicode="&#x11e7;" vert-adv-y="2176" 
d="M1720 -356h-264v506h-387v208h651v-714zM1157 -186l-143 -193q-98 51 -181 121q-78 65 -128 133q-42 -69 -116 -136q-69 -62 -169 -124l-172 170q149 72 238 184q85 107 85 211v193h258v-191q0 -102 96 -211t232 -157z" />
    <glyph glyph-name="uni11E8" unicode="&#x11e8;" vert-adv-y="2176" 
d="M1827 -123l-2 -229h-656v714h631v-229h-364v-256h391zM1157 -180l-143 -195q-100 54 -181 122q-76 64 -128 134q-42 -69 -116 -136q-69 -62 -169 -124l-172 170q149 72 238 184q85 107 85 211v193h258v-191q0 -102 96 -211t232 -157z" />
    <glyph glyph-name="uni11E9" unicode="&#x11e9;" vert-adv-y="2176" 
d="M1872 -354h-698v456h395v91h-395v188h661v-442h-395v-86h432v-207zM1157 -201l-143 -194q-94 49 -182 128q-73 65 -127 138q-44 -72 -116.5 -141.5t-168.5 -128.5l-172 170q148 71 238 189q85 111 85 216v223h258v-221q0 -103 96.5 -217t231.5 -162z" />
    <glyph glyph-name="uni11EA" unicode="&#x11ea;" vert-adv-y="2176" 
d="M1765 -352h-686v94l-106 -141q-99 53 -181 122q-77 65 -128 134q-41 -70 -116 -138q-71 -64 -169 -125l-172 170q146 67 238 185q85 110 85 211v202h258v-200q0 -93 82 -196q86 -108 209 -159v564h240v-172h207v172h239v-723zM1526 -147v141h-207v-141h207z" />
    <glyph glyph-name="uni11EB" unicode="&#x11eb;" vert-adv-y="2176" 
d="M1692 -332h-1354l668 832zM1227 -125l-219 254l-207 -254h426z" />
    <glyph glyph-name="uni11EC" unicode="&#x11ec;" vert-adv-y="2176" 
d="M1739 -352h-262v497h-371v230h633v-727zM1075 12q0 -159 -98 -269q-113 -126 -311 -126q-191 0 -306 126q-102 112 -102 269q0 156 95 265q112 129 317 129q196 0 307 -123q98 -109 98 -271zM831 14q0 68 -37 116q-45 58 -128 58q-86 0 -128 -57q-34 -46 -34 -117
q0 -68 39 -120q45 -60 123 -60q87 0 131 63q34 49 34 117z" />
    <glyph glyph-name="uni11ED" unicode="&#x11ed;" vert-adv-y="2176" 
d="M1810 -352h-231v514h-199v209h430v-723zM1333 -352h-231v514h-215v209h446v-723zM905 10q0 -149 -83 -250q-97 -118 -277 -118q-176 0 -279 118q-90 104 -90 250q0 154 87 256q98 115 276 115q177 0 278 -119q88 -104 88 -252zM659 10q0 62 -26 102q-32 50 -98 50
q-63 0 -95 -49q-26 -40 -26 -103t25 -102q31 -49 96 -49q63 0 96 49q28 41 28 102z" />
    <glyph glyph-name="uni11EE" unicode="&#x11ee;" vert-adv-y="2176" 
d="M1878 23q0 -160 -98 -270q-112 -126 -312 -126q-191 0 -305 126q-102 113 -102 270q0 154 96 264q113 129 313 129t311 -123q97 -108 97 -270zM1018 23q0 -160 -98 -270q-112 -126 -312 -126q-191 0 -305 126q-102 113 -102 270q0 154 96 264q113 129 313 129t311 -123
q97 -108 97 -270zM1632 23q0 73 -35 119q-43 57 -129 57q-85 0 -128 -57q-35 -47 -35 -119q0 -65 41 -118q47 -61 122 -61q85 0 129 63q35 50 35 116zM772 23q0 73 -35 119q-43 57 -129 57t-129 -57q-35 -47 -35 -119q0 -66 41 -118q48 -61 123 -61q87 0 130 63
q34 49 34 116z" />
    <glyph glyph-name="uni11EF" unicode="&#x11ef;" vert-adv-y="2176" 
d="M1759 -354h-241v229h-365v188h365v123h-390v189h631v-729zM1075 12q0 -159 -98 -269q-113 -126 -311 -126q-191 0 -306 126q-102 112 -102 269q0 156 95 265q112 129 317 129q196 0 307 -123q98 -109 98 -271zM831 14q0 68 -37 116q-45 58 -128 58q-86 0 -128 -57
q-34 -46 -34 -117q0 -68 39 -120q45 -60 123 -60q87 0 131 63q34 49 34 117z" />
    <glyph glyph-name="uni11F0" unicode="&#x11f0;" vert-adv-y="2176" 
d="M1675 -18q0 -175 -170 -265t-481 -90q-310 0 -478 89q-173 92 -173 266q0 160 137.5 254t384.5 94v131h262v-131q243 0 380.5 -95t137.5 -253zM1419 -18q0 78 -92 119q-99 44 -303 44q-198 0 -296.5 -43t-98.5 -120q0 -78 98 -120t297 -42q203 0 299 42t96 120z" />
    <glyph glyph-name="uni11F1" unicode="&#x11f1;" vert-adv-y="2176" 
d="M549 614h239v-188q115 -29 191 -113q96 -106 96 -268q0 -112 -51 -204q115 57 184 161q60 80 68 203v270h258v-268q8 -135 92 -215q98 -108 244 -151l-141 -209q-205 112 -314 258q-92 -152 -264 -266l-158 172q-112 -146 -327 -146q-191 0 -306 125q-102 113 -102 270
q0 156 96 264q76 88 195 117v188zM831 45q0 72 -36 119q-50 57 -129 57q-82 -4 -127 -59q-37 -47 -35 -117q0 -65 37 -118q49 -60 125 -58q86 -2 133 60q32 51 32 116z" />
    <glyph glyph-name="uni11F2" unicode="&#x11f2;" vert-adv-y="2176" 
d="M490 599h238v-204q114 -27 188 -110q98 -108 98 -269q0 -159 -99 -270q-113 -125 -310 -125q-192 0 -306 125q-102 113 -102 270q0 155 96 264q77 88 197 115v204zM1976 -338h-1039l510 835zM770 16q0 71 -38 119q-44 57 -128 57q-163 0 -163 -176q0 -66 40 -119
q47 -60 123 -60q87 0 131 63q35 50 35 116zM1598 -139l-142 222l-142 -222h284z" />
    <glyph glyph-name="uni11F3" unicode="&#x11f3;" vert-adv-y="2176" 
d="M1765 -307h-686v723h240v-172h207v172h239v-723zM1022 -305h-729v209h106v295h-102v209h721v-209h-109v-295h113v-209zM1526 -102v141h-207v-141h207zM696 -96v295h-84v-295h84z" />
    <glyph glyph-name="uni11F4" unicode="&#x11f4;" vert-adv-y="2176" 
d="M1661 352h-1286v228h250v251h-219v228h1224v-228h-219v-251h250v-228zM1427 -53q0 -138 -104 -227q-113 -97 -307 -97q-196 0 -307 96q-103 89 -103 228q0 136 100 225q112 100 312 100q192 0 306 -101q103 -91 103 -224zM1149 580v251h-262v-251h262zM1180 -53
q0 39 -29 69q-43 45 -135 45q-94 0 -135 -44q-27 -29 -27 -70q0 -59 46 -90q41 -27 116 -27q93 0 135 45q29 31 29 72z" />
    <glyph glyph-name="uni11F5" unicode="&#x11f5;" vert-adv-y="2176" 
d="M1815 -307h-621v817h270v-598h351v-219zM1108 260h-827v207h280v164h268v-164h279v-207zM1059 -68q0 -114 -91 -195q-103 -91 -278 -91q-176 0 -278 91q-90 80 -90 195t89 195q102 92 279 92q176 0 278 -91q91 -81 91 -196zM805 -68q0 32 -22 57q-31 36 -93 36
q-65 0 -94 -35q-21 -25 -21 -58q0 -36 20 -60q30 -36 95 -36q63 0 93 36q22 26 22 60z" />
    <glyph glyph-name="uni11F6" unicode="&#x11f6;" vert-adv-y="2176" 
d="M1823 -121l-2 -207h-654v500h351v117h-351v209h617v-506h-350v-113h389zM1087 260h-827v207h281v164h268v-164h278v-207zM1038 -68q0 -115 -90 -195q-102 -91 -278 -91q-177 0 -279 91q-90 80 -90 195t89 195q102 92 280 92q176 0 278 -91q90 -81 90 -196zM784 -68
q0 32 -21 57q-30 36 -93 36q-65 0 -94 -35q-21 -25 -21 -58q0 -36 20 -60q29 -36 95 -36q64 0 93 36q21 26 21 60z" />
    <glyph glyph-name="uni11F7" unicode="&#x11f7;" vert-adv-y="2176" 
d="M1853 -309h-692v805h692v-805zM1087 260h-827v207h281v164h268v-164h278v-207zM1038 -68q0 -115 -90 -195q-102 -91 -278 -91q-177 0 -279 91q-90 80 -90 195t89 195q102 92 280 92q176 0 278 -91q90 -81 90 -196zM1612 -94v377h-205v-377h205zM784 -68q0 32 -21 57
q-30 36 -93 36q-65 0 -94 -35q-21 -25 -21 -58q0 -36 20 -60q29 -36 95 -36q64 0 93 36q21 26 21 60z" />
    <glyph glyph-name="uni11F8" unicode="&#x11f8;" vert-adv-y="2176" 
d="M1843 -326h-721v822h258v-244h205v244h258v-822zM1049 260h-828v207h283v164h268v-164h277v-207zM999 -68q0 -115 -90 -195q-102 -91 -278 -91q-175 0 -277 91q-90 81 -90 195q0 115 89 195q102 92 278 92t278 -91q90 -81 90 -196zM1585 -121v168h-205v-168h205zM745 -68
q0 32 -21 57q-30 36 -93 36t-92 -35q-21 -25 -21 -58q0 -35 21 -60q30 -36 92 -36q65 0 94 36q20 25 20 60z" />
    <glyph glyph-name="uni11F9" unicode="&#x11f9;" vert-adv-y="2176" 
d="M1759 238h-1470v192h1470v-192zM1665 -94q0 -138 -163 -206.5t-478 -68.5q-317 0 -477 66q-166 69 -166 209t164.5 208t478.5 68q319 0 480 -68t161 -208zM1409 -94q0 52 -90.5 76t-294.5 24t-295.5 -24t-91.5 -76q0 -53 90.5 -76t296.5 -23t295.5 22.5t89.5 76.5z" />
    <glyph glyph-name="endash" unicode="&#x2013;" horiz-adv-x="1051" vert-adv-y="280" 
d="M1051 468h-1051v200h1051v-200z" />
    <glyph glyph-name="emdash" unicode="&#x2014;" horiz-adv-x="2101" vert-adv-y="280" 
d="M2101 468h-2101v200h2101v-200z" />
    <glyph glyph-name="uni2015" unicode="&#x2015;" vert-adv-y="280" 
d="M2048 466h-2048v200h2048v-200z" />
    <glyph glyph-name="quoteleft" unicode="&#x2018;" horiz-adv-x="572" vert-adv-y="900" 
d="M458 1496l-111 -456h-245l179 456h177z" />
    <glyph glyph-name="quoteright" unicode="&#x2019;" horiz-adv-x="572" vert-adv-y="900" 
d="M474 1496l-181 -456h-177l116 456h242z" />
    <glyph glyph-name="quotesinglbase" unicode="&#x201a;" horiz-adv-x="572" vert-adv-y="536" 
d="M449 222l-181 -456h-177l116 456h242z" />
    <glyph glyph-name="quotedblleft" unicode="&#x201c;" horiz-adv-x="966" vert-adv-y="900" 
d="M852 1496l-115 -456h-242l180 456h177zM458 1496l-111 -456h-245l179 456h177z" />
    <glyph glyph-name="quotedblright" unicode="&#x201d;" horiz-adv-x="966" vert-adv-y="900" 
d="M866 1496l-179 -456h-179l114 456h244zM474 1496l-181 -456h-177l116 456h242z" />
    <glyph glyph-name="quotedblbase" unicode="&#x201e;" horiz-adv-x="966" vert-adv-y="536" 
d="M843 222l-182 -456h-177l114 456h245zM449 222l-181 -456h-177l116 456h242z" />
    <glyph glyph-name="dagger" unicode="&#x2020;" horiz-adv-x="835" vert-adv-y="1302" 
d="M766 988h-256v-739h-189v739h-256v162h256v321h189v-321h256v-162z" />
    <glyph glyph-name="daggerdbl" unicode="&#x2021;" horiz-adv-x="835" vert-adv-y="1302" 
d="M766 576h-256v-327h-189v327h-256v158h256v260h-256v163h256v314h189v-314h256v-163h-256v-260h256v-158z" />
    <glyph glyph-name="bullet" unicode="&#x2022;" horiz-adv-x="855" vert-adv-y="616" 
d="M428 900q111 0 189 -79t78 -189q0 -109 -77.5 -188.5t-189.5 -79.5t-190 79.5t-78 188.5q0 110 78 189t190 79z" />
    <glyph glyph-name="twodotenleader" unicode="&#x2025;" horiz-adv-x="1073" vert-adv-y="388" 
d="M805 283q70 0 119.5 -46t49.5 -108t-49.5 -108t-119.5 -46q-69 0 -118.5 45t-49.5 109t49.5 109t118.5 45zM268 283q70 0 119.5 -45t49.5 -109t-49.5 -109t-119.5 -45t-118.5 45.5t-48.5 108.5t48.5 108.5t118.5 45.5z" />
    <glyph glyph-name="ellipsis" unicode="&#x2026;" horiz-adv-x="1807" vert-adv-y="387" 
d="M1340 131q0 67 47.5 110.5t117.5 43.5q73 0 120.5 -44t47.5 -110t-48 -109.5t-121 -43.5q-69 0 -116.5 44t-47.5 109zM737 131q0 67 47.5 110.5t118.5 43.5q72 0 119.5 -44.5t47.5 -109.5q0 -66 -48 -109.5t-119 -43.5q-69 0 -117.5 44t-48.5 109zM136 131
q0 65 46.5 109.5t117.5 44.5q72 0 120 -45t48 -109q0 -66 -48 -109.5t-121 -43.5q-69 0 -116 44.5t-47 108.5z" />
    <glyph glyph-name="perthousand" unicode="&#x2030;" horiz-adv-x="2612" vert-adv-y="1594" 
d="M88 1095q0 180 99.5 288.5t269.5 108.5q162 0 252 -98.5t90 -272.5q0 -178 -100.5 -285.5t-266.5 -107.5q-154 0 -249 100.5t-95 266.5zM283 1105q0 -216 162 -216q163 0 163 224q0 219 -158 219q-167 0 -167 -227zM1481 1472l-955 -1475h-219l955 1475h219zM1810 346
q0 182 101 290t266 108q161 0 252.5 -96.5t91.5 -275.5q0 -176 -100 -285t-267 -109q-154 0 -249 100.5t-95 267.5zM2005 356q0 -216 160 -216q164 0 164 224q0 106 -42.5 162t-114.5 56q-167 0 -167 -226zM994 346q0 180 99.5 289t267.5 109q164 0 253 -97t89 -275
q0 -176 -100 -285t-265 -109q-154 0 -249 100.5t-95 267.5zM1187 356q0 -216 162 -216t162 224q0 106 -42.5 162t-115.5 56q-166 0 -166 -226z" />
    <glyph glyph-name="minute" unicode="&#x2032;" horiz-adv-x="576" vert-adv-y="534" 
d="M451 1484l-121 -454h-181l73 454h229z" />
    <glyph glyph-name="second" unicode="&#x2033;" horiz-adv-x="966" vert-adv-y="536" 
d="M832 1484l-122 -456h-181l72 456h231zM461 1484l-123 -454h-181l72 454h232z" />
    <glyph glyph-name="guilsinglleft" unicode="&#x2039;" horiz-adv-x="707" vert-adv-y="777" 
d="M640 206h-245l-329 345l329 352h245l-334 -352z" />
    <glyph glyph-name="guilsinglright" unicode="&#x203a;" horiz-adv-x="707" vert-adv-y="777" 
d="M640 551l-328 -345h-246l334 345l-333 352h245z" />
    <glyph glyph-name="uni203B" unicode="&#x203b;" horiz-adv-x="1638" vert-adv-y="1600" 
d="M1579 1379l-644 -644l644 -643l-116 -117l-644 644l-643 -642l-117 117l644 641l-644 643l117 115l643 -642l644 644zM819 1390q58 0 102 -43.5t44 -102.5t-43 -103t-103 -44t-103 44t-43 103t44 102.5t102 43.5zM1473 735q0 -60 -43 -103t-103 -43t-103 43t-43 103
q0 59 43 103t103 44t103 -44t43 -103zM458 735q0 -58 -43.5 -102t-102.5 -44t-103 43t-44 103t43.5 103.5t103.5 43.5t103 -44.5t43 -102.5zM819 374q60 0 103 -43t43 -103t-43 -103t-103 -43t-103 43t-43 103t43 103t103 43z" />
    <glyph glyph-name="foursuperior" unicode="&#x2074;" horiz-adv-x="837" vert-adv-y="953" 
d="M776 789h-113v-190h-195v190h-404v129l364 554h235v-539h113v-144zM466 1309q-11 -30 -39 -78l-189 -298h230v288q0 33 5 88h-7z" />
    <glyph glyph-name="nsuperior" unicode="&#x207f;" horiz-adv-x="903" vert-adv-y="837" 
d="M795 735h-194v457q0 154 -127 154q-64 0 -117 -53.5t-51 -119.5v-438h-193v738h189v-109q74 128 230 128q263 0 263 -289v-468z" />
    <glyph glyph-name="oneinferior" unicode="&#x2081;" horiz-adv-x="864" vert-adv-y="973" 
d="M174 0v152h197v540l-211 -49v162l405 88v-741h195v-152h-586z" />
    <glyph glyph-name="twoinferior" unicode="&#x2082;" horiz-adv-x="864" vert-adv-y="973" 
d="M119 0v143l266 242q85 79 115 126.5t30 100.5q0 48 -33 80.5t-96 32.5q-112 0 -233 -104v192q120 80 266 80q140 0 221.5 -69t81.5 -187q0 -85 -51.5 -165.5t-178.5 -188.5l-142 -123h389v-160h-635z" />
    <glyph glyph-name="threeinferior" unicode="&#x2083;" horiz-adv-x="864" vert-adv-y="993" 
d="M555 461q90 -21 140 -77t50 -125q0 -131 -103.5 -205t-266.5 -74q-130 0 -238 53v166q118 -70 236 -70q176 0 176 121t-209 121h-113v149h109q184 0 184 117q0 48 -38.5 76t-104.5 28q-112 0 -209 -63v160q119 55 250 55q138 0 217.5 -62.5t79.5 -160.5q0 -152 -160 -209
z" />
    <glyph glyph-name="fourinferior" unicode="&#x2084;" horiz-adv-x="864" vert-adv-y="952" 
d="M672 193v-193h-191v193h-432v122l391 557h232v-540h123v-139h-123zM428 635l-203 -303h256v295q0 44 4 92q-35 -51 -57 -84z" />
    <glyph glyph-name="uni20A0" unicode="&#x20a0;" horiz-adv-x="1384" vert-adv-y="1578" 
d="M1307 0h-670v395q-245 4 -390 152.5t-145 374.5q0 262 156.5 419t419.5 157q163 0 264 -47v-244q-112 68 -238 68q-147 0 -233 -89.5t-86 -244.5q0 -278 252 -319v429h647v-212h-368v-207h345v-212h-345v-208h391v-212z" />
    <glyph glyph-name="uni20A1" unicode="&#x20a1;" horiz-adv-x="1132" vert-adv-y="1796" 
d="M466 -77l29 95q-39 13 -87 42l-41 -137h-131l65 217q-212 206 -212 565q0 329 170 542t452 245l44 147h133l-45 -147q55 -2 95 -11l47 158h133l-62 -204q5 -2 12 -4q6 -2 11 -5v-239q-41 21 -87 39l-305 -1006q41 -11 88 -11q157 0 304 81v-237q-158 -79 -356 -79
q-50 0 -107 11l-19 -62h-131zM772 1261l-281 -927q28 -32 79 -66l299 990q-25 3 -97 3zM405 482l226 747q-265 -115 -265 -504q0 -138 39 -243z" />
    <glyph glyph-name="uni20A2" unicode="&#x20a2;" horiz-adv-x="1132" vert-adv-y="1602" 
d="M1075 745q-52 23 -101 23q-193 0 -193 -321v-238h17q138 0 277 79v-237q-154 -77 -352 -77q-275 0 -454.5 198t-179.5 533q0 365 200 578t486 213q156 0 300 -51v-257q-134 75 -279 75q-194 0 -312 -145.5t-118 -392.5q0 -317 186 -446v691h229v-182h5q70 199 221 199
q40 0 68 -9v-233z" />
    <glyph glyph-name="franc" unicode="&#x20a3;" horiz-adv-x="1074" vert-adv-y="1552" 
d="M996 1235h-535v-405h493v-234h-493v-181h270v-196h-270v-219h-285v219h-167v196h167v1057h820v-237z" />
    <glyph glyph-name="lira" unicode="&#x20a4;" horiz-adv-x="1187" vert-adv-y="1576" 
d="M603 521v-10q0 -204 -168 -293h676v-218h-976v205q206 56 206 275v41h-184v170h184v117h-184v170h184v68q0 196 123 323t323 127q128 0 233 -48v-234q-101 65 -214 65q-203 0 -203 -259v-42h283v-170h-283v-117h283v-170h-283z" />
    <glyph glyph-name="uni20A5" unicode="&#x20a5;" horiz-adv-x="1891" vert-adv-y="1649" 
d="M1557 1325l-148 -249h10q344 0 344 -424v-652h-277v600q0 259 -189 259h-9q-4 0 -9 -1l-186 -316v-542h-278v76l-187 -320h-190l377 641v214q0 248 -186 248q-94 0 -149 -78t-55 -192v-589h-279v1051h279v-166h4q118 191 336 191q222 0 302 -202q39 70 98 113l200 338
h192z" />
    <glyph glyph-name="uni20A6" unicode="&#x20a6;" horiz-adv-x="1430" vert-adv-y="1552" 
d="M32 819v170h148v483h291l235 -483h294v483h242v-483h156v-170h-156v-117h156v-170h-156v-532h-274l-264 532h-283v-532h-241v532h-148v170h148v117h-148zM414 1127q3 -25 5 -138h61q-44 93 -61 138h-5zM846 702h154v117h-211zM421 702h199l-58 117h-141v-117zM1007 371
q-6 38 -6 161h-73q32 -64 76 -161h3z" />
    <glyph glyph-name="peseta" unicode="&#x20a7;" horiz-adv-x="2630" vert-adv-y="1578" 
d="M460 522v-522h-285v1472h402q532 0 532 -461q0 -224 -160 -359.5t-405 -129.5h-84zM460 1245v-500h61q288 0 288 255q0 245 -282 245h-67zM1780 11q-73 -36 -198 -36q-157 0 -229.5 78.5t-72.5 248.5v420h-152v196h152v235l264 82v-317h236v-196h-236v-371
q0 -173 131 -173q54 0 105 30v-197zM1845 255q148 -97 290 -97t142 100q0 55 -100 93q-206 75 -268.5 132.5t-62.5 156.5q0 140 102.5 219t269.5 79q134 0 256 -44v-210q-113 70 -245 70q-124 0 -124 -87q0 -46 111 -87q188 -73 252.5 -131.5t64.5 -162.5q0 -312 -395 -312
q-164 0 -293 56v225z" />
    <glyph glyph-name="uni20A8" unicode="&#x20a8;" horiz-adv-x="1997" vert-adv-y="1578" 
d="M1169 0h-329l-144 398q-66 183 -198 183h-37v-581h-285v1472h425q502 0 502 -403q0 -147 -81 -255.5t-225 -145.5v-4q107 -34 186 -212zM461 1250v-446h101q110 0 175.5 65.5t65.5 170.5q0 210 -242 210h-100zM1199 252q153 -94 291 -94q146 0 146 99q0 59 -133 104
q-199 69 -251 131.5t-52 152.5q0 136 101 215t274 79q133 0 259 -41v-211q-116 68 -248 68q-126 0 -126 -85q0 -34 33 -55.5t94 -43.5q177 -64 240.5 -122t63.5 -165q0 -310 -400 -310q-158 0 -292 55v223z" />
    <glyph glyph-name="uni20A9" unicode="&#x20a9;" horiz-adv-x="1680" vert-adv-y="1552" 
d="M1652 971v-170h-197l-21 -118h217l1 -170h-251l-97 -513h-258l-95 513h-219l-95 -513h-267l-98 513h-243v170h210l-21 118h-189v170h157l-95 501h235l83 -501h230l98 501h236l89 -501h218l80 501h223l-95 -501h164zM841 1150q-2 -61 -23 -179h49q-18 90 -22 179h-4z
M456 683h128l22 118h-169zM764 683h156l-22 118h-112zM1112 683h120l20 118h-159zM498 443q10 -51 14 -163h5q5 89 21 166l12 67h-65zM1158 434q7 -40 16 -152h3q4 70 16 158l13 73h-62z" />
    <glyph glyph-name="uni20AA" unicode="&#x20aa;" horiz-adv-x="1107" vert-adv-y="1132" 
d="M500 798v-642h255q97 0 97 112v784h152v-811q0 -109 -64.5 -175t-178.5 -66h-410v798h149zM99 0v1052h410q114 0 178.5 -66t64.5 -176v-556h-153v531q0 112 -96 112h-256v-897h-148z" />
    <glyph glyph-name="uni20AB" unicode="&#x20ab;" horiz-adv-x="1324" vert-adv-y="1968" 
d="M1136 0h-278v155h-5q-112 -181 -335 -181q-201 0 -318.5 142.5t-117.5 385.5q0 258 132 416t347 158q207 0 292 -153h5v288h-339v188h339v156h278v-156h145v-188h-145v-1211zM862 601q0 111 -68 184.5t-171 73.5q-121 0 -190 -93.5t-69 -255.5q0 -149 65.5 -233.5
t182.5 -84.5q111 0 181.5 88.5t68.5 220.5v100zM1125 -333h-1006v179h1006v-179z" />
    <glyph glyph-name="Euro" unicode="&#x20ac;" horiz-adv-x="1187" vert-adv-y="1603" 
d="M1099 48q-124 -75 -308 -75q-459 0 -556 500h-125v181h102l-1 30q-1 43 4 127h-105v178h132q54 240 210.5 373.5t377.5 133.5q163 0 269 -57v-237q-114 86 -261 86q-113 0 -204.5 -79.5t-129.5 -219.5h458v-178h-486q-7 -64 -2 -157h488v-181h-462q76 -292 322 -292
q143 0 277 91v-224z" />
    <glyph glyph-name="uni20AD" unicode="&#x20ad;" horiz-adv-x="1268" vert-adv-y="1552" 
d="M1240 0h-355l-348 552q-24 38 -42 83h-6v-635h-285v656h-159v201h159v615h285v-609h6q23 50 46 81l352 528h331l-442 -615h360v-201h-349z" />
    <glyph glyph-name="uni20AE" unicode="&#x20ae;" horiz-adv-x="1063" vert-adv-y="1552" 
d="M897 777v-180l-224 -127v-470h-286v310l-225 -127v180l225 126v175l-225 -125v179l225 127v390h-353v237h992v-237h-353v-230l224 126v-179l-224 -127v-175z" />
    <glyph glyph-name="uni20AF" unicode="&#x20af;" horiz-adv-x="2463" vert-adv-y="2127" 
d="M1180 1469q279 -32 419 -193.5t140 -428.5q0 -345 -210.5 -593t-587.5 -248q-201 0 -361 115q-131 -115 -306 -115q-102 0 -163.5 56.5t-61.5 147.5q0 93 66.5 150.5t165.5 57.5q123 0 248 -91q103 197 170 519q72 314 185 497q-262 -34 -556 -271l-66 97
q368 294 723 307q134 136 353 219l62 -77q-120 -52 -220 -149zM1097 1347q-78 -131 -188 -547q-101 -391 -237 -577q136 -90 272 -90q259 0 417 207.5t158 491.5q0 464 -422 515zM454 217q-110 83 -173 83q-46 0 -74.5 -24.5t-28.5 -62.5q0 -42 28 -66.5t70 -24.5
q95 0 178 95zM1699 316q34 114 75 183t121 113t198 44q138 0 221.5 -80t83.5 -212q0 -159 -97.5 -260t-259.5 -101q-123 0 -202 87l-129 -442h-209zM2041 137q72 0 118 63t46 152q0 78 -33 125t-91 47q-80 0 -126 -69t-46 -156q0 -72 35 -117t97 -45z" />
    <glyph glyph-name="uni20B0" unicode="&#x20b0;" horiz-adv-x="989" vert-adv-y="2066" 
d="M44 0l274 594l72 -281q39 112 115 365q-145 276 -175.5 378.5t-30.5 191.5q0 131 72.5 214t185.5 83q100 0 156.5 -65t56.5 -189q0 -130 -123 -515q195 -339 240.5 -493t45.5 -297q0 -167 -126.5 -297t-330.5 -130q-28 0 -28 27q-2 18 17 25q102 30 175 134.5t73 238.5
q0 263 -151 570l-207 -646l-111 319l-85 -227h-115zM581 901q83 246 83 381q0 164 -98 164q-97 0 -97 -170q0 -144 112 -375z" />
    <glyph glyph-name="uni20B1" unicode="&#x20b1;" horiz-adv-x="1311" vert-adv-y="1552" 
d="M176 0v731h-147v148h147v125h-147v148h147v320h433q399 0 501 -320h172v-149h-146q4 -17 4 -48q0 -37 -6 -76h148v-148h-191q-64 -154 -201 -240.5t-312 -86.5h-117v-404h-285zM461 1152h312q-67 93 -212 93h-100v-93zM461 879h374q7 37 7 68q0 22 -5 57h-376v-125z
M461 631h95q139 0 210 100h-305v-100z" />
    <glyph glyph-name="uni2103" unicode="&#x2103;" horiz-adv-x="1946" vert-adv-y="1598" 
d="M1837 57q-172 -80 -426 -80q-342 0 -543.5 201t-201.5 527q0 352 224 571t576 219q202 0 371 -57v-273q-154 82 -350 82q-238 0 -383.5 -141t-145.5 -383q0 -230 136 -365t366 -135q211 0 377 90v-256zM344 918q-118 0 -201.5 84.5t-83.5 201.5q0 118 83 203.5t202 85.5
q121 0 206 -85.5t85 -203.5q0 -117 -85.5 -201.5t-205.5 -84.5zM346 1350q-58 0 -100.5 -42t-42.5 -102q0 -61 42.5 -101t100.5 -40q60 0 101.5 40.5t41.5 100.5q0 59 -41.5 101.5t-101.5 42.5z" />
    <glyph glyph-name="uni2109" unicode="&#x2109;" horiz-adv-x="1946" vert-adv-y="1573" 
d="M473 918q-118 0 -202.5 84t-84.5 202q0 119 84 204t203 85q121 0 204 -85.5t83 -203.5q0 -117 -83.5 -201.5t-203.5 -84.5zM475 1350q-58 0 -100.5 -42t-42.5 -102q0 -61 42.5 -101t100.5 -40t100.5 40t42.5 101q0 60 -42.5 102t-100.5 42zM1141 1233v-402h514v-233h-514
v-598h-285v1470h844v-237h-559z" />
    <glyph glyph-name="afii61289" unicode="&#x2113;" horiz-adv-x="679" vert-adv-y="1635" 
d="M13 433l183 242v466q0 240 60.5 314.5t179.5 74.5q109 0 167 -64.5t58 -181.5q0 -198 -292 -601v-426q0 -87 12 -110.5t47 -23.5q49 0 203 109v-166q-117 -91 -231 -91q-204 0 -204 247v231l-82 -100zM369 922q99 169 124 234t25 128q0 122 -78 122q-28 0 -49.5 -30.5
t-21.5 -220.5v-233z" />
    <glyph glyph-name="afii61352" unicode="&#x2116;" horiz-adv-x="2479" vert-adv-y="1572" 
d="M1539 1055q0 207 111.5 322t316.5 115q193 0 301 -113t108 -310q0 -210 -113.5 -329.5t-310.5 -119.5q-196 0 -304.5 115.5t-108.5 319.5zM1777 1057q0 -242 183 -242q176 0 176 247q0 240 -175 240q-184 0 -184 -245zM1381 0h-299l-578 982q-23 40 -60 115h-5
q8 -50 8 -226v-871h-271v1472h318l550 -949l69 -123h4q-8 52 -8 204v868h272v-1472zM2346 267h-783v202h783v-202z" />
    <glyph glyph-name="uni2121" unicode="&#x2121;" horiz-adv-x="1946" vert-adv-y="1550" 
d="M598 1233v-1233h-285v1233h-272v237h829v-237h-272zM1030 637h191v-201h-191v-235h248v-201h-524v1051h506v-201h-230v-213zM1905 217v-217h-525v1051h275v-834h250z" />
    <glyph glyph-name="trademark" unicode="&#x2122;" horiz-adv-x="1622" vert-adv-y="760" 
d="M1432 792h-142v467h-4l-182 -467h-115l-170 467h-5v-467h-139v680h196l182 -478h3l190 478h186v-680zM603 1353h-193v-561h-145v561h-187v119h525v-119z" />
    <glyph glyph-name="Ohm" unicode="&#x2126;" horiz-adv-x="1603" vert-adv-y="1576" 
d="M920 0v233q294 241 294 571q0 101 -31 183.5t-85.5 141t-129 90t-162.5 31.5q-91 0 -167.5 -31.5t-131.5 -90t-86 -142.5t-31 -189q0 -318 291 -564v-233h-592v234l351 -1q-350 213 -350 604q0 151 52.5 272.5t147 207.5t224.5 132.5t286 46.5q159 0 290.5 -47t225 -133
t145 -206.5t51.5 -268.5q0 -397 -357 -608l356 1v-234h-591z" />
    <glyph glyph-name="uni212B" unicode="&#x212b;" horiz-adv-x="1503" vert-adv-y="1886" 
d="M1171 0l-133 356h-579l-127 -356h-309l552 1423q-71 57 -71 152q0 105 71.5 168t180.5 63t178.5 -63.5t69.5 -163.5q0 -98 -72 -154l549 -1425h-310zM752 1677q-53 0 -83 -28.5t-30 -71.5q0 -42 30 -70t83 -28q50 0 83 29t33 69q0 42 -32 71t-84 29zM780 1112
q-17 48 -28 119q-15 -60 -35 -113l-191 -534h443z" />
    <glyph glyph-name="onethird" unicode="&#x2153;" vert-adv-y="1594" 
d="M184 600v152h197v540l-211 -49v162l405 88v-741h193v-152h-584zM690 0h-223l958 1470h222zM1683 461q95 -22 144 -80t49 -127q0 -122 -102 -198t-267 -76q-139 0 -239 53v166q113 -70 235 -70q174 0 174 121t-207 121h-114v149h110q183 0 183 117q0 48 -37.5 76
t-102.5 28q-112 0 -213 -63v160q119 55 252 55q138 0 216.5 -62t78.5 -161q0 -154 -160 -205v-4z" />
    <glyph glyph-name="twothirds" unicode="&#x2154;" vert-adv-y="1594" 
d="M135 600v143q68 60 133 121t133 121q99 89 122.5 133.5t23.5 93.5q0 47 -33 80t-96 33q-115 0 -232 -104v192q119 80 265 80q141 0 222 -69t81 -189q0 -76 -44.5 -153.5t-189.5 -198.5l-139 -121v-2h389v-160h-635zM690 0h-223l958 1470h222zM1683 461q95 -22 144 -80
t49 -127q0 -122 -102 -198t-267 -76q-139 0 -239 53v166q113 -70 235 -70q174 0 174 121t-207 121h-114v149h110q183 0 183 117q0 48 -37.5 76t-102.5 28q-112 0 -213 -63v160q119 55 252 55q138 0 216.5 -62t78.5 -161q0 -154 -160 -205v-4z" />
    <glyph glyph-name="oneeighth" unicode="&#x215b;" horiz-adv-x="2004" vert-adv-y="1592" 
d="M680 599h-559v158h183v526l-197 -47v168l392 88v-735h181v-158zM1511 1472l-905 -1472h-219l904 1472h220zM1393 457q-138 67 -138 200q0 104 83.5 170t215.5 66q127 0 208 -62.5t81 -162.5q0 -135 -148 -211q172 -63 172 -223q0 -117 -88.5 -185.5t-245.5 -68.5
q-135 0 -220.5 68t-85.5 177q0 154 166 232zM1657 654q0 92 -106 92q-47 0 -78.5 -25.5t-31.5 -66.5q0 -71 107 -116q109 45 109 116zM1541 377q-128 -48 -128 -145q0 -44 39 -74t96 -30q132 0 132 104q0 96 -139 145z" />
    <glyph glyph-name="threeeighths" unicode="&#x215c;" horiz-adv-x="2024" vert-adv-y="1592" 
d="M133 807q110 -74 226 -74q161 0 161 116q0 118 -191 118h-110v156h106q167 0 167 110q0 101 -129 101q-107 0 -200 -69v170q99 57 238 57q130 0 207 -61.5t77 -163.5q0 -152 -148 -203v-4q178 -42 178 -205q0 -122 -96.5 -199.5t-254.5 -77.5q-138 0 -231 54v175z
M1533 1472l-905 -1472h-219l904 1472h220zM1416 457q-138 67 -138 200q0 104 83.5 170t215.5 66q127 0 208 -62.5t81 -162.5q0 -135 -148 -211q172 -63 172 -223q0 -117 -88.5 -185.5t-245.5 -68.5q-135 0 -220.5 68t-85.5 177q0 154 166 232zM1680 654q0 92 -106 92
q-47 0 -78.5 -25.5t-31.5 -66.5q0 -71 107 -116q109 45 109 116zM1564 377q-128 -48 -128 -145q0 -44 39 -74t96 -30q132 0 132 104q0 96 -139 145z" />
    <glyph glyph-name="fiveeighths" unicode="&#x215d;" horiz-adv-x="2024" vert-adv-y="1576" 
d="M139 795q107 -64 204 -64q164 0 164 134q0 130 -185 130q-59 0 -157 -12v491h497v-162h-326v-165q175 16 271.5 -60t96.5 -207q0 -135 -95.5 -218.5t-251.5 -83.5q-131 0 -218 40v177zM1531 1472l-905 -1472h-219l904 1472h220zM1414 455q-138 67 -138 200
q0 104 83.5 170t215.5 66q127 0 208 -62.5t81 -162.5q0 -135 -148 -211q172 -63 172 -223q0 -117 -88.5 -185.5t-245.5 -68.5q-135 0 -220.5 68t-85.5 177q0 154 166 232zM1678 652q0 92 -106 92q-47 0 -78.5 -25.5t-31.5 -66.5q0 -71 107 -116q109 45 109 116zM1562 375
q-128 -48 -128 -145q0 -44 39 -74t96 -30q132 0 132 104q0 96 -139 145z" />
    <glyph glyph-name="seveneighths" unicode="&#x215e;" horiz-adv-x="1925" vert-adv-y="1573" 
d="M739 1384l-327 -788h-206l320 715h-416v160h629v-87zM1435 1472l-905 -1472h-219l904 1472h220zM1315 456q-138 67 -138 200q0 104 83.5 170t215.5 66q127 0 208 -62.5t81 -162.5q0 -135 -148 -211q172 -63 172 -223q0 -117 -88.5 -185.5t-245.5 -68.5q-135 0 -220.5 68
t-85.5 177q0 154 166 232zM1579 653q0 92 -106 92q-47 0 -78.5 -25.5t-31.5 -66.5q0 -71 107 -116q109 45 109 116zM1463 376q-128 -48 -128 -145q0 -44 39 -74t96 -30q132 0 132 104q0 96 -139 145z" />
    <glyph glyph-name="uni2160" unicode="&#x2160;" vert-adv-y="1550" 
d="M1415 238v-238h-782v238h250v995h-250v237h782v-237h-250v-995h250z" />
    <glyph glyph-name="uni2161" unicode="&#x2161;" vert-adv-y="1550" 
d="M258 0v238h242v995h-242v237h1532v-237h-242v-995h242v-238h-1532zM776 238h496v995h-496v-995z" />
    <glyph glyph-name="uni2162" unicode="&#x2162;" vert-adv-y="1550" 
d="M195 238h149v995h-149v237h1658v-237h-147v-995h147v-238h-1658v238zM1155 238h291v995h-291v-995zM893 1233h-291v-995h291v995z" />
    <glyph glyph-name="uni2163" unicode="&#x2163;" vert-adv-y="1550" 
d="M1464 0h-313l-469 1470h301l295 -1050q25 -90 39 -211q6 110 39 215l286 1046h297zM240 1233h-111v237h498v-237h-111v-995h111v-238h-498v238h111v995z" />
    <glyph glyph-name="uni2164" unicode="&#x2164;" vert-adv-y="1550" 
d="M1178 0h-314l-538 1470h305l360 -1067q23 -68 35 -143q10 59 43 148l358 1062h295z" />
    <glyph glyph-name="uni2165" unicode="&#x2165;" vert-adv-y="1550" 
d="M891 0h-313l-469 1470h303l293 -1050q22 -78 34 -211q12 96 43 215l289 1046h295zM1532 1233h-111v237h498v-237h-111v-995h111v-238h-498v238h111v995z" />
    <glyph glyph-name="uni2166" unicode="&#x2166;" vert-adv-y="1550" 
d="M1120 1233h-90v237h885v-237h-92v-995h92v-238h-885v238h90v995zM1378 238h189v995h-189v-995zM569 193q7 139 25 266l141 1011h281l-301 -1470h-314l-292 1470h286l142 -1015q5 -38 32 -262z" />
    <glyph glyph-name="uni2167" unicode="&#x2167;" vert-adv-y="1550" 
d="M823 0v238h66v995h-66v237h1114v-237h-67v-995h67v-238h-1114zM1503 238h123v995h-123v-995zM1135 238h122v995h-122v-995zM440 193q17 236 31 358l98 919h242l-219 -1470h-311l-195 1470h254l78 -923q13 -175 22 -354z" />
    <glyph glyph-name="uni2168" unicode="&#x2168;" vert-adv-y="1550" 
d="M1591 0l-250 496q-29 58 -41 100q-12 -48 -43 -100l-253 -496h-332l446 737l-407 733h338l213 -460q21 -46 49 -131q22 69 57 135l227 456h316l-418 -727l428 -743h-330zM240 1233h-111v237h498v-237h-111v-995h111v-238h-498v238h111v995z" />
    <glyph glyph-name="uni2169" unicode="&#x2169;" vert-adv-y="1550" 
d="M1364 0l-295 506q-31 54 -37 90q-16 -44 -47 -90l-299 -506h-340l500 737l-459 733h346l256 -469q21 -38 55 -122q17 67 104 214l224 377h320l-471 -727l481 -743h-338z" />
    <glyph glyph-name="uni2170" unicode="&#x2170;" vert-adv-y="1618" 
d="M1026 1237q-71 0 -119.5 43.5t-48.5 105.5q0 66 48 109t120 43q73 0 120.5 -43t47.5 -109q0 -62 -47.5 -105.5t-120.5 -43.5zM887 0v1051h274v-1051h-274z" />
    <glyph glyph-name="uni2171" unicode="&#x2171;" vert-adv-y="1618" 
d="M635 1237q-71 0 -119.5 43.5t-48.5 105.5q0 66 48 109t120 43q74 0 121 -42.5t47 -109.5q0 -62 -47.5 -105.5t-120.5 -43.5zM1411 1237q-70 0 -118 43.5t-48 105.5q0 66 47.5 109t118.5 43q75 0 122.5 -42t47.5 -110q0 -62 -48 -105.5t-122 -43.5zM494 0v1051h278v-1051
h-278zM1274 0v1051h276v-1051h-276z" />
    <glyph glyph-name="uni2172" unicode="&#x2172;" vert-adv-y="1618" 
d="M438 1237q-70 0 -119 43t-49 106q0 64 48 108t120 44q76 0 123 -42.5t47 -109.5q0 -62 -47.5 -105.5t-122.5 -43.5zM1608 1237q-70 0 -119 43t-49 106q0 66 47.5 109t120.5 43q75 0 122.5 -43t47.5 -109q0 -62 -48 -105.5t-122 -43.5zM1026 1237q-71 0 -119.5 43.5
t-48.5 105.5q0 64 48 108t120 44q73 0 120.5 -43t47.5 -109q0 -62 -47.5 -105.5t-120.5 -43.5zM299 0v1051h276v-1051h-276zM1468 0v1051h277v-1051h-277zM887 0v1051h274v-1051h-274z" />
    <glyph glyph-name="uni2173" unicode="&#x2173;" vert-adv-y="1618" 
d="M440 1237q-70 0 -119 43t-49 106q0 66 48 109t120 43q75 0 122.5 -42t47.5 -110q0 -62 -47.5 -105.5t-122.5 -43.5zM301 0v1051h277v-1051h-277zM1382 0h-303l-422 1051h304l237 -689q30 -88 45 -169q12 68 43 163l242 695h295z" />
    <glyph glyph-name="uni2174" unicode="&#x2174;" vert-adv-y="1131" 
d="M1163 0h-303l-418 1051h299l238 -689q35 -100 49 -169q10 68 41 163l244 695h293z" />
    <glyph glyph-name="uni2175" unicode="&#x2175;" vert-adv-y="1618" 
d="M1608 1237q-74 0 -122 43.5t-48 105.5q0 66 48 109t122 43q72 0 120 -43t48 -109q0 -62 -48.5 -105.5t-119.5 -43.5zM1473 0v1051h274v-1051h-274zM948 0h-303l-420 1051h299l238 -689q34 -98 49 -169q3 46 41 163l242 695h297z" />
    <glyph glyph-name="uni2176" unicode="&#x2176;" vert-adv-y="1618" 
d="M1217 1237q-73 0 -118.5 42.5t-45.5 106.5q0 67 45.5 109.5t118.5 42.5q72 0 117.5 -43t45.5 -109q0 -64 -46 -106.5t-117 -42.5zM1700 1237q-73 0 -119.5 42.5t-46.5 106.5q0 69 46 110.5t120 41.5q70 0 116 -43t46 -109q0 -63 -45.5 -106t-116.5 -43zM623 457l122 594
h291l-315 -1051h-303l-295 1051h295l121 -588q23 -114 39 -287q13 107 45 281zM1083 0v1051h273v-1051h-273zM1565 0v1051h270v-1051h-270z" />
    <glyph glyph-name="uni2177" unicode="&#x2177;" vert-adv-y="1618" 
d="M1028 1239q-61 0 -105 43t-44 104q0 64 44 108t105 44t105.5 -44t44.5 -108q0 -61 -44 -104t-106 -43zM1395 1239q-61 0 -104.5 44t-43.5 103q0 62 43.5 107t104.5 45q63 0 107 -45t44 -107q0 -59 -43.5 -103t-107.5 -44zM1763 1239q-61 0 -104 43.5t-43 103.5
q0 63 43 107.5t104 44.5t105.5 -44t44.5 -108q0 -61 -44 -104t-106 -43zM475 176q11 146 31 281l98 594h254l-242 -1051h-303l-229 1051h260l92 -588q13 -85 39 -287zM909 0v1051h242v-1051h-242zM1278 0v1051h240v-1051h-240zM1645 0v1051h243v-1051h-243z" />
    <glyph glyph-name="uni2178" unicode="&#x2178;" vert-adv-y="1618" 
d="M432 1237q-71 0 -118.5 43t-47.5 106q0 66 47.5 109t118.5 43q74 0 121 -42.5t47 -109.5q0 -64 -47.5 -106.5t-120.5 -42.5zM293 0v1051h276v-1051h-276zM1446 532l379 -532h-328l-190 301q-37 58 -52 102q-17 -36 -55 -100l-194 -303h-328l393 522l-375 529h332
l191 -320q25 -41 51 -94q22 50 53 98l197 316h311z" />
    <glyph glyph-name="uni2179" unicode="&#x2179;" vert-adv-y="1131" 
d="M1217 532l378 -532h-327l-191 301q-38 60 -49 102q-28 -48 -68 -114l-184 -289h-327l391 522l-373 529h334l188 -320q46 -78 55 -94q8 20 50 98l196 316h312z" />
    <glyph glyph-name="arrowleft" unicode="&#x2190;" vert-adv-y="861" 
d="M598 526q103 -99 162 -231l-144 -70q-57 138 -177.5 229.5t-241.5 91.5v139q122 0 243 91.5t176 229.5l144 -70q-68 -155 -160 -231h1251v-179h-1253z" />
    <glyph glyph-name="arrowup" unicode="&#x2191;" vert-adv-y="1735" 
d="M934 1038q-78 -92 -229 -159l-70 143q140 57 229.5 179t89.5 241h140q0 -120 90.5 -242.5t228.5 -177.5l-70 -143q-129 58 -229 161v-1253h-180v1251z" />
    <glyph glyph-name="arrowright" unicode="&#x2192;" vert-adv-y="861" 
d="M1448 705q-92 76 -160 231l144 70q55 -137 176 -229t243 -92v-139q-121 0 -241.5 -91.5t-177.5 -229.5l-144 70q59 132 162 231h-1253v179h1251z" />
    <glyph glyph-name="arrowdown" unicode="&#x2193;" vert-adv-y="1735" 
d="M1114 190q76 92 229 160l70 -141q-138 -58 -228.5 -180t-90.5 -242h-140q0 119 -89.5 240.5t-229.5 181.5l70 141q132 -59 229 -162v1254h180v-1252z" />
    <glyph glyph-name="arrowboth" unicode="&#x2194;" vert-adv-y="861" 
d="M598 526q103 -99 162 -231l-144 -70q-57 138 -177.5 229t-241.5 91v139q122 0 243 92t176 230l144 -70q-68 -155 -160 -231h848q-92 76 -160 231l144 70q55 -138 176 -230t243 -92v-139q-121 0 -241.5 -91t-177.5 -229l-144 70q59 132 162 231h-852z" />
    <glyph glyph-name="arrowupdn" unicode="&#x2195;" vert-adv-y="1735" 
d="M934 1040q-100 -103 -229 -161l-70 143q140 57 229.5 179t89.5 241h140q0 -120 90.5 -242.5t228.5 -177.5l-70 -143q-151 67 -229 159v-848q76 92 229 160l70 -141q-138 -58 -228.5 -180t-90.5 -242h-140q0 119 -89.5 240.5t-229.5 181.5l70 141q132 -59 229 -162v852z
" />
    <glyph glyph-name="uni2196" unicode="&#x2196;" vert-adv-y="1362" 
d="M657 852q4 -136 -47 -277l-149 52q39 93 39 206q0 202 -113 316l100 100q114 -111 316 -111q115 0 207 40l51 -150q-147 -57 -275 -51l883 -883l-125 -127z" />
    <glyph glyph-name="uni2197" unicode="&#x2197;" vert-adv-y="1362" 
d="M1262 977q-126 -6 -277 51l51 150q93 -40 208 -40q201 0 315 111l100 -100q-112 -114 -112 -314q0 -116 40 -208l-151 -52q-51 141 -47 277l-887 -885l-125 127z" />
    <glyph glyph-name="uni2198" unicode="&#x2198;" vert-adv-y="1364" 
d="M1389 377q-4 141 47 276l151 -49q-40 -93 -40 -209q0 -199 112 -315l-100 -100q-115 112 -317 112q-112 0 -206 -39l-51 150q145 55 277 51l-885 883l125 127z" />
    <glyph glyph-name="uni2199" unicode="&#x2199;" vert-adv-y="1364" 
d="M786 254q136 4 277 -51l-51 -150q-94 39 -206 39q-202 0 -317 -112l-100 100q112 116 112 315q0 116 -40 209l151 49q51 -135 47 -276l887 887l125 -127z" />
    <glyph glyph-name="uni21D2" unicode="&#x21d2;" vert-adv-y="995" 
d="M197 899h1048l-26 47q-14 24 -25 51l154 76q60 -158 214 -270.5t300 -112.5v-151q-149 0 -301.5 -112.5t-212.5 -268.5l-154 75q17 53 49 99h-1046v170h1183q72 65 160 112q-63 30 -158 113h-1185v172z" />
    <glyph glyph-name="uni21D4" unicode="&#x21d4;" vert-adv-y="995" 
d="M719 332q25 -39 51 -99l-154 -75q-66 159 -218 270t-298 111v151q145 0 297.5 111.5t218.5 271.5l154 -76q-8 -16 -53 -98h614l-53 98l156 76q67 -163 219 -273t295 -110v-151q-148 0 -299.5 -112t-214.5 -269l-156 75q44 89 51 99h-610zM578 727q-90 -80 -156 -113
q92 -50 158 -112h888q67 62 160 112q-69 33 -158 113h-892z" />
    <glyph glyph-name="uni2200" unicode="&#x2200;" horiz-adv-x="1503" vert-adv-y="1550" 
d="M332 1470l133 -356h579l130 356h307l-572 -1470h-321l-565 1470h309zM721 358q27 -76 31 -120q8 46 36 114l189 535h-442z" />
    <glyph glyph-name="partialdiff" unicode="&#x2202;" horiz-adv-x="1188" vert-adv-y="1642" 
d="M857 900l2 30q10 150 -47.5 270t-208.5 120q-133 0 -270 -75l58 228q137 63 282 63q470 0 470 -586q0 -402 -178 -689t-487 -287q-194 0 -308 115t-114 311q0 259 149.5 456t383.5 197q176 0 264 -153h4zM826 676q-45 174 -184 174q-122 0 -212 -135.5t-90 -305.5
q0 -217 167 -217q114 0 203 130t116 354z" />
    <glyph glyph-name="uni2203" unicode="&#x2203;" horiz-adv-x="1157" vert-adv-y="1550" 
d="M973 1470v-1470h-842v238h557v372h-516v236h516v387h-592v237h877z" />
    <glyph glyph-name="uni2207" unicode="&#x2207;" horiz-adv-x="1593" vert-adv-y="1550" 
d="M1522 1470v-116l-561 -1354h-334l-555 1354v116h1450zM760 373q26 -66 47 -133q8 55 39 133l334 862h-756z" />
    <glyph glyph-name="uni2208" unicode="&#x2208;" vert-adv-y="1309" 
d="M1714 1229v-178h-760q-416 0 -458 -346h1218v-179h-1218q46 -348 446 -348h772v-178h-733q-326 0 -499 161.5t-173 463.5q0 283 177 443.5t483 160.5h745z" />
    <glyph glyph-name="uni220B" unicode="&#x220b;" vert-adv-y="1309" 
d="M334 705h1218q-46 346 -446 346h-772v178h733q323 0 497.5 -161t174.5 -464q0 -284 -178.5 -444t-481.5 -160h-745v178h760q415 0 458 348h-1218v179z" />
    <glyph glyph-name="product" unicode="&#x220f;" horiz-adv-x="1639" vert-adv-y="2035" 
d="M1479 -483h-286v1705h-733v-1705h-285v1955h1304v-1955z" />
    <glyph glyph-name="summation" unicode="&#x2211;" horiz-adv-x="1334" vert-adv-y="2034" 
d="M1285 -482h-1232v152l642 834l-612 806v162h1166v-238h-764l541 -722l-571 -757h830v-237z" />
    <glyph glyph-name="uni2219" unicode="&#x2219;" horiz-adv-x="645" vert-adv-y="395" 
d="M324 743q65 0 111 -46.5t46 -110.5q0 -66 -47 -112t-110 -46q-66 0 -112 46t-46 112q0 64 45 110.5t113 46.5z" />
    <glyph glyph-name="radical" unicode="&#x221a;" horiz-adv-x="1366" vert-adv-y="1635" 
d="M1202 1555l-413 -1555h-176l-328 754h-183v159h333l259 -611l329 1253h179z" />
    <glyph glyph-name="uni221D" unicode="&#x221d;" horiz-adv-x="1716" vert-adv-y="893" 
d="M1452 225q-57 -24 -113 -24q-240 0 -389 268q-171 -264 -391 -264q-173 0 -281 113.5t-108 291.5q0 168 112 288t277 120q238 0 393 -268q160 264 389 264q51 0 111 -15l-63 -174q-32 12 -70 12q-153 0 -279 -233q119 -223 281 -223q43 0 68 16zM858 610
q-118 228 -280 228q-92 0 -150.5 -65t-58.5 -163q0 -96 59 -158.5t152 -62.5q154 0 278 221z" />
    <glyph glyph-name="infinity" unicode="&#x221e;" horiz-adv-x="1709" vert-adv-y="900" 
d="M857 463q-162 -259 -391 -259q-170 0 -280 113.5t-110 294.5q0 166 113.5 286t276.5 120q243 0 392 -266q157 259 389 259q174 0 283.5 -114t109.5 -293q0 -167 -116 -286.5t-278 -119.5q-236 0 -389 265zM761 613q-118 217 -274 217q-89 0 -147.5 -61.5t-58.5 -157.5
q0 -95 59 -155.5t148 -60.5q152 0 273 218zM953 604q119 -216 274 -216q90 0 147 61.5t57 155.5q0 93 -58 155.5t-147 62.5q-150 0 -273 -219z" />
    <glyph glyph-name="uni2220" unicode="&#x2220;" horiz-adv-x="1366" vert-adv-y="1215" 
d="M1110 1135l125 -127l-829 -830h833v-178h-1151v113z" />
    <glyph glyph-name="uni2225" unicode="&#x2225;" horiz-adv-x="1464" vert-adv-y="1307" 
d="M864 1227h176v-1227h-176v1227zM422 1227h180v-1227h-180v1227z" />
    <glyph glyph-name="uni2227" unicode="&#x2227;" horiz-adv-x="1462" vert-adv-y="1010" 
d="M1249 141h-209l-315 680h-4l-297 -680h-209l442 930h129z" />
    <glyph glyph-name="uni2228" unicode="&#x2228;" horiz-adv-x="1462" vert-adv-y="1012" 
d="M215 1071h207l315 -680h4l297 680h211l-444 -932h-127z" />
    <glyph glyph-name="uni2229" unicode="&#x2229;" vert-adv-y="1465" 
d="M1602 0h-177v731q0 205 -105.5 316.5t-299.5 111.5q-192 0 -295.5 -108t-103.5 -308v-743h-179v717q0 622 592 622q276 0 422 -159.5t146 -464.5v-715z" />
    <glyph glyph-name="uni222A" unicode="&#x222a;" vert-adv-y="1418" 
d="M446 1315h177v-731q0 -208 106.5 -318t298.5 -110t295.5 107t103.5 308v744h179v-715q0 -623 -592 -623q-276 0 -422 159.5t-146 465.5v713z" />
    <glyph glyph-name="integral" unicode="&#x222b;" horiz-adv-x="1188" vert-adv-y="2160" 
d="M1012 1337q-59 25 -118 25q-161 0 -161 -185v-1290q0 -173 -110.5 -280.5t-293.5 -107.5q-90 0 -152 20v223q57 -26 116 -26q162 0 162 185v1291q0 174 111.5 280.5t293.5 106.5q94 0 152 -19v-223z" />
    <glyph glyph-name="uni222C" unicode="&#x222c;" vert-adv-y="1963" 
d="M1065 1337q-58 20 -123 20q-82 0 -127 -48.5t-45 -136.5v-1284q0 -175 -116.5 -283t-305.5 -108q-99 0 -155 26v227q60 -32 122 -32q174 0 174 185v1286q0 176 116 283.5t304 107.5q96 0 156 -18v-225zM1855 1337q-53 20 -120 20q-82 0 -128 -48.5t-46 -136.5v-1284
q0 -176 -116 -283.5t-304 -107.5q-97 0 -158 26v227q64 -32 125 -32q86 0 129 51t43 134v1286q0 174 116 282.5t306 108.5q100 0 153 -18v-225z" />
    <glyph glyph-name="uni222E" unicode="&#x222e;" horiz-adv-x="1180" vert-adv-y="1963" 
d="M459 1041v148q0 172 113 279t300 107q100 0 154 -18v-225q-55 20 -123 20q-87 0 -134.5 -51.5t-47.5 -128.5v-131q170 -51 275.5 -188.5t105.5 -302.5q0 -175 -104.5 -312.5t-276.5 -181.5v-168q0 -176 -112 -283.5t-300 -107.5q-98 0 -155 26v227q60 -32 122 -32
q88 0 135.5 50.5t47.5 134.5v153q-172 44 -276.5 181.5t-104.5 312.5q0 166 105.5 304t275.5 187zM459 228v641q-100 -41 -159.5 -130.5t-59.5 -188.5q0 -111 61 -200.5t158 -121.5zM721 869v-641q97 37 157 125t60 197q0 97 -59.5 185.5t-157.5 133.5z" />
    <glyph glyph-name="uni2234" unicode="&#x2234;" horiz-adv-x="1366" vert-adv-y="1139" 
d="M684 1145q55 0 91 -37.5t36 -95.5q0 -56 -37.5 -92.5t-89.5 -36.5q-54 0 -91.5 36t-37.5 91t35.5 95t93.5 40zM215 346q59 0 93 -37t34 -94q0 -56 -37.5 -92.5t-89.5 -36.5q-55 0 -92 37.5t-37 89.5q0 56 36.5 94.5t92.5 38.5zM1153 346q57 0 92 -37t35 -94
q0 -56 -37.5 -92.5t-89.5 -36.5q-56 0 -92.5 36.5t-36.5 90.5q0 55 35 94t94 39z" />
    <glyph glyph-name="uni2235" unicode="&#x2235;" horiz-adv-x="1366" vert-adv-y="1139" 
d="M1149 883q-57 0 -91 38t-34 95q0 56 37.5 92.5t87.5 36.5q56 0 93.5 -37.5t37.5 -89.5q0 -58 -37.5 -96.5t-93.5 -38.5zM213 883q-56 0 -91.5 37.5t-35.5 95.5q0 56 38.5 92.5t88.5 36.5q56 0 92.5 -38t36.5 -89q0 -57 -36 -96t-93 -39zM682 86q-59 0 -93 37t-34 94
q0 56 37.5 92.5t89.5 36.5q57 0 93 -38t36 -89q0 -56 -36.5 -94.5t-92.5 -38.5z" />
    <glyph glyph-name="uni223C" unicode="&#x223c;" horiz-adv-x="1462" vert-adv-y="432" 
d="M1255 780q-7 -165 -88.5 -256.5t-216.5 -91.5q-112 0 -260 94q-106 70 -164 70q-129 0 -137 -168h-178q4 159 84.5 253.5t220.5 94.5q121 0 295 -116q75 -50 133 -50q53 0 89.5 44.5t39.5 125.5h182z" />
    <glyph glyph-name="uni223D" unicode="&#x223d;" horiz-adv-x="1462" vert-adv-y="432" 
d="M391 780q3 -80 40 -125t93 -45q57 0 134 50q104 69 162 92.5t130 23.5q138 0 219.5 -93t87.5 -255h-182q-6 168 -137 168q-56 0 -162 -70q-148 -94 -258 -94q-137 0 -218.5 92.5t-86.5 255.5h178z" />
    <glyph glyph-name="uni2252" unicode="&#x2252;" horiz-adv-x="1464" vert-adv-y="1405" 
d="M350 1266q54 0 92.5 -37.5t38.5 -89.5q0 -56 -37.5 -94.5t-93.5 -38.5q-55 0 -92 36.5t-37 94.5q0 56 39.5 92.5t89.5 36.5zM240 733v180h987v-180h-987zM240 295v180h987v-180h-987zM1110 -59q-57 0 -91 38t-34 95q0 54 37 92.5t88 38.5q57 0 94 -38t37 -91
q0 -56 -37 -95.5t-94 -39.5z" />
    <glyph glyph-name="notequal" unicode="&#x2260;" horiz-adv-x="1474" vert-adv-y="1299" 
d="M1231 288h-555l-149 -288h-220l151 288h-216v188h314l132 256h-446v188h545l153 299h218l-152 -299h225v-188h-324l-133 -256h457v-188z" />
    <glyph glyph-name="equivalence" unicode="&#x2261;" horiz-adv-x="1195" vert-adv-y="1143" 
d="M1056 1066h-917v194h917v-194zM1056 632h-917v194h917v-194zM1056 197h-917v195h917v-195z" />
    <glyph glyph-name="lessequal" unicode="&#x2264;" horiz-adv-x="1474" vert-adv-y="1347" 
d="M1207 257l-938 419v144l938 447v-217l-679 -298v-3l679 -275v-217zM1229 0h-987v187h987v-187z" />
    <glyph glyph-name="greaterequal" unicode="&#x2265;" horiz-adv-x="1474" vert-adv-y="1348" 
d="M1207 676l-938 -419v218l677 271v5l-677 300v217l938 -447v-145zM1229 0h-987v187h987v-187z" />
    <glyph glyph-name="uni226A" unicode="&#x226a;" vert-adv-y="1110" 
d="M1833 1128v-206l-610 -293v-4l610 -320v-207l-862 467v125zM1077 1128v-206l-614 -293v-4l614 -320v-207l-862 467v125z" />
    <glyph glyph-name="uni226B" unicode="&#x226b;" vert-adv-y="1110" 
d="M215 98v205l610 293v4l-610 320v208l862 -466v-127zM971 98v205l614 293v4l-614 320v208l862 -466v-127z" />
    <glyph glyph-name="uni2282" unicode="&#x2282;" vert-adv-y="1309" 
d="M1714 1229v-178h-760q-465 0 -465 -441q0 -208 116.5 -320t336.5 -112h772v-178h-745q-325 0 -492.5 161t-167.5 464q0 283 177 443.5t483 160.5h745z" />
    <glyph glyph-name="uni2283" unicode="&#x2283;" vert-adv-y="1309" 
d="M334 0v178h758q464 0 464 440q0 207 -115 320t-337 113h-770v178h745q320 0 489 -161t169 -464q0 -284 -178.5 -444t-481.5 -160h-743z" />
    <glyph glyph-name="uni2286" unicode="&#x2286;" vert-adv-y="1309" 
d="M1714 1229v-180h-889q-336 0 -336 -285q0 -272 328 -272h897v-181h-878q-527 0 -527 465q0 218 139 335.5t390 117.5h876zM334 178h1380v-178h-1380v178z" />
    <glyph glyph-name="uni2287" unicode="&#x2287;" vert-adv-y="1309" 
d="M334 311v181h889q336 0 336 284q0 275 -328 275h-897v178h878q527 0 527 -463q0 -219 -138.5 -337t-390.5 -118h-876zM1714 178v-178h-1380v178h1380z" />
    <glyph glyph-name="uni2299" unicode="&#x2299;" vert-adv-y="1358" 
d="M1024 1225q263 0 451 -188t188 -451q0 -265 -188.5 -452t-450.5 -187t-450.5 187t-188.5 452q0 263 188 451t451 188zM1024 88q206 0 352 147t146 351q0 203 -146 350t-352 147t-352 -147t-146 -350q0 -204 146 -351t352 -147zM1024 707q50 0 84.5 -35t34.5 -86t-35 -85
t-84 -34t-84 34.5t-35 84.5t34 85.5t85 35.5z" />
    <glyph glyph-name="uni22A5" unicode="&#x22a5;" vert-adv-y="1309" 
d="M1712 0h-1376v178h598v1051h180v-1051h598v-178z" />
    <glyph glyph-name="uni2312" unicode="&#x2312;" vert-adv-y="770" 
d="M338 0q0 298 199.5 494t486.5 196t486.5 -196t199.5 -494h-178q0 225 -146 369.5t-362 144.5t-362 -144.5t-146 -369.5h-178z" />
    <glyph glyph-name="uni2460" unicode="&#x2460;" vert-adv-y="2176" 
d="M1026 1500q400 0 659.5 -261.5t260.5 -658.5q-1 -399 -261 -659.5t-659 -260.5q-400 0 -660 261t-260 659q0 397 260 658.5t660 261.5zM1026 -211q338 0 564 225.5t226 565.5q0 338 -226 564t-564 226q-337 0 -563.5 -224.5t-226.5 -565.5q0 -340 226 -565.5t564 -225.5z
M733 100v191h215v608l-223 -58v198l446 101v-849h213v-191h-651z" />
    <glyph glyph-name="uni2461" unicode="&#x2461;" vert-adv-y="2176" 
d="M1026 1500q400 0 659.5 -261.5t260.5 -658.5q-1 -399 -261 -659.5t-659 -260.5q-400 0 -660 261t-260 659q0 397 260 658.5t660 261.5zM1026 -211q338 0 564 225.5t226 565.5q0 338 -226 564t-564 226q-337 0 -563.5 -224.5t-226.5 -565.5q0 -340 226 -565.5t564 -225.5z
M654 105v174l292 278q104 100 139.5 154.5t35.5 113.5q0 127 -146 127q-112 0 -274 -123v219q143 95 311 95q159 0 246.5 -80t87.5 -213q0 -109 -73 -215.5t-285 -291.5l-46 -43h394v-195h-682z" />
    <glyph glyph-name="uni2462" unicode="&#x2462;" vert-adv-y="2176" 
d="M1026 1500q400 0 659.5 -261.5t260.5 -658.5q-1 -399 -261 -659.5t-659 -260.5q-400 0 -660 261t-260 659q0 397 260 658.5t660 261.5zM1026 -211q338 0 564 225.5t226 565.5q0 338 -226 564t-564 226q-337 0 -563.5 -224.5t-226.5 -565.5q0 -340 226 -565.5t564 -225.5z
M694 146v211q118 -86 252 -86q183 0 183 129q0 64 -60.5 99.5t-165.5 35.5h-106v185h102q195 0 195 125q0 110 -146 110q-121 0 -219 -63v192q113 56 262 56q158 0 244 -72t86 -189q0 -170 -139 -239q80 -29 126 -93.5t46 -144.5q0 -146 -105 -231.5t-290 -85.5
q-148 0 -265 61z" />
    <glyph glyph-name="uni2463" unicode="&#x2463;" vert-adv-y="2176" 
d="M1026 1500q400 0 659.5 -261.5t260.5 -658.5q-1 -399 -261 -659.5t-659 -260.5q-400 0 -660 261t-260 659q0 397 260 658.5t660 261.5zM1026 -211q338 0 564 225.5t226 565.5q0 338 -226 564t-564 226q-337 0 -563.5 -224.5t-226.5 -565.5q0 -340 226 -565.5t564 -225.5z
M1212 331v-226h-205v226h-453v145l447 651h211v-618h127v-178h-127zM1007 823q0 14 2 28q-15 -27 -31 -51l-198 -291h227v314z" />
    </font>
</defs>
</svg>
