<?xml version="1.0" standalone="no"?>
<!DOCTYPE svg PUBLIC "-//W3C//DTD SVG 1.1//EN" "http://www.w3.org/Graphics/SVG/1.1/DTD/svg11.dtd" >
<svg xmlns="http://www.w3.org/2000/svg" xmlns:xlink="http://www.w3.org/1999/xlink" version="1.1">
<metadata>
Created by FontForge 20170731 at Fri Jan  1 02:30:17 1904
 By Aleksey,,,
Goma Shin
</metadata>
<defs>
<font id="Kaiju-Monster__G" horiz-adv-x="512" >
  <font-face 
    font-family="Kaiju Monster__G"
    font-weight="400"
    font-stretch="normal"
    units-per-em="1024"
    panose-1="2 11 6 0 0 0 0 0 0 0"
    ascent="880"
    descent="-144"
    x-height="836"
    cap-height="834"
    bbox="0 -135 708 900"
    underline-thickness="48"
    underline-position="-168"
    unicode-range="U+0020-2219"
  />
<missing-glyph 
d="M206 400v100h100v-100h-100z" />
    <glyph glyph-name=".notdef" 
d="M206 400v100h100v-100h-100z" />
    <glyph glyph-name="glyph1" horiz-adv-x="0" 
 />
    <glyph glyph-name="nonmarkingreturn" horiz-adv-x="341" 
 />
    <glyph glyph-name="space" unicode=" " horiz-adv-x="180" 
 />
    <glyph glyph-name="exclam" unicode="!" horiz-adv-x="372" 
d="M260 224l-154 10l-64 498l54 96l181 6l53 -122zM98 168l172 -12l-12 -152l-148 -4l-28 84z" />
    <glyph glyph-name="quotedbl" unicode="&#x22;" horiz-adv-x="325" 
d="M40 879l109 -7l-1 -148l-92 -24l-12 72zM176 871l109 -7l-1 -148l-84 -20l-16 76z" />
    <glyph glyph-name="numbersign" unicode="#" horiz-adv-x="598" 
d="M50 626h111l41 225l159 -18l-50 -208l46 -1l41 223l160 -26l-49 -201l47 -4l10 -146l-91 2l-20 -86l72 7l26 -145l-132 -9l-64 -266l-135 33l59 226l-62 -3l-58 -244l-111 15l40 220l-39 -2l-11 136l74 7l20 107l-76 -1zM276 471l-23 -98l62 6l17 94z" />
    <glyph glyph-name="dollar" unicode="$" horiz-adv-x="508" 
d="M93 -9l-41 277l132 -4l12 -112l28 3v191l-127 49l-57 201l40 235l144 5v64l88 -8v-53l110 3l38 -286l-108 -16l-8 84l-33 -1l-1 -166l142 -57l16 -380l-160 -12v-80l-84 12v61zM356 168l-20 136l-26 8l-1 -145zM176 608l24 -104l24 -11v122z" />
    <glyph glyph-name="percent" unicode="%" horiz-adv-x="612" 
d="M80 8l132 404l117 164l7 268l232 -32l-80 -288l-152 -172l-56 -356zM344 -4l3 329l209 63l16 -376zM484 96l-8 188l-52 -12l4 -184zM80 472l-40 352l252 20l-16 -316zM200 596l2 156l-54 -4l8 -164z" />
    <glyph glyph-name="ampersand" unicode="&#x26;" horiz-adv-x="524" 
d="M224 23l-154 37l-30 266l109 116l-69 118l24 196l97 46l244 -64l28 -86l-68 -141l-100 -109l54 -102l54 58l71 -140l-55 -43l44 -67l-86 -84l-54 78zM271 216l-69 99l-31 -31l4 -89l53 -33zM309 612l-62 17l-9 -62l16 -30z" />
    <glyph glyph-name="quotesingle" unicode="'" horiz-adv-x="185" 
d="M32 875l133 -7l-1 -168l-144 -44l16 92z" />
    <glyph glyph-name="parenleft" unicode="(" horiz-adv-x="276" 
d="M86 34l-48 125v528l48 125l100 66l80 -104l-77 -110v-482l77 -110l-80 -104z" />
    <glyph glyph-name="parenright" unicode=")" horiz-adv-x="276" 
d="M190 34l-100 -66l-80 104l77 110v482l-77 110l80 104l100 -66l48 -125v-528z" />
    <glyph glyph-name="asterisk" unicode="*" horiz-adv-x="448" 
d="M148 160l-116 72l110 156l-106 136l24 76l88 20l68 -104l44 100l144 -37l-121 -174l125 -157l-112 -88l-76 120z" />
    <glyph glyph-name="plus" unicode="+" horiz-adv-x="450" 
d="M186 92l-16 184l-72 -8l-48 52l-10 100l108 21l-22 203l200 11l-4 -195l88 12l-7 -171l-87 -10l-2 -195z" />
    <glyph glyph-name="comma" unicode="," horiz-adv-x="235" 
d="M24 180l181 -4l-10 -176l-195 -72l44 108z" />
    <glyph glyph-name="hyphen" unicode="-" horiz-adv-x="374" 
d="M40 480l286 10l8 -148l-290 -14z" />
    <glyph glyph-name="period" unicode="." horiz-adv-x="257" 
d="M58 189l167 -9l-10 -176l-154 -4l-29 90z" />
    <glyph glyph-name="slash" unicode="/" horiz-adv-x="354" 
d="M148 -36l-146 42l171 847l179 -34z" />
    <glyph glyph-name="zero" unicode="0" horiz-adv-x="434" 
d="M189 -19l-145 62l-26 625l79 139l253 29l66 -187l-36 -626zM264 181l20 369l-68 54l-60 -52l8 -388l54 -42z" />
    <glyph glyph-name="one" unicode="1" horiz-adv-x="358" 
d="M45 -3l-7 141l100 13l-10 440l-95 -13l-13 240l247 23l-10 -680l75 -3l6 -146z" />
    <glyph glyph-name="two" unicode="2" horiz-adv-x="412" 
d="M343 -9l-323 15l28 302l188 190v80l-59 6l-24 -60l-132 40l52 271l283 -4l36 -230l-38 -193l-158 -162l-22 -80l47 -3l20 84l142 -36z" />
    <glyph glyph-name="three" unicode="3" horiz-adv-x="418" 
d="M66 -4l-46 244l129 43l25 -79l57 13l-49 129l-99 -10l-13 115l115 -6l58 126l-52 10l-37 -57l-132 56l57 260l283 -4l36 -250l-95 -187l83 -169l-36 -230z" />
    <glyph glyph-name="four" unicode="4" horiz-adv-x="440" 
d="M230 -5v231l-210 13l16 321l144 288l199 -33l-4 -480h45l-3 -116h-42v-228zM234 338l-2 262l-76 -128l-15 -130z" />
    <glyph glyph-name="five" unicode="5" horiz-adv-x="412" 
d="M270 -13l-250 33l13 178l201 -23l4 107l-33 36h-115l-50 59l3 443l339 23l10 -244l-204 -26l1 -117l115 7l76 -92l2 -314z" />
    <glyph glyph-name="six" unicode="6" horiz-adv-x="431" 
d="M207 845l204 -49l-24 -286l-138 13l3 61l-69 6l-1 -132l197 6l20 -424l-230 -53l-149 86l16 723zM178 326l-3 -105l77 -17v129z" />
    <glyph glyph-name="seven" unicode="7" horiz-adv-x="408" 
d="M113 3l-5 111l134 496h-66l-28 -80l-128 36l46 271l298 -9l24 -162l-128 -562l17 -104z" />
    <glyph glyph-name="eight" unicode="8" horiz-adv-x="425" 
d="M171 -9l-128 50l-23 342l72 30l-72 132l56 279l280 19l49 -312l-72 -118l72 -30l-30 -378zM260 169l20 139l-66 29l-66 -33l13 -122l60 -26zM234 456l33 75l-30 53l-59 -13l-20 -56l33 -66z" />
    <glyph glyph-name="nine" unicode="9" horiz-adv-x="431" 
d="M224 -13l-204 49l16 214l138 -13l-3 -73l69 -6l12 202l-200 -28l-20 460l230 53l149 -86l-16 -723zM253 482l3 93l-77 17l-3 -124z" />
    <glyph glyph-name="colon" unicode=":" horiz-adv-x="253" 
d="M56 325l167 -9l-10 -176l-154 -4l-29 90zM54 677l167 -9l-3 -168l-150 -20l-18 62z" />
    <glyph glyph-name="semicolon" unicode=";" horiz-adv-x="233" 
d="M32 314l171 2l-10 -176l-185 -48l24 96v126zM34 677l167 -9l-3 -168l-150 -20l-18 62z" />
    <glyph glyph-name="less" unicode="&#x3c;" 
 />
    <glyph glyph-name="equal" unicode="=" horiz-adv-x="382" 
d="M40 604l278 2l6 -134l-280 -16zM44 372l276 24l22 -142l-290 -14z" />
    <glyph glyph-name="greater" unicode="&#x3e;" 
 />
    <glyph glyph-name="question" unicode="?" horiz-adv-x="463" 
d="M135 168l172 -12l-12 -152l-148 -4l-28 84zM153 232l3 201l97 75l12 66l-59 6l-32 -60l-132 40l60 271l283 -4l36 -230l-49 -194l-94 -72l3 -111z" />
    <glyph glyph-name="at" unicode="@" horiz-adv-x="738" 
d="M708 -76q-86 34 -127 44.5t-76.5 9t-68 -11t-50.5 -17.5q-50 22 -100.5 42t-98 47t-78 51t-42 50.5t-11.5 50.5q14 -28 44 -51t90 -51t114 -44t114 -18q85 2 137.5 -10.5t88 -34t64.5 -57.5zM400 58q-60 7 -126.5 45.5t-107 76.5t-65 67.5t-46 68.5t-25.5 77
q14 -25 37.5 -49t57 -51.5t79.5 -44.5q8 22 -5.5 43.5t-37 35.5t-51.5 24q46 -3 67.5 -9t43 -18t38.5 -30t25.5 -38.5t13 -44t30 -46t55 -32t55.5 -8.5t46.5 12t32 32.5t5.5 47t-31 52t-125 100t-149 115.5t-70 80.5t-26 70.5t2.5 54.5t24 38.5t51 23t70.5 3t86.5 -24.5
t94.5 -55t73.5 -64.5t72.5 -91l-180 7l12 31q-22 19 -47 35t-51 23.5t-51.5 7t-34.5 -22t9 -49t51 -52t96 -70t124.5 -93t82.5 -78.5t26.5 -57t-1.5 -49.5t-29 -45.5t-55 -33.5t-73.5 -14.5t-74.5 0z" />
    <glyph glyph-name="A" unicode="A" horiz-adv-x="436" 
d="M16 -2l62 708l62 110l192 34l88 -854l-148 26l-11 233l-86 -13l-13 -234zM251 367l-13 217l-44 -10l-13 -214z" />
    <glyph glyph-name="B" unicode="B" horiz-adv-x="420" 
d="M46 -4l-26 682l48 144l274 16l58 -282l-77 -131l73 -29l-32 -384zM250 176l21 149l-67 29l-36 -12l10 -179zM225 462l36 74l-27 60l-72 -12l3 -132z" />
    <glyph glyph-name="C" unicode="C" horiz-adv-x="411" 
d="M88 -7l-68 200l18 595l256 56l94 -76l-10 -291l-135 6l-7 111l-66 -26l-16 -348l38 -88l61 15l-11 127l135 13l14 -268z" />
    <glyph glyph-name="D" unicode="D" horiz-adv-x="405" 
d="M24 -8l-4 823l263 23l86 -168l18 -529l-117 -141zM232 160l42 72l-22 306l-40 50l-54 -16l7 -411z" />
    <glyph glyph-name="E" unicode="E" horiz-adv-x="402" 
d="M108 -16l-88 75l11 757l335 24l13 -235l-207 -31l-1 -114l187 16l-12 -150l-175 -8l-3 -141l198 31l16 -185z" />
    <glyph glyph-name="F" unicode="F" horiz-adv-x="424" 
d="M20 -7l12 807l98 50l284 -26l-30 -244l-172 30l-36 -20l2 -150l171 7l-11 -151l-158 4l8 -300z" />
    <glyph glyph-name="G" unicode="G" horiz-adv-x="435" 
d="M270 -30l-6 54l-160 -36l-84 104l20 692l168 58l207 -54l-23 -296l-136 18l2 68l-72 14l-10 -378l88 -5v83l-49 10l7 135l158 -13l22 -441z" />
    <glyph glyph-name="H" unicode="H" horiz-adv-x="445" 
d="M267 -4l-6 351l-66 -10l-7 -341l-154 10l-14 822l180 14l-5 -361l66 8l-7 345l171 -6l-6 -839z" />
    <glyph glyph-name="I" unicode="I" horiz-adv-x="232" 
d="M188 -10l-150 16l-16 820l190 8z" />
    <glyph glyph-name="J" unicode="J" horiz-adv-x="411" 
d="M266 -18l-2 44l-136 -52l-105 74l-3 344l152 24l4 -264l84 31l-7 402l-95 -14l-18 245l251 19l-10 -833z" />
    <glyph glyph-name="K" unicode="K" horiz-adv-x="432" 
d="M26 -9l-6 826l131 20l10 -345l68 30l48 312l135 -10l-55 -384l-43 -17l98 -412l-135 -13l-82 386l-27 -11l10 -362z" />
    <glyph glyph-name="L" unicode="L" horiz-adv-x="390" 
d="M114 -16l-88 79l-6 710l48 67l130 -25l-21 -616l195 19l-7 -204z" />
    <glyph glyph-name="M" unicode="M" horiz-adv-x="608" 
d="M16 -6l29 826l165 13l89 -393l99 393l164 -13l30 -826l-175 6l10 417l-59 -313l-109 -25l-79 352l10 -431z" />
    <glyph glyph-name="N" unicode="N" horiz-adv-x="414" 
d="M234 -6l-62 343l-7 -346l-136 10l-9 822l156 6l72 -423l2 422l144 -5l-34 -836z" />
    <glyph glyph-name="O" unicode="O" horiz-adv-x="434" 
d="M189 -19l-145 62l-26 625l79 139l253 29l66 -187l-36 -626zM264 181l20 369l-68 54l-60 -52l8 -388l54 -42z" />
    <glyph glyph-name="P" unicode="P" horiz-adv-x="417" 
d="M43 -8l-23 684l39 141l273 19l67 -285l-70 -295l-145 -29l7 -222zM237 361l27 183l-33 53l-66 -7l10 -244z" />
    <glyph glyph-name="Q" unicode="Q" horiz-adv-x="433" 
d="M253 -74l-15 86l-110 -32l-110 95l23 717l171 52l201 -55l-16 -734l-57 -19l34 -100zM204 214l-20 98l-18 3l-3 -89zM265 576l-89 6l-6 -185l71 -9l27 -83z" />
    <glyph glyph-name="R" unicode="R" horiz-adv-x="415" 
d="M43 -7l-23 688l39 141l283 17l53 -293l-72 -119l72 -29l-29 -382l-126 -6l30 295l-92 39l13 -338zM224 470l36 76l-29 50l-66 -13l6 -126z" />
    <glyph glyph-name="S" unicode="S" horiz-adv-x="416" 
d="M73 -9l-41 255l143 27l19 -117l70 17l-21 140l-166 82l-57 201l40 235l282 11l53 -284l-132 -40l-19 74l-64 -14l12 -80l176 -94l28 -399z" />
    <glyph glyph-name="T" unicode="T" horiz-adv-x="451" 
d="M163 1l-17 594l-112 -18l-16 226l405 31l10 -222l-112 -4l-5 -622z" />
    <glyph glyph-name="U" unicode="U" horiz-adv-x="421" 
d="M131 -13l-102 62l-9 774l161 13l3 -672l76 37l-6 641l147 -6l-9 -830l-102 -30l-10 77z" />
    <glyph glyph-name="V" unicode="V" horiz-adv-x="418" 
d="M172 -28l-94 68l-60 784l158 13l40 -675l43 675h141l-39 -790z" />
    <glyph glyph-name="W" unicode="W" horiz-adv-x="642" 
d="M158 -16l-105 70l-35 772l158 13l17 -657l53 18l6 629l152 15l-12 -642l60 -26l10 670l162 -17l-33 -775l-181 -66l-82 90z" />
    <glyph glyph-name="X" unicode="X" horiz-adv-x="449" 
d="M248 -3l4 195l-25 80l-28 -77l3 -177l-181 -29l3 206l125 227l-129 182l1 225l181 6l-7 -228l32 -63l25 94l-4 200l181 -6l-3 -185l-125 -231l126 -188l2 -224z" />
    <glyph glyph-name="Y" unicode="Y" horiz-adv-x="445" 
d="M161 -3v288l-138 246l-3 300l182 15l-10 -314l40 -72l40 74l-19 304l172 -7v-336l-116 -196l6 -309z" />
    <glyph glyph-name="Z" unicode="Z" horiz-adv-x="416" 
d="M20 7l7 167l101 193l-61 35l48 76l62 -26l71 131l-56 7l-47 -74l-118 49l50 272l283 -4l36 -267l-95 -170l49 -29l-52 -76l-53 23l-73 -143l52 -6l30 105l125 -33l-36 -244z" />
    <glyph glyph-name="bracketleft" unicode="[" horiz-adv-x="305" 
d="M141 -135l-82 69l-19 942l245 16l-7 -137h-54l-13 -715l72 10l-11 -168z" />
    <glyph glyph-name="backslash" unicode="\" 
 />
    <glyph glyph-name="bracketright" unicode="]" horiz-adv-x="305" 
d="M164 -135l-131 17l-11 168l72 -10l-13 715h-54l-7 137l245 -16l-19 -942z" />
    <glyph glyph-name="asciicircum" unicode="^" 
 />
    <glyph glyph-name="underscore" unicode="_" horiz-adv-x="336" 
d="M26 124l276 8l8 -126l-280 -12z" />
    <glyph glyph-name="grave" unicode="`" 
 />
    <glyph glyph-name="a" unicode="a" horiz-adv-x="428" 
d="M277 1v36l-175 -33l-72 155l13 279l207 51l-3 115l-69 -7l3 -72l-138 -13l-23 279l214 50l161 -50l13 -777zM260 367l-76 -17l-3 -102l92 -22z" />
    <glyph glyph-name="b" unicode="b" horiz-adv-x="420" 
d="M46 -4l-26 682l48 144l274 16l58 -282l-77 -131l73 -29l-32 -384zM250 176l21 149l-67 29l-36 -12l10 -179zM225 462l36 74l-27 60l-72 -12l3 -132z" />
    <glyph glyph-name="c" unicode="c" horiz-adv-x="409" 
d="M88 -7l-68 200l18 595l256 56l94 -76l-10 -291l-135 6l-7 111l-66 -26l-16 -348l38 -88l61 15l-11 127l135 13l14 -268z" />
    <glyph glyph-name="d" unicode="d" horiz-adv-x="405" 
d="M24 -8l-4 823l263 23l86 -168l18 -529l-117 -141zM232 160l42 72l-22 306l-40 50l-54 -16l7 -411z" />
    <glyph glyph-name="e" unicode="e" horiz-adv-x="402" 
d="M108 -16l-88 75l11 757l335 24l13 -235l-207 -31l-1 -114l187 16l-12 -150l-175 -8l-3 -141l198 31l16 -185z" />
    <glyph glyph-name="f" unicode="f" horiz-adv-x="424" 
d="M20 -7l12 807l98 50l284 -26l-30 -244l-172 30l-36 -20l2 -150l171 7l-11 -151l-158 4l8 -300z" />
    <glyph glyph-name="g" unicode="g" horiz-adv-x="435" 
d="M270 -30l-6 54l-160 -36l-84 104l20 692l168 58l207 -54l-23 -296l-136 18l2 68l-72 14l-10 -378l88 -5v83l-49 10l7 135l158 -13l22 -441z" />
    <glyph glyph-name="h" unicode="h" horiz-adv-x="445" 
d="M267 -4l-6 351l-66 -10l-7 -341l-154 10l-14 822l180 14l-5 -361l66 8l-7 345l171 -6l-6 -839z" />
    <glyph glyph-name="i" unicode="i" horiz-adv-x="232" 
d="M188 -10l-150 16l-16 820l190 8z" />
    <glyph glyph-name="j" unicode="j" horiz-adv-x="411" 
d="M266 -18l-2 44l-136 -52l-105 74l-3 344l152 24l4 -264l84 31l-7 402l-95 -14l-18 245l251 19l-10 -833z" />
    <glyph glyph-name="k" unicode="k" horiz-adv-x="432" 
d="M26 -9l-6 826l131 20l10 -345l68 30l48 312l135 -10l-55 -384l-43 -17l98 -412l-135 -13l-82 386l-27 -11l10 -362z" />
    <glyph glyph-name="l" unicode="l" horiz-adv-x="390" 
d="M114 -16l-88 79l-6 710l48 67l130 -25l-21 -616l195 19l-7 -204z" />
    <glyph glyph-name="m" unicode="m" horiz-adv-x="626" 
d="M41 -13l-23 823l132 17l8 -73l54 76l68 6l62 -112l49 103l154 13l63 -218l-33 -623l-129 7l24 570l-50 16l-30 -56l10 -526l-144 -16l-17 590l-66 -56l27 -525z" />
    <glyph glyph-name="n" unicode="n" horiz-adv-x="414" 
d="M234 -6l-62 343l-7 -346l-136 10l-9 822l156 6l72 -423l2 422l144 -5l-34 -836z" />
    <glyph glyph-name="o" unicode="o" horiz-adv-x="434" 
d="M189 -19l-145 62l-26 625l79 139l253 29l66 -187l-36 -626zM264 181l20 369l-68 54l-60 -52l8 -388l54 -42z" />
    <glyph glyph-name="p" unicode="p" horiz-adv-x="417" 
d="M43 -8l-23 684l39 141l273 19l67 -285l-70 -295l-145 -29l7 -222zM237 361l27 183l-33 53l-66 -7l10 -244z" />
    <glyph glyph-name="q" unicode="q" horiz-adv-x="433" 
d="M253 -74l-15 86l-110 -32l-110 95l23 717l171 52l201 -55l-16 -734l-57 -19l34 -100zM204 214l-20 98l-18 3l-3 -89zM265 576l-89 6l-6 -185l71 -9l27 -83z" />
    <glyph glyph-name="r" unicode="r" horiz-adv-x="415" 
d="M43 -7l-23 688l39 141l283 17l53 -293l-72 -119l72 -29l-29 -382l-126 -6l30 295l-92 39l13 -338zM224 470l36 76l-29 50l-66 -13l6 -126z" />
    <glyph glyph-name="s" unicode="s" horiz-adv-x="416" 
d="M73 -9l-41 255l143 27l19 -117l70 17l-21 140l-166 82l-57 201l40 235l282 11l53 -284l-132 -40l-19 74l-64 -14l12 -80l176 -94l28 -399z" />
    <glyph glyph-name="t" unicode="t" horiz-adv-x="451" 
d="M163 1l-17 594l-112 -18l-16 226l405 31l10 -222l-112 -4l-5 -622z" />
    <glyph glyph-name="u" unicode="u" horiz-adv-x="421" 
d="M131 -13l-102 62l-9 774l161 13l3 -672l76 37l-6 641l147 -6l-9 -830l-102 -30l-10 77z" />
    <glyph glyph-name="v" unicode="v" horiz-adv-x="418" 
d="M172 -28l-94 68l-60 784l158 13l40 -675l43 675h141l-39 -790z" />
    <glyph glyph-name="w" unicode="w" horiz-adv-x="642" 
d="M158 -16l-105 70l-35 772l158 13l17 -657l53 18l6 629l152 15l-12 -642l60 -26l10 670l162 -17l-33 -775l-181 -66l-82 90z" />
    <glyph glyph-name="x" unicode="x" horiz-adv-x="448" 
d="M248 -3l4 195l-25 80l-28 -77l3 -177l-181 -29l3 206l125 227l-129 182l1 225l181 6l-7 -228l32 -63l25 94l-4 200l181 -6l-3 -185l-125 -231l126 -188l2 -224z" />
    <glyph glyph-name="y" unicode="y" horiz-adv-x="445" 
d="M161 -3v288l-138 246l-3 300l182 15l-10 -314l40 -72l40 74l-19 304l172 -7v-336l-116 -196l6 -309z" />
    <glyph glyph-name="z" unicode="z" horiz-adv-x="416" 
d="M20 7l7 167l101 193l-61 35l48 76l62 -26l71 131l-56 7l-47 -74l-118 49l50 272l283 -4l36 -267l-95 -170l49 -29l-52 -76l-53 23l-73 -143l52 -6l30 105l125 -33l-36 -244z" />
    <glyph glyph-name="braceleft" unicode="{" 
 />
    <glyph glyph-name="bar" unicode="|" horiz-adv-x="302" 
d="M226 -16l-152 10l-14 884l182 5z" />
    <glyph glyph-name="braceright" unicode="}" 
 />
    <glyph glyph-name="asciitilde" unicode="~" 
 />
    <glyph glyph-name="uni00A0" unicode="&#xa0;" 
 />
    <glyph glyph-name="exclamdown" unicode="&#xa1;" horiz-adv-x="372" 
d="M112 610l154 -10l64 -498l-54 -96l-181 -6l-53 122zM274 666l-172 12l12 152l148 4l28 -84z" />
    <glyph glyph-name="cent" unicode="&#xa2;" 
 />
    <glyph glyph-name="sterling" unicode="&#xa3;" 
 />
    <glyph glyph-name="currency" unicode="&#xa4;" 
 />
    <glyph glyph-name="yen" unicode="&#xa5;" horiz-adv-x="468" 
d="M157 -2v179l-86 7l-7 95l93 7l-2 52l-83 -3l-26 99l105 10l-104 184l-17 204l181 7l-11 -139l31 -150l40 176l-14 116l181 -7l-7 -133l-131 -245l118 10l-3 -119l-112 -3l2 -49l102 6l6 -132l-105 4l3 -182z" />
    <glyph glyph-name="brokenbar" unicode="&#xa6;" 
 />
    <glyph glyph-name="section" unicode="&#xa7;" 
 />
    <glyph glyph-name="dieresis" unicode="&#xa8;" 
 />
    <glyph glyph-name="copyright" unicode="&#xa9;" 
 />
    <glyph glyph-name="ordfeminine" unicode="&#xaa;" 
 />
    <glyph glyph-name="guillemotleft" unicode="&#xab;" 
 />
    <glyph glyph-name="logicalnot" unicode="&#xac;" 
 />
    <glyph glyph-name="uni00AD" unicode="&#xad;" 
 />
    <glyph glyph-name="registered" unicode="&#xae;" 
 />
    <glyph glyph-name="macron" unicode="&#xaf;" 
 />
    <glyph glyph-name="degree" unicode="&#xb0;" 
 />
    <glyph glyph-name="plusminus" unicode="&#xb1;" 
 />
    <glyph glyph-name="uni00B2" unicode="&#xb2;" 
 />
    <glyph glyph-name="uni00B3" unicode="&#xb3;" 
 />
    <glyph glyph-name="acute" unicode="&#xb4;" 
 />
    <glyph glyph-name="mu" unicode="&#xb5;" 
 />
    <glyph glyph-name="paragraph" unicode="&#xb6;" 
 />
    <glyph glyph-name="periodcentered" unicode="&#xb7;" 
 />
    <glyph glyph-name="cedilla" unicode="&#xb8;" 
 />
    <glyph glyph-name="uni00B9" unicode="&#xb9;" 
 />
    <glyph glyph-name="ordmasculine" unicode="&#xba;" 
 />
    <glyph glyph-name="guillemotright" unicode="&#xbb;" 
 />
    <glyph glyph-name="onequarter" unicode="&#xbc;" 
 />
    <glyph glyph-name="onehalf" unicode="&#xbd;" 
 />
    <glyph glyph-name="threequarters" unicode="&#xbe;" 
 />
    <glyph glyph-name="questiondown" unicode="&#xbf;" horiz-adv-x="463" 
d="M328 662l-172 12l12 152l148 4l28 -84zM310 598l-3 -201l-97 -75l-12 -66l59 -6l32 60l132 -40l-60 -271l-283 4l-36 230l49 194l94 72l-3 111z" />
    <glyph glyph-name="Agrave" unicode="&#xc0;" 
 />
    <glyph glyph-name="Aacute" unicode="&#xc1;" 
 />
    <glyph glyph-name="Acircumflex" unicode="&#xc2;" 
 />
    <glyph glyph-name="Atilde" unicode="&#xc3;" 
 />
    <glyph glyph-name="Adieresis" unicode="&#xc4;" 
 />
    <glyph glyph-name="Aring" unicode="&#xc5;" 
 />
    <glyph glyph-name="AE" unicode="&#xc6;" 
 />
    <glyph glyph-name="Ccedilla" unicode="&#xc7;" 
 />
    <glyph glyph-name="Egrave" unicode="&#xc8;" 
 />
    <glyph glyph-name="Eacute" unicode="&#xc9;" 
 />
    <glyph glyph-name="Ecircumflex" unicode="&#xca;" 
 />
    <glyph glyph-name="Edieresis" unicode="&#xcb;" 
 />
    <glyph glyph-name="Igrave" unicode="&#xcc;" 
 />
    <glyph glyph-name="Iacute" unicode="&#xcd;" 
 />
    <glyph glyph-name="Icircumflex" unicode="&#xce;" 
 />
    <glyph glyph-name="Idieresis" unicode="&#xcf;" 
 />
    <glyph glyph-name="Eth" unicode="&#xd0;" 
 />
    <glyph glyph-name="Ntilde" unicode="&#xd1;" 
 />
    <glyph glyph-name="Ograve" unicode="&#xd2;" 
 />
    <glyph glyph-name="Oacute" unicode="&#xd3;" 
 />
    <glyph glyph-name="Ocircumflex" unicode="&#xd4;" 
 />
    <glyph glyph-name="Otilde" unicode="&#xd5;" 
 />
    <glyph glyph-name="Odieresis" unicode="&#xd6;" 
 />
    <glyph glyph-name="multiply" unicode="&#xd7;" horiz-adv-x="448" 
d="M148 160l-108 72l102 156l-100 128l18 84l84 8l72 -92l44 100l144 -37l-121 -174l125 -157l-116 -80l-72 112z" />
    <glyph glyph-name="Oslash" unicode="&#xd8;" 
 />
    <glyph glyph-name="Ugrave" unicode="&#xd9;" 
 />
    <glyph glyph-name="Uacute" unicode="&#xda;" 
 />
    <glyph glyph-name="Ucircumflex" unicode="&#xdb;" 
 />
    <glyph glyph-name="Udieresis" unicode="&#xdc;" 
 />
    <glyph glyph-name="Yacute" unicode="&#xdd;" 
 />
    <glyph glyph-name="Thorn" unicode="&#xde;" 
 />
    <glyph glyph-name="germandbls" unicode="&#xdf;" 
 />
    <glyph glyph-name="agrave" unicode="&#xe0;" 
 />
    <glyph glyph-name="aacute" unicode="&#xe1;" 
 />
    <glyph glyph-name="acircumflex" unicode="&#xe2;" 
 />
    <glyph glyph-name="atilde" unicode="&#xe3;" 
 />
    <glyph glyph-name="adieresis" unicode="&#xe4;" 
 />
    <glyph glyph-name="aring" unicode="&#xe5;" 
 />
    <glyph glyph-name="ae" unicode="&#xe6;" 
 />
    <glyph glyph-name="ccedilla" unicode="&#xe7;" 
 />
    <glyph glyph-name="egrave" unicode="&#xe8;" 
 />
    <glyph glyph-name="eacute" unicode="&#xe9;" 
 />
    <glyph glyph-name="ecircumflex" unicode="&#xea;" 
 />
    <glyph glyph-name="edieresis" unicode="&#xeb;" 
 />
    <glyph glyph-name="igrave" unicode="&#xec;" 
 />
    <glyph glyph-name="iacute" unicode="&#xed;" 
 />
    <glyph glyph-name="icircumflex" unicode="&#xee;" 
 />
    <glyph glyph-name="idieresis" unicode="&#xef;" 
 />
    <glyph glyph-name="eth" unicode="&#xf0;" 
 />
    <glyph glyph-name="ntilde" unicode="&#xf1;" 
 />
    <glyph glyph-name="ograve" unicode="&#xf2;" 
 />
    <glyph glyph-name="oacute" unicode="&#xf3;" 
 />
    <glyph glyph-name="ocircumflex" unicode="&#xf4;" 
 />
    <glyph glyph-name="otilde" unicode="&#xf5;" 
 />
    <glyph glyph-name="odieresis" unicode="&#xf6;" 
 />
    <glyph glyph-name="divide" unicode="&#xf7;" horiz-adv-x="460" 
d="M98 286l-48 52l-10 100l380 56l-7 -171zM162 241l167 -9l-10 -176l-154 -4l-29 90zM152 719l167 -9l-3 -168l-150 -20l-18 62z" />
    <glyph glyph-name="oslash" unicode="&#xf8;" 
 />
    <glyph glyph-name="ugrave" unicode="&#xf9;" 
 />
    <glyph glyph-name="uacute" unicode="&#xfa;" 
 />
    <glyph glyph-name="ucircumflex" unicode="&#xfb;" 
 />
    <glyph glyph-name="udieresis" unicode="&#xfc;" 
 />
    <glyph glyph-name="yacute" unicode="&#xfd;" 
 />
    <glyph glyph-name="thorn" unicode="&#xfe;" 
 />
    <glyph glyph-name="ydieresis" unicode="&#xff;" 
 />
    <glyph glyph-name="OE" unicode="&#x152;" 
 />
    <glyph glyph-name="oe" unicode="&#x153;" 
 />
    <glyph glyph-name="Scaron" unicode="&#x160;" 
 />
    <glyph glyph-name="scaron" unicode="&#x161;" 
 />
    <glyph glyph-name="Ydieresis" unicode="&#x178;" 
 />
    <glyph glyph-name="Zcaron" unicode="&#x17d;" 
 />
    <glyph glyph-name="zcaron" unicode="&#x17e;" 
 />
    <glyph glyph-name="florin" unicode="&#x192;" 
 />
    <glyph glyph-name="circumflex" unicode="&#x2c6;" 
 />
    <glyph glyph-name="tilde" unicode="&#x2dc;" 
 />
    <glyph glyph-name="endash" unicode="&#x2013;" 
 />
    <glyph glyph-name="emdash" unicode="&#x2014;" 
 />
    <glyph glyph-name="quoteleft" unicode="&#x2018;" 
 />
    <glyph glyph-name="quoteright" unicode="&#x2019;" 
 />
    <glyph glyph-name="quotesinglbase" unicode="&#x201a;" 
 />
    <glyph glyph-name="quotedblleft" unicode="&#x201c;" 
 />
    <glyph glyph-name="quotedblright" unicode="&#x201d;" 
 />
    <glyph glyph-name="quotedblbase" unicode="&#x201e;" 
 />
    <glyph glyph-name="dagger" unicode="&#x2020;" 
 />
    <glyph glyph-name="daggerdbl" unicode="&#x2021;" 
 />
    <glyph glyph-name="bullet" unicode="&#x2022;" 
 />
    <glyph glyph-name="ellipsis" unicode="&#x2026;" 
 />
    <glyph glyph-name="perthousand" unicode="&#x2030;" 
 />
    <glyph glyph-name="guilsinglleft" unicode="&#x2039;" 
 />
    <glyph glyph-name="guilsinglright" unicode="&#x203a;" 
 />
    <glyph glyph-name="Euro" unicode="&#x20ac;" horiz-adv-x="531" 
d="M172 -7l-63 186l-57 -3l-8 132l64 7l2 81l-66 -4l-4 148l75 1l7 247l272 56l94 -76l-10 -291l-135 6l-7 111l-82 -26l-1 -26h53l6 -134l-66 -4l-3 -78l65 6l22 -142l-77 -4l23 -54l77 15l-11 127l135 13l14 -268z" />
    <glyph glyph-name="trademark" unicode="&#x2122;" 
 />
    <glyph glyph-name="uni2219" unicode="&#x2219;" 
 />
  </font>
</defs>
</svg>
