<?xml version="1.0" standalone="no"?>
<!DOCTYPE svg PUBLIC "-//W3C//DTD SVG 1.1//EN" "http://www.w3.org/Graphics/SVG/1.1/DTD/svg11.dtd" >
<svg xmlns="http://www.w3.org/2000/svg" xmlns:xlink="http://www.w3.org/1999/xlink" version="1.1">
<metadata>
Created by FontForge 20141024 at Thu May 14 09:24:43 2015
 By System Administrator
</metadata>
<defs>
<font id="GROBOLD" horiz-adv-x="592" >
  <font-face 
    font-family="GROBOLD"
    font-weight="500"
    font-stretch="normal"
    units-per-em="1000"
    panose-1="2 0 6 3 3 0 0 2 0 4"
    ascent="800"
    descent="-200"
    x-height="580"
    cap-height="822"
    bbox="-72 -202 1047 990"
    underline-thickness="20"
    underline-position="-123"
    unicode-range="U+0020-2248"
  />
<missing-glyph horiz-adv-x="1000" 
 />
    <glyph glyph-name=".notdef" horiz-adv-x="1000" 
 />
    <glyph glyph-name=".null" horiz-adv-x="0" 
 />
    <glyph glyph-name="nonmarkingreturn" horiz-adv-x="300" 
 />
    <glyph glyph-name="space" unicode=" " horiz-adv-x="300" 
 />
    <glyph glyph-name="percent" unicode="%" horiz-adv-x="748" 
d="M455 549q22 31 32 63.5t11 64t-5.5 59.5t-18.5 51q-6 12 -18 23.5t-28.5 18.5t-36 8t-41.5 -7q-34 -13 -61 -40t-42 -63t-15.5 -78t18.5 -84q17 -38 45.5 -53t58.5 -14t57.5 15t43.5 36zM399 712q6 -14 7 -35t-11 -52q-6 -15 -17.5 -25t-23.5 -10q-11 0 -20.5 12
t-10.5 39q-2 30 7 51.5t21.5 32t26 8t21.5 -20.5zM693 46q22 30 32 62.5t10.5 64t-6 59.5t-18.5 51q-6 12 -18 23.5t-28 19t-35.5 8.5t-41.5 -7q-34 -13 -61.5 -40t-42.5 -63t-15.5 -78t19.5 -84q17 -38 45.5 -53t58.5 -14t57.5 15t43.5 36zM637 209q5 -14 6.5 -35
t-10.5 -53q-6 -15 -17.5 -25t-23.5 -10q-11 0 -20.5 12t-10.5 40q-2 30 7 51t21.5 31.5t26 8.5t21.5 -20zM641 839l92 -24l-401 -820l-76 33z" />
    <glyph glyph-name="ampersand" unicode="&#x26;" horiz-adv-x="845" 
d="M565 84q-57 -45 -115.5 -66.5t-130.5 -26.5q-59 -5 -116 2.5t-103 32t-76 68.5t-35 112q-3 44 9 81t36 65.5t57 48.5t72 31q-37 29 -59.5 64t-26.5 83q-5 59 18 103t62.5 73.5t90 46t101.5 20.5q48 4 100.5 -3.5t97 -29t75 -59.5t35.5 -94q3 -35 -6 -69.5t-27.5 -64.5
t-45 -53.5t-58.5 -35.5l78 -68q35 27 61 61.5t52 69.5l165 -159l-117 -105l86 -67l-213 -150zM335 594q1 -17 15 -34.5t29 -24.5q9 6 18 13.5t16.5 17t11.5 20t3 21.5q-1 17 -15 31t-32 12q-22 -2 -35 -18t-11 -38zM292 311q-16 -12 -30 -27t-12 -38q2 -31 24.5 -44
t51.5 -10q23 2 39.5 9.5t35.5 17.5z" />
    <glyph glyph-name="quotesingle" unicode="'" horiz-adv-x="255" 
d="M215 922l-119 -153l-42 14l84 202z" />
    <glyph glyph-name="parenleft" unicode="(" horiz-adv-x="404" 
d="M356 869q-72 -110 -108.5 -204t-51.5 -162t-16 -106.5l-1 -38.5l5 -36.5t23.5 -94.5t55.5 -128.5t101 -138.5l-49 -35q-65 56 -108.5 117.5t-68 116t-37.5 101t-16 71.5t-3 27l1.5 43t21 118t66 175.5t135.5 216.5z" />
    <glyph glyph-name="parenright" unicode=")" horiz-adv-x="386" 
d="M47 -33q72 111 108.5 204.5t51.5 161.5t16 106.5l1 38.5l-5 36.5t-23.5 94.5t-55.5 128.5t-101 138.5l49 35q65 -56 108.5 -117.5t68 -116t37.5 -101t16 -71.5t3 -27l-1.5 -43t-21 -117.5t-66 -175.5t-135.5 -217z" />
    <glyph glyph-name="plus" unicode="+" horiz-adv-x="772" 
d="M713 477l-19 -208l-232 -2l-11 -190l-189 -19l2 208l-213 -1l19 189l195 7l2 240l222 32l-15 -265z" />
    <glyph glyph-name="comma" unicode="," horiz-adv-x="237" 
d="M190 53l-119 -154l-42 14l84 203z" />
    <glyph glyph-name="hyphen" unicode="-" horiz-adv-x="456" 
d="M75 403l317 14l-10 -134l-316 5z" />
    <glyph glyph-name="period" unicode="." horiz-adv-x="219" 
d="M40 31l7 85l105 -6l-20 -105z" />
    <glyph glyph-name="slash" unicode="/" horiz-adv-x="516" 
d="M408 839l91 -24l-401 -820l-75 33z" />
    <glyph glyph-name="zero" unicode="0" horiz-adv-x="676" 
d="M567 102q-27 -36 -67 -65t-87.5 -45.5t-98.5 -18.5t-99.5 14.5t-90 54t-70.5 100.5q-32 70 -42 140.5t-1 137t34.5 127t64 110.5t88 88t106.5 59q54 21 103.5 17.5t89.5 -21.5t70 -46.5t45 -58.5q29 -56 46.5 -127.5t15.5 -149.5t-27 -159t-80 -157zM426 509
q-19 44 -52.5 49.5t-65.5 -20t-54.5 -79t-17.5 -127.5q4 -69 27 -98.5t52 -29.5q30 0 58.5 24t43.5 62q15 39 21 71.5t5.5 59.5t-5.5 49t-12 39z" />
    <glyph glyph-name="one" unicode="1" horiz-adv-x="518" 
d="M95 488l-98 126l197 187l276 28l-38 -842l-245 32l-3 544z" />
    <glyph glyph-name="two" unicode="2" horiz-adv-x="674" 
d="M639 694q41 -73 29 -136.5t-57 -118.5t-111 -102.5t-133 -89.5l271 31l-6 -253l-593 -30l-1 153q-7 25 7 55t41 62.5t63 66t74 66.5t73.5 63.5t61.5 56t38.5 45.5t4.5 31q-12 16 -46 7t-75.5 -31.5t-84 -52.5t-71.5 -56l-134 193q93 88 174 132.5t146.5 56.5t119 1
t92 -35t65.5 -50.5t39 -45t13 -19.5z" />
    <glyph glyph-name="three" unicode="3" horiz-adv-x="638" 
d="M502 456q66 -39 96 -87.5t36 -95t-2 -87.5t-18 -63.5t-11 -24.5l-13.5 -19.5t-43 -43t-77 -42t-115 -16t-157 34t-202.5 107.5l147 210q72 -52 117 -68.5t70 -15t34 11l9 9.5q0 1 4 11.5t2 26.5t-16.5 30t-50.5 21.5t-100 1.5l11 171q68 -6 96.5 3.5t35 24t0.5 27
l-6 12.5l-10.5 10t-36 12.5t-69 -10t-108.5 -57.5l-98 182q98 69 182 92.5t147 19t108.5 -24t67 -37t23.5 -19.5q1 -1 15 -18.5t28.5 -49.5t16 -71t-23 -83t-88.5 -85z" />
    <glyph glyph-name="four" unicode="4" horiz-adv-x="603" 
d="M330 837l245 -76l-374 -352h102l3 58h230l-10 -59l89 16l-14 -232l-89 -1l-11 -183l-255 -11l18 192l-248 -19l-21 333z" />
    <glyph glyph-name="five" unicode="5" horiz-adv-x="571" 
d="M219 539q54 15 114 10t111 -29t86 -66t39 -102v-22q0 -20 -7.5 -55t-25.5 -75t-53.5 -79.5t-92 -69.5t-141.5 -45t-201 -6l-45 234q78 -17 131.5 -12.5t85 21t49 37.5t22.5 35.5t5 15.5q4 19 -7.5 30.5t-33 17t-50 6t-58.5 -3t-60 -11.5t-53 -18l34 431l475 23l5 -199
l-304 3l-25 -71v0z" />
    <glyph glyph-name="six" unicode="6" horiz-adv-x="561" 
d="M509 477q61 -66 69 -135t-20 -131.5t-83 -113t-120.5 -79.5t-132.5 -30.5t-118 33.5q-1 1 -19.5 17t-43 50t-42 84t-16 118.5t34.5 153t109 188t208 222.5l153 -148q-39 -31 -72.5 -63.5t-58 -59.5t-38.5 -44l-14 -17q32 17 62.5 17.5t55.5 -8t45 -21.5t30 -22.5
t11 -10.5zM313 212q33 20 47.5 53t2.5 62t-44.5 35t-65.5 -13q-33 -20 -47.5 -53t-2.5 -62t44 -35t66 13z" />
    <glyph glyph-name="seven" unicode="7" horiz-adv-x="539" 
d="M560 825l-89 -306l65 2l-32 -182l-71 -3l-82 -340l-275 32l94 300l-80 -3l11 178l125 7l39 95l-259 -31l-14 220z" />
    <glyph glyph-name="eight" unicode="8" horiz-adv-x="604" 
d="M554 421q22 -36 33.5 -81t5.5 -94t-33 -98.5t-81 -94.5q-26 -22 -63.5 -38t-80.5 -24.5t-88.5 -7.5t-87.5 13.5t-77 37.5t-57 65q-24 45 -29 89t6.5 85t37 77.5t62.5 66.5q-21 19 -34 44q-33 61 -27 120t41 108t93 85t129 51q45 9 84 5.5t70.5 -15t54 -28.5t33.5 -35
q18 -29 28.5 -64t9 -73.5t-17 -78.5t-48.5 -78q23 -16 36 -37zM356 631q-9 18 -27.5 21t-37 -6.5t-33 -30t-14.5 -50.5q0 -28 12 -40.5t28 -13t32.5 8.5t26.5 24q19 30 19 51q0 22 -6 36zM341 185q26 40 26 68t-9 47q-12 24 -36.5 28.5t-49 -8t-43.5 -40.5t-19 -67
q0 -37 15.5 -53.5t37 -17.5t43.5 11t35 32z" />
    <glyph glyph-name="nine" unicode="9" horiz-adv-x="568" 
d="M57 343q-46 49 -61 101t-7.5 101.5t35 95t67 82.5t88 63.5t98.5 38.5t98 6.5t86 -32.5q1 -1 19.5 -17t43 -50t42 -84t16.5 -118.5t-34 -153t-109 -188t-208 -222.5l-154 149q39 31 73 63.5t58.5 59t38.5 43.5l14 17q-32 -17 -62.5 -17.5t-55.5 8t-45 21.5t-30 22.5
t-11 10.5zM253 608q-33 -20 -48 -53t-2 -62q12 -28 44 -34.5t65 13.5q33 19 48 52.5t3 61.5q-13 29 -45 35t-65 -13z" />
    <glyph glyph-name="colon" unicode=":" horiz-adv-x="178" 
d="M7 31l6 85l105 -6l-20 -105zM46 375l7 94l116 -7l-22 -116z" />
    <glyph glyph-name="semicolon" unicode=";" horiz-adv-x="209" 
d="M149 53l-119 -154l-42 14l84 203zM85 194l6 85l105 -6l-19 -105z" />
    <glyph glyph-name="equal" unicode="=" horiz-adv-x="693" 
d="M22 213l643 23l-19 -208l-643 -4zM45 520l643 23l-19 -207l-642 -5z" />
    <glyph glyph-name="question" unicode="?" horiz-adv-x="725" 
d="M358 -26q-31 -11 -61 -12t-55 6t-43.5 22t-25.5 36t-1.5 44t21 44t40 38t55.5 28t61 12t55 -6t43 -22t26 -36q7 -21 1.5 -44t-21 -44t-40 -38.5t-55.5 -27.5zM1 735q101 96 187.5 146t156 65.5t125.5 6.5t96 -31.5t67 -48.5t39.5 -44.5t13.5 -19.5q35 -62 30.5 -117
t-35 -104t-80.5 -92t-107 -82t-113.5 -73.5t-100.5 -66t-68 -60.5t-16 -56l-164 127q-9 25 6.5 54t45.5 60t71 62.5t84.5 62.5t84.5 59.5t71.5 52.5t45.5 43t7 30t-26 10t-42.5 -10t-53 -24t-56.5 -33.5t-54 -38.5t-45 -37z" />
    <glyph glyph-name="at" unicode="@" horiz-adv-x="782" 
d="M573 337q-2 -9 -4.5 -21.5t-2.5 -23.5q0 -10 4 -17t16 -6q14 1 30.5 17t31 41.5t24.5 57.5t12 66q3 66 -17 116t-58 83t-90.5 50t-113.5 17q-67 0 -121.5 -22.5t-93.5 -63.5t-60 -98t-21 -126q0 -72 23.5 -129.5t65.5 -97t99.5 -60.5t125.5 -21q67 0 116 9t75 25
l-16 -100q-28 -15 -44 -23t-32.5 -11.5t-40 -4.5t-66.5 -1q-86 0 -161 31t-131 86.5t-88 131t-32 165.5q0 89 31.5 165t86.5 132t129 87.5t159 31.5q70 0 133 -22t116 -70q54 -48 86.5 -108.5t32.5 -135.5q0 -66 -17 -123t-49 -99q-38 -51 -81.5 -72.5t-81.5 -19.5
q-23 1 -41.5 18t-24.5 42q-21 -23 -54.5 -41.5t-81.5 -18.5q-35 0 -67.5 15.5t-57.5 41.5t-39.5 61.5t-14.5 75.5q0 48 15.5 93.5t43.5 81t68 56.5t90 21q41 0 73 -11.5t56 -45.5l8 34h105zM372 285q24 0 42 10.5t30 27.5t18.5 37t8.5 40q6 46 -15.5 74t-60.5 28
q-23 0 -42 -10.5t-33 -28t-21.5 -39t-7.5 -42.5q0 -19 5.5 -36.5t15.5 -31t25 -21.5t35 -8z" />
    <glyph glyph-name="A" unicode="A" horiz-adv-x="850" 
d="M395 873l505 -768l-314 -119l-84 140l-210 -7l-41 -150l-301 98zM344 278l119 21l-50 136z" />
    <glyph glyph-name="B" unicode="B" horiz-adv-x="689" 
d="M32 781q141 27 232.5 36t144.5 8.5t74 -5l21 -4.5l20.5 -9.5t46.5 -28t49.5 -47t29 -66t-15 -84.5t-81.5 -104q84 -44 119.5 -94.5t39 -99.5t-15 -94t-43 -79t-45 -54.5l-20.5 -20.5q-1 -1 -13.5 -8.5t-49 -18t-97.5 -17.5t-158 -6.5t-231 15.5zM392 557l0.5 11.5t-7 22
t-27.5 14t-60 -12.5l-4 -105q31 -5 50.5 5.5t30 25t14 27zM445 275q0 1 -1.5 11t-9 23.5t-24.5 21.5t-47.5 5t-78.5 -26l13 -105q55 -5 85.5 5t44 24.5t16 27.5z" />
    <glyph glyph-name="C" unicode="C" horiz-adv-x="748" 
d="M718 674l-175 -215q-54 57 -94.5 73t-70 7.5t-49.5 -35t-32 -54t-17 -49.5l-5 -22q0 -2 4.5 -26t21 -53.5t47 -43.5t83 4t129.5 89l195 -208q-15 -29 -52 -59t-88 -55t-112 -41.5t-124.5 -19t-125 13.5t-113.5 56q-75 58 -111 128t-43 144t11.5 148t52 139t79 117
t92.5 83l20 11t55 21.5t82.5 15t103 -9t116 -50.5t120.5 -109z" />
    <glyph glyph-name="D" unicode="D" horiz-adv-x="720" 
d="M42 782q181 35 267.5 45.5l86.5 10.5q84 13 149 -6.5t110 -62.5t69 -105t27 -133t-15.5 -146.5t-60 -146t-106 -131t-152.5 -101.5l-17.5 -5.5t-59 -10t-110.5 -3.5t-172 14zM300 228q57 13 92.5 39.5t53.5 55t25.5 56.5t7.5 44v18q0 2 -3 19.5t-13 41.5t-28 39.5
t-49 12.5t-76 -39z" />
    <glyph glyph-name="E" unicode="E" 
d="M35 774l552 41l-31 -253l-251 -11l-1 -48l182 13l-21 -175l-167 -13l-2 -55l286 27l-5 -276l-535 -29z" />
    <glyph glyph-name="F" unicode="F" horiz-adv-x="546" 
d="M37 775l553 40l-31 -260l-252 -10l-11 -78l210 13l14 -210l-211 -13l-10 -256l-255 -6z" />
    <glyph glyph-name="G" unicode="G" horiz-adv-x="815" 
d="M587 496q-14 34 -44.5 49.5t-68.5 15.5q-37 0 -77 -16t-73 -45t-54.5 -71t-21.5 -95q-1 -49 15.5 -78.5t42 -42.5t56.5 -11.5t61 15t54.5 36t36.5 51.5l-142 -27l16 161l436 55q9 -63 -5.5 -124.5t-40 -112.5t-53.5 -91.5t-46.5 -61.5t-20.5 -23q-36 -36 -87.5 -63
t-110.5 -41t-122 -12.5t-120 22t-105.5 62.5t-78.5 109q-34 75 -39 149.5t12 144t54.5 131.5t90 111.5t117.5 84.5t137 50q2 0 21.5 2.5t56.5 0.5t83 -14.5t100 -42t107 -81.5z" />
    <glyph glyph-name="H" unicode="H" horiz-adv-x="721" 
d="M13 787l292 28l-35 -367l148 11l12 349l285 14l-81 -772l-232 -28l13 220l-105 -15l-10 -230l-249 -5z" />
    <glyph glyph-name="I" unicode="I" horiz-adv-x="371" 
d="M342 822l-41 -809l-263 -30l10 804z" />
    <glyph glyph-name="J" unicode="J" horiz-adv-x="581" 
d="M536 826q6 -160 8.5 -270.5t3 -176t-1 -101t-2.5 -46l-1 -10.5q-6 -25 -20.5 -58t-39 -66t-59.5 -62t-82 -45t-106 -15t-131 28l-21 11.5t-44 42t-38 83.5t-4 136l220 70q-10 -52 -9.5 -82.5t6 -44t13.5 -16.5t13.5 -1t6.5 2q1 1 10 9t18 29t7 54l-33 479z" />
    <glyph glyph-name="K" unicode="K" horiz-adv-x="636" 
d="M678 633l-279 -259l246 -207l-140 -210l-194 183l-2 -127l-262 -30l-16 804l293 35l-3 -181l161 223z" />
    <glyph glyph-name="L" unicode="L" horiz-adv-x="560" 
d="M40 782l301 42l-26 -563l245 51l12 -281l-525 -53z" />
    <glyph glyph-name="M" unicode="M" horiz-adv-x="883" 
d="M211 865l245 -309l236 244l245 -674l-241 -197l-109 325l-136 -238l-164 252l-97 -296l-233 151z" />
    <glyph glyph-name="N" unicode="N" horiz-adv-x="762" 
d="M51 815l382 -317l9 331l298 -20l-46 -763l-383 191l14 -236l-287 -18z" />
    <glyph glyph-name="O" unicode="O" horiz-adv-x="764" 
d="M639 82q-36 -36 -87.5 -63t-110.5 -41t-121.5 -13t-120 21.5t-105.5 62.5t-78 109q-34 75 -40.5 149t9.5 142.5t52 129.5t87 110.5t114.5 85.5t135.5 55q68 17 127.5 10.5t107.5 -28.5t81.5 -53.5t50.5 -63.5q31 -60 46.5 -135.5t7 -156.5t-45.5 -163.5t-110 -157.5z
M506 508q-15 32 -42.5 46t-59.5 12t-65 -18.5t-60 -46t-44.5 -71.5t-17.5 -93q-1 -48 13.5 -78t37 -44.5t51.5 -16t57.5 8.5t53.5 29.5t42 45.5q25 39 36.5 72.5t14 61.5t-2.5 51t-14 41z" />
    <glyph glyph-name="P" unicode="P" horiz-adv-x="640" 
d="M406 821q84 9 142.5 -11.5t93 -60.5t46.5 -95.5t2 -116t-40 -122t-79.5 -114t-117 -91t-151.5 -54.5l-4 -180l-242 25l-16 781q190 22 278 30.5zM422 510q0 1 1 11t-3 24t-17 23.5t-41.5 9t-76.5 -19.5l-10 -160q36 8 62.5 23t44.5 32t28 32.5t12 24.5z" />
    <glyph glyph-name="Q" unicode="Q" horiz-adv-x="774" 
d="M738 695q29 -56 44.5 -125t11 -143.5t-32.5 -151.5t-86 -149l46 -45l-148 -147l-52 71q-63 -28 -137 -37t-144.5 6.5t-131 60t-96.5 123.5q-50 113 -40.5 221.5t62.5 199.5t141.5 157t195.5 94q68 17 127.5 10.5t107.5 -28.5t81.5 -53.5t50.5 -63.5zM214 337
q0 -48 14 -78t36.5 -45t51 -16t57.5 9l-23 31l84 123l52 -51q18 33 26 62t8.5 54t-4.5 45t-13 37q-15 32 -42.5 46t-59.5 12t-65 -18.5t-60 -46t-44.5 -71.5t-17.5 -93z" />
    <glyph glyph-name="R" unicode="R" horiz-adv-x="670" 
d="M692 143l-155 -175l-243 179l-3 -171l-242 25l-16 781q190 22 278 30.5l88 8.5q94 10 156.5 -14t95 -69.5t37 -106t-17.5 -124t-69.5 -123.5t-117.5 -104zM279 558l-10 -160q36 8 62.5 23t44.5 32t27.5 32.5t11.5 24.5q0 1 1 11t-2.5 24t-17 23.5t-41.5 9t-76 -19.5z" />
    <glyph glyph-name="S" unicode="S" horiz-adv-x="591" 
d="M422 502q31 -14 63.5 -32t59 -44t44 -62.5t19.5 -86.5q3 -71 -23 -125.5t-73.5 -92t-113.5 -58t-142 -23.5q-35 -1 -72 3.5t-73 13.5t-70 21.5t-64 26.5l76 214q15 -6 36 -15.5t45 -17.5t50 -14t51 -5q37 2 62.5 13t24.5 37q-1 17 -17.5 26t-39.5 18q-15 4 -39.5 11
t-52.5 19t-56.5 29t-52 41t-39 55.5t-16.5 72.5q-2 70 24 124.5t71 93t105 59t128 23.5q63 3 125 -6.5t116 -31.5l-59 -231q-40 17 -73 28.5t-77 17.5q-13 2 -35 2q-21 0 -41.5 -4.5t-35.5 -14.5t-16 -28q0 -8 7.5 -12.5t18 -7t21.5 -4t18 -2.5q29 -6 45.5 -10l16.5 -4
q28 -6 54 -17z" />
    <glyph glyph-name="T" unicode="T" horiz-adv-x="521" 
d="M518 595l-120 -14v-563l-284 -35l15 571l-132 -13l7 246l540 46z" />
    <glyph glyph-name="U" unicode="U" horiz-adv-x="644" 
d="M618 790q6 -153 8.5 -246t3.5 -143t1 -66v-16q1 -61 -9 -117t-36.5 -101.5t-72 -78t-113.5 -45.5q-104 -20 -179 -4t-123.5 60t-70.5 111.5t-20 148.5v10q0 10 1 42t2 90t4 155t7 236l286 -50l-26 -470q-4 -26 0.5 -46t9.5 -29t6 -10q10 -11 23 -13t29 24q1 1 6 12.5
t10 40.5t3 71l-21 384z" />
    <glyph glyph-name="V" unicode="V" horiz-adv-x="748" 
d="M237 836l147 -352l171 344l249 -144l-440 -755l-412 739z" />
    <glyph glyph-name="W" unicode="W" horiz-adv-x="985" 
d="M-42 729l272 118l106 -327l181 278l151 -262l120 358l230 -165l-248 -735l-249 255l-257 -324z" />
    <glyph glyph-name="X" unicode="X" horiz-adv-x="806" 
d="M213 837l196 -201l185 201l224 -168l-237 -246l242 -247l-191 -205l-227 285l-182 -294l-228 191l228 256l-233 260z" />
    <glyph glyph-name="Y" unicode="Y" horiz-adv-x="701" 
d="M155 832l177 -278l192 278l245 -168l-305 -394l-3 -288l-269 36v294l-252 352z" />
    <glyph glyph-name="Z" unicode="Z" horiz-adv-x="817" 
d="M33 -31l243 589l-292 -19l56 262l743 24l-339 -563l376 46l-50 -291z" />
    <glyph glyph-name="a" unicode="a" horiz-adv-x="603" 
d="M349 68h-2q-27 -38 -68.5 -53t-89.5 -15q-40 0 -76 14.5t-63 41.5t-43 65t-16 85q0 41 16 75.5t43.5 60t65 40t81.5 14.5q46 0 77.5 -13.5t53.5 -30.5v30q0 46 -30 61t-78 15q-44 0 -82 -9t-77 -21l39 159q48 14 100 19.5t106 5.5q49 0 96 -11.5t82.5 -37.5t56.5 -67
t20 -101l-11 -378l-201 -17v68zM222 253q-34 -5 -56 -23.5t-19 -41.5q4 -23 28.5 -34.5t63.5 -5.5t58 25t15 41q-3 19 -25.5 32.5t-64.5 6.5z" />
    <glyph glyph-name="b" unicode="b" horiz-adv-x="640" 
d="M389 607q60 0 110 -26t87 -68.5t57.5 -96.5t20.5 -110q0 -75 -25.5 -133t-67.5 -97.5t-97.5 -60t-115.5 -20.5q-46 0 -86.5 16t-75.5 34v-43h-158l-6 806l231 18l-9 -260q31 17 60 29t75 12zM371 204q24 7 41 19.5t27.5 28.5t13.5 34t-2 36t-17 31.5t-29.5 22t-39 10
t-45.5 -5.5t-41.5 -20t-28 -29t-13.5 -34t2 -36t17 -31.5t29.5 -21.5t39.5 -9.5t46 5.5z" />
    <glyph glyph-name="c" unicode="c" horiz-adv-x="528" 
d="M542 71q-25 -22 -53.5 -36.5t-58.5 -23.5t-61 -12.5t-60 -3.5q-68 0 -125.5 23t-100 63.5t-66.5 95t-24 117.5q0 73 25 131.5t69.5 99t105.5 62t132 21.5t123.5 -23t88.5 -47l-132 -173q-14 11 -32.5 18t-37.5 10t-36.5 2t-28.5 -7q-19 -10 -32.5 -23.5t-21 -29.5
t-7 -34.5t10.5 -37.5q20 -40 57 -49t78 11l51 26l136 -180v0z" />
    <glyph glyph-name="d" unicode="d" horiz-adv-x="664" 
d="M602 7l-196 -13v57h-2q-24 -32 -65.5 -46.5t-83.5 -14.5q-51 0 -98.5 20.5t-84.5 59t-59 94.5t-22 127q0 64 18.5 120.5t53.5 99t86.5 67t117.5 24.5q33 0 64 -8.5t54 -28.5l-9 238l230 18zM325 205q22 8 37 21.5t23.5 30t9.5 34.5t-5 35q-6 16 -18.5 29t-29.5 20.5
t-37.5 8.5t-42.5 -7q-23 -8 -38 -22t-23.5 -30.5t-9.5 -35t5 -34.5q6 -17 18.5 -29.5t29.5 -20t37.5 -8t43.5 7.5z" />
    <glyph glyph-name="e" unicode="e" horiz-adv-x="572" 
d="M570 74q-61 -44 -125 -63.5t-147 -19.5q-68 0 -124.5 23.5t-97.5 63.5t-64 93.5t-23 113.5q0 75 24 134t65 100t95.5 62.5t116.5 21.5q100 0 173.5 -51t109.5 -136l-299 -225q11 -6 29 -8t33 -2q46 0 77.5 16.5t57.5 39.5zM356 402q-14 17 -30.5 23t-37.5 6
q-20 0 -36.5 -8.5t-28.5 -23t-18.5 -32.5t-6.5 -37q0 -18 2.5 -25.5t6.5 -15.5z" />
    <glyph glyph-name="f" unicode="f" horiz-adv-x="416" 
d="M81 404h-69l32 172h37q0 54 14 98t42.5 74.5t72.5 47.5t105 17q17 0 30.5 -2.5t28.5 -4.5l26 -166h-34q-33 0 -50.5 -17t-17.5 -47h86v-172h-86l6 -396l-224 -18z" />
    <glyph glyph-name="g" unicode="g" 
d="M96 16q35 -12 70.5 -20t73.5 -8q16 0 32 2t29 8.5t21 18t8 30.5t-9.5 31.5t-26 20t-37.5 10t-43 2.5q-26 0 -53 -7.5t-50 -19.5l19 60q-66 32 -102.5 87.5t-36.5 134.5q0 41 15.5 84.5t48.5 79.5t84 59t122 23q36 0 63 -5t51 -13l17 105l160 -69l-52 -102
q32 -31 48.5 -71.5t16.5 -86.5q0 -63 -25.5 -107.5t-75.5 -77.5q98 -55 98 -166q0 -53 -23 -94.5t-65.5 -69.5t-102 -42.5t-132.5 -14.5q-88 0 -146 15t-94 27zM289 297q34 7 51 28t12 47q-6 26 -30.5 38t-57.5 5q-34 -8 -51 -29t-12 -46q5 -26 29.5 -38.5t58.5 -4.5z" />
    <glyph glyph-name="h" unicode="h" horiz-adv-x="587" 
d="M248 534h2q25 33 58 47.5t74 14.5q42 0 74.5 -15t54.5 -42t33.5 -63.5t10.5 -78.5l-6 -387l-211 -18v365q0 17 -12 29t-32 12q-19 0 -32.5 -11.5t-13.5 -31.5v-364l-210 18l-7 788l224 18z" />
    <glyph glyph-name="i" unicode="i" horiz-adv-x="305" 
d="M40 567l223 18l-11 -577l-212 -18v577zM39 820l229 10l-12 -176l-218 -16z" />
    <glyph glyph-name="j" unicode="j" horiz-adv-x="392" 
d="M335 56q0 -62 -16 -108.5t-46 -77.5t-72.5 -47t-94.5 -16h-47l-55 183h23q45 0 68 19t23 65v490l217 18v-526zM334 652l-218 -17l1 183l229 10z" />
    <glyph glyph-name="k" unicode="k" horiz-adv-x="578" 
d="M29 795l227 18l-20 -422h2l95 203l221 -18l-130 -252l150 -231l-208 -103l-130 251h-2l8 -233l-208 -18z" />
    <glyph glyph-name="l" unicode="l" horiz-adv-x="299" 
d="M35 795l226 18l-9 -805l-210 -18z" />
    <glyph glyph-name="m" unicode="m" horiz-adv-x="891" 
d="M654 356q0 19 -14 31t-37 12q-24 0 -38 -15t-14 -31l6 -342l-217 -18l4 361q1 20 -14 32.5t-39 12.5q-19 0 -35.5 -12t-15.5 -34l10 -361l-210 18l-12 569l204 18v-92h2q32 43 72.5 67.5t97.5 24.5q47 0 78.5 -14.5t57.5 -45.5q26 27 59 43.5t73 16.5q45 0 79.5 -15.5
t58 -43.5t36 -65.5t13.5 -80.5l6 -381l-217 -18z" />
    <glyph glyph-name="n" unicode="n" horiz-adv-x="591" 
d="M236 514h4q33 45 67.5 61t75.5 16q42 0 74 -15t54 -42t33.5 -63t11.5 -78v-387l-216 -18l3 364q1 18 -13.5 30t-34.5 12q-19 0 -34.5 -11.5t-15.5 -31.5l4 -361l-213 15l-8 569l208 17v-77z" />
    <glyph glyph-name="o" unicode="o" horiz-adv-x="617" 
d="M623 344q10 -69 -6.5 -128.5t-53 -105t-91 -75t-121.5 -38.5t-128 4t-109 46.5t-80 86t-41 121.5q-10 69 6.5 128.5t53 105.5t91 75.5t121.5 38.5t127.5 -4t108.5 -46.5t80 -86.5t42 -122zM203 259q17 -39 54 -51t84 8q46 20 63.5 54.5t1.5 73.5q-17 38 -54 50.5
t-83 -7.5q-47 -20 -64.5 -55t-1.5 -73z" />
    <glyph glyph-name="p" unicode="p" horiz-adv-x="639" 
d="M239 598v-68q32 35 66.5 51.5t82.5 16.5q60 0 109.5 -26.5t84 -69.5t53.5 -97.5t19 -110.5q0 -60 -20 -115.5t-56.5 -98.5t-87.5 -69t-112 -26q-31 0 -66.5 9t-63.5 36l6 -199l-211 -18l-11 767zM375 211q45 21 60.5 59t-0.5 71q-16 34 -54.5 45.5t-83.5 -9.5
q-46 -22 -62 -59.5t1 -71.5q8 -17 22 -28.5t32.5 -16.5t40 -3t44.5 13z" />
    <glyph glyph-name="q" unicode="q" horiz-adv-x="637" 
d="M382 -165l6 199q-28 -26 -63.5 -35t-66.5 -9q-62 0 -112.5 26t-87 68.5t-56.5 98t-20 115.5q0 56 19 110.5t53.5 97.5t84 69.5t109.5 26.5q48 0 82.5 -16.5t66.5 -51.5v68l208 -18l-11 -767zM401 345q-8 17 -22.5 28.5t-33 16.5t-40.5 3t-44 -13q-45 -21 -60.5 -58.5
t0.5 -71.5q16 -33 54.5 -44.5t83.5 9.5q46 22 62 59.5t0 70.5z" />
    <glyph glyph-name="r" unicode="r" horiz-adv-x="418" 
d="M230 598v-111h2q26 111 150 111q27 0 51 -3l-52 -213q-7 1 -15 1h-20q-42 0 -72.5 -27.5t-30.5 -86.5v-257l-210 -18l-6 586z" />
    <glyph glyph-name="s" unicode="s" horiz-adv-x="446" 
d="M14 198q27 -8 54.5 -13t59.5 -5q14 0 29.5 0.5t28 3t21 8.5t8.5 18q0 15 -15.5 22.5t-38 14.5t-49.5 16.5t-49.5 28t-38 49.5t-15.5 81q0 33 13 65t42 58t75 42t111 16q25 0 50 -2t47.5 -5.5t41.5 -7t32 -6.5v-176q-25 6 -49 10t-52 4q-6 0 -19 -0.5t-26 -3t-23 -8.5
t-10 -16q0 -16 16 -24t39.5 -15t51.5 -17t51.5 -28.5t39.5 -49.5t16 -81q0 -54 -23.5 -90t-62 -57.5t-88.5 -30.5t-104 -9q-42 0 -82.5 5t-81.5 16v187v0z" />
    <glyph glyph-name="t" unicode="t" horiz-adv-x="371" 
d="M329 -7q-16 -2 -30.5 -2.5t-31.5 -0.5q-96 0 -149.5 43.5t-53.5 141.5v237l-55 -1l6 173h47v66l217 98v-164l81 12l-11 -184h-68v-175q0 -30 8.5 -40t38.5 -10q13 0 21 1t15 3l-35 -198v0z" />
    <glyph glyph-name="u" unicode="u" horiz-adv-x="591" 
d="M362 88h-2q-20 -55 -62.5 -78t-99.5 -23q-75 0 -121.5 44.5t-46.5 129.5v420l223 18l-6 -370q-1 -24 10.5 -34.5t35.5 -10.5q20 0 32.5 10t11.5 34l-6 353l230 18l-15 -595l-184 -8v92z" />
    <glyph glyph-name="v" unicode="v" horiz-adv-x="513" 
d="M193 603l57 -395h2l66 395l217 -17l-138 -577l-288 -17l-131 594z" />
    <glyph glyph-name="w" unicode="w" horiz-adv-x="788" 
d="M259 327l57 259l157 12l59 -274h2l59 283l218 -18l-154 -577l-207 -16l-56 279h-2l-57 -263l-205 -17l-156 594l224 18l59 -280h2z" />
    <glyph glyph-name="x" unicode="x" horiz-adv-x="557" 
d="M275 430h2l46 168l231 -18l-119 -275l139 -293l-240 -17l-57 181h-2l-58 -181l-236 17l133 293l-124 275l232 18z" />
    <glyph glyph-name="y" unicode="y" horiz-adv-x="502" 
d="M272 368l49 220l206 -18l-214 -754l-226 18l86 235l-188 492l218 27l67 -220h2z" />
    <glyph glyph-name="z" unicode="z" horiz-adv-x="486" 
d="M54 580h417l-168 -369h178l-43 -208h-453l170 369h-143z" />
    <glyph glyph-name="Ccedilla" unicode="&#xc7;" horiz-adv-x="723" 
d="M750 143q-14 -26 -46.5 -54t-77.5 -52t-100 -42t-113 -24l-54 -132l-151 63l59 76q-35 8 -68 22.5t-63 37.5q-75 58 -111.5 128t-43 144t11.5 148t52 139t79.5 117t92.5 83l20 11t55 21.5t82.5 15t102.5 -9t115.5 -50.5t120.5 -109l-174 -215q-54 57 -94.5 73t-70.5 7.5
t-50 -35t-32 -54t-17 -49.5l-5 -22q0 -2 5 -26t21.5 -53.5t47 -43.5t83 4t129.5 89z" />
    <glyph glyph-name="Eacute" unicode="&#xc9;" horiz-adv-x="598" 
d="M32 774l552 40l-31 -253l-252 -10v-49l181 14l-20 -175l-168 -14l-1 -55l286 27l-6 -276l-534 -29zM367 918l-119 -153l-42 14l84 202z" />
    <glyph glyph-name="Udieresis" unicode="&#xdc;" horiz-adv-x="679" 
d="M637 809q5 -121 7.5 -206t4 -136.5t1.5 -81.5v-38v-10q1 -60 -9 -116t-36.5 -101.5t-71.5 -78t-113 -45.5q-104 -21 -179 -4.5t-123.5 60.5t-71 111.5t-20.5 148.5l0.5 17t2 72.5t4 161t7.5 281.5l287 -49l-27 -470q-4 -26 0.5 -46t9.5 -29t6 -10q10 -11 23.5 -13
t29.5 24q1 1 6 12.5t9.5 40.5t2.5 71l-21 384zM162 928l165 12l17 -80q-16 -2 -43 -4t-52.5 -3.5t-44.5 -1.5q-18 0 -18 2q0 1 -1 6t-6 22.5t-17 46.5zM556 897q-78 -9 -123 -16l-45 -7l3 79l156 34z" />
    <glyph glyph-name="agrave" unicode="&#xe0;" horiz-adv-x="587" 
d="M350 -13l200 18l11 377q2 60 -19 101t-57 67t-83 37.5t-96 11.5q-53 0 -105.5 -5.5t-99.5 -19.5l-39 -159q38 12 76 21t82 9q24 0 44 -3t34.5 -11.5t22.5 -23.5t8 -38v-30q-22 17 -54 30.5t-77 13.5q-44 0 -81.5 -14.5t-65.5 -40t-44 -60t-16 -75.5q0 -47 16 -85t43 -65
t63 -41.5t76 -14.5q49 0 90.5 15t68.5 53h2v-68zM223 240q42 7 64.5 -6.5t25.5 -32.5q3 -22 -16 -41t-58 -25t-63.5 5.5t-27.5 34.5q-4 23 18 41.5t57 23.5zM288 832l112 -165l-79 -41l-178 126z" />
    <glyph glyph-name="acircumflex" unicode="&#xe2;" 
d="M346 -7l201 18l11 377q1 60 -20 101t-56.5 67t-82.5 37.5t-96 11.5q-54 0 -106 -5.5t-100 -19.5l-39 -159q38 12 76.5 21t82.5 9q24 0 43.5 -3t34 -11.5t22.5 -23.5t8 -38v-30q-22 17 -53.5 30.5t-77.5 13.5q-44 0 -81.5 -14.5t-65 -40t-43.5 -60t-16 -75.5q0 -47 16 -85
t43 -65t62.5 -41.5t75.5 -14.5q49 0 90.5 15t68.5 53h2v-68zM219 246q42 7 64.5 -6.5t25.5 -32.5q4 -22 -15 -41t-58 -25t-63.5 5.5t-28.5 34.5q-3 23 19 41.5t56 23.5zM301 722l-63 -84l-126 57l112 109h153l106 -116l-121 -50z" />
    <glyph glyph-name="adieresis" unicode="&#xe4;" horiz-adv-x="943" 
d="M346 -6l200 18l11 377q2 60 -19 101t-57 67t-83 37.5t-96 11.5q-53 0 -105.5 -5.5t-99.5 -19.5l-39 -159q38 12 76 21t82 9q24 0 44 -3t34.5 -11.5t22.5 -23.5t8 -38v-30q-22 17 -54 30.5t-77 13.5q-44 0 -81.5 -14.5t-65.5 -40t-44 -60t-16 -75.5q0 -47 16 -85t43 -65
t63 -41.5t76 -14.5q49 0 90.5 15t68.5 53h2v-68zM219 247q42 7 64.5 -6.5t25.5 -32.5q3 -22 -15.5 -41t-58.5 -25q-39 -6 -63 5.5t-28 34.5t18 41.5t57 23.5zM482 689l-133 1l-12 96l134 10zM271 689l-133 1l-12 96l134 10z" />
    <glyph glyph-name="ccedilla" unicode="&#xe7;" horiz-adv-x="516" 
d="M535 59q-45 -40 -99.5 -56.5t-108.5 -19.5l-29 -65l-91 24l31 47q-55 10 -101.5 36.5t-80 65t-52 87t-18.5 103.5q0 73 25 131.5t69.5 99t105.5 62t132 21.5t124 -23t89 -47l-132 -172q-14 11 -32.5 18t-37.5 9.5t-36.5 1.5t-28.5 -7q-19 -10 -32.5 -23.5t-21 -29.5
t-7 -34t10.5 -37q20 -40 57 -49.5t78 10.5l51 27z" />
    <glyph glyph-name="eacute" unicode="&#xe9;" horiz-adv-x="585" 
d="M439 752l-179 -126l-78 41l112 165zM289 598q100 0 173.5 -51t109.5 -136l-300 -226q12 -6 30 -8t33 -2q45 0 76.5 16.5t58.5 39.5l98 -162q-60 -44 -124.5 -64t-146.5 -20q-68 0 -125 23.5t-98 63.5t-64 93.5t-23 113.5q0 75 24 134t65 100.5t96 63t117 21.5zM205 284
l150 113q-14 17 -30.5 23t-37.5 6q-20 0 -37 -9t-29 -23t-18.5 -32t-6.5 -37t3 -26t6 -15z" />
    <glyph glyph-name="egrave" unicode="&#xe8;" horiz-adv-x="579" 
d="M325 833l112 -165l-78 -41l-179 126zM353 397l-150 -112q-3 8 -6 15t-3 26t6.5 37t18.5 32t29 23t37 9q21 0 37.5 -6t30.5 -24zM567 70l-99 162q-27 -23 -58.5 -39.5t-76.5 -16.5q-15 0 -33 2t-30 8l300 226q-36 85 -109.5 136t-173.5 51q-62 0 -117 -21.5t-96 -63
t-65 -100.5t-24 -134q0 -60 23 -113.5t64 -93.5t98 -63.5t125 -23.5q83 0 147 20t125 64z" />
    <glyph glyph-name="ecircumflex" unicode="&#xea;" horiz-adv-x="579" 
d="M297 718l-62 -84l-126 57l111 109h154l105 -116l-120 -50zM289 600q100 0 173.5 -51t109.5 -136l-299 -226q11 -6 29 -8t33 -2q45 0 77 16.5t58 39.5l99 -162q-61 -44 -125 -64t-147 -20q-68 0 -124.5 23.5t-97.5 63.5t-64 93.5t-23 113.5q0 75 24 134t65 100.5t95.5 63
t116.5 21.5zM205 286l150 113q-14 17 -30.5 23t-37.5 6q-20 0 -36.5 -9t-28.5 -23t-18.5 -32t-6.5 -37t2.5 -26t5.5 -15z" />
    <glyph glyph-name="edieresis" unicode="&#xeb;" horiz-adv-x="584" 
d="M335 181q45 0 77 16.5t58 39.5l99 -162q-61 -44 -125 -64t-147 -20q-68 0 -124.5 23.5t-97.5 63.5t-64 93.5t-23 113.5q0 75 24 134t65 100.5t95.5 63t116.5 21.5q100 0 173.5 -51t109.5 -136l-299 -226q11 -6 29 -8t33 -2zM197 331q0 -19 2.5 -26t5.5 -15l150 113
q-14 17 -30.5 23t-37.5 6q-20 0 -36.5 -9t-28.5 -23t-18.5 -32t-6.5 -37zM469 688l-133 1l-11 96l133 10zM258 688l-133 1l-11 96l133 10z" />
    <glyph glyph-name="icircumflex" unicode="&#xee;" horiz-adv-x="329" 
d="M237 796l105 -116l-120 -50l-62 84l-62 -84l-126 57l111 109h154zM62 -8l201 18l16 577l-217 -18v-577z" />
    <glyph glyph-name="idieresis" unicode="&#xef;" horiz-adv-x="323" 
d="M333 680l-132 1l-12 96l133 10zM122 680l-132 1l-12 96l133 10zM56 -8l201 18l16 577l-217 -18v-577z" />
    <glyph glyph-name="ocircumflex" unicode="&#xf4;" horiz-adv-x="609" 
d="M620 335q-10 69 -42 122t-80 86.5t-108.5 46.5t-127.5 4t-121.5 -38.5t-91.5 -75t-53.5 -105t-6.5 -128.5t42 -122t80 -86.5t108.5 -46.5t127.5 -4t121.5 38.5t91.5 75t53.5 105t6.5 128.5zM200 250q-17 38 0.5 73t64.5 55t84 7.5t53 -50.5q17 -39 -0.5 -73.5
t-64.5 -54.5t-83.5 -8t-53.5 51zM384 800l106 -116l-121 -50l-61 84l-63 -84l-126 57l112 109h153z" />
    <glyph glyph-name="ugrave" unicode="&#xf9;" 
d="M362 -4l185 9l14 595l-229 -18l6 -353q0 -25 -12.5 -34.5t-32.5 -9.5q-23 0 -34.5 10t-11.5 35l6 370l-223 -18v-420q0 -42 12.5 -75t34.5 -55t53 -33.5t68 -11.5q57 0 99.5 23t62.5 79h2v-93zM291 840l112 -165l-79 -41l-178 126z" />
    <glyph glyph-name="ucircumflex" unicode="&#xfb;" horiz-adv-x="579" 
d="M355 -2l184 9l15 595l-230 -18l6 -353q1 -25 -11.5 -34.5t-32.5 -9.5q-24 0 -35.5 10t-10.5 35l6 370l-223 -18v-420q0 -85 46.5 -130t121.5 -45q57 0 99.5 23t62.5 79h2v-93zM290 726l-62 -84l-126 57l111 109h154l105 -116l-120 -50z" />
    <glyph glyph-name="degree" unicode="&#xb0;" horiz-adv-x="264" 
d="M211 530q-16 -22 -43.5 -36t-57.5 -15t-58.5 14t-45.5 53q-20 42 -19.5 84t15.5 78t42 63t62 40q21 8 40.5 7t36 -8.5t28.5 -19t18 -23.5q12 -23 18.5 -51t6 -59.5t-10.5 -64t-32 -62.5zM154 693q-8 18 -21 20t-26 -8.5t-22 -31.5t-7 -51q2 -28 11.5 -39.5t20.5 -11.5
q12 0 23.5 10t17.5 25q12 31 10.5 52t-7.5 35z" />
    <glyph glyph-name="approxequal" unicode="&#x2248;" horiz-adv-x="600" 
d="M606 500l-163 -165l134 -144l-118 -149l-155 151l-164 -167l-124 144l147 159l-165 161l131 183l177 -191l163 175z" />
    <glyph glyph-name="nonbreakingspace" unicode="&#xa0;" horiz-adv-x="501" 
 />
    <glyph glyph-name="Agrave" unicode="&#xc0;" horiz-adv-x="815" 
d="M374 866l505 -768l-314 -119l-84 140l-210 -7l-41 -150l-301 98zM323 271l119 21l-50 136zM293 975l84 -202l-42 -14l-119 153z" />
    <glyph glyph-name="OE" unicode="&#x152;" horiz-adv-x="1046" 
d="M743 327l-1 -55l300 27l-6 -275l-503 -29v12q-63 -29 -138 -38.5t-146 6t-132 59.5t-97 124q-34 75 -40 149t10 142.5t52 129.5t87 110.5t115 85.5t135 54q43 11 83.5 12t76.5 -5.5t67 -20t57 -31.5l384 31l-31 -254l-266 -10l5 -48l190 13l-20 -175zM477 282
q25 39 36.5 72t14 61t-2.5 51.5t-14 41.5q-15 32 -42.5 46t-59.5 12t-65 -19t-60 -46.5t-44.5 -71t-17.5 -92.5q-1 -48 13.5 -78t37 -44.5t51.5 -16t57.5 8.5t53.5 29.5t42 45.5z" />
    <glyph glyph-name="oe" unicode="&#x153;" horiz-adv-x="973" 
d="M691 186q13 -5 28 -8t38 -3q45 0 80.5 13.5t64.5 31.5l90 -157q-55 -38 -117 -58t-143 -20q-60 0 -115.5 16t-99.5 52q-41 -32 -96.5 -50t-118.5 -18q-68 0 -126 21.5t-100.5 61.5t-67 96.5t-24.5 126.5t24.5 127t67 97t100.5 61.5t126 21.5q74 0 123.5 -17t92.5 -46
q36 22 83.5 42.5t110.5 20.5q52 0 95 -13t78 -37t64 -59t55 -78zM216 291q0 -43 23.5 -68t62.5 -25q40 0 63 25t23 68q0 42 -23 67t-63 25q-39 0 -62.5 -25t-23.5 -67zM773 398q-11 11 -25.5 19.5t-38.5 8.5q-45 0 -71.5 -28t-26.5 -66q0 -24 10 -41z" />
    <glyph glyph-name="emdash" unicode="&#x2014;" horiz-adv-x="943" 
d="M26 458l643 23l-19 -207l-643 -5z" />
    <glyph glyph-name="quotedblleft" unicode="&#x201c;" horiz-adv-x="429" 
d="M254 975l84 -202l-42 -14l-119 153zM111 975l84 -202l-42 -14l-119 153z" />
    <glyph glyph-name="quotedblright" unicode="&#x201d;" horiz-adv-x="417" 
d="M241 912l-119 -153l-42 14l84 202zM383 912l-118 -153l-42 14l83 202z" />
    <glyph glyph-name="divide" unicode="&#xf7;" horiz-adv-x="799" 
d="M420 0q-28 -10 -55.5 -11t-50 5.5t-39 19.5t-22.5 33q-7 19 -2 39.5t19 39.5t36 35t50 25q28 10 55.5 11t50 -5.5t39 -20t22.5 -32.5q7 -19 2 -39.5t-19 -39.5t-36 -35t-50 -25zM462 480q-28 -10 -55.5 -11t-50 5.5t-39 19.5t-23.5 33q-6 19 -1.5 39.5t19 39.5t36.5 35
t50 25q28 10 55.5 11t50 -5.5t39 -20t22.5 -32.5q7 -19 2 -39.5t-19 -39.5t-36 -35t-50 -25zM32 374l742 32l-10 -123l-741 -14z" />
    <glyph glyph-name="ydieresis" unicode="&#xff;" horiz-adv-x="489" 
d="M421 682l-133 1l-12 96l134 10zM210 682l-133 1l-12 96l134 10zM256 378l-67 220l-218 -27l188 -492l-86 -236l227 -18l213 755l-206 18l-49 -220h-2z" />
    <glyph glyph-name="Ydieresis" unicode="&#x178;" horiz-adv-x="742" 
d="M-41 664l252 -353v-294l269 -36l3 288l305 395l-245 167l-192 -278l-177 278zM197 918l165 12l17 -80q-17 -2 -43.5 -4t-52.5 -3.5t-45 -1.5q-18 0 -18 2l-3 14.5t-20 60.5zM591 887q-78 -9 -123 -16l-45 -7l2 79l156 34z" />
    <glyph glyph-name="Acircumflex" unicode="&#xc2;" horiz-adv-x="810" 
d="M373 866l505 -768l-315 -119l-84 140l-209 -7l-42 -150l-300 98zM322 271l119 21l-51 136zM347 980l205 -70l-32 -64l-154 73l-131 -87l-51 50z" />
    <glyph glyph-name="Ecircumflex" unicode="&#xca;" horiz-adv-x="600" 
d="M31 768l552 40l-31 -253l-251 -10l-1 -49l182 14l-21 -175l-168 -14l-1 -55l286 27l-5 -276l-535 -29zM280 980l205 -70l-32 -64l-154 73l-131 -87l-51 50z" />
    <glyph glyph-name="Edieresis" unicode="&#xcb;" horiz-adv-x="598" 
d="M79 905l165 12l17 -80q-16 -2 -43 -4t-52.5 -3t-44 -1.5t-18.5 1.5q0 1 -1 6t-6 22.5t-17 46.5zM473 874q-78 -9 -123 -16l-45 -7l3 79l156 34zM28 768l552 40l-31 -253l-252 -10v-49l181 14l-20 -175l-168 -14l-1 -55l286 27l-6 -276l-534 -29z" />
    <glyph glyph-name="Egrave" unicode="&#xc8;" horiz-adv-x="603" 
d="M33 768l552 40l-31 -253l-251 -10l-1 -49l182 14l-21 -175l-168 -14l-1 -55l286 27l-5 -276l-535 -29zM284 975l84 -202l-42 -14l-119 153z" />
    <glyph glyph-name="Icircumflex" unicode="&#xce;" horiz-adv-x="389" 
d="M174 938l205 -70l-32 -65l-154 74l-131 -88l-51 51zM349 775l-41 -759l-262 -29l10 753z" />
    <glyph glyph-name="Idieresis" unicode="&#xcf;" horiz-adv-x="408" 
d="M66 736l-10 -753l262 29l41 759zM5 855l165 12l17 -80q-16 -2 -43 -4t-52.5 -3t-44 -1.5t-18.5 1.5q0 1 -1 6t-6 22.5t-17 46.5zM399 824q-78 -9 -123 -16l-45 -7l3 79l156 34z" />
    <glyph glyph-name="Ocircumflex" unicode="&#xd4;" horiz-adv-x="758" 
d="M402 990l206 -70l-33 -64l-154 73l-130 -87l-52 50zM636 87q-35 -36 -87 -63t-111 -41t-122 -13t-120 21.5t-105.5 62.5t-78.5 109q-34 75 -40 149t10 142.5t52 129.5t87 110.5t114.5 85.5t134.5 54q68 18 128 11t108 -28.5t81.5 -53t50.5 -64.5q31 -60 46.5 -135t7 -156
t-45.5 -163.5t-110 -157.5zM503 513q-15 31 -42.5 45t-59.5 12t-65 -18.5t-60 -46t-44.5 -71t-17.5 -92.5q0 -48 14 -78t36.5 -44.5t51.5 -16t57.5 8.5t53.5 29.5t42 45.5q25 39 36.5 72t14 61t-2.5 51.5t-14 41.5z" />
    <glyph glyph-name="Ucircumflex" unicode="&#xdb;" horiz-adv-x="674" 
d="M337 990l205 -70l-33 -64l-154 73l-130 -87l-51 50zM634 808q5 -121 7.5 -206t4 -136.5t2 -80.5t0.5 -38v-10q1 -60 -9 -116t-37 -101.5t-72 -78t-113 -45.5q-104 -21 -179 -4.5t-123.5 60.5t-70.5 111.5t-20 148.5v10t1 42t2 90t4 154.5t7 235.5l286 -49l-26 -470
q-4 -26 0.5 -46t9 -29t5.5 -10q11 -11 24 -13t29 24q1 1 6 12.5t10 40t3 70.5l-21 385z" />
    <glyph glyph-name="Ugrave" unicode="&#xd9;" horiz-adv-x="682" 
d="M636 806q4 -121 7 -206t4 -136.5t1.5 -81t0.5 -38.5v-10q1 -60 -9 -116t-36.5 -101.5t-72 -78t-113.5 -45.5q-103 -21 -178 -4.5t-123.5 60.5t-71 111.5t-20.5 148.5l0.5 17t2 72.5t4 161t7.5 281.5l286 -49l-26 -470q-4 -26 0.5 -46t9.5 -29t6 -10q10 -11 23 -13t29 24
q1 1 6 12.5t10 40.5t3 71l-21 384zM393 982l84 -202l-42 -14l-119 153z" />
    <glyph glyph-name="dollar" unicode="$" horiz-adv-x="641" 
d="M636 286q2 -57 -15 -104t-49.5 -82.5t-79 -60t-101.5 -37.5v-100l-191 -7l26 94q-58 5 -116 23t-105 41l76 213q15 -6 36 -15.5t45 -17.5t49.5 -14t50.5 -5q37 2 62.5 13t24.5 37q-1 17 -17 26t-40 18q-15 4 -39 11t-52 19t-57 29t-52.5 41t-38.5 56t-16 72
q-2 57 15.5 104.5t48.5 83.5t74.5 61t94.5 38v98l191 7l-25 -93q45 -3 88 -12t81 -25l-59 -231q-40 17 -73 28.5t-77 17.5q-13 2 -34 2t-42 -4t-36 -14t-16 -28q0 -8 7.5 -12.5t18 -7.5t22 -4.5t17.5 -2.5q29 -6 45.5 -10l16.5 -4q28 -6 54 -17q31 -13 63.5 -31t59 -44.5
t44.5 -63t20 -86.5z" />
    <glyph glyph-name="exclam" unicode="!" horiz-adv-x="774" 
d="M420 -31q-31 11 -55.5 28.5t-40 38.5t-21 44t2.5 44q7 21 25 36t43.5 22t55.5 5.5t61 -11.5q31 -11 55.5 -28.5t40 -38.5t20.5 -44t-2 -44t-25 -35.5t-43.5 -22t-55.5 -6.5t-61 12zM612 203q-26 18 -59.5 29.5t-71.5 14.5q-37 3 -70.5 -2.5t-61.5 -18.5l53 692l296 12z
" />
    <glyph glyph-name="numbersign" unicode="#" horiz-adv-x="981" 
d="M571 637v20q-32 -2 -32 12v58h28v-53q0 -8 18 -5q17 2 17 8v50h29v-46q0 -13 -32 -19v-19zM421 727h27v-104q0 -12 17 -6q17 3 17 14v96h28v-87q0 -11 -12 -20t-33 -16q-44 -14 -44 12v111zM356 652l28 4v-76l-5 -0.5t-13.5 0t-18.5 2.5t-20 6q-41 17 -41 60q0 36 39 63
q9 6 19.5 10.5t19.5 7t14.5 3.5l5.5 1v-15q1 0 -12.5 -4t-25.5 -12q-32 -20 -32 -52q0 -31 34 -46l8 -3v51zM884 202l-42 25l14 26l5 -4l-11 -18l12 -7l11 18l4 -2l-10 -19l16 -9l11 20l4 -4zM809 173l33 -28l-5 -5l-32 28l-9 -9l-3 2l21 25l3 -3zM761 124l-2 -6
q-5 1 -10 -1q-6 -6 -3 -11q4 -4 11 -1l3 1q6 2 11 2t9 -5q5 -5 3 -11t-7 -11q-12 -8 -22 0l5 5q5 -6 14 -1q7 7 2 14q-2 3 -6 3t-7 -1l-4 -2q-5 -1 -10 -1q-4 0 -7 4q-4 5 -2 10t7 10q7 5 15 2zM689 83l22 -43l-6 -4l-22 43zM608 29l25 8l-5 19l5 1l15 -46l-6 -2l-7 22
l-25 -7l7 -23l-7 -1l-14 45l6 3zM527 7l1 -20l-6 -1l-5 48l8 1q13 1 17.5 -2t5.5 -10q1 -14 -18 -16h-3zM525 30l1 -17h2q5 0 10 2t4 7q-1 6 -5.5 7t-9.5 1h-2zM452 1l-25 2l-8 -10h-7l32 47l20 -54l-7 1zM450 7l-8 20l-11 -18zM350 33l9 -26l-8 2l-8 26l-2 1l-7 -20l-6 3
l16 45l8 -2q3 -2 6.5 -4t5.5 -4q6 -6 3 -13q-4 -11 -17 -8zM349 56l-6 -16l1 -2q5 -2 10.5 -1.5t7.5 6.5q2 5 -2.5 8t-9.5 5h-1zM267 77l18 -12l-1 -1q-5 -8 -15 -10t-20 4q-10 7 -12.5 17.5t3.5 19.5q6 8 17 10t21 -4q11 -8 13 -22h-6q-2 11 -10 17q-8 5 -16 3.5t-12 -8.5
q-5 -7 -3.5 -15t9.5 -13q5 -4 12 -3.5t11 5.5l-12 7zM376 287l62 24v243l44 19v-244l54 22v245l43 17v-358l-43 -15v74l-54 -21v-74l-44 -18v73l-37 -15l-4 4.5t-21 23.5zM934 679h43v-222q0 -55 -48 -68v-80h-43v79q-48 12 -48 64v222l42 3v-150q10 -39 10 -85v-9
q8 -6 18 -6q26 2 26 30v222zM797 361v-57q11 24 19 50t11 53q1 -4 2.5 -7t3.5 -6q-9 -60 -39 -112t-75.5 -90.5t-104 -60t-123.5 -21.5q-46 0 -88 10.5t-79 30.5q2 2 2.5 3t2.5 3q36 -19 76.5 -29.5t85.5 -10.5q50 0 96.5 13.5t86 38t70.5 58.5t52 75l-42 -5v58q0 11 -4 14
t-15 1l-36 -7v-75l-43 -11v75l-37 -9l-25 29l3.5 1l17.5 5t41 12v264h14t33.5 -5.5t40.5 -19.5q53 -39 53 -109q0 -58 -45 -109q28 0 39 -15q4 -5 5 -11.5t1 -23.5zM715 416q39 42 39 95q0 31 -12.5 50.5t-24.5 28.5q-8 7 -13 9.5l-5 2.5v-201q0 -1 5.5 4t10.5 11zM281 178
l12 1q27 7 27 38v292l43 16v-293q0 -32 -18.5 -57t-51.5 -35q-32 -9 -50 5t-18 46v293l42 9v-294q1 -15 7.5 -18zM211 197v-23v-5q-21 20 -42 47q-8 -16 -20 -31q40 -11 40 -49v-18q0 -25 -16.5 -39.5t-43.5 -14.5h-67v81h-34l-21 40h55v286l8.5 -2.5t22.5 -10.5
q3 77 35.5 144t86 117t124.5 78.5t152 28.5q104 0 191 -46.5t141 -124.5v-38q-24 42 -59 77t-78 60t-92 38.5t-103 13.5q-78 0 -146.5 -28.5t-119.5 -77t-81 -114t-31 -140.5q7 -5 14 -11.5t15 -14.5q3 -3 4 -5q0 7 -0.5 13.5t-0.5 13.5q0 69 27 129.5t74 106t110 71.5
t135 26q59 0 112 -18t96.5 -50t75.5 -75.5t48 -95.5v-33q-11 56 -41 104.5t-74 84t-99.5 55.5t-117.5 20q-70 0 -131.5 -25.5t-107.5 -70t-72.5 -103.5t-26.5 -126q0 -20 3 -39q15 -23 24 -50t9 -56q5 -10 10.5 -19t11.5 -18v-13q-13 18 -23 35q-2 -24 -9 -45
q7 -11 15 -20.5t17 -19.5zM150 129q0 16 -17 16h-32v-39h32q17 0 17 17v6zM114 198q18 17 27 42t9 52q0 37 -12.5 61t-23.5 37q-5 5 -9.5 9t-3.5 4v-36q11 -14 21.5 -37t11.5 -57v-1q-23 42 -33 90v-177zM491 78q69 0 131 22.5t111.5 62t83 93.5t46.5 117q2 -1 8 -3v-19v-20
v-7q-20 -58 -56.5 -106.5t-86 -84t-110 -55.5t-127.5 -20q-61 0 -116 17t-103 46q2 1 3 1q2 0 4 1q5 2 9 3.5t8 3.5q43 -25 92 -38.5t103 -13.5z" />
    <glyph glyph-name="glyph121" horiz-adv-x="501" 
 />
  </font>
</defs>
</svg>
