<?xml version="1.0" standalone="no"?>
<!DOCTYPE svg PUBLIC "-//W3C//DTD SVG 1.1//EN" "http://www.w3.org/Graphics/SVG/1.1/DTD/svg11.dtd" >
<svg xmlns="http://www.w3.org/2000/svg" xmlns:xlink="http://www.w3.org/1999/xlink" version="1.1">
<metadata>
Created by FontForge 20141024 at Thu Dec  3 09:19:57 2015
 By Jimmy Warting
Copyright (c) 2003 Font Diner - http://www.fontdiner.com
</metadata>
<defs>
<font id="FontdinerdotcomHuggable" horiz-adv-x="250" >
  <font-face 
    font-family="Fontdinerdotcom Huggable"
    font-weight="400"
    font-stretch="normal"
    units-per-em="1000"
    panose-1="0 0 4 0 0 0 0 0 0 0"
    ascent="800"
    descent="-200"
    x-height="563"
    cap-height="565"
    bbox="-70 -270 1064 890"
    underline-thickness="20"
    underline-position="-123"
    unicode-range="U+0020-F002"
  />
<missing-glyph horiz-adv-x="500" 
d="M63 0v800h375v-800h-375zM125 63h250v675h-250v-675z" />
    <glyph glyph-name=".notdef" horiz-adv-x="500" 
d="M63 0v800h375v-800h-375zM125 63h250v675h-250v-675z" />
    <glyph glyph-name=".null" horiz-adv-x="0" 
 />
    <glyph glyph-name="nonmarkingreturn" horiz-adv-x="316" 
 />
    <glyph glyph-name="space" unicode=" " horiz-adv-x="316" 
 />
    <glyph glyph-name="exclam" unicode="!" horiz-adv-x="287" 
d="M252 402q0 -90 -6 -227l-184 5q10 125 9 383l179 4q2 -75 2 -165zM259 56q0 -37 -42 -59q-34 -18 -74 -18t-74 18q-41 22 -41 59q0 36 41 58q34 18 74 18t74 -18q42 -22 42 -58z" />
    <glyph glyph-name="quotedbl" unicode="&#x22;" horiz-adv-x="406" 
d="M378 651q-8 -148 -10 -300l-150 5q2 145 8 304zM188 651q-8 -148 -10 -300l-150 5q2 145 8 304z" />
    <glyph glyph-name="numbersign" unicode="#" horiz-adv-x="572" 
d="M544 434l-15 -131l-80 4l-6 -75l86 -2l-15 -131l-81 4l-5 -78l-127 -4l6 85l-77 1l-6 -82l-127 -4l6 86h-75l5 126l78 1l7 77h-75l6 126l81 1l8 79l129 -5l-8 -73l75 -1l8 79l129 -5l-8 -76zM322 310l-76 1l-7 -76l76 -1z" />
    <glyph glyph-name="dollar" unicode="$" horiz-adv-x="426" 
d="M398 429l-75 -93q-53 47 -112 47q-37 0 -37 -15q0 -12 54 -35q74 -30 103 -50q54 -37 54 -84q0 -45 -25.5 -80.5t-68.5 -52.5l2 -62l-152 -5l-2 74q-58 27 -110 83l75 96q63 -71 128 -71q18 0 26 9l4 8q0 14 -61 37q-81 30 -112 50q-61 40 -61 95q0 46 35 81q31 31 79 45
l3 75l156 -7l-4 -77q64 -24 101 -68z" />
    <glyph glyph-name="percent" unicode="%" horiz-adv-x="642" 
d="M614 140q0 -61 -34 -106q-37 -50 -97 -50q-53 0 -89 48q-33 43 -33 98q0 62 34 107q37 49 97 49q54 0 88 -45.5t34 -100.5zM536 468q-229 -302 -392 -489l-74 66q165 192 335 419q-34 -8 -69 -8q-34 0 -64 11q9 -27 9 -62q0 -58 -36 -102q-39 -47 -94 -47q-53 0 -90 47
q-33 43 -33 98q0 62 34 107q37 51 97 51q21 0 76.5 -23t87.5 -23q73 0 130 16zM531 139q0 21 -11 42.5t-30 21.5q-22 0 -35 -26q-11 -22 -11 -46q0 -21 10 -40q12 -24 31 -24q22 0 35 27q11 21 11 45zM198 411q0 21 -11 42.5t-30 21.5q-21 0 -35 -26q-11 -22 -11 -46
q0 -20 10 -40q12 -24 31 -24q22 0 35 27q11 22 11 45z" />
    <glyph glyph-name="ampersand" unicode="&#x26;" horiz-adv-x="449" 
d="M421 157q-54 -46 -114 -70q-1 -53 -3 -88l-152 5l2 68q-51 11 -86 40q-40 34 -40 82q0 52 65 98q-65 45 -65 98q0 46 38 80q33 29 82 40l-4 64l156 7l4 -83q60 -23 117 -72l-87 -87q-69 62 -131 62q-22 0 -30 -7l-4 -9q0 -38 113 -93q-113 -55 -113 -93l4 -9q8 -7 30 -7
q62 0 131 62z" />
    <glyph glyph-name="quotesingle" unicode="'" horiz-adv-x="216" 
d="M188 651q-8 -148 -10 -300l-150 5q2 145 8 304z" />
    <glyph glyph-name="parenleft" unicode="(" horiz-adv-x="396" 
d="M364 16h-1l-65 -110q-117 40 -191.5 141.5t-74.5 223.5q0 102 51.5 202t135.5 159l104 -91l1 1q-62 -45 -99.5 -120t-37.5 -151q0 -84 49 -155.5t128 -99.5z" />
    <glyph glyph-name="parenright" unicode=")" horiz-adv-x="396" 
d="M364 271q0 -122 -74.5 -223.5t-191.5 -141.5l-65 110h-1q79 28 128 99.5t49 155.5q0 76 -37.5 151t-99.5 120l1 -1l104 91q84 -59 135.5 -159t51.5 -202z" />
    <glyph glyph-name="asterisk" unicode="*" horiz-adv-x="527" 
d="M499 310q-56 -14 -66 -17q-39 -11 -64 -24q30 -18 128 -49l-83 -133q-40 41 -48 49q-29 28 -53 43q0 -40 24 -134l-153 -5q24 100 24 140q-33 -20 -100 -87l-80 130q52 16 66 21q39 13 64 28q-35 20 -128 45l73 135q39 -38 51 -48q31 -27 56 -41q1 35 -22 134l157 -5
q-16 -55 -19 -65q-9 -38 -10 -66q32 18 109 88z" />
    <glyph glyph-name="plus" unicode="+" horiz-adv-x="447" 
d="M419 357l-4 -183q-50 4 -106 6v-103l-178 -4q-2 52 -2 110h-97l-4 178q49 2 103 2q1 44 4 102l184 -5q-4 -47 -6 -98q46 -2 106 -5z" />
    <glyph glyph-name="comma" unicode="," horiz-adv-x="287" 
d="M259 56q0 -54 -55 -93q-50 -36 -105 -33h-15q48 16 79 50q-10 -1 -20 -1q-40 0 -74 18q-41 22 -41 59q0 36 41 58q34 18 74 18t74 -18q42 -22 42 -58z" />
    <glyph glyph-name="hyphen" unicode="-" horiz-adv-x="447" 
d="M427 357l-4 -183q-126 9 -383 9l-4 178q74 3 164 3q91 0 227 -7z" />
    <glyph glyph-name="hyphen" unicode="&#x2010;" horiz-adv-x="447" 
d="M427 357l-4 -183q-126 9 -383 9l-4 178q74 3 164 3q91 0 227 -7z" />
    <glyph glyph-name="period" unicode="." horiz-adv-x="287" 
d="M259 56q0 -37 -42 -59q-34 -18 -74 -18t-74 18q-41 22 -41 59q0 36 41 58q34 18 74 18t74 -18q42 -22 42 -58z" />
    <glyph glyph-name="slash" unicode="/" horiz-adv-x="498" 
d="M498 488q-198 -290 -387 -521l-111 89q205 255 376 515z" />
    <glyph glyph-name="zero" unicode="0" horiz-adv-x="624" 
d="M614 284q0 -128 -86 -221q-88 -96 -216 -96t-216 96q-86 93 -86 221q0 129 87 223.5t215 94.5t215 -94.5t87 -223.5zM432 284q0 56 -32 100q-34 48 -88 48q-53 0 -88 -48q-32 -44 -32 -100q0 -55 32 -99q35 -49 88 -49q54 0 88 49q32 44 32 99z" />
    <glyph glyph-name="one" unicode="1" 
d="M222 569q-13 -184 -13 -336q0 -149 4 -234l-178 -6q-7 111 -7 245t11 337z" />
    <glyph glyph-name="two" unicode="2" horiz-adv-x="540" 
d="M522 401q0 -96 -119 -180q-90 -64 -204 -96q93 -2 121 -2q109 0 171 4l4 -151q-80 -6 -178 -6q-99 0 -285 13l-4 170q98 39 187 94q137 85 137 147q0 31 -49 31q-42 0 -93 -32q-43 -27 -77 -64l-104 131q131 139 264 139q92 0 158 -52q71 -55 71 -146z" />
    <glyph glyph-name="three" unicode="3" horiz-adv-x="506" 
d="M478 145q0 -86 -76 -138q-66 -44 -156 -44q-132 0 -268 129l111 126q88 -89 167 -89q43 0 43 22q0 55 -144 133q144 79 144 134q0 22 -43 22q-79 0 -167 -89l-111 126q136 129 268 129q90 0 156 -45q76 -51 76 -137q0 -75 -83 -140q83 -64 83 -139z" />
    <glyph glyph-name="four" unicode="4" horiz-adv-x="534" 
d="M506 108l-62 -2q1 -87 4 -136l-166 -6q-3 58 -5 139l-29 -1q-148 -2 -268 11q97 206 277 492l110 -71l89 -4q-11 -163 -12 -306l58 1zM280 372q-52 -83 -88 -151h84q1 63 4 151z" />
    <glyph glyph-name="five" unicode="5" horiz-adv-x="509" 
d="M481 175q0 -90 -71 -146q-65 -52 -158 -52q-133 0 -264 140l105 131q33 -38 76 -64q51 -32 93 -32q49 0 49 30q0 63 -123 91q-79 18 -165 17l17 292q152 9 251 9q98 0 186 -9l-4 -152q-70 7 -179 7q-28 0 -99 -2v-42q109 -15 186 -62q100 -61 100 -156z" />
    <glyph glyph-name="six" unicode="6" horiz-adv-x="514" 
d="M486 157q0 -82 -68 -133q-63 -48 -147 -48q-123 0 -195 87q-68 82 -68 208q0 134 115 230q109 92 246 92q43 0 72 -12l-33 -179l-25 1q-71 1 -128 -25q-66 -32 -85 -94q53 46 126 46q77 0 132 -47q58 -50 58 -126zM328 194q0 25 -25 40q-21 13 -48 13q-66 0 -85 -40
q18 -64 82 -64q28 0 50 12q26 14 26 39z" />
    <glyph glyph-name="seven" unicode="7" horiz-adv-x="508" 
d="M518 577q-48 -183 -272 -598l-163 83q106 160 122 184q73 116 105 194q-139 -3 -296 -20l-6 163q106 7 234 7q178 0 276 -13z" />
    <glyph glyph-name="eight" unicode="8" horiz-adv-x="544" 
d="M516 148q0 -80 -86 -128q-72 -41 -158 -41t-158 41q-86 48 -86 128q0 86 101 136q-101 51 -101 137q0 80 86 128q72 41 158 41t158 -41q86 -48 86 -128q0 -86 -101 -137q101 -50 101 -136zM349 385q0 24 -27 39q-23 12 -50 12q-26 0 -49 -12q-27 -15 -27 -39
q0 -25 27 -40q23 -12 49 -12q27 0 50 12q27 15 27 40zM349 183q0 24 -27 39q-23 13 -50 13q-26 0 -49 -13q-27 -15 -27 -39q0 -25 27 -40q23 -12 49 -12q27 0 50 12q27 15 27 40z" />
    <glyph glyph-name="nine" unicode="9" horiz-adv-x="514" 
d="M486 298q0 -134 -115 -231q-110 -91 -246 -91q-43 0 -73 12l34 178h25q71 -1 127 25q67 32 85 94q-52 -46 -125 -46q-77 0 -132 47q-58 50 -58 125q0 82 68 134q62 48 147 48q123 0 195 -87q68 -82 68 -208zM324 362q-19 64 -83 64q-27 0 -49 -12q-26 -15 -26 -40
q0 -24 23 -38t49 -14q66 0 86 40z" />
    <glyph glyph-name="colon" unicode=":" horiz-adv-x="295" 
d="M263 260q0 -36 -42 -58q-34 -19 -74 -19t-74 19q-41 22 -41 58q0 37 41 59q34 18 74 18t74 -18q42 -22 42 -59zM263 56q0 -37 -42 -59q-34 -18 -74 -18t-74 18q-41 22 -41 59q0 36 41 58q34 18 74 18t74 -18q42 -22 42 -58z" />
    <glyph glyph-name="semicolon" unicode=";" horiz-adv-x="295" 
d="M263 260q0 -36 -42 -58q-34 -19 -74 -19t-74 19q-41 22 -41 58q0 37 41 59q34 18 74 18t74 -18q42 -22 42 -59zM263 56q0 -54 -55 -93q-50 -36 -105 -33h-15q48 16 79 50q-10 -1 -20 -1q-40 0 -74 18q-41 22 -41 59q0 36 41 58q34 18 74 18t74 -18q42 -22 42 -58z" />
    <glyph glyph-name="less" unicode="&#x3c;" horiz-adv-x="573" 
d="M545 171l-57 -140l-460 238l460 238l57 -140l-230 -98z" />
    <glyph glyph-name="equal" unicode="=" horiz-adv-x="514" 
d="M486 440l-5 -158q-147 8 -449 8l-4 154q87 2 192 2q106 0 266 -6zM486 250l-5 -158q-147 8 -449 8l-4 153q87 3 192 3q106 0 266 -6z" />
    <glyph glyph-name="greater" unicode="&#x3e;" horiz-adv-x="573" 
d="M545 269l-460 -238l-57 140l230 98l-230 98l57 140z" />
    <glyph glyph-name="question" unicode="?" horiz-adv-x="537" 
d="M505 416q0 -67 -59 -98q-54 -23 -108 -45q-59 -31 -59 -99l-184 -3q0 70 62 113q6 4 116 57q62 30 62 69q0 27 -49 27q-41 0 -92 -28q-44 -23 -77 -57l-105 115q131 122 264 122q87 0 153 -41q76 -49 76 -132zM307 56q0 -37 -41 -59q-34 -18 -74 -18t-74 18
q-41 22 -41 59q0 36 41 58q34 18 74 18t74 -18q41 -22 41 -58z" />
    <glyph glyph-name="at" unicode="@" horiz-adv-x="648" 
d="M638 277q0 -80 -37 -145q-44 -77 -118 -77q-73 0 -107 62q-34 -17 -79 -17q-48 0 -84 27t-36 74q0 67 63 98q57 21 114 43q-6 27 -38 27q-30 0 -67 -42l-65 49q15 37 54 63.5t78 26.5q63 0 98 -45q33 -41 33 -105q0 -14 -1.5 -41.5t-1.5 -41.5q0 -87 39 -87q31 0 50 52
q15 40 15 79q0 100 -70 163q-67 60 -168 60q-90 0 -150 -64.5t-60 -155.5q0 -109 67 -170q64 -61 173 -61q42 0 75 11l28 -86q-47 -15 -100 -15q-148 0 -239 85q-94 88 -94 236q0 128 85.5 219t213.5 91q139 0 233 -86q96 -89 96 -227zM356 336l-1 2v-2h1zM354 245
q-25 -7 -50 -15q-36 -14 -36 -29q0 -11 29 -11q57 0 57 34v21z" />
    <glyph glyph-name="A" unicode="A" horiz-adv-x="576" 
d="M558 312q0 -86 -31 -347l-190 26l5 73l-108 -3l5 -68l-192 -25q-29 264 -29 352q0 119 74 191.5t193 72.5q118 0 195.5 -77t77.5 -195zM353 288q0 34 -16 59q-19 29 -51 29q-30 0 -46.5 -24.5t-16.5 -56.5q0 -72 4 -129l122 2q4 52 4 120z" />
    <glyph glyph-name="B" unicode="B" horiz-adv-x="656" 
d="M648 182q0 -107 -111 -170q-93 -53 -209 -53l-50 92v-72h-188v391l-66 -14l-24 187q188 47 353 47q97 0 174 -30q105 -41 105 -122q0 -69 -88 -125q104 -38 104 -131zM393 387l-2 4q-13 10 -60 10q-23 0 -53 -2v-72q115 17 115 60zM427 184l-3 7q-10 7 -36 7
q-43 0 -110 -16v-74q48 9 88 24q61 24 61 52z" />
    <glyph glyph-name="C" unicode="C" horiz-adv-x="572" 
d="M564 72q-97 -113 -252 -113q-127 0 -210.5 79.5t-83.5 206.5q0 145 109 246q106 99 252 99q103 0 165 -24l-35 -196q-66 17 -99 17q-81 0 -134 -37q-60 -42 -60 -120q0 -42 27.5 -68.5t70.5 -26.5q101 0 178 105z" />
    <glyph glyph-name="D" unicode="D" horiz-adv-x="639" 
d="M631 299q0 -110 -89 -219q-92 -112 -199 -122l-51 115l5 -85l-186 -5q-13 163 -21 391l-54 -14l-36 181q140 50 283 50q158 0 247 -65q101 -75 101 -227zM431 319q0 45 -40 69q-34 21 -82 21q-12 0 -30 -1q3 -94 10 -282q58 10 101 73q41 59 41 120z" />
    <glyph glyph-name="E" unicode="E" horiz-adv-x="530" 
d="M502 -1q-159 -14 -377 -13l-86 1q-11 152 -11 272q0 121 8 297l446 6l2 -174l-269 -9l-2 -29l273 2l4 -139l-275 -8l2 -33l278 12z" />
    <glyph glyph-name="F" unicode="F" horiz-adv-x="504" 
d="M484 562l-2 -174l-268 -9l-1 -39l250 3l4 -140l-255 -8l-1 -208h-175l-16 569z" />
    <glyph glyph-name="G" unicode="G" horiz-adv-x="653" 
d="M645 288q0 -138 -97.5 -233.5t-235.5 -95.5q-127 0 -210.5 79.5t-83.5 206.5q0 145 109 246q106 99 252 99q103 0 165 -24l-35 -196q-66 17 -99 17q-80 0 -133 -37q-61 -42 -61 -120q0 -48 32 -74t81 -26q61 0 117 53q-44 -1 -140 -8l-9 140l339 28q9 -27 9 -55z" />
    <glyph glyph-name="H" unicode="H" horiz-adv-x="578" 
d="M550 555l-16 -569l-175 1l-1 113l-138 -5l-1 -108l-175 -1l-16 569l197 7l-3 -322l135 1l-4 321z" />
    <glyph glyph-name="I" unicode="I" 
d="M222 558q-13 -183 -13 -335q0 -149 4 -234l-178 -6q-7 111 -7 245t11 337z" />
    <glyph glyph-name="J" unicode="J" horiz-adv-x="519" 
d="M501 231q0 -118 -71 -193t-188 -75q-83 0 -147 42t-95 118l166 96q13 -68 76 -68q72 0 72 80q0 56 -22 340l187 15q22 -292 22 -355z" />
    <glyph glyph-name="K" unicode="K" horiz-adv-x="535" 
d="M527 79l-108 -101l-198 189l-2 -174l-175 -1l-16 569l197 7l-2 -180l180 182l114 -93l-167 -202z" />
    <glyph glyph-name="L" unicode="L" horiz-adv-x="488" 
d="M470 -3q-193 -12 -297 -12q-55 0 -139 2q-6 117 -6 234q0 114 11 343l183 -1q-6 -199 -6 -254v-139l253 2z" />
    <glyph glyph-name="M" unicode="M" horiz-adv-x="706" 
d="M678 264q0 -136 -11 -261l-173 -9q9 87 13 277l-154 -284l-154 284q2 -92 13 -277l-173 9q-11 125 -11 261q0 135 2 291l202 7l121 -251l121 251l202 -7q2 -158 2 -291z" />
    <glyph glyph-name="N" unicode="N" horiz-adv-x="635" 
d="M607 544l-11 -550l-210 3l-168 277q2 -101 4 -143q3 -80 10 -142l-191 9q-13 125 -13 262q0 136 2 293l225 7l165 -303l11 293z" />
    <glyph glyph-name="O" unicode="O" horiz-adv-x="624" 
d="M614 286q0 -129 -86 -222q-88 -96 -216 -96t-216 96q-86 93 -86 222t87 223t215 94t215 -94t87 -223zM432 286q0 55 -32 99q-34 49 -88 49q-53 0 -88 -49q-32 -44 -32 -99q0 -56 32 -100q35 -48 88 -48q54 0 88 48q32 44 32 100z" />
    <glyph glyph-name="P" unicode="P" horiz-adv-x="650" 
d="M642 391q0 -113 -112 -190q-100 -69 -218 -69l-36 81v-238l-180 2l-7 393q-35 -9 -65 -20l-24 185q133 61 367 61q110 0 185 -46q90 -55 90 -159zM431 363q0 41 -85 41q-34 0 -70 -3v-132q55 8 95 26q60 27 60 68z" />
    <glyph glyph-name="Q" unicode="Q" horiz-adv-x="624" 
d="M614 286q0 -125 -80 -216q26 -43 42 -77l-113 -76q-15 34 -36 75q-55 -24 -115 -24q-128 0 -216 96q-86 93 -86 222t86 221q88 96 216 96t216 -96q86 -92 86 -221zM432 286q0 55 -32 99q-34 49 -88 49q-53 0 -88 -49q-32 -44 -32 -99q0 -56 32 -100q35 -48 88 -48
q11 0 21 2q-36 52 -67 93l84 65q32 -30 71 -74q11 29 11 62z" />
    <glyph glyph-name="R" unicode="R" horiz-adv-x="634" 
d="M626 412q0 -149 -151 -219l111 -160l-172 -93l-148 210v-171h-185v390q-27 -7 -56 -14l-25 188q204 48 352 48q102 0 178 -38q96 -48 96 -141zM418 361q0 23 -39 33q-27 8 -60 8q-24 0 -53 -3v-123q152 22 152 85z" />
    <glyph glyph-name="S" unicode="S" horiz-adv-x="537" 
d="M537 493l-107 -133q-76 68 -161 68q-53 0 -53 -22q0 -17 78 -49q105 -44 146 -72q79 -54 79 -121q0 -94 -73 -153q-68 -55 -164 -55q-137 0 -273 147l108 137q35 -39 82 -68q55 -33 100 -33q44 0 44 24q0 20 -87 53q-117 43 -161 72q-87 56 -87 135q0 87 84 143
q74 49 165 49q77 0 153 -32q80 -33 127 -90z" />
    <glyph glyph-name="T" unicode="T" horiz-adv-x="540" 
d="M522 404l-145 -3l-13 -433l-177 1l-5 428l-164 -4l4 166l494 4z" />
    <glyph glyph-name="U" unicode="U" horiz-adv-x="561" 
d="M543 221q0 -118 -71.5 -193t-188.5 -75q-116 0 -190.5 79t-74.5 197q0 60 22 349l188 -14q-22 -282 -22 -335q0 -88 77 -88q72 0 72 80q0 55 -22 340l187 15q23 -292 23 -355z" />
    <glyph glyph-name="V" unicode="V" horiz-adv-x="565" 
d="M575 521l-298 -575l-297 575l175 71l122 -288l123 288z" />
    <glyph glyph-name="W" unicode="W" horiz-adv-x="687" 
d="M697 543l-229 -604l-129 247l-130 -247l-229 604l164 55l83 -295l112 231l111 -231l83 295z" />
    <glyph glyph-name="X" unicode="X" horiz-adv-x="552" 
d="M544 508q-82 -122 -160 -230q87 -115 159 -204l-133 -106q-64 78 -133 167q-70 -90 -137 -171l-132 107q74 91 162 207q-77 108 -160 230l145 99q56 -86 122 -181q67 95 123 181z" />
    <glyph glyph-name="Y" unicode="Y" horiz-adv-x="561" 
d="M543 387q0 -91 -42 -161q-46 -77 -127 -104q0 -83 1 -132l-178 -3q-2 56 -3 135q-82 28 -131 107q-45 75 -45 166q0 119 5 187l188 -15q-5 -60 -5 -172q0 -92 77 -92q72 0 72 84q0 115 -5 182l187 15q6 -74 6 -197z" />
    <glyph glyph-name="Z" unicode="Z" horiz-adv-x="536" 
d="M528 550l-246 -380l224 -3l-7 -159l-491 14l237 384l-216 -8l-2 165z" />
    <glyph glyph-name="bracketleft" unicode="[" horiz-adv-x="356" 
d="M328 -17l-4 -146l-274 9l-22 849l294 6l3 -146l-156 -3l15 -565z" />
    <glyph glyph-name="backslash" unicode="\" horiz-adv-x="494" 
d="M494 58l-111 -90q-188 232 -383 518l122 83q167 -254 372 -511z" />
    <glyph glyph-name="bracketright" unicode="]" horiz-adv-x="356" 
d="M328 695l-22 -849l-274 -9l-4 146l144 4l15 565l-156 3l3 146z" />
    <glyph glyph-name="asciicircum" unicode="^" horiz-adv-x="532" 
d="M504 145l-140 -57l-98 231l-98 -231l-140 57l238 460z" />
    <glyph glyph-name="underscore" unicode="_" horiz-adv-x="971" 
d="M943 140l-2 -162l-913 13l2 162z" />
    <glyph glyph-name="grave" unicode="`" horiz-adv-x="266" 
d="M238 648l-87 -54q-60 92 -123 193l90 53q58 -96 120 -192z" />
    <glyph glyph-name="a" unicode="a" horiz-adv-x="565" 
d="M575 30l-175 -71l-36 84l-176 -5l-33 -79l-175 71l297 575zM321 144l-44 103l-44 -105z" />
    <glyph glyph-name="b" unicode="b" horiz-adv-x="656" 
d="M640 182q0 -107 -111 -170q-93 -53 -209 -53l-50 92v-72h-188v391l-66 -14l-24 187q188 47 353 47q97 0 174 -30q105 -41 105 -122q0 -69 -88 -125q104 -38 104 -131zM385 387l-2 4q-13 10 -60 10q-23 0 -53 -2v-72q115 17 115 60zM419 184l-3 7q-10 7 -36 7
q-43 0 -110 -16v-74q48 9 88 24q61 24 61 52z" />
    <glyph glyph-name="c" unicode="c" horiz-adv-x="572" 
d="M564 72q-97 -113 -252 -113q-127 0 -210.5 79.5t-83.5 206.5q0 145 109 246q106 99 252 99q103 0 165 -24l-35 -196q-66 17 -99 17q-81 0 -134 -37q-60 -42 -60 -120q0 -42 27.5 -68.5t70.5 -26.5q101 0 178 105z" />
    <glyph glyph-name="d" unicode="d" horiz-adv-x="639" 
d="M623 299q0 -110 -89 -219q-92 -112 -199 -122l-51 115l5 -85l-186 -5q-13 163 -21 391l-54 -14l-36 181q140 50 283 50q158 0 247 -65q101 -75 101 -227zM423 319q0 45 -40 69q-34 21 -82 21q-12 0 -30 -1q3 -94 10 -282q58 10 101 73q41 59 41 120z" />
    <glyph glyph-name="e" unicode="e" horiz-adv-x="530" 
d="M502 -1q-159 -14 -377 -13l-86 1q-11 152 -11 272q0 121 8 297l446 6l2 -174l-269 -9l-2 -29l273 2l4 -139l-275 -8l2 -33l278 12z" />
    <glyph glyph-name="f" unicode="f" horiz-adv-x="504" 
d="M484 562l-2 -174l-268 -9l-1 -39l250 3l4 -140l-255 -8l-1 -208h-175l-16 569z" />
    <glyph glyph-name="g" unicode="g" horiz-adv-x="653" 
d="M645 288q0 -138 -97.5 -233.5t-235.5 -95.5q-127 0 -210.5 79.5t-83.5 206.5q0 145 109 246q106 99 252 99q103 0 165 -24l-35 -196q-66 17 -99 17q-80 0 -133 -37q-61 -42 -61 -120q0 -48 32 -74t81 -26q61 0 117 53q-44 -1 -140 -8l-9 140l339 28q9 -27 9 -55z" />
    <glyph glyph-name="h" unicode="h" horiz-adv-x="578" 
d="M550 555l-16 -569l-175 1l-1 113l-138 -5l-1 -108l-175 -1l-16 569l197 7l-3 -322l135 1l-4 321z" />
    <glyph glyph-name="i" unicode="i" 
d="M222 558q-13 -183 -13 -335q0 -149 4 -234l-178 -6q-7 111 -7 245t11 337z" />
    <glyph glyph-name="j" unicode="j" horiz-adv-x="519" 
d="M501 231q0 -118 -71 -193t-188 -75q-83 0 -147 42t-95 118l166 96q13 -68 76 -68q72 0 72 80q0 56 -22 340l187 15q22 -292 22 -355z" />
    <glyph glyph-name="k" unicode="k" horiz-adv-x="535" 
d="M527 79l-108 -101l-198 189l-2 -174l-175 -1l-16 569l197 7l-2 -180l180 182l114 -93l-167 -202z" />
    <glyph glyph-name="l" unicode="l" horiz-adv-x="488" 
d="M470 -3q-193 -12 -297 -12q-55 0 -139 2q-6 117 -6 234q0 114 11 343l183 -1q-6 -199 -6 -254v-139l253 2z" />
    <glyph glyph-name="m" unicode="m" horiz-adv-x="706" 
d="M678 264q0 -136 -11 -261l-173 -9q9 87 13 277l-154 -284l-154 284q2 -92 13 -277l-173 9q-11 125 -11 261q0 135 2 291l202 7l121 -251l121 251l202 -7q2 -158 2 -291z" />
    <glyph glyph-name="n" unicode="n" horiz-adv-x="635" 
d="M607 544l-11 -550l-210 3l-168 277q2 -101 4 -143q3 -80 10 -142l-191 9q-13 125 -13 262q0 136 2 293l225 7l165 -303l11 293z" />
    <glyph glyph-name="o" unicode="o" horiz-adv-x="624" 
d="M614 286q0 -129 -86 -222q-88 -96 -216 -96t-216 96q-86 93 -86 222t87 223t215 94t215 -94t87 -223zM432 286q0 55 -32 99q-34 49 -88 49q-53 0 -88 -49q-32 -44 -32 -99q0 -56 32 -100q35 -48 88 -48q54 0 88 48q32 44 32 100z" />
    <glyph glyph-name="p" unicode="p" horiz-adv-x="652" 
d="M642 391q0 -113 -112 -190q-100 -69 -218 -69l-36 81v-238l-180 2l-7 393q-35 -9 -65 -20l-24 185q133 61 367 61q110 0 185 -46q90 -55 90 -159zM431 363q0 41 -85 41q-34 0 -70 -3v-132q55 8 95 26q60 27 60 68z" />
    <glyph glyph-name="q" unicode="q" horiz-adv-x="630" 
d="M622 286q0 -125 -80 -216q26 -43 42 -77l-113 -76q-15 34 -36 75q-55 -24 -115 -24q-128 0 -216 96q-86 93 -86 222t86 221q88 96 216 96t216 -96q86 -92 86 -221zM440 286q0 55 -32 99q-34 49 -88 49q-53 0 -88 -49q-32 -44 -32 -99q0 -56 32 -100q35 -48 88 -48
q11 0 21 2q-36 52 -67 93l84 65q32 -30 71 -74q11 29 11 62z" />
    <glyph glyph-name="r" unicode="r" horiz-adv-x="634" 
d="M626 412q0 -149 -151 -219l111 -160l-172 -93l-148 210v-171h-185v390q-27 -7 -56 -14l-25 188q204 48 352 48q102 0 178 -38q96 -48 96 -141zM418 361q0 23 -39 33q-27 8 -60 8q-24 0 -53 -3v-123q152 22 152 85z" />
    <glyph glyph-name="s" unicode="s" horiz-adv-x="537" 
d="M537 493l-107 -133q-76 68 -161 68q-53 0 -53 -22q0 -17 78 -49q105 -44 146 -72q79 -54 79 -121q0 -94 -73 -153q-68 -55 -164 -55q-137 0 -273 147l108 137q35 -39 82 -68q55 -33 100 -33q44 0 44 24q0 20 -87 53q-117 43 -161 72q-87 56 -87 135q0 87 84 143
q74 49 165 49q77 0 153 -32q80 -33 127 -90z" />
    <glyph glyph-name="t" unicode="t" horiz-adv-x="540" 
d="M522 404l-145 -3l-13 -433l-177 1l-5 428l-164 -4l4 166l494 4z" />
    <glyph glyph-name="u" unicode="u" horiz-adv-x="561" 
d="M543 221q0 -118 -71.5 -193t-188.5 -75q-116 0 -190.5 79t-74.5 197q0 60 22 349l188 -14q-22 -282 -22 -335q0 -88 77 -88q72 0 72 80q0 55 -22 340l187 15q23 -292 23 -355z" />
    <glyph glyph-name="v" unicode="v" horiz-adv-x="565" 
d="M575 521l-298 -575l-297 575l175 71l122 -288l123 288z" />
    <glyph glyph-name="w" unicode="w" horiz-adv-x="687" 
d="M697 543l-229 -604l-129 247l-130 -247l-229 604l164 55l83 -295l112 231l111 -231l83 295z" />
    <glyph glyph-name="x" unicode="x" horiz-adv-x="552" 
d="M544 508q-82 -122 -160 -230q87 -115 159 -204l-133 -106q-64 78 -133 167q-70 -90 -137 -171l-132 107q74 91 162 207q-77 108 -160 230l145 99q56 -86 122 -181q67 95 123 181z" />
    <glyph glyph-name="y" unicode="y" horiz-adv-x="561" 
d="M543 387q0 -91 -42 -161q-46 -77 -127 -104q0 -83 1 -132l-178 -3q-2 56 -3 135q-82 28 -131 107q-45 75 -45 166q0 119 5 187l188 -15q-5 -60 -5 -172q0 -92 77 -92q72 0 72 84q0 115 -5 182l187 15q6 -74 6 -197z" />
    <glyph glyph-name="z" unicode="z" horiz-adv-x="536" 
d="M528 550l-246 -380l224 -3l-7 -159l-491 14l237 384l-216 -8l-2 165z" />
    <glyph glyph-name="braceleft" unicode="{" horiz-adv-x="436" 
d="M408 -186l-22 -1q-141 -3 -197 68q-45 57 -45 186q0 34 3 81l-119 125l114 127q-3 42 -3 81q0 127 52.5 185t180.5 58q18 0 33 -1l-11 -145l-21 1q-64 2 -88 -19q-9 -21 -9 -79q0 -50 11 -131l-67 -74l69 -73q-7 -75 -7 -124q0 -75 11 -102q12 -11 51 -15q31 -4 55 -3z
" />
    <glyph glyph-name="bar" unicode="|" 
d="M222 553q-13 -184 -13 -335q0 -150 4 -235l-178 -5q-7 110 -7 244q0 135 11 338z" />
    <glyph glyph-name="braceright" unicode="}" horiz-adv-x="436" 
d="M408 273l-119 -125q3 -47 3 -81q0 -129 -46 -186q-55 -71 -196 -68l-22 1l8 145q24 -1 56 3q39 4 51 15q11 27 11 102q0 49 -7 124l69 73l-67 74q11 81 11 131q0 58 -9 79q-24 21 -88 19l-21 -1l-11 145q15 1 33 1q128 0 182 -59q51 -57 51 -184q0 -39 -3 -81z" />
    <glyph glyph-name="asciitilde" unicode="~" horiz-adv-x="449" 
d="M421 327q0 -26 -3.5 -78t-3.5 -78q-47 -13 -85 -13q-39 0 -111 23.5t-109 23.5q-50 0 -78 -20q-3 27 -1 88q2 57 -2 88q50 18 105 18q38 0 107.5 -20t105.5 -20q6 0 20.5 2.5t20.5 1.5q12 3 32 13q2 -14 2 -29z" />
    <glyph glyph-name="Adieresis" unicode="&#xc4;" horiz-adv-x="576" 
d="M558 312q0 -86 -31 -347l-190 26l5 73l-108 -3l5 -68l-192 -25q-29 264 -29 352q0 119 74 191.5t193 72.5q118 0 195.5 -77t77.5 -195zM353 288q0 34 -16 59q-19 29 -51 29q-30 0 -46.5 -24.5t-16.5 -56.5q0 -72 4 -129l122 2q4 52 4 120zM452 677q0 -22 -25 -35
q-20 -11 -44 -11t-45 11q-24 13 -24 35t24 35q21 11 45 11t44 -11q25 -13 25 -35zM276 677q0 -22 -22.5 -34t-46.5 -12t-44 11q-25 13 -25 35t25 35q20 11 44 11t46.5 -12t22.5 -34z" />
    <glyph glyph-name="Aring" unicode="&#xc5;" horiz-adv-x="576" 
d="M558 312q0 -86 -31 -347l-190 26l5 73l-108 -3l5 -68l-192 -25q-29 264 -29 352q0 119 74 191.5t193 72.5q118 0 195.5 -77t77.5 -195zM353 288q0 34 -16 59q-19 29 -51 29q-30 0 -46.5 -24.5t-16.5 -56.5q0 -72 4 -129l122 2q4 52 4 120zM399 713q0 -40 -36 -65
q-32 -21 -74 -21q-44 0 -80 24q-41 28 -41 71q0 39 36 64q33 22 74 22q45 0 81 -25q40 -28 40 -70zM335 713q0 17 -18.5 28t-37.5 11q-46 0 -46 -30q0 -18 18.5 -29t36.5 -11q47 0 47 31z" />
    <glyph glyph-name="Ccedilla" unicode="&#xc7;" horiz-adv-x="572" 
d="M564 72q-89 -103 -226 -112l-14 -35q137 -13 137 -97q0 -48 -50 -76q-41 -22 -93 -22q-85 0 -160 46l14 51q86 -28 158 -28q62 0 62 29q0 34 -169 27l56 106q-115 10 -188 88t-73 196q0 145 109 246q106 99 252 99q103 0 165 -24l-35 -196q-66 17 -99 17q-81 0 -134 -37
q-60 -42 -60 -120q0 -42 27.5 -68.5t70.5 -26.5q101 0 178 105z" />
    <glyph glyph-name="Eacute" unicode="&#xc9;" horiz-adv-x="530" 
d="M502 -1q-159 -14 -377 -13l-86 1q-11 152 -11 272q0 121 8 297l446 6l2 -174l-269 -9l-2 -29l273 2l4 -139l-275 -8l2 -33l278 12zM388 787q-63 -101 -123 -193l-87 54q62 96 120 192z" />
    <glyph glyph-name="Ntilde" unicode="&#xd1;" horiz-adv-x="635" 
d="M607 544l-11 -550l-210 3l-168 277q2 -101 4 -143q3 -80 10 -142l-191 9q-13 125 -13 262q0 136 2 293l225 7l165 -303l11 293zM427 683q1 -12 -1.5 -35.5t-2.5 -34.5q-25 -5 -47 -5q-20 0 -57.5 10.5t-57.5 10.5q-26 0 -42 -9q2 26 -1 78q26 8 56 8q20 0 57 -8.5
t56 -8.5q27 0 39 7z" />
    <glyph glyph-name="Odieresis" unicode="&#xd6;" horiz-adv-x="624" 
d="M614 286q0 -129 -86 -222q-88 -96 -216 -96t-216 96q-86 93 -86 222t87 223t215 94t215 -94t87 -223zM432 286q0 55 -32 99q-34 49 -88 49q-53 0 -88 -49q-32 -44 -32 -99q0 -56 32 -100q35 -48 88 -48q54 0 88 48q32 44 32 100zM482 687q0 -22 -25 -35q-20 -11 -44 -11
t-45 11q-24 13 -24 35t24 35q21 11 45 11t44 -11q25 -13 25 -35zM306 687q0 -22 -22.5 -34t-46.5 -12t-44 11q-25 13 -25 35t25 35q20 11 44 11t46.5 -12t22.5 -34z" />
    <glyph glyph-name="Udieresis" unicode="&#xdc;" horiz-adv-x="571" 
d="M556 221q0 -118 -71.5 -193t-188.5 -75q-116 0 -190.5 79t-74.5 197q0 60 22 349l188 -14q-22 -282 -22 -335q0 -88 77 -88q72 0 72 80q0 55 -22 340l187 15q23 -292 23 -355zM455 677q0 -22 -25 -35q-20 -11 -44 -11t-45 11q-24 13 -24 35t24 35q21 11 45 11t44 -11
q25 -13 25 -35zM279 677q0 -22 -22.5 -34t-46.5 -12t-44 11q-25 13 -25 35t25 35q20 11 44 11t46.5 -12t22.5 -34z" />
    <glyph glyph-name="aacute" unicode="&#xe1;" horiz-adv-x="611" 
d="M583 30l-175 -71l-36 84l-176 -5l-33 -79l-175 71l297 575zM329 144l-44 103l-44 -105zM441 787q-63 -101 -123 -193l-87 54q62 96 120 192z" />
    <glyph glyph-name="agrave" unicode="&#xe0;" horiz-adv-x="611" 
d="M583 30l-175 -71l-36 84l-176 -5l-33 -79l-175 71l297 575zM329 144l-44 103l-44 -105zM336 648l-87 -54q-60 92 -123 193l90 53q58 -96 120 -192z" />
    <glyph glyph-name="acircumflex" unicode="&#xe2;" horiz-adv-x="611" 
d="M583 30l-175 -71l-36 84l-176 -5l-33 -79l-175 71l297 575zM329 144l-44 103l-44 -105zM410 691l-36 -59l-85 51l-93 -52l-34 61l128 71z" />
    <glyph glyph-name="adieresis" unicode="&#xe4;" horiz-adv-x="611" 
d="M583 30l-175 -71l-36 84l-176 -5l-33 -79l-175 71l297 575zM329 144l-44 103l-44 -105zM442 677q0 -22 -25 -35q-20 -11 -44 -11t-45 11q-24 13 -24 35t24 35q21 11 45 11t44 -11q25 -13 25 -35zM266 677q0 -22 -22.5 -34t-46.5 -12t-44 11q-25 13 -25 35t25 35
q20 11 44 11t46.5 -12t22.5 -34z" />
    <glyph glyph-name="atilde" unicode="&#xe3;" horiz-adv-x="611" 
d="M583 30l-175 -71l-36 84l-176 -5l-33 -79l-175 71l297 575zM329 144l-44 103l-44 -105zM394 703q1 -12 -1.5 -35.5t-2.5 -34.5q-25 -5 -47 -5q-20 0 -57.5 10.5t-57.5 10.5q-26 0 -42 -9q2 26 -1 78q26 8 56 8q20 0 57 -8.5t56 -8.5q27 0 39 7z" />
    <glyph glyph-name="aring" unicode="&#xe5;" horiz-adv-x="611" 
d="M583 30l-175 -71l-36 84l-176 -5l-33 -79l-175 71l297 575zM329 144l-44 103l-44 -105zM406 713q0 -40 -36 -65q-32 -21 -74 -21q-44 0 -80 24q-41 28 -41 71q0 39 36 64q33 22 74 22q45 0 81 -25q40 -28 40 -70zM342 713q0 17 -18.5 28t-37.5 11q-46 0 -46 -30
q0 -18 18.5 -29t36.5 -11q47 0 47 31z" />
    <glyph glyph-name="ccedilla" unicode="&#xe7;" horiz-adv-x="572" 
d="M564 72q-89 -103 -226 -112l-14 -35q137 -13 137 -97q0 -48 -50 -76q-41 -22 -93 -22q-85 0 -160 46l14 51q86 -28 158 -28q62 0 62 29q0 34 -169 27l56 106q-115 10 -188 88t-73 196q0 145 109 246q106 99 252 99q103 0 165 -24l-35 -196q-66 17 -99 17q-81 0 -134 -37
q-60 -42 -60 -120q0 -42 27.5 -68.5t70.5 -26.5q101 0 178 105z" />
    <glyph glyph-name="eacute" unicode="&#xe9;" horiz-adv-x="530" 
d="M502 -1q-159 -14 -377 -13l-86 1q-11 152 -11 272q0 121 8 297l446 6l2 -174l-269 -9l-2 -29l273 2l4 -139l-275 -8l2 -33l278 12zM388 787q-63 -101 -123 -193l-87 54q62 96 120 192z" />
    <glyph glyph-name="egrave" unicode="&#xe8;" horiz-adv-x="530" 
d="M502 -1q-159 -14 -377 -13l-86 1q-11 152 -11 272q0 121 8 297l446 6l2 -174l-269 -9l-2 -29l273 2l4 -139l-275 -8l2 -33l278 12zM358 648l-87 -54q-60 92 -123 193l90 53q58 -96 120 -192z" />
    <glyph glyph-name="ecircumflex" unicode="&#xea;" horiz-adv-x="530" 
d="M502 -1q-159 -14 -377 -13l-86 1q-11 152 -11 272q0 121 8 297l446 6l2 -174l-269 -9l-2 -29l273 2l4 -139l-275 -8l2 -33l278 12zM387 661l-36 -59l-85 51l-93 -52l-34 61l128 71z" />
    <glyph glyph-name="edieresis" unicode="&#xeb;" horiz-adv-x="530" 
d="M502 -1q-159 -14 -377 -13l-86 1q-11 152 -11 272q0 121 8 297l446 6l2 -174l-269 -9l-2 -29l273 2l4 -139l-275 -8l2 -33l278 12zM422 667q0 -22 -25 -35q-20 -11 -44 -11t-45 11q-24 13 -24 35t24 35q21 11 45 11t44 -11q25 -13 25 -35zM246 667q0 -22 -22.5 -34
t-46.5 -12t-44 11q-25 13 -25 35t25 35q20 11 44 11t46.5 -12t22.5 -34z" />
    <glyph glyph-name="iacute" unicode="&#xed;" 
d="M222 558q-13 -183 -13 -335q0 -149 4 -234l-178 -6q-7 111 -7 245t11 337zM278 787q-63 -101 -123 -193l-87 54q62 96 120 192z" />
    <glyph glyph-name="igrave" unicode="&#xec;" 
d="M225 558q-13 -183 -13 -335q0 -149 4 -234l-178 -6q-7 111 -7 245t11 337zM221 648l-87 -54q-60 92 -123 193l90 53q58 -96 120 -192z" />
    <glyph glyph-name="icircumflex" unicode="&#xee;" 
d="M229 558q-13 -183 -13 -335q0 -149 4 -234l-178 -6q-7 111 -7 245t11 337zM264 691l-36 -59l-85 51l-93 -52l-34 61l128 71z" />
    <glyph glyph-name="idieresis" unicode="&#xef;" 
d="M225 558q-13 -183 -13 -335q0 -149 4 -234l-178 -6q-7 111 -7 245t11 337zM305 657q0 -22 -25 -35q-20 -11 -44 -11t-45 11q-24 13 -24 35t24 35q21 11 45 11t44 -11q25 -13 25 -35zM129 657q0 -22 -22.5 -34t-46.5 -12t-44 11q-25 13 -25 35t25 35q20 11 44 11t46.5 -12
t22.5 -34z" />
    <glyph glyph-name="ntilde" unicode="&#xf1;" horiz-adv-x="635" 
d="M607 544l-11 -550l-210 3l-168 277q2 -101 4 -143q3 -80 10 -142l-191 9q-13 125 -13 262q0 136 2 293l225 7l165 -303l11 293zM427 683q1 -12 -1.5 -35.5t-2.5 -34.5q-25 -5 -47 -5q-20 0 -57.5 10.5t-57.5 10.5q-26 0 -42 -9q2 26 -1 78q26 8 56 8q20 0 57 -8.5
t56 -8.5q27 0 39 7z" />
    <glyph glyph-name="oacute" unicode="&#xf3;" horiz-adv-x="624" 
d="M614 286q0 -129 -86 -222q-88 -96 -216 -96t-216 96q-86 93 -86 222t87 223t215 94t215 -94t87 -223zM432 286q0 55 -32 99q-34 49 -88 49q-53 0 -88 -49q-32 -44 -32 -99q0 -56 32 -100q35 -48 88 -48q54 0 88 48q32 44 32 100zM458 827q-63 -101 -123 -193l-87 54
q62 96 120 192z" />
    <glyph glyph-name="ograve" unicode="&#xf2;" horiz-adv-x="624" 
d="M614 286q0 -129 -86 -222q-88 -96 -216 -96t-216 96q-86 93 -86 222t87 223t215 94t215 -94t87 -223zM432 286q0 55 -32 99q-34 49 -88 49q-53 0 -88 -49q-32 -44 -32 -99q0 -56 32 -100q35 -48 88 -48q54 0 88 48q32 44 32 100zM418 698l-87 -54q-60 92 -123 193l90 53
q58 -96 120 -192z" />
    <glyph glyph-name="ocircumflex" unicode="&#xf4;" horiz-adv-x="624" 
d="M614 286q0 -129 -86 -222q-88 -96 -216 -96t-216 96q-86 93 -86 222t87 223t215 94t215 -94t87 -223zM432 286q0 55 -32 99q-34 49 -88 49q-53 0 -88 -49q-32 -44 -32 -99q0 -56 32 -100q35 -48 88 -48q54 0 88 48q32 44 32 100zM447 691l-36 -59l-85 51l-93 -52l-34 61
l128 71z" />
    <glyph glyph-name="odieresis" unicode="&#xf6;" horiz-adv-x="624" 
d="M614 286q0 -129 -86 -222q-88 -96 -216 -96t-216 96q-86 93 -86 222t87 223t215 94t215 -94t87 -223zM432 286q0 55 -32 99q-34 49 -88 49q-53 0 -88 -49q-32 -44 -32 -99q0 -56 32 -100q35 -48 88 -48q54 0 88 48q32 44 32 100zM472 687q0 -22 -25 -35q-20 -11 -44 -11
t-45 11q-24 13 -24 35t24 35q21 11 45 11t44 -11q25 -13 25 -35zM296 687q0 -22 -22.5 -34t-46.5 -12t-44 11q-25 13 -25 35t25 35q20 11 44 11t46.5 -12t22.5 -34z" />
    <glyph glyph-name="otilde" unicode="&#xf5;" horiz-adv-x="624" 
d="M614 286q0 -129 -86 -222q-88 -96 -216 -96t-216 96q-86 93 -86 222t87 223t215 94t215 -94t87 -223zM432 286q0 55 -32 99q-34 49 -88 49q-53 0 -88 -49q-32 -44 -32 -99q0 -56 32 -100q35 -48 88 -48q54 0 88 48q32 44 32 100zM427 733q1 -12 -1.5 -35.5t-2.5 -34.5
q-25 -5 -47 -5q-20 0 -57.5 10.5t-57.5 10.5q-26 0 -42 -9q2 26 -1 78q26 8 56 8q20 0 57 -8.5t56 -8.5q27 0 39 7z" />
    <glyph glyph-name="uacute" unicode="&#xfa;" horiz-adv-x="561" 
d="M543 221q0 -118 -71.5 -193t-188.5 -75q-116 0 -190.5 79t-74.5 197q0 60 22 349l188 -14q-22 -282 -22 -335q0 -88 77 -88q72 0 72 80q0 55 -22 340l187 15q23 -292 23 -355zM428 787q-63 -101 -123 -193l-87 54q62 96 120 192z" />
    <glyph glyph-name="ugrave" unicode="&#xf9;" horiz-adv-x="561" 
d="M543 221q0 -118 -71.5 -193t-188.5 -75q-116 0 -190.5 79t-74.5 197q0 60 22 349l188 -14q-22 -282 -22 -335q0 -88 77 -88q72 0 72 80q0 55 -22 340l187 15q23 -292 23 -355zM368 648l-87 -54q-60 92 -123 193l90 53q58 -96 120 -192z" />
    <glyph glyph-name="ucircumflex" unicode="&#xfb;" horiz-adv-x="561" 
d="M543 221q0 -118 -71.5 -193t-188.5 -75q-116 0 -190.5 79t-74.5 197q0 60 22 349l188 -14q-22 -282 -22 -335q0 -88 77 -88q72 0 72 80q0 55 -22 340l187 15q23 -292 23 -355zM417 671l-36 -59l-85 51l-93 -52l-34 61l128 71z" />
    <glyph glyph-name="udieresis" unicode="&#xfc;" horiz-adv-x="561" 
d="M543 221q0 -118 -71.5 -193t-188.5 -75q-116 0 -190.5 79t-74.5 197q0 60 22 349l188 -14q-22 -282 -22 -335q0 -88 77 -88q72 0 72 80q0 55 -22 340l187 15q23 -292 23 -355zM442 677q0 -22 -25 -35q-20 -11 -44 -11t-45 11q-24 13 -24 35t24 35q21 11 45 11t44 -11
q25 -13 25 -35zM266 677q0 -22 -22.5 -34t-46.5 -12t-44 11q-25 13 -25 35t25 35q20 11 44 11t46.5 -12t22.5 -34z" />
    <glyph glyph-name="dagger" unicode="&#x2020;" 
d="M319 416l-3 -114q-43 2 -137 6l-1 -99q0 -243 4 -326l-122 -4q-5 108 -5 335q0 22 1 95l-124 1l-2 110q40 0 129 1l7 137l126 -4q-3 -45 -8 -134z" />
    <glyph glyph-name="degree" unicode="&#xb0;" horiz-adv-x="287" 
d="M267 517q0 -40 -36 -65q-32 -21 -74 -21q-44 0 -80 24q-41 28 -41 71q0 39 36 64q33 22 74 22q45 0 81 -25q40 -28 40 -70zM203 517q0 17 -18.5 28t-37.5 11q-46 0 -46 -30q0 -18 18.5 -29t36.5 -11q47 0 47 31z" />
    <glyph glyph-name="cent" unicode="&#xa2;" horiz-adv-x="438" 
d="M410 143q-44 -50 -103 -68l2 -71l-151 -5l-3 78q-59 21 -93 72.5t-34 114.5q0 142 130 210l3 107l156 -9l-2 -67q49 -4 81 -16l-25 -137q-46 12 -68 12q-57 0 -94 -26q-42 -30 -42 -84q0 -30 19 -48t49 -18q71 0 125 73z" />
    <glyph glyph-name="sterling" unicode="&#xa3;" horiz-adv-x="541" 
d="M513 55q-84 -4 -188 -4q-105 0 -261 7q16 80 32 156l-68 3l4 96q37 -2 84 -4q23 102 53 148q47 72 132 72q76 0 129 -50t56 -125l-129 -23q1 7 1 14q0 57 -46 57q-29 0 -47 -35q-7 -13 -22 -61q79 0 129 2l3 -93q-74 -4 -157 -4l-8 -32q160 -5 299 1z" />
    <glyph glyph-name="section" unicode="&#xa7;" horiz-adv-x="585" 
d="M557 41q0 -87 -84 -143q-74 -50 -165 -50q-78 0 -153 32q-81 34 -127 91l107 133q75 -68 160 -68q54 0 54 22q0 17 -79 49q-105 44 -146 72q-78 53 -78 121q0 65 66 100q-84 53 -84 134q0 87 84 143q74 49 165 49q77 0 153 -32q80 -33 127 -90l-107 -133q-76 68 -161 68
q-53 0 -53 -22q0 -17 78 -50q105 -43 146 -71q79 -53 79 -121q0 -65 -66 -101q84 -52 84 -133zM363 274q0 20 -125 67q-16 -15 -16 -40q0 -21 125 -67q16 15 16 40z" />
    <glyph glyph-name="bullet" unicode="&#x2022;" horiz-adv-x="388" 
d="M372 271q0 -58 -60 -94q-49 -29 -106 -29q-58 0 -107 29q-59 36 -59 94q0 59 59 94q49 29 107 29q57 0 106 -29q60 -35 60 -94z" />
    <glyph glyph-name="paragraph" unicode="&#xb6;" horiz-adv-x="698" 
d="M670 539l-25 -185q-25 9 -50 16l-5 -388l-129 -2v418l-23 3l-6 -419l-129 -2v161q-108 19 -185 81q-90 72 -90 173q0 104 90 159q75 46 184 46q234 0 368 -61zM303 297v110q-64 -6 -64 -40q0 -42 64 -70z" />
    <glyph glyph-name="germandbls" unicode="&#xdf;" horiz-adv-x="1064" 
d="M1064 493l-107 -133q-76 68 -161 68q-53 0 -53 -22q0 -17 78 -49q105 -44 146 -72q79 -54 79 -121q0 -94 -73 -153q-68 -55 -164 -55q-137 0 -273 147l108 137q35 -39 82 -68q55 -33 100 -33q44 0 44 24q0 20 -87 53q-117 43 -161 72q-87 56 -87 135q0 87 84 143
q74 49 165 49q77 0 153 -32q80 -33 127 -90zM537 493l-107 -133q-76 68 -161 68q-53 0 -53 -22q0 -17 78 -49q105 -44 146 -72q79 -54 79 -121q0 -94 -73 -153q-68 -55 -164 -55q-137 0 -273 147l108 137q35 -39 82 -68q55 -33 100 -33q44 0 44 24q0 20 -87 53
q-117 43 -161 72q-87 56 -87 135q0 87 84 143q74 49 165 49q77 0 153 -32q80 -33 127 -90z" />
    <glyph glyph-name="registered" unicode="&#xae;" horiz-adv-x="523" 
d="M513 297q0 -107 -71 -185q-74 -79 -180 -79q-107 0 -179.5 78.5t-72.5 185.5q0 108 72.5 186.5t179.5 78.5q106 0 180 -80q71 -77 71 -185zM427 297q0 74 -45 129q-48 60 -120 60t-120 -60q-46 -55 -46 -129q0 -73 46 -129q48 -59 120 -59t120 59q45 56 45 129zM390 350
q0 -60 -60 -88l44 -64l-68 -37l-60 84v-68h-74v156l-22 -6l-10 75q81 20 141 20q41 0 71 -16q38 -19 38 -56zM307 330q0 18 -40 16l-21 -1v-49q61 8 61 34z" />
    <glyph glyph-name="copyright" unicode="&#xa9;" horiz-adv-x="523" 
d="M513 297q0 -107 -71 -185q-74 -79 -180 -79q-107 0 -179.5 78.5t-72.5 185.5q0 108 72.5 186.5t179.5 78.5q106 0 180 -80q71 -77 71 -185zM427 297q0 74 -45 129q-48 60 -120 60t-120 -60q-46 -55 -46 -129q0 -73 46 -129q48 -59 120 -59t120 59q45 56 45 129zM364 213
q-40 -47 -104 -47q-52 0 -86.5 33t-34.5 85q0 60 44 101t105 41q42 0 68 -10l-15 -81q-27 8 -40 8q-34 0 -57 -16.5t-23 -48.5q0 -39 40 -39q42 0 73 43z" />
    <glyph glyph-name="trademark" unicode="&#x2122;" horiz-adv-x="564" 
d="M536 433q0 -52 -5 -109l-72 -4q4 37 5 116l-64 -119l-65 119q1 -39 5 -116l-72 4q-5 56 -5 109l1 122l85 3l51 -105l50 105l85 -3zM239 503l-62 -1l-5 -188h-73l-2 186l-69 -1l2 61l206 2z" />
    <glyph glyph-name="acute" unicode="&#xb4;" horiz-adv-x="266" 
d="M238 787q-63 -101 -123 -193l-87 54q62 96 120 192z" />
    <glyph glyph-name="dieresis" unicode="&#xa8;" horiz-adv-x="370" 
d="M342 717q0 -22 -25 -35q-20 -11 -44 -11t-45 11q-24 13 -24 35t24 35q21 11 45 11t44 -11q25 -13 25 -35zM166 717q0 -22 -22.5 -34t-46.5 -12t-44 11q-25 13 -25 35t25 35q20 11 44 11t46.5 -12t22.5 -34z" />
    <glyph glyph-name="AE" unicode="&#xc6;" horiz-adv-x="904" 
d="M876 27q-160 -14 -377 -13h-86l-5 80l-197 -3q-33 -44 -66 -101l-145 93l410 500l446 7l2 -175l-269 -8l-2 -30l273 3l3 -139l-275 -9l3 -32l278 11zM403 196q-2 74 -1 159l-116 -160z" />
    <glyph glyph-name="Oslash" unicode="&#xd8;" horiz-adv-x="624" 
d="M614 290q0 -129 -87 -223t-215 -94q-69 0 -130 30l-66 -82l-104 84l66 84q-68 87 -68 201q0 129 87 223t215 94q65 0 124 -28l53 79l115 -78l-60 -87q70 -88 70 -203zM337 435q-13 3 -25 3q-53 0 -88 -49q-32 -44 -32 -99q0 -24 6 -45q73 96 139 190zM432 290q0 19 -4 37
q-69 -97 -136 -183q10 -2 20 -2q54 0 88 48q32 44 32 100z" />
    <glyph glyph-name="plusminus" unicode="&#xb1;" horiz-adv-x="447" 
d="M435 106l-4 -118q-126 6 -383 6l-4 115q74 1 164 1q91 0 227 -4zM427 447l-4 -183q-50 4 -106 6v-103l-178 -4q-2 52 -2 110h-97l-4 178q49 2 103 2q1 44 4 102l184 -5q-4 -47 -6 -98q46 -2 106 -5z" />
    <glyph glyph-name="yen" unicode="&#xa5;" horiz-adv-x="435" 
d="M407 381q0 -98 -59 -157h34l-4 -57l-93 2v-15l97 -1l-4 -57l-93 2l1 -43l-129 -2l-1 46h-101l-4 55l104 1v15h-100l-4 55h40q-63 63 -63 162q0 88 4 138l135 -11q-4 -44 -4 -127q0 -68 56 -68q52 0 52 62q0 85 -4 135l135 11q5 -55 5 -146z" />
    <glyph glyph-name="mu" unicode="&#xb5;" horiz-adv-x="431" 
d="M403 169q0 -83 -50 -135.5t-132 -52.5q-35 0 -66 11q1 -91 3 -141l-124 -4q-6 92 -6 240q0 69 8 167q8 82 15 165l131 -10q-15 -197 -15 -235q0 -61 54 -61q50 0 50 56q0 38 -15 238l131 10q16 -205 16 -248z" />
    <glyph glyph-name="mu" unicode="&#x3bc;" horiz-adv-x="431" 
d="M403 169q0 -83 -50 -135.5t-132 -52.5q-35 0 -66 11q1 -91 3 -141l-124 -4q-6 92 -6 240q0 69 8 167q8 82 15 165l131 -10q-15 -197 -15 -235q0 -61 54 -61q50 0 50 56q0 38 -15 238l131 10q16 -205 16 -248z" />
    <glyph glyph-name="ordfeminine" unicode="&#xaa;" horiz-adv-x="344" 
d="M334 397q0 -51 -19 -208l-114 15l3 44l-64 -2l2 -40l-115 -16q-17 159 -17 212q0 71 44.5 114.5t115.5 43.5t117.5 -46t46.5 -117zM336 140l-4 -94q-104 10 -317 10l-3 88q62 2 136 2q75 0 188 -6zM211 383q0 20 -10.5 36t-29.5 16q-38 0 -38 -48q0 -43 2 -78l74 2
q2 31 2 72z" />
    <glyph glyph-name="ordmasculine" unicode="&#xba;" horiz-adv-x="382" 
d="M372 368q0 -77 -52 -133.5t-129 -56.5q-76 0 -128.5 56.5t-52.5 133.5q0 78 52.5 134.5t128.5 56.5q77 0 129 -56.5t52 -134.5zM353 52q-61 -4 -136 -5t-188 3l2 94q107 -8 318 -4zM263 368q0 34 -20 61.5t-52 27.5t-52 -27.5t-20 -61.5q0 -33 19 -59q21 -30 53 -30
t53 30q19 26 19 59z" />
    <glyph glyph-name="ae" unicode="&#xe6;" horiz-adv-x="904" 
d="M876 27q-160 -14 -377 -13h-86l-5 80l-197 -3q-33 -44 -66 -101l-145 93l410 500l446 7l2 -175l-269 -8l-2 -30l273 3l3 -139l-275 -9l3 -32l278 11zM403 196q-2 74 -1 159l-116 -160z" />
    <glyph glyph-name="oslash" unicode="&#xf8;" horiz-adv-x="624" 
d="M614 290q0 -129 -87 -223t-215 -94q-69 0 -130 30l-66 -82l-104 84l66 84q-68 87 -68 201q0 129 87 223t215 94q65 0 124 -28l53 79l115 -78l-60 -87q70 -88 70 -203zM337 435q-13 3 -25 3q-53 0 -88 -49q-32 -44 -32 -99q0 -24 6 -45q73 96 139 190zM432 290q0 19 -4 37
q-69 -97 -136 -183q10 -2 20 -2q54 0 88 48q32 44 32 100z" />
    <glyph glyph-name="questiondown" unicode="&#xbf;" horiz-adv-x="549" 
d="M456 512q0 -36 -41 -58q-34 -18 -74 -18t-74 18q-41 22 -41 58q0 37 41 59q34 18 74 18t74 -18q41 -22 41 -59zM521 101q-131 -122 -264 -122q-87 0 -153 42q-76 48 -76 131q0 67 59 98q54 23 108 45q59 31 59 99l184 3q0 -70 -62 -113q-6 -4 -116 -57q-62 -30 -62 -69
q0 -27 49 -27q41 0 92 28q44 23 78 57z" />
    <glyph glyph-name="exclamdown" unicode="&#xa1;" horiz-adv-x="287" 
d="M259 490q0 -37 -42 -59q-34 -18 -74 -18t-74 18q-41 22 -41 59q0 36 41 58q34 19 74 19t74 -19q42 -22 42 -58zM225 366q-10 -126 -10 -384l-178 -3q-2 74 -2 164q0 91 6 227z" />
    <glyph glyph-name="logicalnot" unicode="&#xac;" horiz-adv-x="698" 
d="M670 403l-28 -284l-138 13l13 136l-489 12l3 139z" />
    <glyph glyph-name="florin" unicode="&#x192;" horiz-adv-x="623" 
d="M595 555l-122 -65q-15 27 -35 27q-44 0 -57 -156l95 -3l-5 -139q-51 3 -99 5q-10 -141 -49 -210q-55 -97 -181 -97q-62 0 -114 21l52 129q29 -12 57 -12q61 0 81 59q9 24 15 112h-81l-4 135l94 1q10 126 42 193q48 101 153 101q49 0 92 -28t66 -73z" />
    <glyph glyph-name="guillemotleft" unicode="&#xab;" horiz-adv-x="542" 
d="M514 131l-30 -93l-246 252l246 251l30 -98q-28 -40 -57 -80q-37 -49 -66 -73q28 -24 66 -76q29 -41 57 -83zM304 131l-30 -93l-246 252l246 251l30 -98q-28 -40 -57 -80q-37 -49 -66 -73q28 -24 66 -76q29 -41 57 -83z" />
    <glyph glyph-name="guillemotright" unicode="&#xbb;" horiz-adv-x="542" 
d="M514 290l-246 -252l-30 93q29 42 58 83q38 52 65 76q-29 24 -65 73l-58 80l30 98zM304 290l-246 -252l-30 93q29 42 58 83q38 52 65 76q-29 24 -65 73l-58 80l30 98z" />
    <glyph glyph-name="ellipsis" unicode="&#x2026;" horiz-adv-x="847" 
d="M267 56q0 -37 -42 -59q-34 -18 -74 -18t-74 18q-41 22 -41 59q0 36 41 58q34 18 74 18t74 -18q42 -22 42 -58zM547 56q0 -37 -42 -59q-34 -18 -74 -18t-74 18q-41 22 -41 59q0 36 41 58q34 18 74 18t74 -18q42 -22 42 -58zM827 56q0 -37 -42 -59q-34 -18 -74 -18t-74 18
q-41 22 -41 59q0 36 41 58q34 18 74 18t74 -18q42 -22 42 -58z" />
    <glyph glyph-name="nonbreakingspace" unicode="&#xa0;" horiz-adv-x="-32767" 
 />
    <glyph glyph-name="Agrave" unicode="&#xc0;" horiz-adv-x="576" 
d="M558 312q0 -86 -31 -347l-190 26l5 73l-108 -3l5 -68l-192 -25q-29 264 -29 352q0 119 74 191.5t193 72.5q118 0 195.5 -77t77.5 -195zM353 288q0 34 -16 59q-19 29 -51 29q-30 0 -46.5 -24.5t-16.5 -56.5q0 -72 4 -129l122 2q4 52 4 120zM358 678l-87 -54
q-60 92 -123 193l90 53q58 -96 120 -192z" />
    <glyph glyph-name="Atilde" unicode="&#xc3;" horiz-adv-x="576" 
d="M558 312q0 -86 -31 -347l-190 26l5 73l-108 -3l5 -68l-192 -25q-29 264 -29 352q0 119 74 191.5t193 72.5q118 0 195.5 -77t77.5 -195zM353 288q0 34 -16 59q-19 29 -51 29q-30 0 -46.5 -24.5t-16.5 -56.5q0 -72 4 -129l122 2q4 52 4 120zM397 703q1 -12 -1.5 -35.5
t-2.5 -34.5q-25 -5 -47 -5q-20 0 -57.5 10.5t-57.5 10.5q-26 0 -42 -9q2 26 -1 78q26 8 56 8q20 0 57 -8.5t56 -8.5q27 0 39 7z" />
    <glyph glyph-name="Otilde" unicode="&#xd5;" horiz-adv-x="640" 
d="M630 286q0 -129 -86 -222q-88 -96 -216 -96t-216 96q-86 93 -86 222t87 223t215 94t215 -94t87 -223zM448 286q0 55 -32 99q-34 49 -88 49q-53 0 -88 -49q-32 -44 -32 -99q0 -56 32 -100q35 -48 88 -48q54 0 88 48q32 44 32 100zM443 723q1 -12 -1.5 -35.5t-2.5 -34.5
q-25 -5 -47 -5q-20 0 -57.5 10.5t-57.5 10.5q-26 0 -42 -9q2 26 -1 78q26 8 56 8q20 0 57 -8.5t56 -8.5q27 0 39 7z" />
    <glyph glyph-name="OE" unicode="&#x152;" horiz-adv-x="998" 
d="M970 15l-463 -34l-4 63q-83 -71 -191 -71q-128 0 -215 94t-87 223t87 223t215 94q107 0 189 -70l2 51l446 -10l3 -175l-270 -8l-1 -30l272 3l4 -139l-275 -9l2 -32l278 11zM432 290q0 55 -32 99q-34 49 -88 49q-53 0 -88 -49q-32 -44 -32 -99q0 -56 32 -99q35 -49 88 -49
q54 0 88 49q32 43 32 99z" />
    <glyph glyph-name="oe" unicode="&#x153;" horiz-adv-x="998" 
d="M970 15l-463 -34l-4 63q-83 -71 -191 -71q-128 0 -215 94t-87 223t87 223t215 94q107 0 189 -70l2 51l446 -10l3 -175l-270 -8l-1 -30l272 3l4 -139l-275 -9l2 -32l278 11zM432 290q0 55 -32 99q-34 49 -88 49q-53 0 -88 -49q-32 -44 -32 -99q0 -56 32 -99q35 -49 88 -49
q54 0 88 49q32 43 32 99z" />
    <glyph glyph-name="endash" unicode="&#x2013;" horiz-adv-x="447" 
d="M427 357l-4 -183q-126 9 -383 9l-4 178q74 3 164 3q91 0 227 -7z" />
    <glyph glyph-name="emdash" unicode="&#x2014;" horiz-adv-x="604" 
d="M587 357l-6 -183q-176 9 -537 9l-5 178q104 3 230 3q127 0 318 -7z" />
    <glyph glyph-name="quotedblleft" unicode="&#x201c;" horiz-adv-x="347" 
d="M315 469q0 -26 -21 -41.5t-47 -15.5q-25 0 -46 16t-21 41q0 36 28.5 65.5t64.5 26.5h9q-29 -12 -46 -37l11 1q25 2 46.5 -14.5t21.5 -41.5zM167 469q0 -26 -21 -41.5t-47 -15.5q-25 0 -46 16t-21 41q0 36 29 65.5t64 26.5h9q-29 -12 -46 -37l11 1q26 2 47 -14.5t21 -41.5
z" />
    <glyph glyph-name="quotedblright" unicode="&#x201d;" horiz-adv-x="347" 
d="M315 505q0 -37 -29 -66t-65 -27h-8q28 13 46 37l-12 -1q-25 -2 -46 14.5t-21 42.5q0 25 22 41q19 16 45 16t47 -16t21 -41zM167 505q0 -37 -29 -66t-64 -27h-9q28 13 46 37l-12 -1q-25 -2 -46 14.5t-21 42.5q0 25 21 41t46 16q26 0 47 -16t21 -41z" />
    <glyph glyph-name="quoteleft" unicode="&#x2018;" horiz-adv-x="199" 
d="M167 469q0 -26 -21 -41.5t-47 -15.5q-25 0 -46 16t-21 41q0 36 29 65.5t64 26.5h9q-29 -12 -46 -37l11 1q26 2 47 -14.5t21 -41.5z" />
    <glyph glyph-name="quoteright" unicode="&#x2019;" horiz-adv-x="199" 
d="M167 505q0 -37 -29 -66t-64 -27h-9q28 13 46 37l-12 -1q-25 -2 -46 14.5t-21 42.5q0 25 21 41t46 16q26 0 47 -16t21 -41z" />
    <glyph glyph-name="divide" unicode="&#xf7;" horiz-adv-x="447" 
d="M435 311l-4 -129q-126 7 -383 7l-4 125q74 1 164 1q91 0 227 -4zM317 413q0 -29 -33 -47q-27 -14 -59 -14t-59 14q-33 18 -33 47q0 30 33 47q27 15 59 15t59 -15q33 -17 33 -47zM317 93q0 -29 -33 -47q-27 -14 -59 -14t-59 14q-33 18 -33 47q0 30 33 47q27 15 59 15
t59 -15q33 -17 33 -47z" />
    <glyph glyph-name="ydieresis" unicode="&#xff;" horiz-adv-x="561" 
d="M543 387q0 -91 -42 -161q-46 -77 -127 -104q0 -83 1 -132l-178 -3q-2 56 -3 135q-82 28 -131 107q-45 75 -45 166q0 119 5 187l188 -15q-5 -60 -5 -172q0 -92 77 -92q72 0 72 84q0 115 -5 182l187 15q6 -74 6 -197zM442 677q0 -22 -25 -35q-20 -11 -44 -11t-45 11
q-24 13 -24 35t24 35q21 11 45 11t44 -11q25 -13 25 -35zM266 677q0 -22 -22.5 -34t-46.5 -12t-44 11q-25 13 -25 35t25 35q20 11 44 11t46.5 -12t22.5 -34z" />
    <glyph glyph-name="Ydieresis" unicode="&#x178;" horiz-adv-x="561" 
d="M543 387q0 -91 -42 -161q-46 -77 -127 -104q0 -83 1 -132l-178 -3q-2 56 -3 135q-82 28 -131 107q-45 75 -45 166q0 119 5 187l188 -15q-5 -60 -5 -172q0 -92 77 -92q72 0 72 84q0 115 -5 182l187 15q6 -74 6 -197zM442 677q0 -22 -25 -35q-20 -11 -44 -11t-45 11
q-24 13 -24 35t24 35q21 11 45 11t44 -11q25 -13 25 -35zM266 677q0 -22 -22.5 -34t-46.5 -12t-44 11q-25 13 -25 35t25 35q20 11 44 11t46.5 -12t22.5 -34z" />
    <glyph glyph-name="currency" unicode="&#x20ac;" horiz-adv-x="544" 
d="M516 136q-74 -86 -191 -86q-80 0 -137 41q-60 42 -80 118h-77l-3 63l73 1l1 17h-71l-3 64h87q28 77 102.5 126.5t157.5 49.5q79 0 126 -18l-27 -150q-50 14 -75 14q-55 0 -93 -23l92 -1l-18 -65l-124 2l-3 -16l128 -2l-18 -66l-94 2q19 -23 57 -23q77 0 136 79z" />
    <glyph glyph-name="guilsinglleft" unicode="&#x2039;" horiz-adv-x="332" 
d="M304 227l-30 -93l-246 252l246 251l30 -98q-28 -40 -57 -80q-37 -49 -66 -73q28 -24 66 -76q29 -41 57 -83z" />
    <glyph glyph-name="guilsinglright" unicode="&#x203a;" horiz-adv-x="332" 
d="M304 386l-246 -252l-30 93q29 42 58 83q38 52 65 76q-29 24 -65 73l-58 80l30 98z" />
    <glyph glyph-name="daggerdbl" unicode="&#x2021;" 
d="M321 116l-5 -116q-63 5 -137 7q1 -84 3 -124l-122 -4q-2 43 -3 130h-124l-3 111q58 2 125 2v92q0 22 1 95l-124 1l-2 110q40 0 129 1l7 137l126 -4q-3 -45 -8 -134l135 -4l-3 -114q-43 2 -137 6v-187q59 -1 142 -5z" />
    <glyph glyph-name="periodcentered" unicode="&#xb7;" horiz-adv-x="287" 
d="M267 272q0 -37 -42 -59q-34 -18 -74 -18t-74 18q-41 22 -41 59q0 36 41 58q34 18 74 18t74 -18q42 -22 42 -58z" />
    <glyph glyph-name="periodcentered" unicode="&#x2219;" horiz-adv-x="287" 
d="M267 272q0 -37 -42 -59q-34 -18 -74 -18t-74 18q-41 22 -41 59q0 36 41 58q34 18 74 18t74 -18q42 -22 42 -58z" />
    <glyph glyph-name="quotesinglbase" unicode="&#x201a;" horiz-adv-x="191" 
d="M175 55q0 -37 -29 -66t-64 -27h-9q28 13 46 37l-12 -1q-25 -2 -46 14.5t-21 42.5q0 25 21 41t46 16q26 0 47 -16t21 -41z" />
    <glyph glyph-name="quotedblbase" unicode="&#x201e;" horiz-adv-x="339" 
d="M323 55q0 -37 -29 -66t-65 -27h-8q28 13 46 37l-12 -1q-25 -2 -46 14.5t-21 42.5q0 25 22 41q19 16 45 16t47 -16t21 -41zM175 55q0 -37 -29 -66t-64 -27h-9q28 13 46 37l-12 -1q-25 -2 -46 14.5t-21 42.5q0 25 21 41t46 16q26 0 47 -16t21 -41z" />
    <glyph glyph-name="perthousand" unicode="&#x2030;" horiz-adv-x="906" 
d="M878 140q0 -61 -34 -106q-37 -50 -97 -50q-53 0 -89 48q-33 43 -33 98q0 62 34 107q37 49 97 49q54 0 88 -45.5t34 -100.5zM614 140q0 -61 -34 -106q-37 -50 -97 -50q-53 0 -89 48q-33 43 -33 98q0 62 34 107q37 49 97 49q54 0 88 -45.5t34 -100.5zM536 468
q-229 -302 -392 -489l-74 66q165 192 335 419q-34 -8 -69 -8q-34 0 -64 11q9 -27 9 -62q0 -58 -36 -102q-39 -47 -94 -47q-53 0 -90 47q-33 43 -33 98q0 62 34 107q37 51 97 51q21 0 76.5 -23t87.5 -23q73 0 130 16zM795 139q0 21 -11 42.5t-30 21.5q-22 0 -35 -26
q-11 -22 -11 -46q0 -21 10 -40q12 -24 31 -24q22 0 35 27q11 21 11 45zM531 139q0 21 -11 42.5t-30 21.5q-22 0 -35 -26q-11 -22 -11 -46q0 -21 10 -40q12 -24 31 -24q22 0 35 27q11 21 11 45zM198 411q0 21 -11 42.5t-30 21.5q-21 0 -35 -26q-11 -22 -11 -46q0 -20 10 -40
q12 -24 31 -24q22 0 35 27q11 22 11 45z" />
    <glyph glyph-name="Acircumflex" unicode="&#xc2;" horiz-adv-x="576" 
d="M558 312q0 -86 -31 -347l-190 26l5 73l-108 -3l5 -68l-192 -25q-29 264 -29 352q0 119 74 191.5t193 72.5q118 0 195.5 -77t77.5 -195zM353 288q0 34 -16 59q-19 29 -51 29q-30 0 -46.5 -24.5t-16.5 -56.5q0 -72 4 -129l122 2q4 52 4 120zM407 671l-36 -59l-85 51
l-93 -52l-34 61l128 71z" />
    <glyph glyph-name="Ecircumflex" unicode="&#xca;" horiz-adv-x="530" 
d="M502 -1q-159 -14 -377 -13l-86 1q-11 152 -11 272q0 121 8 297l446 6l2 -174l-269 -9l-2 -29l273 2l4 -139l-275 -8l2 -33l278 12zM377 661l-36 -59l-85 51l-93 -52l-34 61l128 71z" />
    <glyph glyph-name="Aacute" unicode="&#xc1;" horiz-adv-x="576" 
d="M558 312q0 -86 -31 -347l-190 26l5 73l-108 -3l5 -68l-192 -25q-29 264 -29 352q0 119 74 191.5t193 72.5q118 0 195.5 -77t77.5 -195zM353 288q0 34 -16 59q-19 29 -51 29q-30 0 -46.5 -24.5t-16.5 -56.5q0 -72 4 -129l122 2q4 52 4 120zM428 807q-63 -101 -123 -193
l-87 54q62 96 120 192z" />
    <glyph glyph-name="Edieresis" unicode="&#xcb;" horiz-adv-x="530" 
d="M502 -1q-159 -14 -377 -13l-86 1q-11 152 -11 272q0 121 8 297l446 6l2 -174l-269 -9l-2 -29l273 2l4 -139l-275 -8l2 -33l278 12zM412 667q0 -22 -25 -35q-20 -11 -44 -11t-45 11q-24 13 -24 35t24 35q21 11 45 11t44 -11q25 -13 25 -35zM236 667q0 -22 -22.5 -34
t-46.5 -12t-44 11q-25 13 -25 35t25 35q20 11 44 11t46.5 -12t22.5 -34z" />
    <glyph glyph-name="Egrave" unicode="&#xc8;" horiz-adv-x="530" 
d="M502 -1q-159 -14 -377 -13l-86 1q-11 152 -11 272q0 121 8 297l446 6l2 -174l-269 -9l-2 -29l273 2l4 -139l-275 -8l2 -33l278 12zM328 648l-87 -54q-60 92 -123 193l90 53q58 -96 120 -192z" />
    <glyph glyph-name="Iacute" unicode="&#xcd;" 
d="M222 558q-13 -183 -13 -335q0 -149 4 -234l-178 -6q-7 111 -7 245t11 337zM268 797q-63 -101 -123 -193l-87 54q62 96 120 192z" />
    <glyph glyph-name="Icircumflex" unicode="&#xce;" 
d="M228 558q-13 -183 -13 -335q0 -149 4 -234l-178 -6q-7 111 -7 245t11 337zM263 671l-36 -59l-85 51l-93 -52l-34 61l128 71z" />
    <glyph glyph-name="Idieresis" unicode="&#xcf;" 
d="M228 558q-13 -183 -13 -335q0 -149 4 -234l-178 -6q-7 111 -7 245t11 337zM298 677q0 -22 -25 -35q-20 -11 -44 -11t-45 11q-24 13 -24 35t24 35q21 11 45 11t44 -11q25 -13 25 -35zM122 677q0 -22 -22.5 -34t-46.5 -12t-44 11q-25 13 -25 35t25 35q20 11 44 11t46.5 -12
t22.5 -34z" />
    <glyph glyph-name="Igrave" unicode="&#xcc;" 
d="M228 558q-13 -183 -13 -335q0 -149 4 -234l-178 -6q-7 111 -7 245t11 337zM224 658l-87 -54q-60 92 -123 193l90 53q58 -96 120 -192z" />
    <glyph glyph-name="Oacute" unicode="&#xd3;" horiz-adv-x="624" 
d="M614 286q0 -129 -86 -222q-88 -96 -216 -96t-216 96q-86 93 -86 222t87 223t215 94t215 -94t87 -223zM432 286q0 55 -32 99q-34 49 -88 49q-53 0 -88 -49q-32 -44 -32 -99q0 -56 32 -100q35 -48 88 -48q54 0 88 48q32 44 32 100zM488 827q-63 -101 -123 -193l-87 54
q62 96 120 192z" />
    <glyph glyph-name="Ocircumflex" unicode="&#xd4;" horiz-adv-x="624" 
d="M614 286q0 -129 -86 -222q-88 -96 -216 -96t-216 96q-86 93 -86 222t87 223t215 94t215 -94t87 -223zM432 286q0 55 -32 99q-34 49 -88 49q-53 0 -88 -49q-32 -44 -32 -99q0 -56 32 -100q35 -48 88 -48q54 0 88 48q32 44 32 100zM447 691l-36 -59l-85 51l-93 -52l-34 61
l128 71z" />
    <glyph glyph-name="Ograve" unicode="&#xd2;" horiz-adv-x="624" 
d="M614 286q0 -129 -86 -222q-88 -96 -216 -96t-216 96q-86 93 -86 222t87 223t215 94t215 -94t87 -223zM432 286q0 55 -32 99q-34 49 -88 49q-53 0 -88 -49q-32 -44 -32 -99q0 -56 32 -100q35 -48 88 -48q54 0 88 48q32 44 32 100zM428 688l-87 -54q-60 92 -123 193l90 53
q58 -96 120 -192z" />
    <glyph glyph-name="Uacute" unicode="&#xda;" horiz-adv-x="561" 
d="M543 221q0 -118 -71.5 -193t-188.5 -75q-116 0 -190.5 79t-74.5 197q0 60 22 349l188 -14q-22 -282 -22 -335q0 -88 77 -88q72 0 72 80q0 55 -22 340l187 15q23 -292 23 -355zM418 787q-63 -101 -123 -193l-87 54q62 96 120 192z" />
    <glyph glyph-name="Ucircumflex" unicode="&#xdb;" horiz-adv-x="561" 
d="M543 221q0 -118 -71.5 -193t-188.5 -75q-116 0 -190.5 79t-74.5 197q0 60 22 349l188 -14q-22 -282 -22 -335q0 -88 77 -88q72 0 72 80q0 55 -22 340l187 15q23 -292 23 -355zM417 661l-36 -59l-85 51l-93 -52l-34 61l128 71z" />
    <glyph glyph-name="Ugrave" unicode="&#xd9;" horiz-adv-x="561" 
d="M543 221q0 -118 -71.5 -193t-188.5 -75q-116 0 -190.5 79t-74.5 197q0 60 22 349l188 -14q-22 -282 -22 -335q0 -88 77 -88q72 0 72 80q0 55 -22 340l187 15q23 -292 23 -355zM378 648l-87 -54q-60 92 -123 193l90 53q58 -96 120 -192z" />
    <glyph glyph-name="circumflex" unicode="&#x2c6;" horiz-adv-x="304" 
d="M276 711l-36 -59l-85 51l-93 -52l-34 61l128 71z" />
    <glyph glyph-name="tilde" unicode="&#x2dc;" horiz-adv-x="265" 
d="M237 743q1 -12 -1.5 -35.5t-2.5 -34.5q-25 -5 -47 -5q-20 0 -57.5 10.5t-57.5 10.5q-26 0 -42 -9q2 26 -1 78q26 8 56 8q20 0 57 -8.5t56 -8.5q27 0 39 7z" />
    <glyph glyph-name="macron" unicode="&#xaf;" horiz-adv-x="248" 
d="M224 752l-3 -90q-61 5 -187 5l-2 87q36 1 80 1q45 0 112 -3z" />
    <glyph glyph-name="macron" unicode="&#x2c9;" horiz-adv-x="248" 
d="M224 752l-3 -90q-61 5 -187 5l-2 87q36 1 80 1q45 0 112 -3z" />
    <glyph glyph-name="cedilla" unicode="&#xb8;" horiz-adv-x="359" 
d="M331 -162q0 -48 -50 -76q-41 -22 -93 -22q-85 0 -160 46l14 51q86 -28 158 -28q62 0 62 29q0 34 -169 27l70 131l52 -7l-21 -54q137 -13 137 -97z" />
    <glyph glyph-name="Scaron" unicode="&#x160;" horiz-adv-x="537" 
d="M537 493l-107 -133q-76 68 -161 68q-53 0 -53 -22q0 -17 78 -49q105 -44 146 -72q79 -54 79 -121q0 -94 -73 -153q-68 -55 -164 -55q-137 0 -273 147l108 137q35 -39 82 -68q55 -33 100 -33q44 0 44 24q0 20 -87 53q-117 43 -161 72q-87 56 -87 135q0 87 84 143
q74 49 165 49q77 0 153 -32q80 -33 127 -90zM389 722l-128 -71l-120 72l36 59l85 -51l93 52z" />
    <glyph glyph-name="scaron" unicode="&#x161;" horiz-adv-x="537" 
d="M537 493l-107 -133q-76 68 -161 68q-53 0 -53 -22q0 -17 78 -49q105 -44 146 -72q79 -54 79 -121q0 -94 -73 -153q-68 -55 -164 -55q-137 0 -273 147l108 137q35 -39 82 -68q55 -33 100 -33q44 0 44 24q0 20 -87 53q-117 43 -161 72q-87 56 -87 135q0 87 84 143
q74 49 165 49q77 0 153 -32q80 -33 127 -90zM389 722l-128 -71l-120 72l36 59l85 -51l93 52z" />
    <glyph glyph-name="brokenbar" unicode="&#xa6;" 
d="M222 553q-9 -122 -12 -247l-181 4q3 120 10 250zM213 -17l-178 -5q-7 105 -7 229l180 4q0 -143 5 -228z" />
    <glyph glyph-name="Eth" unicode="&#xd0;" horiz-adv-x="647" 
d="M639 299q0 -110 -89 -219q-92 -112 -199 -122l-51 115l5 -85l-186 -5q-8 102 -14 220h-126l-4 125q58 1 125 2l-2 44l-54 -14l-36 181q140 50 283 50q158 0 247 -65q101 -75 101 -227zM439 319q0 45 -40 69q-34 21 -82 21q-12 0 -30 -1l3 -80q34 -1 77 -3l-5 -128
q-33 2 -68 3q2 -40 3 -74q58 10 101 73q41 59 41 120z" />
    <glyph glyph-name="eth" unicode="&#xf0;" horiz-adv-x="520" 
d="M520 492l-4 -128l-34 2q14 -43 14 -86q0 -128 -67 -211q-72 -90 -196 -90q-85 0 -148 49q-67 53 -67 136q0 76 56 126t134 50q73 0 125 -47q-13 46 -55 77l-145 1l-4 124q20 1 40 1l43 105q107 -21 189 -105q51 -1 119 -4zM334 214q-20 41 -86 41q-27 0 -48 -13
q-24 -15 -24 -40q0 -26 26 -41q22 -12 49 -12q64 0 83 65z" />
    <glyph glyph-name="Yacute" unicode="&#xdd;" horiz-adv-x="561" 
d="M543 387q0 -91 -42 -161q-46 -77 -127 -104q0 -83 1 -132l-178 -3q-2 56 -3 135q-82 28 -131 107q-45 75 -45 166q0 119 5 187l188 -15q-5 -60 -5 -172q0 -92 77 -92q72 0 72 84q0 115 -5 182l187 15q6 -74 6 -197zM438 787q-63 -101 -123 -193l-87 54q62 96 120 192z
" />
    <glyph glyph-name="yacute" unicode="&#xfd;" horiz-adv-x="561" 
d="M543 387q0 -91 -42 -161q-46 -77 -127 -104q0 -83 1 -132l-178 -3q-2 56 -3 135q-82 28 -131 107q-45 75 -45 166q0 119 5 187l188 -15q-5 -60 -5 -172q0 -92 77 -92q72 0 72 84q0 115 -5 182l187 15q6 -74 6 -197zM438 787q-63 -101 -123 -193l-87 54q62 96 120 192z
" />
    <glyph glyph-name="Thorn" unicode="&#xde;" horiz-adv-x="652" 
d="M642 292q0 -113 -112 -189q-100 -69 -218 -69l-34 75q2 -81 4 -126l-178 -5q-9 144 -7 295q-36 -9 -73 -22l-24 185q42 19 103 34l5 90l183 -7l-4 -58q40 2 80 2q110 0 185 -46q90 -55 90 -159zM431 264q0 41 -85 41q-33 0 -67 -3q-1 -45 -1 -73v-58q54 7 94 26
q59 27 59 67z" />
    <glyph glyph-name="thorn" unicode="&#xfe;" horiz-adv-x="652" 
d="M642 292q0 -113 -112 -189q-100 -69 -218 -69l-34 75q2 -81 4 -126l-178 -5q-9 144 -7 295q-36 -9 -73 -22l-24 185q42 19 103 34l5 90l183 -7l-4 -58q40 2 80 2q110 0 185 -46q90 -55 90 -159zM431 264q0 41 -85 41q-33 0 -67 -3q-1 -45 -1 -73v-58q54 7 94 26
q59 27 59 67z" />
    <glyph glyph-name="minus" unicode="&#xad;" horiz-adv-x="447" 
d="M419 357l-4 -183q-126 9 -383 9l-4 178q74 3 164 3q91 0 227 -7z" />
    <glyph glyph-name="minus" unicode="&#x2212;" horiz-adv-x="447" 
d="M419 357l-4 -183q-126 9 -383 9l-4 178q74 3 164 3q91 0 227 -7z" />
    <glyph glyph-name="multiply" unicode="&#xd7;" horiz-adv-x="488" 
d="M460 122l-134 -105q-41 48 -86 106q-39 -59 -68 -106l-144 100q51 78 103 152q-52 74 -103 152l144 100q29 -48 68 -106q46 58 86 106l134 -105q-53 -63 -116 -147q63 -84 116 -147z" />
    <glyph glyph-name="onesuperior" unicode="&#xb9;" horiz-adv-x="143" 
d="M115 517q-10 -138 -4 -256l-80 -3q-3 50 -3 110q0 61 5 152z" />
    <glyph glyph-name="twosuperior" unicode="&#xb2;" horiz-adv-x="278" 
d="M250 438q0 -43 -53 -81q-41 -29 -92 -43q88 -2 131 1l2 -68q-36 -3 -80 -3t-128 5l-2 77q44 18 84 43q62 38 62 66q0 13 -22 13q-38 0 -77 -43l-47 59q59 63 119 63q42 0 71 -23q32 -26 32 -66z" />
    <glyph glyph-name="threesuperior" unicode="&#xb3;" horiz-adv-x="281" 
d="M253 325q0 -38 -34 -62q-30 -20 -70 -20q-60 0 -121 59l50 56q39 -40 75 -40q12 0 17 5l2 5q0 25 -64 60q64 35 64 60l-2 5q-5 5 -17 5q-36 0 -75 -40l-50 57q61 58 121 58q40 0 70 -20q34 -23 34 -62q0 -34 -37 -63q37 -29 37 -63z" />
    <glyph glyph-name="onehalf" unicode="&#xbd;" horiz-adv-x="562" 
d="M534 208q0 -43 -54 -81q-40 -29 -91 -43q88 -2 131 1l2 -68q-36 -3 -80 -3q-45 0 -128 5l-2 77q44 18 84 43q61 38 61 66q0 13 -22 13q-38 0 -76 -43l-47 59q59 63 119 63q41 0 71 -23q32 -26 32 -66zM448 481q-180 -263 -352 -475l-68 54q188 236 345 472zM145 517
q-10 -138 -4 -256l-80 -3q-3 50 -3 110q0 61 5 152z" />
    <glyph glyph-name="onequarter" unicode="&#xbc;" horiz-adv-x="520" 
d="M492 77h-28q1 -40 2 -62l-75 -2q-1 26 -2 62h-13q-66 -1 -121 5q44 93 125 221l49 -32l40 -1q-5 -76 -5 -138h26zM448 481q-180 -263 -352 -475l-68 54q188 236 345 472zM145 517q-10 -138 -4 -256l-80 -3q-3 50 -3 110q0 61 5 152zM390 197q-23 -38 -39 -68h38
q0 28 1 68z" />
    <glyph glyph-name="threequarters" unicode="&#xbe;" horiz-adv-x="600" 
d="M572 77h-28q1 -40 2 -62l-75 -2q-1 26 -2 62h-13q-66 -1 -121 5q44 93 125 221l49 -32l40 -1q-5 -76 -5 -138h26zM529 480q-180 -263 -353 -475l-67 54q188 236 344 472zM253 325q0 -38 -34 -62q-30 -20 -70 -20q-60 0 -121 59l50 56q39 -40 75 -40q12 0 17 5l2 5
q0 25 -64 60q64 35 64 60l-2 5q-5 5 -17 5q-36 0 -75 -40l-50 57q61 58 121 58q40 0 70 -20q34 -23 34 -62q0 -34 -37 -63q37 -29 37 -63zM470 197q-23 -38 -39 -68h38q0 28 1 68z" />
    <glyph glyph-name=".null" horiz-adv-x="-32767" 
 />
    <glyph glyph-name="Lslash" unicode="&#x141;" horiz-adv-x="488" 
d="M470 -3q-193 -12 -297 -12q-55 0 -139 2q-5 104 -6 207l-28 -18l-69 104q46 31 99 64q2 73 9 220l183 -1l-3 -104l45 26l64 -111q-53 -29 -112 -64v-1v-139l253 2z" />
    <glyph glyph-name="lslash" unicode="&#x142;" horiz-adv-x="488" 
d="M470 -3q-193 -12 -297 -12q-55 0 -139 2q-5 104 -6 207l-28 -18l-69 104q46 31 99 64q2 73 9 220l183 -1l-3 -104l45 26l64 -111q-53 -29 -112 -64v-1v-139l253 2z" />
    <glyph glyph-name="HT" horiz-adv-x="-32767" 
 />
    <glyph glyph-name="LF" horiz-adv-x="-32767" 
 />
    <glyph glyph-name="nonmarkingreturn" horiz-adv-x="-32767" 
 />
    <glyph glyph-name="Zcaron" unicode="&#x17d;" horiz-adv-x="536" 
d="M528 550l-246 -380l224 -3l-7 -159l-491 14l237 384l-216 -8l-2 165zM389 679l-128 -71l-120 72l36 59l85 -51l93 52z" />
    <glyph glyph-name="zcaron" unicode="&#x17e;" horiz-adv-x="536" 
d="M528 550l-246 -380l224 -3l-7 -159l-491 14l237 384l-216 -8l-2 165zM389 679l-128 -71l-120 72l36 59l85 -51l93 52z" />
    <glyph glyph-name="DLE" horiz-adv-x="-32767" 
 />
    <glyph glyph-name="DC1" horiz-adv-x="-32767" 
 />
    <glyph glyph-name="DC2" horiz-adv-x="-32767" 
 />
    <glyph glyph-name="DC3" horiz-adv-x="-32767" 
 />
    <glyph glyph-name="DC4" horiz-adv-x="-32767" 
 />
    <glyph glyph-name="RS" horiz-adv-x="-32767" 
 />
    <glyph glyph-name="US" horiz-adv-x="-32767" 
 />
    <glyph glyph-name="DEL" horiz-adv-x="-32767" 
 />
    <glyph glyph-name="notequal" unicode="&#x2260;" horiz-adv-x="514" 
d="M520 495q-20 -28 -39 -55h5l-5 -158q-53 3 -110 5l-24 -33q59 -1 139 -4l-5 -158q-110 6 -252 8q-50 -65 -101 -127l-94 74q22 27 43 53h-45l-4 153q81 2 169 3l26 34h-191l-4 154q87 2 192 2q54 0 114 -2q42 60 83 121z" />
    <glyph glyph-name="infinity" unicode="&#x221e;" horiz-adv-x="-32767" 
 />
    <glyph glyph-name="lessequal" unicode="&#x2264;" horiz-adv-x="573" 
d="M495 106l-4 -118q-126 6 -383 6l-4 115q74 1 164 1q91 0 227 -4zM553 271l-57 -140l-460 238l460 238l57 -140l-230 -98z" />
    <glyph glyph-name="greaterequal" unicode="&#x2265;" horiz-adv-x="573" 
d="M515 106l-4 -118q-126 6 -383 6l-4 115q74 1 164 1q91 0 227 -4zM553 369l-460 -238l-57 140l230 98l-230 98l57 140z" />
    <glyph glyph-name="partialdiff" unicode="&#x2202;" horiz-adv-x="514" 
d="M496 280q0 -128 -67 -211q-72 -90 -196 -90q-85 0 -148 49q-67 53 -67 136q0 76 56 126t134 50q73 0 125 -47q-16 59 -77 92q-53 28 -120 29l76 187q113 -23 197 -114q87 -94 87 -207zM334 214q-20 41 -86 41q-27 0 -48 -13q-24 -15 -24 -40q0 -26 26 -41q22 -12 49 -12
q64 0 83 65z" />
    <glyph glyph-name="summation" unicode="&#x2211;" horiz-adv-x="-32767" 
 />
    <glyph glyph-name="product" unicode="&#x220f;" horiz-adv-x="-32767" 
 />
    <glyph glyph-name="pi" unicode="&#x3c0;" horiz-adv-x="-32767" 
 />
    <glyph glyph-name="integral" unicode="&#x222b;" horiz-adv-x="-32767" 
 />
    <glyph glyph-name="Omega" unicode="&#x3a9;" horiz-adv-x="-32767" 
 />
    <glyph glyph-name="Omega" unicode="&#x2126;" horiz-adv-x="-32767" 
 />
    <glyph glyph-name="radical" unicode="&#x221a;" horiz-adv-x="-32767" 
 />
    <glyph glyph-name="approxequal" unicode="&#x2248;" horiz-adv-x="-32767" 
 />
    <glyph glyph-name="approxequal" unicode="&#x22f2;" horiz-adv-x="-32767" 
 />
    <glyph glyph-name="Delta" unicode="&#x394;" horiz-adv-x="-32767" 
 />
    <glyph glyph-name="Delta" unicode="&#x2206;" horiz-adv-x="-32767" 
 />
    <glyph glyph-name="lozenge" unicode="&#x25ca;" horiz-adv-x="-32767" 
 />
    <glyph glyph-name="fraction" unicode="&#x2044;" horiz-adv-x="554" 
d="M520 495q-200 -289 -392 -522l-94 74q208 257 383 518z" />
    <glyph glyph-name="fi" unicode="&#xf001;" horiz-adv-x="-32767" 
 />
    <glyph glyph-name="fl" unicode="&#xf002;" horiz-adv-x="-32767" 
 />
    <glyph glyph-name="apple" unicode="&#xf000;" horiz-adv-x="626" 
d="M598 380q0 -81 -112 -220q-79 -98 -173 -182q-94 84 -173 182q-112 139 -112 220q0 61 43.5 104.5t105.5 43.5q44 0 81.5 -24.5t54.5 -65.5q17 41 54.5 65.5t81.5 24.5q62 0 105.5 -43.5t43.5 -104.5z" />
    <glyph glyph-name="dotlessi" unicode="&#x131;" 
d="M222 558q-13 -183 -13 -335q0 -149 4 -234l-178 -6q-7 111 -7 245t11 337z" />
    <glyph glyph-name="breve" unicode="&#x2d8;" horiz-adv-x="308" 
d="M280 750q-13 -40 -49 -63t-80 -23t-78 23q-38 25 -45 67l68 12v0q7 -33 55 -33q51 0 63 37v0z" />
    <glyph glyph-name="dotaccent" unicode="&#x2d9;" horiz-adv-x="194" 
d="M166 717q0 -22 -22.5 -34t-46.5 -12t-44 11q-25 13 -25 35t25 35q20 11 44 11t46.5 -12t22.5 -34z" />
    <glyph glyph-name="ring" unicode="&#x2da;" horiz-adv-x="287" 
d="M259 693q0 -40 -36 -65q-32 -21 -74 -21q-44 0 -80 24q-41 28 -41 71q0 39 36 64q33 22 74 22q45 0 81 -25q40 -28 40 -70zM195 693q0 17 -18.5 28t-37.5 11q-46 0 -46 -30q0 -18 18.5 -29t36.5 -11q47 0 47 31z" />
    <glyph glyph-name="hungarumlaut" unicode="&#x2dd;" horiz-adv-x="406" 
d="M378 767l-210 -159l120 192zM238 767l-210 -159l120 192z" />
    <glyph glyph-name="ogonek" unicode="&#x2db;" horiz-adv-x="352" 
d="M324 -152q-83 -50 -163 -50q-133 0 -133 112q0 37 14 86h49q-6 -24 -6 -44q0 -72 72 -72q60 0 132 43z" />
    <glyph glyph-name="caron" unicode="&#x2c7;" horiz-adv-x="304" 
d="M276 722l-128 -71l-120 72l36 59l85 -51l93 52z" />
    </font>
</defs>
</svg>
