<?xml version="1.0" standalone="no"?>
<!DOCTYPE svg PUBLIC "-//W3C//DTD SVG 1.1//EN" "http://www.w3.org/Graphics/SVG/1.1/DTD/svg11.dtd" >
<svg xmlns="http://www.w3.org/2000/svg" xmlns:xlink="http://www.w3.org/1999/xlink" version="1.1">
<metadata>
Created by FontForge 20170104 at Tue Oct 27 14:12:36 2009
 By myTaste
\251 MANFRED KLEIN    10-12003
</metadata>
<defs>
<font id="SteinAntik-Bold" horiz-adv-x="868" >
  <font-face 
    font-family="SteinAntik"
    font-weight="700"
    font-stretch="normal"
    units-per-em="1000"
    panose-1="2 0 8 5 8 0 0 2 0 4"
    ascent="800"
    descent="-200"
    x-height="728"
    cap-height="717"
    bbox="-53 -342 1390 1014"
    underline-thickness="50"
    underline-position="-125"
    unicode-range="U+0005-E005"
  />
<missing-glyph horiz-adv-x="280" 
 />
    <glyph glyph-name=".notdef" horiz-adv-x="280" 
 />
    <glyph glyph-name="breve" horiz-adv-x="850" 
d="M590 836l-50 54q-27 -29 -52.5 -45t-58.5 -16q-35 0 -62 17t-54 47l-51 -58q13 -17 31.5 -32.5t39.5 -27.5t44.5 -19t46.5 -7t46.5 7t45.5 19t41 27.5t33 33.5z" />
    <glyph glyph-name="dotaccent" horiz-adv-x="850" 
d="M503 823l-78 76l-76 -76l76 -76z" />
    <glyph glyph-name="ring" horiz-adv-x="850" 
d="M539 845q0 38 -30.5 65t-80.5 27q-20 0 -40.5 -7.5t-37 -21t-27 -33t-10.5 -43.5q-1 -23 8.5 -40.5t25.5 -29.5t35 -18t38 -6q21 0 42 7t38.5 21t28 33.5t10.5 45.5zM462 840q0 -16 -10 -25.5t-27 -9.5t-26.5 9.5t-9.5 21.5q0 14 10.5 23.5t27.5 9.5q19 0 27.5 -9.5
t8.5 -19.5h-1z" />
    <glyph glyph-name="hungarumlaut" unicode="&#xa;" horiz-adv-x="850" 
d="M588 839l-58 73l-148 -129l42 -51zM446 849l-63 65l-123 -134l46 -47z" />
    <glyph glyph-name="ogonek" horiz-adv-x="850" 
d="M555 12l-106 5q-22 -11 -43.5 -25.5t-38.5 -31t-27.5 -36t-10.5 -40.5q0 -25 15 -45t38 -35.5t52 -26t56 -16.5l23 66q-28 6 -46 14t-29 17t-15.5 18t-4.5 16q0 8 6 19t22 26t42 33.5t67 41.5z" />
    <glyph glyph-name="caron" horiz-adv-x="850" 
d="M586 852l-52 61l-108 -85l-107 85l-54 -63l159 -115z" />
    <glyph glyph-name="dotlessi" unicode="&#xd;" horiz-adv-x="393" 
d="M249 717h-104q1 -11 2 -36t1.5 -57.5t1 -68t1 -66t0.5 -52.5v-25v-108v-29q0 -21 -0.5 -52t-0.5 -67q0 -35 -0.5 -68t-1 -61.5t-1.5 -43.5h100q-1 15 -1.5 53t-1 84.5t-1 95t-0.5 86.5v108q0 45 0.5 93t1 91t1.5 76t3 47z" />
    <glyph glyph-name="fraction" horiz-adv-x="722" 
d="M700 796l-75 45q-12 -12 -30.5 -32t-42 -45t-50.5 -52t-55 -53q-38 -35 -74.5 -63.5t-56.5 -43.5q-19 21 -48 53t-60 66.5t-59.5 67t-47.5 53.5l-81 -35q9 -10 33 -34.5t54.5 -57t64.5 -68.5t64 -67.5t51.5 -54.5t27.5 -30q11 10 30 25.5t42.5 35t50 42t52.5 46.5
q34 31 68 64t62.5 61t49.5 48.5t30 28.5zM737 407l-36 78q-25 0 -79.5 -1.5t-123 -4t-143.5 -6t-142 -8.5t-117.5 -11.5t-70.5 -14.5v-23l36 -18l68 -34t87.5 -43.5t94.5 -47l89 -44.5l70 -35q-29 -13 -71.5 -33t-90.5 -42.5t-98.5 -46t-93.5 -44t-76 -35.5t-46 -21v-26
q9 -2 45.5 -8t89.5 -15.5t116.5 -21.5t126.5 -26q51 -11 98.5 -23.5t87 -24.5t69.5 -22t47 -17l-14 97q-11 3 -38 10.5t-64.5 17.5t-82 21t-89.5 21q-50 11 -97 18.5t-79 13.5q42 19 99.5 45.5t116 54t109 52t78.5 38.5v21q-14 8 -39.5 21t-58 30t-70 36l-75 38t-73 37
t-64.5 33q40 1 88 2.5t97.5 3t98 3t91 3t76.5 2t53 0.5z" />
    <glyph glyph-name="fi" horiz-adv-x="931" 
d="M787 717h-104q1 -11 2 -36t1.5 -57.5t1 -68t1 -66t0.5 -52.5v-25v-108v-29q0 -21 -0.5 -52t-0.5 -67q0 -35 -0.5 -68t-1 -61.5t-1.5 -43.5h100q-1 15 -1.5 53t-1 84.5t-1 95t-0.5 86.5v108q0 45 0.5 93t1 91t1.5 76t3 47zM483 621l-7 92q-13 -1 -40 -1.5t-60 0t-69 1.5
t-68.5 2t-57.5 1.5t-36 0.5q1 -10 2 -34t1.5 -55.5t1 -65.5t1 -63.5t0.5 -50.5v-24v-133v-26v-49q0 -28 -0.5 -61.5t-1.5 -65.5t-2 -60t-3 -46h108q-5 20 -6.5 53t-2.5 73v110v90l227 11l-4 89q-20 -2 -51 -5t-63 -6t-61.5 -6t-47.5 -4v248z" />
    <glyph glyph-name="fl" horiz-adv-x="1058" 
d="M1033 -26v93q-37 -1 -74.5 -1.5t-71.5 -0.5h-62h-44v290q0 47 0.5 103.5t1.5 109t2 93.5t3 56h-104q1 -10 1.5 -34t1 -55.5t1 -65.5t0.5 -64v-50v-24v-133v-48t-0.5 -88t-2 -97t-4.5 -75q10 0 38 -0.5t64.5 -1.5t77 -2.5t76.5 -2.5t62 -1.5t34 -0.5zM483 621l-7 92
q-13 -1 -40 -1.5t-60 0t-69 1.5t-68.5 2t-57.5 1.5t-36 0.5q1 -10 2 -34t1.5 -55.5t1 -65.5t1 -63.5t0.5 -50.5v-24v-133v-26v-49q0 -28 -0.5 -61.5t-1.5 -65.5t-2 -60t-3 -46h108q-5 20 -6.5 53t-2.5 73v110v90l227 11l-4 89q-20 -2 -51 -5t-63 -6t-61.5 -6t-47.5 -4v248z
" />
    <glyph glyph-name="Lslash" horiz-adv-x="520" 
d="M495 15l-2 95q-37 -8 -74.5 -14.5t-71 -12.5t-61 -10t-43.5 -6v252q47 17 89.5 32t78.5 28l-27 79q-65 -28 -139 -56q0 51 0.5 101.5t1 93.5t1.5 74.5t2 45.5h-105q1 -10 2 -34t1.5 -55.5t1 -65.5t1 -63.5t0.5 -50.5v-24v-54q-38 -14 -68 -25t-56 -21l24 -78
q27 12 51 21.5t49 19.5q0 -14 -0.5 -53.5t-1.5 -86.5t-2 -92.5t-4 -71.5q10 0 38 2.5t64.5 6t77 7.5t76 7.5t62 6t34.5 2.5z" />
    <glyph glyph-name="lslash" horiz-adv-x="520" 
d="M495 15l-2 95q-37 -8 -74.5 -14.5t-71 -12.5t-61 -10t-43.5 -6v252q47 17 89.5 32t78.5 28l-27 79q-65 -28 -139 -56q0 51 0.5 101.5t1 93.5t1.5 74.5t2 45.5h-105q1 -10 2 -34t1.5 -55.5t1 -65.5t1 -63.5t0.5 -50.5v-24v-54q-38 -14 -68 -25t-56 -21l24 -78
q27 12 51 21.5t49 19.5q0 -14 -0.5 -53.5t-1.5 -86.5t-2 -92.5t-4 -71.5q10 0 38 2.5t64.5 6t77 7.5t76 7.5t62 6t34.5 2.5z" />
    <glyph glyph-name="Zcaron" horiz-adv-x="675" 
d="M707 -3q-26 -3 -49.5 -1t-56.5 7q-32 5 -72 10.5t-83 12.5l-72 10t-69.5 9.5t-63 8t-51.5 5.5q19 27 56.5 79.5t83 116t95.5 132t94 129t79 107t50 65.5l-11 21h-22q-10 0 -38.5 1t-68 3t-85 4t-88.5 4t-78.5 4t-54.5 3l-27 -85q18 0 58.5 -1t87.5 -2.5t94.5 -3
t80.5 -2.5q-17 -23 -43.5 -59.5t-59.5 -82t-70 -96.5l-74 -102t-71.5 -99t-63.5 -87t-49 -66.5t-28 -37.5l10 -21q9 0 38 -3.5t71 -9t92.5 -13t103.5 -14.5q53 -8 103 -15.5t91 -13.5q39 -5 67.5 -9t42.5 -4zM501 852l-52 61l-108 -85l-107 85l-54 -63l159 -115z" />
    <glyph glyph-name="zcaron" horiz-adv-x="675" 
d="M707 -3q-26 -3 -49.5 -1t-56.5 7q-32 5 -72 10.5t-83 12.5l-72 10t-69.5 9.5t-63 8t-51.5 5.5q19 27 56.5 79.5t83 116t95.5 132t94 129t79 107t50 65.5l-11 21h-22q-10 0 -38.5 1t-68 3t-85 4t-88.5 4t-78.5 4t-54.5 3l-27 -85q18 0 58.5 -1t87.5 -2.5t94.5 -3
t80.5 -2.5q-17 -23 -43.5 -59.5t-59.5 -82t-70 -96.5l-74 -102t-71.5 -99t-63.5 -87t-49 -66.5t-28 -37.5l10 -21q9 0 38 -3.5t71 -9t92.5 -13t103.5 -14.5q53 -8 103 -15.5t91 -13.5q39 -5 67.5 -9t42.5 -4zM501 852l-52 61l-108 -85l-107 85l-54 -63l159 -115z" />
    <glyph glyph-name="space" unicode=" " horiz-adv-x="300" 
 />
    <glyph glyph-name="exclam" unicode="!" horiz-adv-x="300" 
d="M218 717l-112 5q1 -47 0.5 -112.5t-1.5 -138t-2 -145.5t-1 -135l74 11q4 59 9 132.5t11 145.5t11.5 135t10.5 102zM195 -17v115h-112v-115h112z" />
    <glyph glyph-name="quotedbl" unicode="&#x22;" horiz-adv-x="305" 
d="M301 680l-83 60l-103 -192l56 -37zM169 692l-92 47l-80 -214l61 -31z" />
    <glyph glyph-name="numbersign" unicode="#" horiz-adv-x="740" 
d="M719 145v100q-23 -1 -67.5 -1.5t-97.5 -1.5v60v108v48q48 -1 92.5 -1.5t72.5 -1.5v100q-23 -1 -67 -1.5t-98 -1.5q1 56 2 99.5t3 65.5h-104q2 -23 3 -68.5t1 -96.5h-59h-108h-48q1 55 2 99t3 66h-104q2 -23 3 -68.5t1 -96.5q-55 1 -98.5 2t-65.5 3v-104q23 2 68.5 3
t96.5 1v-45v-108v-62q-55 1 -99 2t-66 3v-104q23 2 68.5 3t96.5 1q-1 -48 -1.5 -92t-1.5 -72h100q-1 23 -1.5 67t-1.5 98h46h108h62q-1 -48 -1.5 -92.5t-1.5 -72.5h100q-1 23 -1.5 67t-1.5 98q48 -1 92 -1.5t73 -1.5zM460 304v-62h-60h-108h-48v60v108v48h46h108h62v-46
v-108z" />
    <glyph glyph-name="dollar" unicode="$" horiz-adv-x="506" 
d="M551 655l-13 90q-16 -3 -49 -9t-70.5 -14t-74 -16t-59.5 -14l3 112h-86l2 -147q-19 -11 -41 -27.5t-41 -37.5t-31.5 -47t-12.5 -56t13.5 -53.5t36 -42.5t51 -35t58.5 -30t48 -25t28.5 -21.5t14 -22t3.5 -24.5q0 -16 -27.5 -41t-73 -49.5t-105.5 -45t-125 -26.5l16 -88
q14 1 38 6t51 11.5t53 13.5t45 12l-2 -130h86l-3 161q18 10 43 29t47.5 44.5t38 55t15.5 61.5q0 41 -19 68.5t-47 46.5t-61 33t-61 29t-47 33t-19 46q0 17 26 42.5t74.5 49.5t118.5 41t158 17z" />
    <glyph glyph-name="percent" unicode="%" horiz-adv-x="944" 
d="M921 192q0 49 -15 87t-42 64t-64 39.5t-82 13.5q-53 0 -93 -20t-67.5 -51.5t-41.5 -69t-14 -73.5q0 -39 13 -75t39 -63.5t63.5 -44t87.5 -16.5q59 0 100 21.5t67 53.5t37.5 68.5t11.5 65.5zM740 700l-75 44q-14 -26 -36.5 -63t-50.5 -82t-59.5 -96t-64.5 -104
q-36 -59 -71.5 -117t-67 -110t-57 -95t-43.5 -72l72 -50q15 26 38.5 67.5t53 92.5t63.5 108.5t70 116.5q34 55 67.5 108.5t64 101t55.5 86t41 64.5zM441 513q0 49 -15 87t-41 64t-63 39.5t-80 13.5q-54 0 -95 -20t-68.5 -51.5t-41.5 -69t-14 -73.5q0 -39 13 -75t39 -63.5
t64 -44t88 -16.5q58 0 99 22t67 54.5t37.5 68.5t11.5 64h-1zM832 187q0 -29 -10 -52.5t-27 -41t-39 -27t-47 -9.5q-29 0 -51 11t-37 29t-22.5 40.5t-7.5 45.5q0 21 7 45t22 44.5t37.5 33.5t54.5 13q56 0 88 -34.5t32 -97.5zM352 510q0 -57 -33 -93.5t-90 -36.5
q-29 0 -50.5 11t-36.5 29t-22.5 40.5t-7.5 45.5q0 21 6.5 45t21.5 44t38.5 33t57.5 13q54 0 85.5 -34t31.5 -97h-1z" />
    <glyph glyph-name="ampersand" unicode="&#x26;" horiz-adv-x="605" 
d="M642 45q-29 21 -63 46t-62 47q10 13 15 22.5t9 18.5t8 18.5t12 21.5l-78 49q-9 -20 -12 -27t-4 -12q-2 -14 -3.5 -19t-11.5 -18q-42 37 -82.5 71.5t-83.5 75.5l-30 -93q35 -32 69 -61t69 -58q-75 -77 -170 -77q-30 0 -54 9.5t-40 24.5t-24.5 34.5t-8.5 40.5q0 29 16 58.5
t39.5 57t50 52.5t48.5 44q-42 42 -62 71.5t-20 55.5q0 27 13.5 40.5t38.5 19.5t58.5 6.5t74.5 0.5l-22 90q-54 0 -101 -9t-81.5 -29.5t-54.5 -52t-20 -76.5q0 -35 15.5 -63t41.5 -56q-21 -17 -44 -40.5t-42.5 -51.5t-32 -61t-12.5 -70q0 -41 17.5 -74t46 -56t66 -36
t78.5 -13q83 0 141.5 30t106.5 78q13 -11 29.5 -24t34 -27t34 -27.5t30.5 -23.5z" />
    <glyph glyph-name="quotesingle" unicode="'" horiz-adv-x="160" 
d="M163 692l-93 47l-78 -215l61 -30z" />
    <glyph glyph-name="parenleft" unicode="(" horiz-adv-x="300" 
d="M316 -34q-35 22 -69.5 57t-62 82t-45 105.5t-17.5 129.5q0 81 20.5 145.5t50.5 113.5t63.5 82.5t59.5 51.5l-53 65q-35 -24 -75 -66.5t-74.5 -102t-57.5 -135t-23 -164.5q0 -83 23 -152.5t58 -124.5t75 -94t75 -61z" />
    <glyph glyph-name="parenright" unicode=")" horiz-adv-x="300" 
d="M267 366q0 83 -23 152.5t-58 124.5t-75.5 94t-74.5 61l-52 -68q34 -22 69 -57t62.5 -82t45 -106t17.5 -129q0 -81 -20.5 -146t-50 -113.5t-63 -81.5t-59.5 -51l51 -66q35 24 75.5 66.5t75 102t57.5 135t23 164.5z" />
    <glyph glyph-name="asterisk" unicode="*" horiz-adv-x="350" 
d="M296 691l-74 49q-11 -23 -23.5 -48t-23.5 -44q-11 20 -27 47t-27 46l-72 -55q35 -32 65 -67t61 -70q7 8 23 27t34.5 41t36 42.5t27.5 31.5zM341 532l-7 84q-15 -3 -37 -7.5t-47 -9.5t-49 -9.5t-42 -6.5q3 -11 11 -34t17.5 -49.5t18.5 -52t15 -40.5l78 39
q-11 20 -26.5 44.5t-27.5 43.5h47t49 -2zM192 581q-11 2 -34.5 7t-50 10.5t-51.5 11t-39 9.5l-7 -87h96q-11 -20 -26.5 -46.5t-25.5 -43.5l78 -37q4 16 11.5 39t16.5 48t17.5 48.5t14.5 40.5z" />
    <glyph glyph-name="plus" unicode="+" horiz-adv-x="490" 
d="M467 628l-89 69q-14 -26 -28 -52.5t-31 -58t-39.5 -70.5t-54.5 -90q-36 -57 -64.5 -96.5t-52 -69.5t-43.5 -53t-38 -47l81 -69q15 25 31 50t36.5 56.5t47 72t62.5 97.5q30 48 56 86.5t48.5 69.5t41.5 56.5t36 48.5z" />
    <glyph glyph-name="comma" unicode="," horiz-adv-x="270" 
d="M225 78l-101 53l-79 -233l61 -27z" />
    <glyph glyph-name="hyphen" unicode="-" horiz-adv-x="344" 
d="M302 313l-5 72q-12 0 -16.5 -0.5t-7.5 -2.5q-12 -6 -23 -10t-25 -4q-35 0 -68.5 10.5t-66.5 18.5q-17 4 -28.5 6.5t-22 2t-21.5 -5t-26 -14.5q1 0 1.5 -0.5t1.5 -0.5l-16 -17l6 -71q15 0 21 2t11 6l12.5 10t13.5 6q28 -1 57 -8t58.5 -12.5t58.5 -7t56 7.5q3 2 8.5 4
t20.5 8z" />
    <glyph glyph-name="period" unicode="." horiz-adv-x="270" 
d="M194 -18v120h-118v-120h118z" />
    <glyph glyph-name="slash" unicode="/" horiz-adv-x="490" 
d="M467 613l-89 63q-14 -25 -28 -51.5t-31 -58t-39.5 -70.5t-54.5 -90q-36 -57 -65 -96.5t-53.5 -69.5t-44.5 -54.5t-38 -51.5l85 -62q15 25 30.5 50t36 56t47 71.5t62.5 97.5q30 48 56 87t48.5 71t41.5 58t36 50z" />
    <glyph glyph-name="zero" unicode="0" horiz-adv-x="783" 
d="M723 358q0 77 -25 140t-68.5 108t-102.5 70t-127 25q-66 0 -127 -25t-108.5 -71t-76 -111t-28.5 -145q0 -87 28 -152t73.5 -109t102.5 -66t116 -22q79 0 142.5 30t108 80t68.5 114.5t24 133.5zM628 362q0 -66 -20.5 -117t-53.5 -86.5t-75 -54t-84 -18.5
q-63 0 -108.5 24.5t-75 62t-43.5 83.5t-14 88q0 56 17 105.5t48.5 86t75.5 58t98 21.5t97.5 -21.5t74.5 -56.5t47.5 -81t16.5 -94h-1z" />
    <glyph glyph-name="one" unicode="1" horiz-adv-x="445" 
d="M307 737h-27q-8 -9 -26 -23t-41 -29.5t-49 -31t-50 -28.5t-43.5 -21.5t-30.5 -9.5l9 -78q17 4 38.5 9.5t43.5 12.5t43 14.5t38 16.5v-282q0 -51 -1 -99t-1.5 -88.5t-1 -70.5t0.5 -46h97q-4 37 -3.5 105.5t0.5 176.5v134q0 13 0.5 41.5t0.5 63.5t1 73t1 71t0.5 57t0.5 32z
" />
    <glyph glyph-name="two" unicode="2" horiz-adv-x="588" 
d="M597 18l-396 42q44 33 92 74.5t88.5 90.5t66.5 104t26 115q0 77 -11.5 128t-34 83t-54.5 48t-73 22.5t-91 6.5h-105l-20 -86q35 -3 61 -2t50 2t46 -0.5t42 -7.5q18 -6 34.5 -18.5t29 -35t20 -58.5t7.5 -88q0 -43 -18.5 -84.5t-48.5 -80.5t-69 -76t-80 -69.5t-80.5 -61
t-71.5 -51.5l5 -32h117q85 0 178.5 -18t178.5 -36q23 -5 40 -8t31 -4z" />
    <glyph glyph-name="three" unicode="3" horiz-adv-x="505" 
d="M438 221q0 59 -37 95.5t-91 56.5q20 12 39.5 29.5t34.5 38.5t24 45t9 51q0 40 -9 70t-25 52t-37.5 36.5t-46.5 23.5q-48 18 -100 19t-103 1l-16 -86h59q24 0 44 -2q30 -2 55.5 -9t44 -21t28.5 -37.5t10 -59.5q0 -24 -16.5 -47.5t-45 -42t-67 -30t-83.5 -11.5v-64
q43 0 84 -6.5t73 -20.5t51.5 -36t19.5 -52q0 -27 -12.5 -60.5t-34.5 -68.5t-51 -68t-62 -59t-68.5 -42t-69.5 -16l8 -85q49 2 97 22.5t91.5 54t80.5 75.5t64 86.5t42.5 88t15.5 79.5z" />
    <glyph glyph-name="four" unicode="4" horiz-adv-x="598" 
d="M594 255l-131 -15v508h-31l-428 -566l8 -27h362v-27v-39q0 -24 -0.5 -53t-1 -60t-1 -59t-0.5 -50v-32l107 -29q-1 13 -2 38.5t-2.5 56.5t-3.5 65t-3.5 64t-2.5 53.5t-1 33.5v39l96 -3zM373 239h-227q22 29 49.5 65.5t58 77t61.5 82.5t59 81z" />
    <glyph glyph-name="five" unicode="5" horiz-adv-x="520" 
d="M458 724q-23 -1 -54 -2t-65 -2t-69 -2t-65.5 -1.5t-53.5 -1.5t-34 -1l-46 -273q142 -13 207.5 -52.5t65.5 -101.5q0 -32 -15.5 -71t-41.5 -79.5t-60 -79.5t-71 -71t-74 -54.5t-69 -29.5l26 -83q41 9 86.5 36.5t90.5 66.5t85.5 87t71.5 98t49.5 98.5t18.5 88.5
q0 37 -12.5 71t-43 63t-83 51t-133.5 36l20 116l265 -1z" />
    <glyph glyph-name="six" unicode="6" horiz-adv-x="576" 
d="M518 221q0 61 -10.5 104t-34 70.5t-62.5 40.5t-96 13q-23 0 -48.5 -1t-53.5 -2q19 37 45.5 72t56 64.5t57.5 52t50 35.5l-22 112q-64 -44 -125 -108t-109 -139t-77 -156.5t-29 -160.5q0 -49 13 -94.5t39.5 -80t66.5 -55.5t94 -21q49 0 93.5 20t78.5 54.5t53.5 80.5
t19.5 99zM420 206q0 -28 -10 -55.5t-28.5 -49.5t-44.5 -36t-57 -14q-29 0 -52 12.5t-39 35t-25 54t-9 70.5q0 45 5.5 77.5t16.5 61.5q19 1 42.5 3t48 3t47.5 -1t40 -8q14 -5 26 -15t21 -27.5t14 -44.5t5 -66h-1z" />
    <glyph glyph-name="seven" unicode="7" horiz-adv-x="490" 
d="M487 701l-16 16q-22 -1 -58 -1q-35 0 -77 0.5t-88 1.5t-89 2t-79 2t-59 2l-32 -97l375 3q-11 -24 -31 -67.5t-45.5 -98.5t-55 -118t-59.5 -126t-58 -122t-50.5 -107t-38 -81t-19.5 -43l81 -76q5 15 24.5 60t47 109.5t61.5 142.5t69 158t68.5 156t61 137t45.5 100.5
t22 46.5z" />
    <glyph glyph-name="eight" unicode="8" horiz-adv-x="618" 
d="M558 160q0 28 -9 58t-25 57.5t-38.5 51t-49.5 38.5q50 32 73.5 79t23.5 95q0 88 -47 135t-142 47q-57 0 -100.5 -19.5t-73 -49.5t-44.5 -67.5t-15 -73.5q0 -50 13.5 -88.5t54.5 -63.5q-46 -32 -74.5 -80.5t-28.5 -103.5q0 -41 17 -83t48.5 -76t76 -55.5t100.5 -21.5
q63 0 108 22t74.5 55t43.5 71.5t14 72.5zM437 527q0 -27 -9.5 -50t-26.5 -40t-42.5 -27t-56.5 -10q-56 0 -76 32t-20 83q0 21 7.5 43.5t23.5 40.5t40.5 29.5t59.5 11.5q59 0 80 -27.5t21 -85.5h-1zM462 155q0 -27 -9 -51.5t-27 -43t-44 -29.5t-59 -11q-35 0 -63 15.5
t-47.5 39.5t-30.5 51.5t-11 51.5q0 27 9 53t26 46t42 32t58 12q31 0 59.5 -14.5t50 -38t34 -53.5t12.5 -60z" />
    <glyph glyph-name="nine" unicode="9" horiz-adv-x="576" 
d="M516 489q0 52 -15.5 96.5t-44.5 77.5t-69.5 51.5t-89.5 18.5q-50 0 -93.5 -21.5t-75.5 -56.5t-51 -81t-19 -95q0 -83 22 -134.5t62 -77t94.5 -28t120.5 13.5q-20 -31 -48 -65.5t-60.5 -70t-66.5 -69t-65 -62.5t-56.5 -51t-41.5 -33l49 -101q22 24 35.5 37.5l27.5 27.5
q53 51 105 100.5t100 106.5q36 42 68.5 89.5t57 99.5t39.5 109t15 118zM418 476q0 -39 -6 -73t-16 -62q-59 -15 -104.5 -19t-76 11t-46 53t-15.5 107q0 27 10 55t28 50.5t43.5 37t56.5 14.5q57 0 92 -46.5t35 -127.5h-1z" />
    <glyph glyph-name="colon" unicode=":" horiz-adv-x="270" 
d="M193 385v117h-116v-118zM193 35v118h-116v-118h116z" />
    <glyph glyph-name="semicolon" unicode=";" horiz-adv-x="270" 
d="M193 385v117h-116v-118zM204 115l-100 52l-70 -228l59 -26z" />
    <glyph glyph-name="less" unicode="&#x3c;" horiz-adv-x="300" 
d="M271 190q-19 19 -39 40t-39.5 41t-36.5 38t-29 31q33 42 70 79.5t72 77.5l-58 63q-17 -23 -42.5 -53.5t-53 -62t-53.5 -61t-42 -49.5q15 -16 41.5 -44t55 -58.5t54.5 -59t40 -45.5z" />
    <glyph glyph-name="equal" unicode="=" horiz-adv-x="344" 
d="M334 413l-5 72q-12 0 -16.5 -0.5t-7.5 -2.5q-12 -6 -23 -10t-25 -4q-35 0 -68.5 10.5t-66.5 18.5q-17 4 -28.5 6.5t-22 2t-21.5 -5t-26 -14.5q1 0 1.5 -0.5t1.5 -0.5l-16 -17l6 -71q15 0 21 2t11 6l12.5 10t13.5 6q28 -1 57 -8t58.5 -12.5t58.5 -7t56 7.5q3 2 8.5 4
t20.5 8zM334 313l-5 72q-12 0 -16.5 -0.5t-7.5 -2.5q-12 -6 -23 -10t-25 -4q-35 0 -68.5 10.5t-66.5 18.5q-17 4 -28.5 6.5t-22 2t-21.5 -5t-26 -14.5q1 0 1.5 -0.5t1.5 -0.5l-16 -17l6 -71q15 0 21 2t11 6l12.5 10t13.5 6q28 -1 57 -8t58.5 -12.5t58.5 -7t56 7.5q3 2 8.5 4
t20.5 8z" />
    <glyph glyph-name="greater" unicode="&#x3e;" horiz-adv-x="300" 
d="M280 352q-15 16 -41.5 44t-55 58.5t-54.5 59t-40 46.5l-59 -67l38.5 -38.5t39.5 -40t36.5 -37.5t29.5 -31q-11 -14 -28.5 -33.5t-37.5 -41t-40.5 -43t-38.5 -39.5l61 -62q16 22 42 52.5t53 62t52.5 61t42.5 49.5z" />
    <glyph glyph-name="question" unicode="?" horiz-adv-x="430" 
d="M382 492q0 55 -7.5 96t-21.5 69.5t-34.5 46.5t-45.5 27q-24 8 -52 10t-57.5 1t-58.5 -3.5t-54 -2.5l-25 -86q38 0 63 3t48 5q22 2 40.5 2.5t34.5 -4.5q14 -4 27 -14t23 -30.5t16 -53.5t6 -83q0 -37 -17.5 -68t-44.5 -56.5t-60 -44.5t-64 -32l36 -78q31 15 74 40.5
t81.5 62.5t65.5 85t27 108zM216 -17v115h-112v-115h112z" />
    <glyph glyph-name="at" unicode="@" horiz-adv-x="916" 
d="M763 78v596h-32v32h-596v-596h32v-32h596zM565 435l-76 -4q8 17 19.5 39.5t21.5 42.5q8 -19 17.5 -40t17.5 -38zM698 143h-498v498h498v-321q-17 35 -39.5 80.5t-45 90.5t-42 83t-29.5 57h-21q-4 -8 -20.5 -39.5t-40 -76t-51 -97t-53 -101t-46 -88.5t-31.5 -60l61 -34
q6 12 22 45t35 70.5t36.5 71.5t25.5 49l134 6q7 -14 22.5 -44t31.5 -63t30.5 -61.5t20.5 -40.5v-25z" />
    <glyph glyph-name="A" unicode="A" horiz-adv-x="777" 
d="M787 10q-21 35 -53 93.5t-69.5 128.5t-77 146.5t-76.5 147t-68.5 130.5t-51.5 97h-22q-5 -9 -22.5 -43t-44 -85t-59.5 -114t-68.5 -130.5t-70.5 -134.5t-65.5 -125.5t-54.5 -104.5t-37 -71l85 -47q6 12 21.5 43.5t36 72.5t44 87.5t45 88.5t38.5 75.5t25 48.5l274 12
q7 -14 22 -43t33.5 -66l38.5 -77t38 -76.5t32 -64.5t21 -40zM477 404l-194 -9l20 40t25.5 50.5t26.5 53t24 47.5q10 -20 23.5 -44.5t27 -49.5t26 -48.5t21.5 -39.5z" />
    <glyph glyph-name="B" unicode="B" horiz-adv-x="624" 
d="M548 228q0 31 -12 56t-31.5 44.5t-45 33t-52.5 22.5q29 17 45.5 36.5t24.5 39.5q9 22 10.5 41t1.5 42q0 29 -4 54.5t-25 48.5q-22 24 -62 38t-85.5 21.5t-90.5 9.5t-78 2q2 -15 3.5 -49.5t2 -72t0.5 -70.5v-44v-111v-34v-64q0 -37 -0.5 -81t-1 -85.5t-1 -76t-1.5 -53.5
l35 3q45 2 89.5 4t85.5 9t76 21t61 40.5t40.5 69t14.5 105.5zM392 532q0 -20 -7.5 -41.5t-25 -40t-47 -31.5t-72.5 -14v232q35 -2 63 -6.5t48 -16t31 -31t11 -51.5h-1zM447 222q0 -54 -17 -84t-45.5 -45.5t-66 -21t-78.5 -9.5v269q53 0 92 -9t64.5 -24.5t38 -35t12.5 -40.5z
" />
    <glyph glyph-name="C" unicode="C" horiz-adv-x="649" 
d="M638 -19l-11 87q-40 -9 -75 -12.5t-64 -3.5q-93 0 -157.5 11.5t-104.5 39t-57.5 74.5t-17.5 118q0 108 31.5 171.5t89 98.5t139 50t181.5 28l-17 92q-133 -25 -231.5 -54t-164 -77.5t-97.5 -125.5t-32 -198q0 -92 21.5 -152t71.5 -96t132 -50.5t203 -14.5q45 0 85 3.5
t75 10.5z" />
    <glyph glyph-name="D" unicode="D" horiz-adv-x="830" 
d="M782 432q0 29 -11 65.5t-43 72.5t-89.5 67.5t-150.5 51.5q-41 9 -86 14.5t-90 8.5t-87.5 4t-78.5 1q1 -12 1.5 -35.5t1 -52.5t1 -60t0.5 -58v-47v-24v-124v-30v-55t-0.5 -69.5t-0.5 -72.5t-0.5 -64.5t-1.5 -45.5q50 -1 101.5 -2t103 1t102 10.5t98.5 27.5q49 19 91 52
t73 83t48.5 119t17.5 162zM681 412q0 -78 -16 -133.5t-45 -92.5t-69 -59t-88.5 -34t-104.5 -17t-115 -7v563q439 -6 439 -220h-1z" />
    <glyph glyph-name="E" unicode="E" horiz-adv-x="568" 
d="M555 33l-5 94q-34 -8 -78 -18t-87.5 -18.5t-81.5 -15t-60 -8.5v245q20 1 51.5 4l63 6t58 5.5t37.5 2.5l-3 90q-22 -5 -50.5 -9.5t-57.5 -8t-55 -7t-44 -4.5v247q20 -1 53.5 -4.5t68 -7t65 -6.5t45.5 -3l-4 92q-23 -3 -68 -2t-96 3t-96 4.5t-66 2.5q1 -10 2 -34t1.5 -55.5
t1 -65.5t1 -63.5t0.5 -50.5v-24v-134v-26v-48t-0.5 -61.5t-1 -65.5t-1 -60t-1.5 -46q10 0 31.5 2t49.5 6t61 8t66 9q34 5 66.5 9t58.5 8t43.5 6t31.5 2z" />
    <glyph glyph-name="F" unicode="F" horiz-adv-x="538" 
d="M483 621l-7 92q-13 -1 -40 -1.5t-60 0t-69 1.5t-68.5 2t-57.5 1.5t-36 0.5q1 -10 2 -34t1.5 -55.5t1 -65.5t1 -63.5t0.5 -50.5v-24v-133v-26v-49q0 -28 -0.5 -61.5t-1.5 -65.5t-2 -60t-3 -46h108q-5 20 -6.5 53t-2.5 73v110v90l227 11l-4 89q-20 -2 -51 -5t-63 -6
t-61.5 -6t-47.5 -4v248z" />
    <glyph glyph-name="G" unicode="G" horiz-adv-x="739" 
d="M712 668l-23 92q-147 0 -265.5 -28.5t-201.5 -87.5t-127.5 -150.5t-44.5 -217.5q0 -67 27 -123.5t77 -98t120.5 -64.5t156.5 -23q77 0 134.5 11t94.5 24q0 10 -0.5 28t-1 38.5l-1 41t-0.5 34.5v61v19v18t0.5 19.5t1.5 25.5h-98q2 -29 3 -55.5t1 -66.5v-102
q-25 -6 -56 -9.5t-65 -3.5q-75 0 -130.5 19.5t-92 51.5t-54 72.5t-17.5 81.5q0 112 40 187t113.5 121t177.5 65.5t231 19.5z" />
    <glyph glyph-name="H" unicode="H" horiz-adv-x="926" 
d="M784 -61q-1 9 -2 37t-2 65t-2 78.5t-1.5 79t-1 65.5t-0.5 38v122q0 6 0.5 27t1 50t1 62.5t1.5 64t2 55t2 34.5h-105q1 -10 1.5 -30t1 -45t1 -51.5t0.5 -49.5v-40v-20v-52l-439 -36v67v16t-0.5 31.5t-1 41t-0.5 45.5q-1 47 -1.5 88.5t1.5 62.5h-105q1 -11 2.5 -38.5t3 -63
t3.5 -74.5t3 -72.5t2 -57t1 -27.5v-108v-29q0 -21 -0.5 -52t-0.5 -67q0 -35 -0.5 -68t-1 -61.5t-1.5 -43.5h100q-1 10 -1 31t-0.5 47t-1 55t-1 55.5t-0.5 47.5v33v60l440 36v-97v-31q0 -22 0.5 -52t0.5 -65v-67t-1 -58t-2 -39h103z" />
    <glyph glyph-name="I" unicode="I" horiz-adv-x="393" 
d="M249 717h-104q1 -11 2 -36t1.5 -57.5t1 -68t1 -66t0.5 -52.5v-25v-108v-29q0 -21 -0.5 -52t-0.5 -67q0 -35 -0.5 -68t-1 -61.5t-1.5 -43.5h100q-1 15 -1.5 53t-1 84.5t-1 95t-0.5 86.5v108q0 45 0.5 93t1 91t1.5 76t3 47z" />
    <glyph glyph-name="J" unicode="J" horiz-adv-x="402" 
d="M284 717h-104q1 -11 2 -32.5t1.5 -48.5t1 -56t1 -54t0.5 -43v-21v-166q0 -65 -15.5 -109t-42.5 -74.5t-62.5 -50.5t-75.5 -36l44 -81q40 17 83.5 41t79.5 63t59 98t23 147v166v85q0 41 1 74.5t1.5 58.5t2.5 39z" />
    <glyph glyph-name="K" unicode="K" horiz-adv-x="690" 
d="M702 -25q-14 14 -39 37t-56.5 52.5t-66.5 63.5t-68 70q-23 25 -44.5 51t-39.5 48.5t-32 41t-23 30.5q32 34 61.5 68.5t64.5 65.5q24 22 49.5 41t49 36.5t44.5 33t37 29.5l-40 94q-19 -19 -39.5 -34.5t-41.5 -31.5q-67 -51 -124 -106.5t-113 -118.5q-17 -19 -34 -39.5
t-36 -37.5q11 -12 30 -35.5t43.5 -53t53 -63.5t59.5 -67q40 -43 81.5 -86t76.5 -79t60.5 -62t33.5 -35zM257 -47q-1 10 -2.5 35.5t-3 58.5t-3 71t-3 74.5t-2 67.5t-0.5 50v108q0 33 0.5 82l1 98t1 87.5t1.5 50.5l-104 18q0 -11 0.5 -34.5t1.5 -55t2 -67t2 -70.5t1.5 -66
t0.5 -53v-106q0 -43 -0.5 -93t-1 -96t-1 -83t-1.5 -53z" />
    <glyph glyph-name="L" unicode="L" horiz-adv-x="520" 
d="M507 11v94q-38 -6 -77.5 -12t-75 -11t-65 -9t-46.5 -6v288q0 47 0.5 103.5t1.5 109t2 93.5t3 56h-104q1 -10 1.5 -34t1 -55.5t1 -65.5t0.5 -64v-50v-24v-133v-48t-0.5 -88t-2 -97t-4.5 -75q10 0 39 2t67 5t80 7t79 7t64 5t35 2z" />
    <glyph glyph-name="M" unicode="M" horiz-adv-x="1082" 
d="M1051 -89q-11 27 -23.5 70.5t-26.5 97.5t-29 115t-30 123q-14 63 -28 122t-26 109q-13 51 -23.5 88.5t-19.5 61.5h-23q-5 -10 -23 -46.5t-44 -88.5t-57 -113.5t-61 -122t-56.5 -113.5t-43.5 -88q-16 34 -41 88t-54.5 116t-60 127t-57 121.5t-46 99t-26.5 59.5h-26
q-2 -10 -10 -55.5t-20 -112.5t-27 -147.5t-33 -160.5q-15 -65 -30.5 -125.5t-30.5 -110.5t-27.5 -87t-19.5 -56l112 17q3 13 12.5 47t22.5 81t27 103.5t27 113.5q15 69 25 132.5t18 105.5q15 -34 36 -79.5t44.5 -95.5t47.5 -102t46.5 -98.5t41 -85t30.5 -62.5h22
q10 18 29.5 55t44 84t53 101t56 106.5t52.5 100.5t43 83q9 -37 21.5 -91t26 -116t28 -126t27.5 -120.5t23.5 -100t17.5 -64.5z" />
    <glyph glyph-name="N" unicode="N" horiz-adv-x="902" 
d="M801 714l-105 22q0 -11 -0.5 -48.5t-1 -89.5t-1 -114t-1 -122.5t-1 -114t-0.5 -89.5q-29 34 -75.5 87.5t-101 115t-111 125.5t-105 119t-84 95t-47.5 55h-26q-1 -26 -3.5 -75.5t-6 -113.5t-9 -136.5t-12.5 -144.5q-7 -65 -15 -125t-15 -111t-12.5 -90t-6.5 -60l111 19
q-1 14 0 25t3 25q9 78 18 155.5t14 155.5q7 83 8.5 159t1.5 124q32 -38 81 -93.5t104 -118t112 -125.5t105 -117t82.5 -93t44.5 -52h26q1 67 3.5 143.5t5.5 153.5t6 150.5t5.5 134.5t5 105.5t3.5 63.5z" />
    <glyph glyph-name="O" unicode="O" 
d="M808 375q0 85 -26 151.5t-72 112.5t-108 70t-135 24q-93 0 -168 -33.5t-128.5 -90.5t-82 -133t-28.5 -162q0 -69 23.5 -131.5t68 -110.5t109 -76.5t146.5 -28.5q75 0 134 19t103.5 51t75.5 74t50.5 87t28.5 91t9 86zM710 370q0 -74 -22.5 -133t-62 -101t-93 -64.5
t-114.5 -22.5q-64 0 -112.5 23t-81.5 61t-50 88.5t-17 106.5q0 64 20.5 122.5t59 103t94 71t124.5 26.5q55 0 102 -19.5t81.5 -56t53.5 -88.5t19 -117h-1z" />
    <glyph glyph-name="P" unicode="P" horiz-adv-x="614" 
d="M557 532q0 41 -15.5 68t-43 45t-65.5 29t-82 21q-27 6 -56 10t-56 7t-51 4t-41 1v-28t0.5 -46.5t1 -55t1 -54t0.5 -44.5v-24v-110v-48t-0.5 -66.5t-0.5 -75.5t-0.5 -74.5t-1 -64t-1.5 -43.5h99q-2 15 -2.5 40t-1 50.5t-0.5 46.5v30v157q67 13 125 30t100.5 42.5
t66.5 62.5t24 90zM457 522q0 -36 -14 -56.5t-43 -34.5q-37 -17 -78.5 -24.5t-80.5 -15.5v239q79 -5 123 -19t65 -31t25 -33t4 -25h-1z" />
    <glyph glyph-name="Q" unicode="Q" 
d="M822 -150q-10 7 -15 9t-11 2l-15 1q-37 2 -81.5 10t-76.5 25q-15 8 -26.5 18.5t-21 22t-18.5 24t-20 24.5q75 22 126.5 67t84 99.5t46.5 113.5t14 109q0 85 -26 151.5t-72 112.5t-108 70t-135 24q-93 0 -168 -33.5t-128.5 -90.5t-82 -133t-28.5 -162q0 -53 14 -102.5
t41 -92t66 -75.5t90 -52q9 -6 16 -7.5t16 -3.5q21 -7 44 -9.5t47 -3.5q28 -6 45.5 -14t31 -18.5t26.5 -25t31 -33.5q23 -25 49.5 -40.5t55 -24.5t59.5 -13.5t64 -7.5q5 -1 8.5 -0.5t5.5 -0.5l24 7zM710 370q0 -65 -20 -123.5t-57.5 -102.5t-92.5 -69.5t-124 -24.5
q-28 6 -53 9t-38 5q-41 14 -72.5 40.5t-52.5 61t-32 76t-11 86.5q0 64 20.5 122.5t59 103t94 71t124.5 26.5q55 0 102 -19.5t81.5 -56t53.5 -88.5t19 -117h-1z" />
    <glyph glyph-name="R" unicode="R" horiz-adv-x="685" 
d="M715 -43q-81 103 -167 202t-167 202q33 9 65.5 25t58.5 37.5t42 49.5t16 61q0 45 -22.5 76.5t-58.5 51.5t-82 31.5t-92.5 16.5t-90 6t-74.5 1q1 -9 2 -31t2 -49.5t2 -58t1.5 -58t0.5 -48.5v-28v-82q0 -5 -2.5 -34.5t-6 -71t-7.5 -89.5t-8 -91.5t-7.5 -76.5t-5.5 -44h105
q-2 16 -1.5 39t2.5 47.5t4.5 48t4.5 39.5q3 29 5.5 57.5t4.5 52.5l3.5 42t1.5 25v329q73 -3 117 -16t66.5 -30.5t29.5 -36.5t7 -33q0 -26 -19.5 -42.5t-52.5 -27.5q-19 -7 -37 -12l-36 -10t-35.5 -10.5t-35.5 -14.5q9 -12 30 -39l49 -63t61 -79t66.5 -86t65 -84t57 -74
t42 -54.5t20.5 -26.5z" />
    <glyph glyph-name="S" unicode="S" horiz-adv-x="508" 
d="M477 711l-24 87q-37 -9 -77.5 -28t-80.5 -44t-76.5 -55t-64 -61.5t-44 -64t-16.5 -61.5q0 -28 11.5 -51t31 -42t44.5 -35t53 -31q33 -17 55 -30.5t35 -26.5t18 -26.5t5 -31.5q0 -20 -14 -43.5t-36.5 -47t-52.5 -45.5t-61.5 -41t-63.5 -33t-59 -20l30 -83q73 20 138 59
t113.5 86t76.5 96.5t28 89.5t-19 68.5t-47 50t-61.5 38t-61.5 33.5t-47 35.5t-19 44.5q0 18 14.5 39.5t38.5 44t54.5 44t62.5 39t62.5 30t53.5 16.5z" />
    <glyph glyph-name="T" unicode="T" horiz-adv-x="638" 
d="M660 623v92q-25 -2 -70.5 -4t-91.5 -3t-82.5 -1.5t-43.5 -0.5h-87h-22q-18 0 -45.5 0.5t-60.5 1.5t-64.5 2t-59 2t-43.5 3v-92q18 0 47.5 1t68 2t82.5 1.5t91 0.5v-151v-89q0 -48 -0.5 -99t-1 -101t-1 -92t-2 -72t-2.5 -41h108q-2 15 -3.5 63t-2.5 115t-2 145.5t-1 154.5
v167q37 0 82 -0.5t86.5 -1.5t74 -2t46.5 -1z" />
    <glyph glyph-name="U" unicode="U" horiz-adv-x="823" 
d="M792 777l-107 -17q0 -12 -8 -54.5t-22 -101t-31 -125.5t-34.5 -127t-33 -106.5t-25.5 -64.5q-9 -15 -20.5 -37t-25.5 -42t-31 -34.5t-38 -14.5q-24 0 -42.5 7t-33.5 21t-29 36t-29 51q-9 17 -20.5 63t-23.5 105t-23.5 125t-20.5 123.5t-13.5 99t-3.5 53.5l-110 -29
q0 -7 4 -33.5t11.5 -66t17.5 -89t21 -101t23.5 -102.5t24.5 -95t23 -76.5t21 -47.5q28 -43 54 -69t51 -39.5t48.5 -17.5t45.5 -4q26 0 50 12t46.5 33t44.5 49t44 60q16 23 36.5 77.5t42 123.5t42.5 145t37.5 141t26.5 111.5t10 57.5z" />
    <glyph glyph-name="V" unicode="V" horiz-adv-x="736" 
d="M754 689l-81 76q-5 -13 -24.5 -55.5t-47 -101t-60.5 -127t-64.5 -134.5t-59 -122.5t-43.5 -91.5q-15 42 -41.5 114.5t-63.5 153.5q-29 63 -60 124.5t-57 112.5q-17 31 -38 69.5t-32 72.5l-101 -27q9 -19 31 -60t51.5 -96.5t62 -120t62.5 -129.5q39 -86 74.5 -172
t70.5 -174q6 -16 11.5 -28.5t11.5 -23.5h22q7 15 25 51.5t43 86.5l55 110t61.5 121.5t62 121.5t56.5 110.5t45 87t28 51.5z" />
    <glyph glyph-name="W" unicode="W" horiz-adv-x="1082" 
d="M1051 726l-112 -17q-3 -13 -12.5 -47t-22.5 -81t-27 -103.5t-27 -113.5q-15 -69 -24.5 -132.5t-17.5 -105.5q-15 34 -36 79.5t-44.5 95.5t-47.5 101.5t-46.5 98.5t-41 85t-30.5 62h-22q-10 -18 -29.5 -54.5t-44.5 -83.5t-53 -101t-55.5 -106.5t-52.5 -100.5t-43 -83
q-9 37 -21.5 91t-26 116t-28 126t-27.5 120.5t-24 100t-18 64.5l-89 -40q11 -27 24 -70.5t27 -97.5t28.5 -115t29.5 -123q15 -63 29 -122t26 -109q12 -51 22.5 -88.5t19.5 -61.5h24q5 10 23 46.5t44 88.5t57 113.5t61 122t56.5 113.5t43.5 88q15 -34 40.5 -88t54.5 -116
t59.5 -127t57 -121.5t46 -99t27.5 -59.5h26q2 10 9.5 55.5t19.5 112.5t27.5 147.5t33.5 160.5q14 65 30 125.5t30.5 110.5t27 87t19.5 56z" />
    <glyph glyph-name="X" unicode="X" horiz-adv-x="747" 
d="M715 27q-16 18 -39 46t-50.5 60.5t-56 66.5t-54.5 65t-47.5 56t-33.5 39q20 24 56.5 65.5t77 86t77.5 85t58 64.5l-70 68q-10 -13 -28 -35t-41 -49.5t-49 -58.5t-51 -60.5t-47.5 -55.5t-38.5 -45q-15 19 -36 45.5t-44.5 56t-47.5 60t-45 57.5t-37.5 49t-24.5 34l-73 -67
q22 -29 56.5 -71t70.5 -85.5t68.5 -82t51.5 -60.5q-14 -16 -37 -43.5t-51 -60.5t-58.5 -69t-57.5 -68t-48.5 -58t-32.5 -39l69 -66q5 8 23.5 31.5t44 55t55 68.5t57.5 71.5t52 64.5t38 47q15 -18 39 -47t51.5 -63t56.5 -69.5t54 -67t44 -55t27 -33.5z" />
    <glyph glyph-name="Y" unicode="Y" horiz-adv-x="673" 
d="M700 652l-32 85q-30 -10 -60.5 -25.5t-59 -34.5t-52.5 -40t-42 -40q-35 -38 -63 -81t-48 -99q-16 55 -40 104t-52 98q-15 26 -28.5 49.5t-30 44t-37.5 38t-49 31.5l-43 -82q49 -22 77.5 -61.5t48.5 -83.5q20 -42 38.5 -82.5t32.5 -81t22.5 -83.5t8.5 -91v-75
q0 -5 -0.5 -24.5t-1 -44.5l-1 -50t-1.5 -40h102q-2 14 -3 36t-1.5 43t-1 38.5t-0.5 22.5v94q0 72 23.5 141.5t65.5 127.5t100.5 101.5t127.5 64.5z" />
    <glyph glyph-name="Z" unicode="Z" horiz-adv-x="675" 
d="M707 -3q-26 -3 -49.5 -1t-56.5 7q-32 5 -72 10.5t-83 12.5l-72 10t-69.5 9.5t-63 8t-51.5 5.5q19 27 56.5 79.5t83 116t95.5 132t94 129t79 107t50 65.5l-11 21h-22q-10 0 -38.5 1t-68 3t-85 4t-88.5 4t-78.5 4t-54.5 3l-27 -85q18 0 58.5 -1t87.5 -2.5t94.5 -3
t80.5 -2.5q-17 -23 -43.5 -59.5t-59.5 -82t-70 -96.5l-74 -102t-71.5 -99t-63.5 -87t-49 -66.5t-28 -37.5l10 -21q9 0 38 -3.5t71 -9t92.5 -13t103.5 -14.5q53 -8 103 -15.5t91 -13.5q39 -5 67.5 -9t42.5 -4z" />
    <glyph glyph-name="bracketleft" unicode="[" horiz-adv-x="350" 
d="M339 722l-7 82l-228 -25q4 -102 4.5 -193t0.5 -182v-82q0 -100 -0.5 -202t-4.5 -214l235 -9l-5 81l-134 1q-2 98 -2 185v172v128v119t2 130z" />
    <glyph glyph-name="backslash" unicode="\" horiz-adv-x="490" 
d="M467 160q-18 24 -38 47t-43.5 53t-52 69.5t-64.5 96.5q-32 51 -54.5 90t-39.5 70.5t-31 58t-28 52.5l-89 -69q16 -23 35.5 -48.5t42 -56.5t48.5 -69.5t56 -86.5q36 -57 62.5 -97.5t47 -72t36.5 -56.5t31 -50z" />
    <glyph glyph-name="bracketright" unicode="]" horiz-adv-x="350" 
d="M246 -79q-4 102 -4.5 193t-0.5 182v82q0 100 0.5 202t4.5 214l-235 9l5 -81l134 -1q2 -98 2 -185v-172v-128v-119t-2 -130l-139 -9l7 -82z" />
    <glyph glyph-name="underscore" unicode="_" horiz-adv-x="500" 
d="M517 -270v84h-534v-84h534z" />
    <glyph glyph-name="grave" unicode="`" horiz-adv-x="850" 
d="M504 786l-158 121l-55 -81l178 -96z" />
    <glyph glyph-name="a" unicode="a" horiz-adv-x="777" 
d="M812 -38q-21 34 -54.5 95.5t-73.5 137t-83 158.5t-83 159.5t-73.5 140t-53.5 100.5h-22q-6 -12 -31 -63t-60.5 -123t-77 -156t-80 -163t-70.5 -143t-49 -96l73 -72q6 13 19.5 41.5t31 65t36.5 77t36.5 77t31.5 65.5t21 43l263 12q8 -15 26.5 -49.5t41.5 -78t48.5 -91.5
t48.5 -90.5t40.5 -76t25.5 -46.5zM474 396l-184 -9q7 17 18.5 42t23.5 52t24.5 54t22.5 49q10 -20 22.5 -45.5t26 -51.5t25.5 -50t21 -41z" />
    <glyph glyph-name="b" unicode="b" horiz-adv-x="624" 
d="M548 228q0 31 -12 56t-31.5 44.5t-45 33t-52.5 22.5q29 17 45.5 36.5t24.5 39.5q9 22 10.5 41t1.5 42q0 29 -4 54.5t-25 48.5q-22 24 -62 38t-85.5 21.5t-90.5 9.5t-78 2q2 -15 3.5 -49.5t2 -72t0.5 -70.5v-44v-111v-34v-64q0 -37 -0.5 -81t-1 -85.5t-1 -76t-1.5 -53.5
l35 3q45 2 89.5 4t85.5 9t76 21t61 40.5t40.5 69t14.5 105.5zM392 532q0 -20 -7.5 -41.5t-25 -40t-47 -31.5t-72.5 -14v232q35 -2 63 -6.5t48 -16t31 -31t11 -51.5h-1zM447 222q0 -54 -17 -84t-45.5 -45.5t-66 -21t-78.5 -9.5v269q53 0 92 -9t64.5 -24.5t38 -35t12.5 -40.5z
" />
    <glyph glyph-name="c" unicode="c" horiz-adv-x="649" 
d="M638 -19l-11 87q-40 -9 -75 -12.5t-64 -3.5q-93 0 -157.5 11.5t-104.5 39t-57.5 74.5t-17.5 118q0 108 31.5 171.5t89 98.5t139 50t181.5 28l-17 92q-133 -25 -231.5 -54t-164 -77.5t-97.5 -125.5t-32 -198q0 -92 21.5 -152t71.5 -96t132 -50.5t203 -14.5q45 0 85 3.5
t75 10.5z" />
    <glyph glyph-name="d" unicode="d" horiz-adv-x="830" 
d="M782 432q0 29 -11 65.5t-43 72.5t-89.5 67.5t-150.5 51.5q-41 9 -86 14.5t-90 8.5t-87.5 4t-78.5 1q1 -12 1.5 -35.5t1 -52.5t1 -60t0.5 -58v-47v-24v-124v-30v-55t-0.5 -69.5t-0.5 -72.5t-0.5 -64.5t-1.5 -45.5q50 -1 101.5 -2t103 1t102 10.5t98.5 27.5q49 19 91 52
t73 83t48.5 119t17.5 162zM681 412q0 -78 -16 -133.5t-45 -92.5t-69 -59t-88.5 -34t-104.5 -17t-115 -7v563q439 -6 439 -220h-1z" />
    <glyph glyph-name="e" unicode="e" horiz-adv-x="568" 
d="M555 33l-5 94q-34 -8 -78 -18t-87.5 -18.5t-81.5 -15t-60 -8.5v245q20 1 51.5 4l63 6t58 5.5t37.5 2.5l-3 90q-22 -5 -50.5 -9.5t-57.5 -8t-55 -7t-44 -4.5v247q20 -1 53.5 -4.5t68 -7t65 -6.5t45.5 -3l-4 92q-23 -3 -68 -2t-96 3t-96 4.5t-66 2.5q1 -10 2 -34t1.5 -55.5
t1 -65.5t1 -63.5t0.5 -50.5v-24v-134v-26v-48t-0.5 -61.5t-1 -65.5t-1 -60t-1.5 -46q10 0 31.5 2t49.5 6t61 8t66 9q34 5 66.5 9t58.5 8t43.5 6t31.5 2z" />
    <glyph glyph-name="f" unicode="f" horiz-adv-x="447" 
d="M426 737q-140 -3 -229 -97.5t-109 -271.5q-3 -24 -6.5 -61t-7.5 -79t-8 -84.5t-7 -78.5t-5 -61.5t-2 -32.5v-58l102 -42v108q0 21 2.5 57.5t5.5 77t6 80.5t5 69q19 1 47 4.5t59 7.5t61.5 6.5t53.5 2.5l5 86q-56 -4 -110.5 -13t-110.5 -12q6 64 19.5 115.5t39.5 89
t69 60.5t108 31z" />
    <glyph glyph-name="g" unicode="g" horiz-adv-x="739" 
d="M712 668l-23 92q-147 0 -265.5 -28.5t-201.5 -87.5t-127.5 -150.5t-44.5 -217.5q0 -67 27 -123.5t77 -98t120.5 -64.5t156.5 -23q77 0 134.5 11t94.5 24q0 10 -0.5 28t-1 38.5l-1 41t-0.5 34.5v61v19v18t0.5 19.5t1.5 25.5h-98q2 -29 3 -55.5t1 -66.5v-102
q-25 -6 -56 -9.5t-65 -3.5q-75 0 -130.5 19.5t-92 51.5t-54 72.5t-17.5 81.5q0 112 40 187t113.5 121t177.5 65.5t231 19.5z" />
    <glyph glyph-name="h" unicode="h" horiz-adv-x="926" 
d="M784 -61q-1 9 -2 37t-2 65t-2 78.5t-1.5 79t-1 65.5t-0.5 38v122q0 6 0.5 27t1 50t1 62.5t1.5 64t2 55t2 34.5h-105q1 -10 1.5 -30t1 -45t1 -51.5t0.5 -49.5v-40v-20v-52l-439 -36v67v16t-0.5 31.5t-1 41t-0.5 45.5q-1 47 -1.5 88.5t1.5 62.5h-105q1 -11 2.5 -38.5t3 -63
t3.5 -74.5t3 -72.5t2 -57t1 -27.5v-108v-29q0 -21 -0.5 -52t-0.5 -67q0 -35 -0.5 -68t-1 -61.5t-1.5 -43.5h100q-1 10 -1 31t-0.5 47t-1 55t-1 55.5t-0.5 47.5v33v60l440 36v-97v-31q0 -22 0.5 -52t0.5 -65v-67t-1 -58t-2 -39h103z" />
    <glyph glyph-name="i" unicode="i" horiz-adv-x="393" 
d="M249 717h-104q1 -11 2 -36t1.5 -57.5t1 -68t1 -66t0.5 -52.5v-25v-108v-29q0 -21 -0.5 -52t-0.5 -67q0 -35 -0.5 -68t-1 -61.5t-1.5 -43.5h100q-1 15 -1.5 53t-1 84.5t-1 95t-0.5 86.5v108q0 45 0.5 93t1 91t1.5 76t3 47z" />
    <glyph glyph-name="j" unicode="j" horiz-adv-x="402" 
d="M284 717h-104q1 -11 2 -32.5t1.5 -48.5t1 -56t1 -54t0.5 -43v-21v-166q0 -65 -15.5 -109t-42.5 -74.5t-62.5 -50.5t-75.5 -36l44 -81q40 17 83.5 41t79.5 63t59 98t23 147v166v85q0 41 1 74.5t1.5 58.5t2.5 39z" />
    <glyph glyph-name="k" unicode="k" horiz-adv-x="690" 
d="M702 -25q-14 14 -39 37t-56.5 52.5t-66.5 63.5t-68 70q-23 25 -44.5 51t-39.5 48.5t-32 41t-23 30.5q32 34 61.5 68.5t64.5 65.5q24 22 49.5 41t49 36.5t44.5 33t37 29.5l-40 94q-19 -19 -39.5 -34.5t-41.5 -31.5q-67 -51 -124 -106.5t-113 -118.5q-17 -19 -34 -39.5
t-36 -37.5q11 -12 30 -35.5t43.5 -53t53 -63.5t59.5 -67q40 -43 81.5 -86t76.5 -79t60.5 -62t33.5 -35zM257 -47q-1 10 -2.5 35.5t-3 58.5t-3 71t-3 74.5t-2 67.5t-0.5 50v108q0 33 0.5 82l1 98t1 87.5t1.5 50.5l-104 18q0 -11 0.5 -34.5t1.5 -55t2 -67t2 -70.5t1.5 -66
t0.5 -53v-106q0 -43 -0.5 -93t-1 -96t-1 -83t-1.5 -53z" />
    <glyph glyph-name="l" unicode="l" horiz-adv-x="520" 
d="M507 11v94q-38 -6 -77.5 -12t-75 -11t-65 -9t-46.5 -6v288q0 47 0.5 103.5t1.5 109t2 93.5t3 56h-104q1 -10 1.5 -34t1 -55.5t1 -65.5t0.5 -64v-50v-24v-133v-48t-0.5 -88t-2 -97t-4.5 -75q10 0 39 2t67 5t80 7t79 7t64 5t35 2z" />
    <glyph glyph-name="m" unicode="m" horiz-adv-x="1082" 
d="M1051 -9q-11 27 -23.5 70.5t-26.5 97.5t-29 115t-30 123q-14 63 -28 122t-26 109q-13 51 -23.5 88.5t-19.5 61.5h-23q-5 -10 -23 -46.5t-44 -88.5t-57 -113.5t-61 -122t-56.5 -113.5t-43.5 -88q-16 34 -41 88t-54.5 116t-60 127t-57 121.5t-46 99t-26.5 59.5h-26
q-2 -10 -10 -55.5t-20 -112.5t-27 -147.5t-33 -160.5q-15 -65 -30.5 -125.5t-30.5 -110.5t-27.5 -87t-19.5 -56l112 17q3 13 12.5 47t22.5 81t27 103.5t27 113.5q15 69 25 132.5t18 105.5q15 -34 36 -79.5t44.5 -95.5t47.5 -102t46.5 -98.5t41 -85t30.5 -62.5h22
q10 18 29.5 55t44 84t53 101t56 106.5t52.5 100.5t43 83q9 -37 21.5 -91t26 -116t28 -126t27.5 -120.5t23.5 -100t17.5 -64.5z" />
    <glyph glyph-name="n" unicode="n" horiz-adv-x="902" 
d="M801 714l-105 22q0 -11 -0.5 -48.5t-1 -89.5t-1 -114t-1 -122.5t-1 -114t-0.5 -89.5q-29 34 -75.5 87.5t-101 115t-111 125.5t-105 119t-84 95t-47.5 55h-26q-1 -26 -3.5 -75.5t-6 -113.5t-9 -136.5t-12.5 -144.5q-7 -65 -15 -125t-15 -111t-12.5 -90t-6.5 -60l111 19
q-1 14 0 25t3 25q9 78 18 155.5t14 155.5q7 83 8.5 159t1.5 124q32 -38 81 -93.5t104 -118t112 -125.5t105 -117t82.5 -93t44.5 -52h26q1 67 3.5 143.5t5.5 153.5t6 150.5t5.5 134.5t5 105.5t3.5 63.5z" />
    <glyph glyph-name="o" unicode="o" 
d="M808 375q0 85 -26 151.5t-72 112.5t-108 70t-135 24q-93 0 -168 -33.5t-128.5 -90.5t-82 -133t-28.5 -162q0 -69 23.5 -131.5t68 -110.5t109 -76.5t146.5 -28.5q75 0 134 19t103.5 51t75.5 74t50.5 87t28.5 91t9 86zM710 370q0 -74 -22.5 -133t-62 -101t-93 -64.5
t-114.5 -22.5q-64 0 -112.5 23t-81.5 61t-50 88.5t-17 106.5q0 64 20.5 122.5t59 103t94 71t124.5 26.5q55 0 102 -19.5t81.5 -56t53.5 -88.5t19 -117h-1z" />
    <glyph glyph-name="p" unicode="p" horiz-adv-x="614" 
d="M557 532q0 41 -15.5 68t-43 45t-65.5 29t-82 21q-27 6 -56 10t-56 7t-51 4t-41 1v-28t0.5 -46.5t1 -55t1 -54t0.5 -44.5v-24v-110v-48t-0.5 -66.5t-0.5 -75.5t-0.5 -74.5t-1 -64t-1.5 -43.5h99q-2 15 -2.5 40t-1 50.5t-0.5 46.5v30v157q67 13 125 30t100.5 42.5
t66.5 62.5t24 90zM457 522q0 -36 -14 -56.5t-43 -34.5q-37 -17 -78.5 -24.5t-80.5 -15.5v239q79 -5 123 -19t65 -31t25 -33t4 -25h-1z" />
    <glyph glyph-name="q" unicode="q" 
d="M809 -119q-11 5 -16 6t-12 0l-14 -1q-37 -5 -83 -5q-45 0 -79 11q-27 9 -45 24.5t-35.5 31.5t-39.5 30.5t-58 21.5l-3 -32q72 2 128 22t99 52.5t72.5 73.5t48.5 85.5t27.5 89.5t8.5 84q0 85 -26 151.5t-72 112.5t-108 70t-135 24q-93 0 -168 -33.5t-128.5 -90.5t-82 -133
t-28.5 -162q0 -51 13.5 -99.5t39 -90.5t63 -75t85.5 -54l-3 -1l-21 -68q13 -5 22 -6t20 0q34 2 72 3t70 -8q36 -11 60.5 -32.5t53.5 -40.5q24 -15 51 -22.5t55.5 -10t57.5 -1.5t56 3q5 0 8 1t6 1l22 10zM710 370q0 -74 -22.5 -133t-62 -101t-93 -64.5t-114.5 -22.5
q-64 0 -112.5 23t-81.5 61t-50 88.5t-17 106.5q0 64 20.5 122.5t59 103t94 71t124.5 26.5q55 0 102 -19.5t81.5 -56t53.5 -88.5t19 -117h-1z" />
    <glyph glyph-name="r" unicode="r" horiz-adv-x="685" 
d="M716 -43q-82 103 -167.5 202t-167.5 202q33 9 65.5 25t58.5 37.5t42 49.5t16 61q0 45 -22.5 76.5t-58.5 51.5t-81.5 31.5t-92.5 16.5t-90 6t-75 1q1 -9 2.5 -31t2.5 -49.5t1.5 -58t1 -58t0.5 -48.5v-28v-82q0 -5 -2.5 -34.5t-6 -71t-7.5 -89.5t-8 -91.5t-7.5 -76.5
t-5.5 -44h105q-2 16 -1 39t3 47.5t4.5 48t4.5 39.5q3 29 5.5 57.5t4.5 52.5t3 42t1 25v329q73 -3 117 -16t66.5 -30.5t29.5 -36.5t7 -33q0 -26 -19 -42.5t-53 -27.5q-37 -14 -72.5 -22t-71.5 -25q9 -12 30 -39l49 -63t61 -79t66.5 -86t65 -84t57 -74t42 -54.5t20.5 -26.5z
" />
    <glyph glyph-name="s" unicode="s" horiz-adv-x="508" 
d="M477 711l-24 87q-37 -9 -77.5 -28t-80.5 -44t-76.5 -55t-64 -61.5t-44 -64t-16.5 -61.5q0 -28 11.5 -51t31 -42t44.5 -35t53 -31q33 -17 55 -30.5t35 -26.5t18 -26.5t5 -31.5q0 -20 -14 -43.5t-36.5 -47t-52.5 -45.5t-61.5 -41t-63.5 -33t-59 -20l30 -83q73 20 138 59
t113.5 86t76.5 96.5t28 89.5t-19 68.5t-47 50t-61.5 38t-61.5 33.5t-47 35.5t-19 44.5q0 18 14.5 39.5t38.5 44t54.5 44t62.5 39t62.5 30t53.5 16.5z" />
    <glyph glyph-name="t" unicode="t" horiz-adv-x="638" 
d="M660 623v92q-25 -2 -70.5 -4t-91.5 -3t-82.5 -1.5t-43.5 -0.5h-87h-22q-18 0 -45.5 0.5t-60.5 1.5t-64.5 2t-59 2t-43.5 3v-92q18 0 47.5 1t68 2t82.5 1.5t91 0.5v-151v-89q0 -48 -0.5 -99t-1 -101t-1 -92t-2 -72t-2.5 -41h108q-2 15 -3.5 63t-2.5 115t-2 145.5t-1 154.5
v167q37 0 82 -0.5t86.5 -1.5t74 -2t46.5 -1z" />
    <glyph glyph-name="u" unicode="u" horiz-adv-x="823" 
d="M792 777l-107 -17q0 -12 -8 -54.5t-22 -101t-31 -125.5t-34.5 -127t-33 -106.5t-25.5 -64.5q-9 -15 -20.5 -37t-25.5 -42t-31 -34.5t-38 -14.5q-24 0 -42.5 7t-33.5 21t-29 36t-29 51q-9 17 -20.5 63t-23.5 105t-23.5 125t-20.5 123.5t-13.5 99t-3.5 53.5l-110 -29
q0 -7 4 -33.5t11.5 -66t17.5 -89t21 -101t23.5 -102.5t24.5 -95t23 -76.5t21 -47.5q28 -43 54 -69t51 -39.5t48.5 -17.5t45.5 -4q26 0 50 12t46.5 33t44.5 49t44 60q16 23 36.5 77.5t42 123.5t42.5 145t37.5 141t26.5 111.5t10 57.5z" />
    <glyph glyph-name="v" unicode="v" horiz-adv-x="736" 
d="M754 689l-81 76q-5 -13 -24.5 -55.5t-47 -101t-60.5 -127t-64.5 -134.5t-59 -122.5t-43.5 -91.5q-16 42 -42 114.5t-63 153.5q-29 63 -60 124.5t-57 112.5q-17 31 -38 69.5t-32 72.5l-101 -27q9 -19 31 -60t51 -96.5t62 -120t63 -129.5q39 -86 74 -172t70 -174
q7 -16 12.5 -28.5t10.5 -23.5h22q7 15 25 51.5t43 86.5t55.5 110t61.5 121.5t62 121.5t57 110.5t45 87t28 51.5z" />
    <glyph glyph-name="w" unicode="w" horiz-adv-x="1082" 
d="M1051 726l-112 -17q-3 -13 -12.5 -47t-22.5 -81t-27 -103.5t-27 -113.5q-15 -69 -24.5 -132.5t-17.5 -105.5q-15 34 -36 79.5t-44.5 95.5t-47.5 101.5t-46.5 98.5t-41 85t-30.5 62h-22q-10 -18 -29.5 -54.5t-44.5 -83.5t-53 -101t-55.5 -106.5t-52.5 -100.5t-43 -83
q-9 37 -21.5 91t-26 116t-28 126t-27.5 120.5t-24 100t-18 64.5l-89 -40q11 -27 24 -70.5t27 -97.5t28.5 -115t29.5 -123q15 -63 29 -122t26 -109q12 -51 22.5 -88.5t19.5 -61.5h24q5 10 23 46.5t44 88.5t57 113.5t61 122t56.5 113.5t43.5 88q15 -34 40.5 -88t54.5 -116
t59.5 -127t57 -121.5t46 -99t27.5 -59.5h26q2 10 9.5 55.5t19.5 112.5t27.5 147.5t33.5 160.5q14 65 30 125.5t30.5 110.5t27 87t19.5 56z" />
    <glyph glyph-name="x" unicode="x" horiz-adv-x="747" 
d="M715 27q-16 18 -39 46t-50.5 60.5t-56 66.5t-54.5 65t-47.5 56t-33.5 39q20 24 56.5 65.5t77 86t77.5 85t58 64.5l-70 68q-10 -13 -28 -35t-41 -49.5t-49 -58.5t-51 -60.5t-47.5 -55.5t-38.5 -45q-15 19 -36 45.5t-44.5 56t-47.5 60t-45 57.5t-37.5 49t-24.5 34l-73 -67
q22 -29 56.5 -71t70.5 -85.5t68.5 -82t51.5 -60.5q-14 -16 -37 -43.5t-51 -60.5t-58.5 -69t-57.5 -68t-48.5 -58t-32.5 -39l69 -66q5 8 23.5 31.5t44 55t55 68.5t57.5 71.5t52 64.5t38 47q15 -18 39 -47t51.5 -63t56.5 -69.5t54 -67t44 -55t27 -33.5z" />
    <glyph glyph-name="y" unicode="y" horiz-adv-x="673" 
d="M700 652l-32 85q-30 -10 -60.5 -25.5t-59 -34.5t-52.5 -40t-42 -40q-35 -38 -63 -81t-48 -99q-16 55 -40 104t-52 98q-15 26 -28.5 49.5t-30 44t-37.5 38t-49 31.5l-43 -82q49 -22 77.5 -61.5t48.5 -83.5q20 -42 38.5 -82.5t32.5 -81t22.5 -83.5t8.5 -91v-75
q0 -5 -0.5 -24.5t-1 -44.5l-1 -50t-1.5 -40h102q-2 14 -3 36t-1.5 43t-1 38.5t-0.5 22.5v94q0 72 23.5 141.5t65.5 127.5t100.5 101.5t127.5 64.5z" />
    <glyph glyph-name="z" unicode="z" horiz-adv-x="675" 
d="M707 -3q-26 -3 -49.5 -1t-56.5 7q-32 5 -72 10.5t-83 12.5l-72 10t-69.5 9.5t-63 8t-51.5 5.5q19 27 56.5 79.5t83 116t95.5 132t94 129t79 107t50 65.5l-11 21h-22q-10 0 -38.5 1t-68 3t-85 4t-88.5 4t-78.5 4t-54.5 3l-27 -85q18 0 58.5 -1t87.5 -2.5t94.5 -3
t80.5 -2.5q-17 -23 -43.5 -59.5t-59.5 -82t-70 -96.5l-74 -102t-71.5 -99t-63.5 -87t-49 -66.5t-28 -37.5l10 -21q9 0 38 -3.5t71 -9t92.5 -13t103.5 -14.5q53 -8 103 -15.5t91 -13.5q39 -5 67.5 -9t42.5 -4z" />
    <glyph glyph-name="braceleft" unicode="{" horiz-adv-x="350" 
d="M334 730l-42 73q-41 -20 -71 -44t-49.5 -58.5t-30 -82.5t-12.5 -115q-1 -39 -7.5 -61.5t-19.5 -34t-32 -15t-45 -3.5v-74q26 0 44.5 -3t31 -15t19 -36.5t8.5 -67.5q2 -71 12.5 -120.5t29 -83.5t46 -56t63.5 -40l47 72q-30 12 -50.5 34.5t-33 53t-18.5 67t-6 76.5
q0 117 -59 160q29 23 44 61.5t16 82.5q1 46 6 82t17.5 64t34.5 48.5t57 35.5z" />
    <glyph glyph-name="bar" unicode="|" horiz-adv-x="393" 
d="M249 817h-104q1 -11 2 -43.5t1.5 -76t1 -92t1 -90t0.5 -70.5v-33v-108v-36t-0.5 -71t-0.5 -90t-0.5 -93t-1 -80.5t-1.5 -50.5h100q-1 10 -1 38t-0.5 66.5t-1 83t-1 87.5t-0.5 81v63v108v69t0.5 81l1 84t1 77.5t1.5 61t2 34.5z" />
    <glyph glyph-name="braceright" unicode="}" horiz-adv-x="350" 
d="M325 308v74q-26 0 -44.5 2.5t-31 14.5t-19.5 36.5t-8 68.5q-2 70 -12.5 119t-29.5 83t-46.5 56t-63.5 40l-45 -72q30 -12 50 -34.5t32.5 -53t18.5 -67t6 -76.5q0 -112 59 -157q-30 -24 -42 -56t-16.5 -67.5t-6 -72.5t-10.5 -70.5t-31.5 -62t-67.5 -47.5l40 -74
q41 20 71 44t50 58.5t30.5 83t12.5 116.5q1 39 7.5 61.5t19.5 34t32 15t45 3.5z" />
    <glyph glyph-name="asciitilde" unicode="~" horiz-adv-x="887" 
d="M902 663l-64 35h-16l-16 -32.5t-42 -84t-58 -116t-63.5 -128t-59.5 -120t-46 -91.5q-16 34 -41 88t-54.5 116t-60 127t-57 121.5t-46 99t-26.5 59.5h-26q-2 -10 -10 -55.5t-20 -112.5t-27 -147.5t-33 -160.5q-15 -65 -30.5 -125.5t-30.5 -110.5t-27.5 -87t-19.5 -56
l112 17q3 13 12.5 47t22.5 81t27 103.5t27 113.5q15 69 25 132.5t18 105.5q15 -34 36 -79.5t44.5 -95.5t47.5 -102t46.5 -98.5t41 -85t30.5 -62.5h22q9 17 33.5 64t57 110.5t70 136.5t72.5 141.5t64.5 126t46.5 90.5t18 35z" />
    <glyph glyph-name="quotesinglbase" unicode="&#x201a;" horiz-adv-x="160" 
d="M163 89l-93 47l-78 -215l61 -30z" />
    <glyph glyph-name="florin" unicode="&#x192;" horiz-adv-x="447" 
d="M419 642l-19 94q-64 -14 -117 -39.5t-93 -69t-66 -107t-36 -152.5q-3 -24 -5 -55.5t-3 -64.5t-1.5 -66t-1 -60.5t-0.5 -47.5v-27v-64h93v100q0 42 0.5 87t2.5 92q18 1 42.5 2t51.5 2t53.5 1.5t49.5 0.5l5 86q-24 -2 -51 -3.5t-53 -3t-50 -2.5t-43 -1q1 8 1.5 17t2.5 20
q12 84 37 133.5t57.5 76.5t69.5 36.5t73 14.5z" />
    <glyph glyph-name="quotedblbase" unicode="&#x201e;" horiz-adv-x="305" 
d="M301 77l-83 60l-103 -192l56 -37zM169 89l-92 47l-80 -214l61 -31z" />
    <glyph glyph-name="ellipsis" unicode="&#x2026;" horiz-adv-x="999" 
d="M890 -17v116h-115v-116h115zM556 -17v116h-114v-116h114zM223 -17v116h-114v-116h114z" />
    <glyph glyph-name="circumflex" unicode="&#x2c6;" horiz-adv-x="850" 
d="M585 795l-155 116l-165 -118l49 -61l113 86l104 -86z" />
    <glyph glyph-name="Scaron" unicode="&#x160;" horiz-adv-x="508" 
d="M477 711l-24 87q-37 -9 -77.5 -28t-80.5 -44t-76.5 -55t-64 -61.5t-44 -64t-16.5 -61.5q0 -28 11.5 -51t31 -42t44.5 -35t53 -31q33 -17 55 -30.5t35 -26.5t18 -26.5t5 -31.5q0 -20 -14 -43.5t-36.5 -47t-52.5 -45.5t-61.5 -41t-63.5 -33t-59 -20l30 -83q73 20 138 59
t113.5 86t76.5 96.5t28 89.5t-19 68.5t-47 50t-61.5 38t-61.5 33.5t-47 35.5t-19 44.5q0 18 14.5 39.5t38.5 44t54.5 44t62.5 39t62.5 30t53.5 16.5zM404 852l-52 61l-108 -85l-107 85l-54 -63l159 -115z" />
    <glyph glyph-name="guilsinglleft" unicode="&#x2039;" horiz-adv-x="300" 
d="M271 190q-19 19 -39 40t-39.5 41t-36.5 38t-29 31q33 42 70 79.5t72 77.5l-58 63q-17 -23 -42.5 -53.5t-53 -62t-53.5 -61t-42 -49.5q15 -16 41.5 -44t55 -58.5t54.5 -59t40 -45.5z" />
    <glyph glyph-name="OE" unicode="&#x152;" horiz-adv-x="1133" 
d="M1078 11l-4 90q-71 -3 -140 -15t-140 -19v246l218 17l-3 87q-17 -2 -45.5 -5.5t-60.5 -7.5t-61.5 -7.5t-47.5 -5.5v245l242 -30l-5 95q-19 -3 -63.5 -1t-98.5 6q-53 4 -100 7.5t-70 3.5l2 -92q-45 55 -108 81.5t-130 26.5q-94 0 -169 -34t-127 -91.5t-79.5 -133.5
t-27.5 -159q0 -64 22 -126.5t65.5 -111.5t107.5 -79.5t147 -30.5q103 0 178 41t122 101q-1 -46 -1 -75q0 -28 -1 -51q9 0 37.5 2t67 5t82 6.5t82.5 6.5t68.5 5.5t40.5 2.5zM704 357q0 -67 -23 -123.5t-63 -97.5t-92.5 -64t-110.5 -23q-64 0 -112 23.5t-80.5 62.5t-49 89.5
t-16.5 104.5q0 57 19 114.5t56 103.5t92.5 75t127.5 29q54 0 100.5 -19.5t80.5 -55t53 -85.5t19 -111z" />
    <glyph glyph-name="quoteleft" unicode="&#x2018;" horiz-adv-x="160" 
d="M168 524l-78 215l-93 -47l110 -198z" />
    <glyph glyph-name="quoteright" unicode="&#x2019;" horiz-adv-x="160" 
d="M163 692l-93 47l-78 -215l61 -30z" />
    <glyph glyph-name="quotedblleft" unicode="&#x201c;" horiz-adv-x="305" 
d="M308 525l-81 214l-92 -47l114 -198zM192 547l-105 193l-84 -60l132 -169z" />
    <glyph glyph-name="quotedblright" unicode="&#x201d;" horiz-adv-x="305" 
d="M301 680l-83 60l-103 -192l56 -37zM169 692l-92 47l-80 -214l61 -31z" />
    <glyph glyph-name="bullet" unicode="&#x2022;" horiz-adv-x="300" 
d="M249 332q-24 28 -43 57.5t-39 60.5q-26 -20 -51.5 -35.5t-61.5 -34.5q9 -17 16.5 -32.5t14.5 -31.5t14.5 -33.5t16.5 -39.5q18 12 32.5 22.5t29.5 21t32 21t39 24.5z" />
    <glyph glyph-name="endash" unicode="&#x2013;" horiz-adv-x="500" 
d="M517 297v86q-13 0 -44 -0.5t-64 -1t-61.5 -1t-36.5 -0.5h-120h-35q-23 0 -52.5 0.5t-61.5 1t-59 1.5v-85q24 2 57.5 2.5t64.5 0.5h56h30h120h41h61t61.5 -1t42.5 -3z" />
    <glyph glyph-name="emdash" unicode="&#x2014;" horiz-adv-x="1000" 
d="M1017 297v86q-13 0 -45.5 -0.5t-75 -1t-91 -1t-94.5 -0.5h-420q-97 0 -175.5 0.5t-132.5 2.5v-85q24 2 59 2.5t76 0.5h85h88h420h98h91t73 -1t44 -3z" />
    <glyph glyph-name="tilde" unicode="&#x2dc;" horiz-adv-x="850" 
d="M604 847l-62 44q-15 -31 -27 -42t-23 -12q-17 0 -31.5 6.5t-30.5 15t-33.5 15t-39.5 6.5q-32 0 -59.5 -28t-50.5 -67l59 -41q17 29 30 41.5t24 12.5q15 0 30 -6.5t31 -14.5t34 -14.5t39 -6.5q32 0 59.5 26.5t50.5 64.5z" />
    <glyph glyph-name="trademark" unicode="&#x2122;" horiz-adv-x="672" 
d="M669 368q-6 15 -16 45t-22.5 66.5t-25.5 76.5t-24.5 75t-20.5 61.5t-13 37.5h-23q-6 -14 -16 -37t-21 -50.5t-22 -56t-21 -53.5q-9 26 -20.5 57.5t-22.5 60.5t-20 53t-13 35h-25q-4 -11 -13 -40.5t-21.5 -68.5t-26 -82t-26 -81.5t-22 -67t-13.5 -38.5l74 -25q4 11 11 34
t15.5 52t18.5 61.5t19 63.5q14 -40 30 -84.5t35 -93.5h24q17 40 38 89t39 94q9 -27 19 -58t19 -60.5t17 -54.5t13 -39zM304 636v85q-15 -2 -37.5 -2.5t-44 -1t-38.5 -0.5h-20h-38h-19t-40 0.5t-46.5 1t-37.5 2.5v-83q23 3 56 4.5t65 1.5v-48q0 -26 -0.5 -64t-0.5 -75
q0 -36 -0.5 -66.5t-0.5 -41.5h85q0 10 -0.5 35.5t-1.5 60t-1.5 74t-0.5 76.5v49q14 0 31.5 -0.5t34 -1.5t31.5 -2.5t25 -3.5h-1z" />
    <glyph glyph-name="scaron" unicode="&#x161;" horiz-adv-x="508" 
d="M477 711l-24 87q-37 -9 -77.5 -28t-80.5 -44t-76.5 -55t-64 -61.5t-44 -64t-16.5 -61.5q0 -28 11.5 -51t31 -42t44.5 -35t53 -31q33 -17 55 -30.5t35 -26.5t18 -26.5t5 -31.5q0 -20 -14 -43.5t-36.5 -47t-52.5 -45.5t-61.5 -41t-63.5 -33t-59 -20l30 -83q73 20 138 59
t113.5 86t76.5 96.5t28 89.5t-19 68.5t-47 50t-61.5 38t-61.5 33.5t-47 35.5t-19 44.5q0 18 14.5 39.5t38.5 44t54.5 44t62.5 39t62.5 30t53.5 16.5zM404 852l-52 61l-108 -85l-107 85l-54 -63l159 -115z" />
    <glyph glyph-name="guilsinglright" unicode="&#x203a;" horiz-adv-x="300" 
d="M280 352q-15 16 -41.5 44t-55 58.5t-54.5 59t-40 46.5l-59 -67l38.5 -38.5t39.5 -40t36.5 -37.5t29.5 -31q-11 -14 -28.5 -33.5t-37.5 -41t-40.5 -43t-38.5 -39.5l61 -62q16 22 42 52.5t53 62t52.5 61t42.5 49.5z" />
    <glyph glyph-name="oe" unicode="&#x153;" horiz-adv-x="1133" 
d="M1078 11l-4 90q-71 -3 -140 -15t-140 -19v246l218 17l-3 87q-17 -2 -45.5 -5.5t-60.5 -7.5t-61.5 -7.5t-47.5 -5.5v245l242 -30l-5 95q-19 -3 -63.5 -1t-98.5 6q-53 4 -100 7.5t-70 3.5l2 -92q-45 55 -108 81.5t-130 26.5q-94 0 -169 -34t-127 -91.5t-79.5 -133.5
t-27.5 -159q0 -64 22 -126.5t65.5 -111.5t107.5 -79.5t147 -30.5q103 0 178 41t122 101q-1 -46 -1 -75q0 -28 -1 -51q9 0 37.5 2t67 5t82 6.5t82.5 6.5t68.5 5.5t40.5 2.5zM704 357q0 -67 -23 -123.5t-63 -97.5t-92.5 -64t-110.5 -23q-64 0 -112 23.5t-80.5 62.5t-49 89.5
t-16.5 104.5q0 57 19 114.5t56 103.5t92.5 75t127.5 29q54 0 100.5 -19.5t80.5 -55t53 -85.5t19 -111z" />
    <glyph glyph-name="Ydieresis" unicode="&#x178;" horiz-adv-x="673" 
d="M569 759l-73 74l-76 -74l76 -74zM373 759l-73 74l-76 -74l76 -74zM700 652l-32 85q-30 -10 -60.5 -25.5t-59 -34.5t-52.5 -40t-42 -40q-35 -38 -63 -81t-48 -99q-16 55 -40 104t-52 98q-15 26 -28.5 49.5t-30 44t-37.5 38t-49 31.5l-43 -82q49 -22 77.5 -61.5t48.5 -83.5
q20 -42 38.5 -82.5t32.5 -81t22.5 -83.5t8.5 -91v-75q0 -5 -0.5 -24.5t-1 -44.5l-1 -50t-1.5 -40h102q-2 14 -3 36t-1.5 43t-1 38.5t-0.5 22.5v94q0 72 23.5 141.5t65.5 127.5t100.5 101.5t127.5 64.5z" />
    <glyph glyph-name="exclamdown" unicode="&#xa1;" horiz-adv-x="300" 
d="M217 603v114h-113v-115zM198 509l-74 -11q-4 -59 -9 -132.5t-11 -145.5t-12 -135t-10 -102l112 -5q-2 47 -1 112.5t2 138t2 145.5t1 135z" />
    <glyph glyph-name="cent" unicode="&#xa2;" horiz-adv-x="507" 
d="M466 122l-10 84q-29 -5 -49 -7.5t-42 -2.5q-43 0 -79.5 10.5t-63.5 30t-42 47t-15 61.5q0 33 16 68t50 65.5t87.5 54t127.5 33.5l-18 90q-35 -7 -61.5 -14t-46.5 -15l3 143h-86l2 -180q-38 -21 -69 -49t-54 -60.5t-35.5 -69t-12.5 -74.5q0 -29 10.5 -60t32 -59t53.5 -51
t75 -36l-2 -164h86l-3 146q9 -1 19 -1h22q23 0 48 1t57 9z" />
    <glyph glyph-name="sterling" unicode="&#xa3;" horiz-adv-x="557" 
d="M506 644l-22 92q-83 -18 -139.5 -49.5t-94 -78t-59 -108.5t-33.5 -141q-25 -2 -53.5 -3t-63.5 -3l2 -82q34 2 57 3t45 3q-11 -71 -25 -143t-38 -151q18 0 52 -0.5t76 -1t87.5 -1t86 -1t72.5 -1t46 -0.5v92q-91 -3 -170 -4t-138 -1q13 48 24.5 107t19.5 112q51 3 104 5
t98 4l2 86q-38 -3 -87.5 -6.5t-102.5 -7.5q2 8 2.5 14t1.5 12q12 72 34 118t53 73.5t72 41t91 20.5z" />
    <glyph glyph-name="currency" unicode="&#xa4;" horiz-adv-x="649" 
d="M658 -19l-11 87q-40 -9 -75 -12.5t-64 -3.5q-92 0 -156 11t-103.5 38t-58 72.5t-18.5 113.5q36 -4 76 -9.5t81.5 -9.5t81.5 -4.5t75 7.5q14 3 21.5 4.5t22.5 1.5l-8 78q-12 0 -16 -0.5t-6 -1.5q-22 -7 -43 -11t-44 -4q-60 0 -119 11.5t-118 19.5q1 5 1.5 9t0.5 8
q35 -4 74.5 -9.5t80 -9.5t79.5 -4t74 8q14 3 21.5 4.5t22.5 1.5l-8 78q-12 0 -16 -0.5t-6 -1.5q-22 -7 -43 -11t-44 -4q-53 0 -105.5 9.5t-105.5 17.5q22 49 60 79.5t89.5 49t117 29t143.5 20.5l-17 92q-101 -19 -181.5 -39t-142 -49t-104 -70t-66.5 -102q-12 -1 -23 -4
t-20 -6q-8 -3 -12 -5t-7.5 -3t-8.5 -1.5t-14 -0.5l13 -88q9 0 14 0.5t9.5 1.5t9 3.5t11.5 5.5l4 2l-1 -25l-11 4t-16 2l-13 -5h-20l13 -89q14 0 22.5 2t19.5 8q0 -90 21.5 -150t72 -95.5t132 -50t201.5 -14.5q45 0 85 3.5t75 10.5z" />
    <glyph glyph-name="currency" unicode="&#x20ac;" horiz-adv-x="649" 
d="M658 -19l-11 87q-40 -9 -75 -12.5t-64 -3.5q-92 0 -156 11t-103.5 38t-58 72.5t-18.5 113.5q36 -4 76 -9.5t81.5 -9.5t81.5 -4.5t75 7.5q14 3 21.5 4.5t22.5 1.5l-8 78q-12 0 -16 -0.5t-6 -1.5q-22 -7 -43 -11t-44 -4q-60 0 -119 11.5t-118 19.5q1 5 1.5 9t0.5 8
q35 -4 74.5 -9.5t80 -9.5t79.5 -4t74 8q14 3 21.5 4.5t22.5 1.5l-8 78q-12 0 -16 -0.5t-6 -1.5q-22 -7 -43 -11t-44 -4q-53 0 -105.5 9.5t-105.5 17.5q22 49 60 79.5t89.5 49t117 29t143.5 20.5l-17 92q-101 -19 -181.5 -39t-142 -49t-104 -70t-66.5 -102q-12 -1 -23 -4
t-20 -6q-8 -3 -12 -5t-7.5 -3t-8.5 -1.5t-14 -0.5l13 -88q9 0 14 0.5t9.5 1.5t9 3.5t11.5 5.5l4 2l-1 -25l-11 4t-16 2l-13 -5h-20l13 -89q14 0 22.5 2t19.5 8q0 -90 21.5 -150t72 -95.5t132 -50t201.5 -14.5q45 0 85 3.5t75 10.5z" />
    <glyph glyph-name="yen" unicode="&#xa5;" horiz-adv-x="601" 
d="M603 678l-80 50q-20 -33 -46.5 -77.5t-56.5 -94t-61.5 -101t-59.5 -97.5q-26 43 -54.5 91.5t-56.5 97t-55 95t-49 87.5l-82 -54q22 -35 51.5 -82.5t60.5 -99l62 -103t58 -94.5q-48 0 -84.5 0.5t-65.5 1.5l3 -83q32 1 71 1.5t92 0.5v-65q0 -5 -0.5 -26.5t-1.5 -47.5
t-1.5 -52.5t-0.5 -42.5h97q-1 15 -1.5 38t-1 45.5t-1 41t-0.5 24.5v85q53 0 93.5 -0.5t71.5 -1.5l-3 83q-31 -1 -66.5 -1.5t-80.5 -0.5q30 45 65 99.5t69 107.5t64.5 99t50.5 76z" />
    <glyph glyph-name="brokenbar" unicode="&#xa6;" horiz-adv-x="1082" 
d="M852 698h-30l-16 -32.5t-42 -84t-58 -116t-63.5 -128t-59.5 -120t-46 -91.5q-16 34 -41 88t-54.5 116t-60 127t-57 121.5t-46 99t-26.5 59.5h-26q-2 -10 -10 -55.5t-20 -112.5t-27 -147.5t-33 -160.5q-15 -65 -30.5 -125.5t-30.5 -110.5t-27.5 -87t-19.5 -56l112 17
q3 13 12.5 47t22.5 81t27 103.5t27 113.5q15 69 25 132.5t18 105.5q15 -34 36 -79.5t44.5 -95.5t47.5 -102t46.5 -98.5t41 -85t30.5 -62.5h22q11 20 37 70t59.5 113.5t69 131.5t65.5 125t49 93.5l19 36.5z" />
    <glyph glyph-name="dieresis" unicode="&#xa8;" horiz-adv-x="850" 
d="M518 749l-3 56q-28 -7 -55.5 -13t-44.5 -8v58q16 1 36.5 3t33.5 2l-3 54q-21 -5 -37.5 -7t-29.5 -3v57q20 -2 38.5 -4.5t38.5 -2.5l-2 54q-32 -3 -64.5 -0.5t-64.5 2.5q0 -9 0.5 -26t0.5 -35q0 -17 0.5 -31t0.5 -16v-44v-16v-30t-0.5 -35.5t-1.5 -31.5q15 0 36.5 3
t44.5 6l41 5q8 1 14.5 2t20.5 1z" />
    <glyph glyph-name="copyright" unicode="&#xa9;" 
d="M808 355q0 82 -28 151.5t-77.5 119.5t-117 78.5t-146.5 28.5t-148 -30t-120.5 -82t-81 -123t-29.5 -153q0 -80 29 -149t79 -120t117 -80t144 -29q79 0 148 30t120.5 82t81 123t29.5 153zM722 351q0 -63 -21 -119t-59 -98t-92 -67t-120 -25q-60 0 -112.5 25.5t-90.5 68
t-60 98.5t-22 117q0 63 21 118.5t60 97.5t93.5 66.5t120.5 24.5q60 0 112 -25t90 -67.5t59.5 -98t21.5 -116.5h-1zM566 169l-9 79q-26 -6 -42 -8.5t-30 -2.5q-45 0 -73.5 10t-45 24.5t-23 32t-6.5 32.5q0 24 13 48.5t39 46t65 36.5t91 19l-12 82q-75 -13 -128.5 -39
t-88 -58.5t-50.5 -69.5t-16 -73q0 -9 6.5 -36t29.5 -56.5t69 -52.5t125 -23q23 0 43 2t43 7z" />
    <glyph glyph-name="ordfeminine" unicode="&#xaa;" horiz-adv-x="461" 
d="M451 368q-16 25 -44 73t-58.5 103t-60.5 108t-50 87h-20q-8 -12 -23 -40.5t-34 -64.5t-40 -77t-41 -78.5t-36.5 -68t-26.5 -46.5l75 -42q14 26 26.5 53.5t26.5 53.5l167 5q5 -8 13.5 -22.5t18 -30.5t18 -32t13.5 -28zM276 506l-95 -3q10 19 22.5 45.5t23.5 49.5
q12 -23 25.5 -48t23.5 -44z" />
    <glyph glyph-name="guillemotleft" unicode="&#xab;" horiz-adv-x="470" 
d="M428 499l-59 60q-17 -22 -42.5 -52.5t-52.5 -62t-53 -61t-42 -49.5q15 -16 41.5 -44t55 -58.5t54.5 -59t40 -45.5l58 63q-19 19 -39 40t-39 41t-36 37.5t-29 31.5q10 12 25 28t32 35q20 23 42 46.5t44 49.5zM270 199q-17 17 -35 36l-36 38t-33.5 36t-27.5 30q30 37 62 71
t64 69l-60 57q-13 -17 -35 -42.5t-46.5 -54t-48 -56.5t-40.5 -48q15 -17 39 -42.5t49.5 -53.5t49.5 -54.5t39 -44.5z" />
    <glyph glyph-name="logicalnot" unicode="&#xac;" horiz-adv-x="1354" 
d="M1390 382l-140 81v-59h-283l52 58t55 55q24 22 51 42.5t52.5 40t48.5 37t40 32.5l-56 79q-17 -18 -37 -33l-40 -30q-67 -51 -124 -106.5t-113 -118.5q-10 -11 -19 -21.5t-19 -21.5v15q0 33 0.5 82l1 98t1 87.5t1.5 50.5l-104 18q0 -17 0.5 -24t0.5 -13l-27 -54l-38.5 -77
t-45.5 -91.5t-48.5 -97t-47 -94.5t-40.5 -82l-1 639h61l-81 140l-81 -140h57l1 -640q-19 41 -44.5 95t-52.5 111.5t-54 115.5t-50 107t-39.5 85.5t-23.5 51.5h-26q-2 -10 -10 -55.5t-20 -112.5t-27 -147.5t-33 -160.5q-15 -65 -30.5 -125.5t-30.5 -110.5t-27.5 -87
t-19.5 -55l112 16q3 13 12.5 47t22.5 81t27 103.5t27 114.5q15 69 25 132t18 105q15 -34 36 -79.5t44.5 -95.5t47.5 -101.5t46.5 -98.5t41 -85.5t30.5 -61.5h22q9 16 27.5 51.5t43.5 82t53 100t55 106t51.5 99t41.5 78.5q1 -35 1 -66v-52v-106v-93t-0.5 -95.5t-0.5 -81.5
v-49l-1 6v-205h-60l81 -140l81 140h-58v182l65 -12q-1 10 -2.5 35t-3 58.5t-3 71.5t-3 74t-2 67t-0.5 50v20q29 -34 69 -82.5t85 -97.5q40 -43 81 -86t76.5 -78.5t60 -60.5t31.5 -33l68 70q-15 15 -42 40.5t-60.5 57t-70 67t-69.5 71.5q-38 42 -69.5 81.5t-51.5 66.5h284
v-59l70 41z" />
    <glyph glyph-name="registered" unicode="&#xae;" 
d="M808 355q0 82 -28 151.5t-77.5 119.5t-117 78.5t-146.5 28.5t-148 -30t-120.5 -82t-81 -123t-29.5 -153q0 -80 29 -149t79 -120t117 -80t144 -29q79 0 148 30t120.5 82t81 123t29.5 153zM722 351q0 -63 -21 -119t-59 -98t-92 -67t-120 -25q-60 0 -112.5 25.5t-90.5 68
t-60 98.5t-22 117q0 63 21 118.5t60 97.5t93.5 66.5t120.5 24.5q60 0 112 -25t90 -67.5t59.5 -98t21.5 -116.5h-1zM620 206q-11 12 -26.5 30.5t-32.5 39t-32.5 39.5t-25.5 32q27 20 45 45.5t18 58.5q0 28 -15 47t-38.5 30t-53 16.5t-59 7.5t-56.5 1.5t-44 -0.5
q1 -11 1.5 -32.5t1 -44.5t0.5 -42v-25v-41v-32v-60t-0.5 -64t-1.5 -42h86q0 9 -0.5 34t-1 52.5t-1 51.5t-0.5 31v142q35 0 54.5 -5.5t28.5 -12.5t11 -14t2 -10q0 -14 -7.5 -25.5t-19.5 -21t-27 -18t-29 -15.5q6 -9 19 -26.5t29 -38.5t33 -43.5t32 -42.5t26 -34.5t14 -19.5z
" />
    <glyph glyph-name="macron" unicode="&#xaf;" horiz-adv-x="850" 
d="M578 838l-294 -3l-14 -75l301 -5z" />
    <glyph glyph-name="plusminus" unicode="&#xb1;" horiz-adv-x="1380" 
d="M700 0v700h-700v-700h700zM643 182l-14 -25q-2 1 -12 11.5t-25 25.5t-33 33.5t-35 37.5q-14 15 -26.5 29.5t-22.5 27t-17.5 22t-10.5 12.5q2 2 13.5 13t28 26.5t36 34t36 34.5t29 27.5t15.5 14.5l11 -27q-11 -9 -29.5 -26t-39 -35t-38.5 -35t-28 -26q5 -6 23 -30t42 -50
q15 -16 30 -31t28.5 -28t23.5 -22.5t15 -13.5zM447 146l-26 -11q0 13 -1 50.5t-2.5 84t-3 92.5t-2.5 76q-9 -18 -27 -53t-37 -72t-35.5 -69t-22.5 -44h-1q-8 16 -24.5 50.5t-34 72t-33.5 72t-23 50.5l-2 -10q-3 -16 -8 -48t-13 -68q-6 -25 -12 -49.5t-11.5 -45t-9.5 -34.5
t-5 -18l-32 -4q1 4 6 17.5t11 34.5t13 47.5t13 55.5q8 35 14.5 70.5t12 64.5t8.5 48t3 21h1q3 -7 12.5 -27.5t22.5 -48.5t28 -59.5t28.5 -60t24 -51t14.5 -31.5q5 10 16 32.5t25 50.5l29 58t27.5 55.5t21.5 43t11 21.5h1q3 -9 6.5 -36t6 -63t4.5 -77t3.5 -78.5t2 -67
t0.5 -42.5z" />
    <glyph glyph-name="twosuperior" unicode="&#xb2;" horiz-adv-x="390" 
d="M381 292l-229 24q25 20 52.5 45t49.5 53.5t36.5 60.5t14.5 67q0 72 -16.5 109t-47.5 52.5t-74 16.5t-95 1l-16 -64q37 -3 69.5 -0.5t56.5 -4.5t37.5 -32t13.5 -82q0 -37 -24.5 -73.5t-59 -69.5t-73 -60.5l-66.5 -47.5l7 -28h74q32 0 71.5 -5.5t77.5 -13.5q28 -5 56 -12
t57 -9z" />
    <glyph glyph-name="threesuperior" unicode="&#xb3;" horiz-adv-x="375" 
d="M301 416q0 35 -20.5 57t-49.5 35q23 17 40.5 41.5t17.5 55.5q0 51 -21.5 78t-53.5 38q-31 11 -64.5 11.5t-65.5 0.5l-12 -65q27 0 42 0.5t27 -1.5q34 -2 55.5 -15.5t21.5 -53.5q0 -13 -9 -26t-26 -23.5t-40.5 -17t-52.5 -6.5v-51q24 0 48.5 -2.5t44 -9.5t32 -19t12.5 -31
q0 -24 -16.5 -55t-42 -59.5t-57.5 -48t-63 -19.5l6 -65q48 2 92.5 29t79 65t55 81t20.5 76z" />
    <glyph glyph-name="acute" unicode="&#xb4;" horiz-adv-x="850" 
d="M586 826l-55 81l-165 -121l36 -55z" />
    <glyph glyph-name="mu" unicode="&#xb5;" horiz-adv-x="1082" 
d="M1059 -9q-13 33 -34.5 92t-47 130.5t-52 148t-50.5 144.5t-42.5 120.5t-27.5 75.5h-23q-5 -10 -21 -40t-38.5 -72.5t-49.5 -93t-53.5 -100t-50.5 -94.5t-40 -77q-14 31 -35 76t-45 96t-49 103.5t-46.5 98.5t-38 81.5t-23.5 52.5h-26q-2 -7 -11.5 -40t-24.5 -83
t-34 -112.5t-39.5 -127.5t-40.5 -128.5t-37 -116.5t-29.5 -90t-17.5 -50l90 -33q3 13 14 49.5t26 86.5t33.5 109.5t36 118.5t34 112.5t27.5 92.5q20 -46 49.5 -110.5t60.5 -130.5t60 -125.5t47 -95.5h22q10 18 27 50t38.5 72.5t45.5 85.5t48 89.5t45.5 85.5t38.5 73
q11 -34 28 -83t36.5 -105t40 -114t38 -109t31.5 -91.5t21 -61.5z" />
    <glyph glyph-name="paragraph" unicode="&#xb6;" horiz-adv-x="614" 
d="M539 717h-104q1 -11 2 -36t1.5 -57.5t1 -68t1 -66t0.5 -52.5v-25v-108v-36t-0.5 -71t-0.5 -90t-0.5 -93t-1 -80.5t-1.5 -50.5h100q-1 10 -1 38t-0.5 66.5t-1 83t-1 87.5t-0.5 81v63v108q0 45 0.5 93t1 91t1.5 76t3 47zM397 -117q-1 15 -1.5 51t-0.5 82q0 47 -0.5 99
t-0.5 99v85v56v110v24q0 19 0.5 44.5t0.5 53.5q0 29 0.5 55.5t0.5 46.5v28q-17 0 -41 -1t-51 -4t-56 -7t-56 -10q-44 -10 -82 -21t-65.5 -29t-43 -45t-15.5 -68q0 -53 24 -90t66.5 -62.5t100 -42.5t125.5 -30v-157v-24v-46q0 -26 -0.5 -56.5t-1 -58.5t-1 -50t-1.5 -32h99z
M302 391q-23 5 -43.5 8.5t-39.5 8.5q-24 6 -48 12.5t-43 19t-31 32t-12 50.5q0 9 4 25t25 33t65 31t123 19v-239z" />
    <glyph glyph-name="periodcentered" unicode="&#xb7;" horiz-adv-x="270" 
d="M194 276v119h-118v-120z" />
    <glyph glyph-name="periodcentered" unicode="&#x2219;" horiz-adv-x="270" 
d="M194 276v119h-118v-120z" />
    <glyph glyph-name="cedilla" unicode="&#xb8;" horiz-adv-x="850" 
d="M521 -128q0 29 -19 50.5t-44 32.5l43 62h-88l-63 -92q35 -11 58.5 -23.5t23.5 -32.5q-1 -17 -26 -31t-76 -18l14 -70q32 4 64 14.5t57 26t40.5 36.5t15.5 45z" />
    <glyph glyph-name="onesuperior" unicode="&#xb9;" horiz-adv-x="350" 
d="M224 272q-3 28 -2.5 69.5t0.5 105.5v80q0 12 0.5 43t0.5 65t0.5 63.5t0.5 38.5h-26q-8 -9 -28 -23.5t-43 -28t-44.5 -24t-32.5 -11.5l7 -60q24 5 50 12.5t47 16.5v-159q0 -30 -0.5 -58.5t-1.5 -51.5q-1 -24 -1 -43t2 -36z" />
    <glyph glyph-name="ordmasculine" unicode="&#xba;" horiz-adv-x="479" 
d="M442 546q0 44 -15 79t-40.5 59t-59 36.5t-71.5 12.5q-54 0 -94.5 -19.5t-68 -50.5t-41.5 -69t-14 -75t13 -70.5t37 -59t57.5 -41t74.5 -15.5q61 0 103.5 21.5t69 54t38 69.5t11.5 68zM351 543q0 -60 -33.5 -97.5t-90.5 -37.5q-22 0 -40.5 9.5t-31.5 26t-20.5 37.5
t-7.5 44q0 24 7 47.5t21.5 42.5t36.5 31t52 12q46 0 77 -32t31 -83h-1z" />
    <glyph glyph-name="guillemotright" unicode="&#xbb;" horiz-adv-x="470" 
d="M436 347q-15 16 -39 42t-49.5 54t-49.5 54.5t-39 44.5l-59 -59q16 -17 34.5 -36t36.5 -38t33.5 -36t27.5 -30q-30 -37 -62 -71t-64 -69l60 -57q13 16 35 42t46.5 54.5t48 56.5t40.5 48zM291 352q-15 16 -41.5 44t-55 58.5t-54.5 59t-40 45.5l-58 -63q19 -19 39 -40
t39 -41t36 -38t29 -31q-34 -42 -71 -80t-72 -79l59 -60q16 22 42 52.5t53 62t52.5 61t42.5 49.5z" />
    <glyph glyph-name="questiondown" unicode="&#xbf;" horiz-adv-x="430" 
d="M326 603v114h-113v-115zM403 46q-50 9 -96.5 23t-82 35.5t-57 51t-21.5 69.5q0 37 17 68t44 56.5t60 44.5t65 32l-36 78q-32 -15 -74.5 -40.5t-81 -62.5t-65.5 -85t-27 -108q0 -50 29.5 -91t77 -72t106.5 -52t118 -32z" />
    <glyph glyph-name="Agrave" unicode="&#xc0;" horiz-adv-x="777" 
d="M787 10q-21 35 -53 93.5t-69.5 128.5t-77 146.5t-76.5 147t-68.5 130.5t-51.5 97h-22q-5 -9 -22.5 -43t-44 -85t-59.5 -114t-68.5 -130.5t-70.5 -134.5t-65.5 -125.5t-54.5 -104.5t-37 -71l85 -47q6 12 21.5 43.5t36 72.5t44 87.5t45 88.5t38.5 75.5t25 48.5l274 12
q7 -14 22 -43t33.5 -66l38.5 -77t38 -76.5t32 -64.5t21 -40zM477 404l-194 -9l20 40t25.5 50.5t26.5 53t24 47.5q10 -20 23.5 -44.5t27 -49.5t26 -48.5t21.5 -39.5zM447 798l-158 121l-55 -81l178 -96z" />
    <glyph glyph-name="Aacute" unicode="&#xc1;" horiz-adv-x="777" 
d="M787 10q-21 35 -53 93.5t-69.5 128.5t-77 146.5t-76.5 147t-68.5 130.5t-51.5 97h-22q-5 -9 -22.5 -43t-44 -85t-59.5 -114t-68.5 -130.5t-70.5 -134.5t-65.5 -125.5t-54.5 -104.5t-37 -71l85 -47q6 12 21.5 43.5t36 72.5t44 87.5t45 88.5t38.5 75.5t25 48.5l274 12
q7 -14 22 -43t33.5 -66l38.5 -77t38 -76.5t32 -64.5t21 -40zM477 404l-194 -9l20 40t25.5 50.5t26.5 53t24 47.5q10 -20 23.5 -44.5t27 -49.5t26 -48.5t21.5 -39.5zM489 838l-55 81l-165 -121l36 -55z" />
    <glyph glyph-name="Acircumflex" unicode="&#xc2;" horiz-adv-x="777" 
d="M787 10q-21 35 -53 93.5t-69.5 128.5t-77 146.5t-76.5 147t-68.5 130.5t-51.5 97h-22q-5 -9 -22.5 -43t-44 -85t-59.5 -114t-68.5 -130.5t-70.5 -134.5t-65.5 -125.5t-54.5 -104.5t-37 -71l85 -47q6 12 21.5 43.5t36 72.5t44 87.5t45 88.5t38.5 75.5t25 48.5l274 12
q7 -14 22 -43t33.5 -66l38.5 -77t38 -76.5t32 -64.5t21 -40zM477 404l-194 -9l20 40t25.5 50.5t26.5 53t24 47.5q10 -20 23.5 -44.5t27 -49.5t26 -48.5t21.5 -39.5zM513 795l-155 116l-165 -118l49 -61l113 86l104 -86z" />
    <glyph glyph-name="Atilde" unicode="&#xc3;" horiz-adv-x="777" 
d="M787 10q-21 35 -53 93.5t-69.5 128.5t-77 146.5t-76.5 147t-68.5 130.5t-51.5 97h-22q-5 -9 -22.5 -43t-44 -85t-59.5 -114t-68.5 -130.5t-70.5 -134.5t-65.5 -125.5t-54.5 -104.5t-37 -71l85 -47q6 12 21.5 43.5t36 72.5t44 87.5t45 88.5t38.5 75.5t25 48.5l274 12
q7 -14 22 -43t33.5 -66l38.5 -77t38 -76.5t32 -64.5t21 -40zM477 404l-194 -9l20 40t25.5 50.5t26.5 53t24 47.5q10 -20 23.5 -44.5t27 -49.5t26 -48.5t21.5 -39.5zM537 847l-62 44q-15 -31 -27 -42t-23 -12q-17 0 -31.5 6.5t-30.5 15t-33.5 15t-39.5 6.5q-32 0 -59.5 -28
t-50.5 -67l59 -41q17 29 30 41.5t24 12.5q15 0 30 -6.5t31 -14.5t34 -14.5t39 -6.5q32 0 59.5 26.5t50.5 64.5z" />
    <glyph glyph-name="Adieresis" unicode="&#xc4;" horiz-adv-x="777" 
d="M717 521l-3 56q-28 -7 -55.5 -13t-44.5 -8v58q16 1 36.5 3t33.5 2l-3 54q-21 -5 -37.5 -7t-29.5 -3v57q20 -2 38.5 -4.5t38.5 -2.5l-2 54q-32 -3 -64.5 -0.5t-64.5 2.5q0 -9 0.5 -26t0.5 -35q0 -17 0.5 -31t0.5 -16v-44v-16v-30t-0.5 -35.5t-1.5 -31.5q15 0 36.5 3
t44.5 6l41 5q8 1 14.5 2t20.5 1zM787 10q-21 35 -53 93.5t-69.5 128.5t-77 146.5t-76.5 147t-68.5 130.5t-51.5 97h-22q-5 -9 -22.5 -43t-44 -85t-59.5 -114t-68.5 -130.5t-70.5 -134.5t-65.5 -125.5t-54.5 -104.5t-37 -71l85 -47q6 12 21.5 43.5t36 72.5t44 87.5t45 88.5
t38.5 75.5t25 48.5l274 12q7 -14 22 -43t33.5 -66l38.5 -77t38 -76.5t32 -64.5t21 -40zM477 404l-194 -9l20 40t25.5 50.5t26.5 53t24 47.5q10 -20 23.5 -44.5t27 -49.5t26 -48.5t21.5 -39.5z" />
    <glyph glyph-name="Aring" unicode="&#xc5;" horiz-adv-x="777" 
d="M787 10q-21 35 -53 93.5t-69.5 128.5t-77 146.5t-76.5 147t-68.5 130.5t-51.5 97h-22q-5 -9 -22.5 -43t-44 -85t-59.5 -114t-68.5 -130.5t-70.5 -134.5t-65.5 -125.5t-54.5 -104.5t-37 -71l85 -47q6 12 21.5 43.5t36 72.5t44 87.5t45 88.5t38.5 75.5t25 48.5l274 12
q7 -14 22 -43t33.5 -66l38.5 -77t38 -76.5t32 -64.5t21 -40zM477 404l-194 -9l20 40t25.5 50.5t26.5 53t24 47.5q10 -20 23.5 -44.5t27 -49.5t26 -48.5t21.5 -39.5zM538 796q0 38 -30.5 65t-80.5 27q-20 0 -40.5 -7.5t-37 -21t-27 -33t-10.5 -43.5q-1 -23 8.5 -40.5
t25.5 -29.5t35 -18t38 -6q21 0 42 7t38.5 21t28 33.5t10.5 45.5zM461 791q0 -16 -10 -25.5t-27 -9.5t-26.5 9.5t-9.5 21.5q0 14 10.5 23.5t27.5 9.5q19 0 27.5 -9.5t8.5 -19.5h-1z" />
    <glyph glyph-name="AE" unicode="&#xc6;" horiz-adv-x="876" 
d="M861 19l-4 92q-80 -12 -159 -24t-159 -21v212q21 2 61 5.5t81.5 7.5t77 6.5t47.5 2.5l-3 88l-54 -6t-76 -9t-77 -9.5t-57 -6.5v281l21 -3q15 -2 33.5 -5t38.5 -5q38 -6 76.5 -11t62.5 -5l-3 93q-20 -4 -65 -2t-100 6q-26 2 -51.5 4t-47 3.5t-37.5 2.5t-22 1
q-14 -19 -40 -56.5t-59 -86t-71 -105t-76.5 -114t-75.5 -112.5t-68 -100.5t-54 -78t-33 -45.5l79 -61q6 12 20.5 36t33 53.5t39.5 63t40.5 64t36 56t25.5 40.5l206 3v-74q0 -25 -0.5 -56t-1.5 -62t-2 -57.5t-2 -42.5q9 0 40.5 2.5t73.5 7t90.5 9t92 9t76.5 7t46 2.5z
M447 352l-152 -3q12 18 29 44t37.5 57t42.5 66l44 70z" />
    <glyph glyph-name="Ccedilla" unicode="&#xc7;" horiz-adv-x="649" 
d="M638 -19l-11 87q-40 -9 -75 -12.5t-64 -3.5q-93 0 -157.5 11.5t-104.5 39t-57.5 74.5t-17.5 118q0 108 31.5 171.5t89 98.5t139 50t181.5 28l-17 92q-133 -25 -231.5 -54t-164 -77.5t-97.5 -125.5t-32 -198q0 -92 21.5 -152t71.5 -96t132 -50.5t203 -14.5q45 0 85 3.5
t75 10.5zM406 -128q0 29 -19 50.5t-44 32.5l43 62h-88l-63 -92q35 -11 58.5 -23.5t23.5 -32.5q-1 -17 -26 -31t-76 -18l14 -70q32 4 64 14.5t57 26t40.5 36.5t15.5 45z" />
    <glyph glyph-name="Egrave" unicode="&#xc8;" horiz-adv-x="568" 
d="M555 33l-5 94q-34 -8 -78 -18t-87.5 -18.5t-81.5 -15t-60 -8.5v245q20 1 51.5 4l63 6t58 5.5t37.5 2.5l-3 90q-22 -5 -50.5 -9.5t-57.5 -8t-55 -7t-44 -4.5v247q20 -1 53.5 -4.5t68 -7t65 -6.5t45.5 -3l-4 92q-23 -3 -68 -2t-96 3t-96 4.5t-66 2.5q1 -10 2 -34t1.5 -55.5
t1 -65.5t1 -63.5t0.5 -50.5v-24v-134v-26v-48t-0.5 -61.5t-1 -65.5t-1 -60t-1.5 -46q10 0 31.5 2t49.5 6t61 8t66 9q34 5 66.5 9t58.5 8t43.5 6t31.5 2zM386 796l-158 121l-55 -81l178 -96z" />
    <glyph glyph-name="Eacute" unicode="&#xc9;" horiz-adv-x="568" 
d="M555 33l-5 94q-34 -8 -78 -18t-87.5 -18.5t-81.5 -15t-60 -8.5v245q20 1 51.5 4l63 6t58 5.5t37.5 2.5l-3 90q-22 -5 -50.5 -9.5t-57.5 -8t-55 -7t-44 -4.5v247q20 -1 53.5 -4.5t68 -7t65 -6.5t45.5 -3l-4 92q-23 -3 -68 -2t-96 3t-96 4.5t-66 2.5q1 -10 2 -34t1.5 -55.5
t1 -65.5t1 -63.5t0.5 -50.5v-24v-134v-26v-48t-0.5 -61.5t-1 -65.5t-1 -60t-1.5 -46q10 0 31.5 2t49.5 6t61 8t66 9q34 5 66.5 9t58.5 8t43.5 6t31.5 2zM428 836l-55 81l-165 -121l36 -55z" />
    <glyph glyph-name="Ecircumflex" unicode="&#xca;" horiz-adv-x="568" 
d="M555 33l-5 94q-34 -8 -78 -18t-87.5 -18.5t-81.5 -15t-60 -8.5v245q20 1 51.5 4l63 6t58 5.5t37.5 2.5l-3 90q-22 -5 -50.5 -9.5t-57.5 -8t-55 -7t-44 -4.5v247q20 -1 53.5 -4.5t68 -7t65 -6.5t45.5 -3l-4 92q-23 -3 -68 -2t-96 3t-96 4.5t-66 2.5q1 -10 2 -34t1.5 -55.5
t1 -65.5t1 -63.5t0.5 -50.5v-24v-134v-26v-48t-0.5 -61.5t-1 -65.5t-1 -60t-1.5 -46q10 0 31.5 2t49.5 6t61 8t66 9q34 5 66.5 9t58.5 8t43.5 6t31.5 2zM457 795l-155 116l-165 -118l49 -61l113 86l104 -86z" />
    <glyph glyph-name="Edieresis" unicode="&#xcb;" horiz-adv-x="568" 
d="M489 795l-73 74l-76 -74l76 -74zM293 795l-73 74l-76 -74l76 -74zM555 32l-5 95q-34 -8 -78 -18t-87.5 -18.5t-81.5 -15t-60 -8.5v245q20 1 51.5 4l63 6t58 5.5t37.5 2.5l-3 90q-22 -5 -50.5 -9.5t-57.5 -8t-55 -7t-44 -4.5v247q20 -1 53.5 -4.5t68 -7t65 -6.5t45.5 -3
l-4 92q-23 -3 -68 -2t-96 3t-96 4.5t-66 2.5q1 -10 2 -34t1.5 -55.5t1 -65.5t1 -63.5t0.5 -50.5v-24v-134v-26v-48t-0.5 -61.5t-1 -65.5t-1 -60t-1.5 -46q10 0 31.5 2t49.5 6t61 8t66 9q34 5 66.5 9t58.5 8t43.5 6t31.5 2v-1z" />
    <glyph glyph-name="Igrave" unicode="&#xcc;" horiz-adv-x="393" 
d="M249 717h-104q1 -11 2 -36t1.5 -57.5t1 -68t1 -66t0.5 -52.5v-25v-108v-29q0 -21 -0.5 -52t-0.5 -67q0 -35 -0.5 -68t-1 -61.5t-1.5 -43.5h100q-1 15 -1.5 53t-1 84.5t-1 95t-0.5 86.5v108q0 45 0.5 93t1 91t1.5 76t3 47zM335 786l-158 121l-55 -81l178 -96z" />
    <glyph glyph-name="Iacute" unicode="&#xcd;" horiz-adv-x="393" 
d="M249 717h-104q1 -11 2 -36t1.5 -57.5t1 -68t1 -66t0.5 -52.5v-25v-108v-29q0 -21 -0.5 -52t-0.5 -67q0 -35 -0.5 -68t-1 -61.5t-1.5 -43.5h100q-1 15 -1.5 53t-1 84.5t-1 95t-0.5 86.5v108q0 45 0.5 93t1 91t1.5 76t3 47zM344 826l-55 81l-165 -121l36 -55z" />
    <glyph glyph-name="Icircumflex" unicode="&#xce;" horiz-adv-x="393" 
d="M249 717h-104q1 -11 2 -36t1.5 -57.5t1 -68t1 -66t0.5 -52.5v-25v-108v-29q0 -21 -0.5 -52t-0.5 -67q0 -35 -0.5 -68t-1 -61.5t-1.5 -43.5h100q-1 15 -1.5 53t-1 84.5t-1 95t-0.5 86.5v108q0 45 0.5 93t1 91t1.5 76t3 47zM442 795l-155 116l-165 -118l49 -61l113 86
l104 -86z" />
    <glyph glyph-name="Idieresis" unicode="&#xcf;" horiz-adv-x="393" 
d="M381 795l-73 74l-76 -74l76 -74zM185 795l-73 74l-76 -74l76 -74zM249 716h-104q1 -10 2 -35.5t1.5 -58t1 -67.5t1 -65.5t0.5 -52.5v-25v-108v-29q0 -21 -0.5 -52t-0.5 -67q0 -35 -0.5 -68t-1 -61.5t-1.5 -43.5h100q-1 15 -1.5 53t-1 84.5t-1 95t-0.5 86.5v108
q0 45 0.5 93t1 91t1.5 76t3 47v-1z" />
    <glyph glyph-name="Eth" unicode="&#xd0;" horiz-adv-x="830" 
d="M782 432q0 29 -11 65.5t-43 72.5t-89.5 67.5t-150.5 51.5q-41 9 -86 14.5t-90 8.5t-87.5 4t-78.5 1q1 -12 1.5 -35.5t1 -52.5t1 -60t0.5 -58v-47v-24v-54q-25 -2 -49 -3t-53 -2l2 -83q29 2 53 3.5t47 3.5v-40v-56t-0.5 -65.5t-1 -66.5t-1 -58t-0.5 -40q54 -1 103.5 -0.5
t100.5 5.5q98 9 177.5 38t136 83t87 134.5t30.5 192.5zM681 412q0 -100 -25.5 -161t-79.5 -97t-136.5 -54t-196.5 -30v240q45 3 91 5.5t99 4.5l-2 83q-53 -4 -98 -7t-90 -5v241q439 -6 439 -220h-1z" />
    <glyph glyph-name="Ntilde" unicode="&#xd1;" horiz-adv-x="902" 
d="M801 714l-105 22q0 -11 -0.5 -48.5t-1 -89.5t-1 -114t-1 -122.5t-1 -114t-0.5 -89.5q-29 34 -75.5 87.5t-101 115t-111 125.5t-105 119t-84 95t-47.5 55h-26q-1 -26 -3.5 -75.5t-6 -113.5t-9 -136.5t-12.5 -144.5q-7 -65 -15 -125t-15 -111t-12.5 -90t-6.5 -60l111 19
q-1 14 0 25t3 25q9 78 18 155.5t14 155.5q7 83 8.5 159t1.5 124q32 -38 81 -93.5t104 -118t112 -125.5t105 -117t82.5 -93t44.5 -52h26q1 67 3.5 143.5t5.5 153.5t6 150.5t5.5 134.5t5 105.5t3.5 63.5zM603 838l-62 44q-15 -31 -27 -42t-23 -12q-17 0 -31.5 6.5t-30.5 15
t-33.5 15t-39.5 6.5q-32 0 -59.5 -28t-50.5 -67l59 -41q17 29 30 41.5t24 12.5q15 0 30 -6.5t31 -14.5t34 -14.5t39 -6.5q32 0 59.5 26.5t50.5 64.5z" />
    <glyph glyph-name="Ograve" unicode="&#xd2;" 
d="M808 375q0 85 -26 151.5t-72 112.5t-108 70t-135 24q-93 0 -168 -33.5t-128.5 -90.5t-82 -133t-28.5 -162q0 -69 23.5 -131.5t68 -110.5t109 -76.5t146.5 -28.5q75 0 134 19t103.5 51t75.5 74t50.5 87t28.5 91t9 86zM710 370q0 -74 -22.5 -133t-62 -101t-93 -64.5
t-114.5 -22.5q-64 0 -112.5 23t-81.5 61t-50 88.5t-17 106.5q0 64 20.5 122.5t59 103t94 71t124.5 26.5q55 0 102 -19.5t81.5 -56t53.5 -88.5t19 -117h-1zM498 786l-158 121l-55 -81l178 -96z" />
    <glyph glyph-name="Oacute" unicode="&#xd3;" 
d="M808 375q0 85 -26 151.5t-72 112.5t-108 70t-135 24q-93 0 -168 -33.5t-128.5 -90.5t-82 -133t-28.5 -162q0 -69 23.5 -131.5t68 -110.5t109 -76.5t146.5 -28.5q75 0 134 19t103.5 51t75.5 74t50.5 87t28.5 91t9 86zM710 370q0 -74 -22.5 -133t-62 -101t-93 -64.5
t-114.5 -22.5q-64 0 -112.5 23t-81.5 61t-50 88.5t-17 106.5q0 64 20.5 122.5t59 103t94 71t124.5 26.5q55 0 102 -19.5t81.5 -56t53.5 -88.5t19 -117h-1zM580 826l-55 81l-165 -121l36 -55z" />
    <glyph glyph-name="Ocircumflex" unicode="&#xd4;" 
d="M808 375q0 85 -26 151.5t-72 112.5t-108 70t-135 24q-93 0 -168 -33.5t-128.5 -90.5t-82 -133t-28.5 -162q0 -69 23.5 -131.5t68 -110.5t109 -76.5t146.5 -28.5q75 0 134 19t103.5 51t75.5 74t50.5 87t28.5 91t9 86zM710 370q0 -74 -22.5 -133t-62 -101t-93 -64.5
t-114.5 -22.5q-64 0 -112.5 23t-81.5 61t-50 88.5t-17 106.5q0 64 20.5 122.5t59 103t94 71t124.5 26.5q55 0 102 -19.5t81.5 -56t53.5 -88.5t19 -117h-1zM579 795l-155 116l-165 -118l49 -61l113 86l104 -86z" />
    <glyph glyph-name="Otilde" unicode="&#xd5;" 
d="M808 375q0 85 -26 151.5t-72 112.5t-108 70t-135 24q-93 0 -168 -33.5t-128.5 -90.5t-82 -133t-28.5 -162q0 -69 23.5 -131.5t68 -110.5t109 -76.5t146.5 -28.5q75 0 134 19t103.5 51t75.5 74t50.5 87t28.5 91t9 86zM710 370q0 -74 -22.5 -133t-62 -101t-93 -64.5
t-114.5 -22.5q-64 0 -112.5 23t-81.5 61t-50 88.5t-17 106.5q0 64 20.5 122.5t59 103t94 71t124.5 26.5q55 0 102 -19.5t81.5 -56t53.5 -88.5t19 -117h-1zM598 862l-62 44q-15 -31 -27 -42t-23 -12q-17 0 -31.5 6.5t-30.5 15t-33.5 15t-39.5 6.5q-32 0 -59.5 -28t-50.5 -67
l59 -41q17 29 30 41.5t24 12.5q15 0 30 -6.5t31 -14.5t34 -14.5t39 -6.5q32 0 59.5 26.5t50.5 64.5z" />
    <glyph glyph-name="Odieresis" unicode="&#xd6;" 
d="M878 535l-3 56q-28 -7 -55.5 -13t-44.5 -8v58q16 1 36.5 3t33.5 2l-3 54q-21 -5 -37.5 -7t-29.5 -3v57q20 -2 38.5 -4.5t38.5 -2.5l-2 54q-32 -3 -64.5 -0.5t-64.5 2.5q0 -9 0.5 -26t0.5 -35q0 -17 0.5 -31t0.5 -16v-44l-1 -6q-46 53 -111.5 80.5t-143.5 27.5
q-93 0 -168 -33.5t-128.5 -90.5t-82 -133t-28.5 -162q0 -69 23.5 -131.5t68 -110.5t109 -76.5t146.5 -28.5q75 0 134 19t103.5 51t75.5 74t50.5 87t28.5 91t9 86q0 82 -26 149l42 6q15 2 27.5 3.5t26.5 1.5zM710 370q0 -74 -22.5 -133t-62 -101t-93 -64.5t-114.5 -22.5
q-64 0 -112.5 23t-81.5 61t-50 88.5t-17 106.5q0 64 20.5 122.5t59 103t94 71t124.5 26.5q55 0 102 -19.5t81.5 -56t53.5 -88.5t19 -117h-1z" />
    <glyph glyph-name="Oslash" unicode="&#xd8;" 
d="M820 701l-63 56l-45.5 -49t-38.5 -41q-43 33 -95.5 49t-110.5 16q-93 0 -168 -33t-128.5 -90t-82 -133t-28.5 -162q0 -57 19 -113t57 -103q-21 -21 -42 -43t-48 -50l56 -61q29 30 49.5 52t40.5 42q42 -33 94 -52t115 -19q77 0 137.5 19t105.5 51.5t76.5 74.5t51 87t28 91
t8.5 85q0 70 -19.5 129.5t-55.5 104.5q20 20 39.5 41.5t47.5 50.5zM611 601q-103 -109 -205.5 -217t-205.5 -220q-22 35 -32.5 77t-10.5 87q0 63 20.5 121.5t59 103.5t94 71.5t124.5 26.5q45 0 84.5 -12t71.5 -38zM711 370q0 -73 -23.5 -132.5t-63.5 -101.5t-93.5 -65
t-113.5 -23q-100 0 -164 55q103 110 205.5 218t208.5 219q44 -65 44 -170z" />
    <glyph glyph-name="Ugrave" unicode="&#xd9;" horiz-adv-x="823" 
d="M792 777l-107 -17q0 -12 -8 -54.5t-22 -101t-31 -125.5t-34.5 -127t-33 -106.5t-25.5 -64.5q-9 -15 -20.5 -37t-25.5 -42t-31 -34.5t-38 -14.5q-24 0 -42.5 7t-33.5 21t-29 36t-29 51q-9 17 -20.5 63t-23.5 105t-23.5 125t-20.5 123.5t-13.5 99t-3.5 53.5l-110 -29
q0 -7 4 -33.5t11.5 -66t17.5 -89t21 -101t23.5 -102.5t24.5 -95t23 -76.5t21 -47.5q28 -43 54 -69t51 -39.5t48.5 -17.5t45.5 -4q26 0 50 12t46.5 33t44.5 49t44 60q16 23 36.5 77.5t42 123.5t42.5 145t37.5 141t26.5 111.5t10 57.5zM476 786l-158 121l-55 -81l178 -96z" />
    <glyph glyph-name="Uacute" unicode="&#xda;" horiz-adv-x="823" 
d="M792 777l-107 -17q0 -12 -8 -54.5t-22 -101t-31 -125.5t-34.5 -127t-33 -106.5t-25.5 -64.5q-9 -15 -20.5 -37t-25.5 -42t-31 -34.5t-38 -14.5q-24 0 -42.5 7t-33.5 21t-29 36t-29 51q-9 17 -20.5 63t-23.5 105t-23.5 125t-20.5 123.5t-13.5 99t-3.5 53.5l-110 -29
q0 -7 4 -33.5t11.5 -66t17.5 -89t21 -101t23.5 -102.5t24.5 -95t23 -76.5t21 -47.5q28 -43 54 -69t51 -39.5t48.5 -17.5t45.5 -4q26 0 50 12t46.5 33t44.5 49t44 60q16 23 36.5 77.5t42 123.5t42.5 145t37.5 141t26.5 111.5t10 57.5zM558 826l-55 81l-165 -121l36 -55z" />
    <glyph glyph-name="Ucircumflex" unicode="&#xdb;" horiz-adv-x="823" 
d="M792 777l-107 -17q0 -12 -8 -54.5t-22 -101t-31 -125.5t-34.5 -127t-33 -106.5t-25.5 -64.5q-9 -15 -20.5 -37t-25.5 -42t-31 -34.5t-38 -14.5q-24 0 -42.5 7t-33.5 21t-29 36t-29 51q-9 17 -20.5 63t-23.5 105t-23.5 125t-20.5 123.5t-13.5 99t-3.5 53.5l-110 -29
q0 -7 4 -33.5t11.5 -66t17.5 -89t21 -101t23.5 -102.5t24.5 -95t23 -76.5t21 -47.5q28 -43 54 -69t51 -39.5t48.5 -17.5t45.5 -4q26 0 50 12t46.5 33t44.5 49t44 60q16 23 36.5 77.5t42 123.5t42.5 145t37.5 141t26.5 111.5t10 57.5zM572 795l-155 116l-165 -118l49 -61
l113 86l104 -86z" />
    <glyph glyph-name="Udieresis" unicode="&#xdc;" horiz-adv-x="823" 
d="M792 777l-107 -17q1 -20 -9.5 -71t-28.5 -122q-14 -3 -30.5 -6t-28.5 -5v58q16 1 36.5 3t33.5 2l-3 54q-21 -5 -37.5 -7t-29.5 -3v57q20 -2 38.5 -4.5t38.5 -2.5l-2 54q-32 -3 -64.5 -0.5t-64.5 2.5q0 -9 0.5 -26t0.5 -35q0 -17 0.5 -31t0.5 -16v-44v-16v-30t-0.5 -35.5
t-1.5 -31.5q14 0 29 2t32 4l39 5q-14 -53 -28.5 -106.5t-28.5 -99t-26 -80t-20 -48.5q-9 -15 -20.5 -37t-25.5 -42t-31 -34.5t-38 -14.5q-24 0 -42.5 7t-33.5 21t-29 36t-29 51q-9 17 -20.5 63t-23.5 105t-23.5 125t-20.5 123.5t-13.5 99t-3.5 53.5l-110 -29q0 -7 4 -33.5
t11.5 -66t17.5 -89t21 -101t23.5 -102.5t24.5 -95t23 -76.5t21 -47.5q28 -43 54 -69t51 -39.5t48.5 -17.5t45.5 -4q26 0 50 12t46.5 33t44.5 49t44 60q16 23 36.5 77.5t42 123.5t42.5 145t37.5 141t26.5 111.5t10 57.5z" />
    <glyph glyph-name="Yacute" unicode="&#xdd;" horiz-adv-x="673" 
d="M700 652l-32 85q-30 -10 -60.5 -25.5t-59 -34.5t-52.5 -40t-42 -40q-35 -38 -63 -81t-48 -99q-16 55 -40 104t-52 98q-15 26 -28.5 49.5t-30 44t-37.5 38t-49 31.5l-43 -82q49 -22 77.5 -61.5t48.5 -83.5q20 -42 38.5 -82.5t32.5 -81t22.5 -83.5t8.5 -91v-75
q0 -5 -0.5 -24.5t-1 -44.5l-1 -50t-1.5 -40h102q-2 14 -3 36t-1.5 43t-1 38.5t-0.5 22.5v94q0 72 23.5 141.5t65.5 127.5t100.5 101.5t127.5 64.5zM496 826l-55 81l-165 -121l36 -55z" />
    <glyph glyph-name="Thorn" unicode="&#xde;" horiz-adv-x="619" 
d="M557 390q0 59 -32 97.5t-80 61.5t-103 32.5t-101 11.5v16q0 22 0.5 47.5t3.5 60.5h-101q1 -9 2 -29t1.5 -46t1 -55t0.5 -54v-44v-24v-110v-48v-67q0 -36 -0.5 -75t-0.5 -75q0 -35 -0.5 -63.5t-1.5 -43.5h98q-2 15 -2.5 32t-0.5 33q0 17 0.5 30.5t0.5 21.5v18
q69 12 127 37.5t99.5 61.5t65 80.5t23.5 92.5zM457 377q0 -60 -55 -109.5t-161 -66.5v311q78 -3 121.5 -20.5t64.5 -39t26 -43t5 -32.5h-1z" />
    <glyph glyph-name="germandbls" unicode="&#xdf;" horiz-adv-x="920" 
d="M817 711l-24 87q-37 -9 -77.5 -28t-80.5 -44t-76.5 -55t-64 -61.5t-44 -64t-16.5 -61.5q0 -28 11.5 -51t31 -42t44.5 -35t53 -31q33 -17 55 -30.5t35 -26.5t18 -26.5t5 -31.5q0 -20 -14 -43.5t-36.5 -47t-52.5 -45.5t-61.5 -41t-63.5 -33t-59 -20l30 -83q73 20 138 59
t113.5 86t76.5 96.5t28 89.5t-19 68.5t-47 50t-61.5 38t-61.5 33.5t-47 35.5t-19 44.5q0 18 14.5 39.5t38.5 44t54.5 44t62.5 39t62.5 30t53.5 16.5zM477 711l-24 87q-37 -9 -77.5 -28t-80.5 -44t-76.5 -55t-64 -61.5t-44 -64t-16.5 -61.5q0 -28 11.5 -51t31 -42t44.5 -35
t53 -31q33 -17 55 -30.5t35 -26.5t18 -26.5t5 -31.5q0 -20 -14 -43.5t-36.5 -47t-52.5 -45.5t-61.5 -41t-63.5 -33t-59 -20l30 -83q73 20 138 59t113.5 86t76.5 96.5t28 89.5t-19 68.5t-47 50t-61.5 38t-61.5 33.5t-47 35.5t-19 44.5q0 18 14.5 39.5t38.5 44t54.5 44
t62.5 39t62.5 30t53.5 16.5z" />
    <glyph glyph-name="agrave" unicode="&#xe0;" horiz-adv-x="777" 
d="M812 -38q-21 34 -54.5 95.5t-73.5 137t-83 158.5t-83 159.5t-73.5 140t-53.5 100.5h-22q-6 -12 -31 -63t-60.5 -123t-77 -156t-80 -163t-70.5 -143t-49 -96l73 -72q6 13 19.5 41.5t31 65t36.5 77t36.5 77t31.5 65.5t21 43l263 12q8 -15 26.5 -49.5t41.5 -78t48.5 -91.5
t48.5 -90.5t40.5 -76t25.5 -46.5zM474 396l-184 -9q7 17 18.5 42t23.5 52t24.5 54t22.5 49q10 -20 22.5 -45.5t26 -51.5t25.5 -50t21 -41zM449 798l-158 121l-55 -81l178 -96z" />
    <glyph glyph-name="aacute" unicode="&#xe1;" horiz-adv-x="777" 
d="M812 -38q-21 34 -54.5 95.5t-73.5 137t-83 158.5t-83 159.5t-73.5 140t-53.5 100.5h-22q-6 -12 -31 -63t-60.5 -123t-77 -156t-80 -163t-70.5 -143t-49 -96l73 -72q6 13 19.5 41.5t31 65t36.5 77t36.5 77t31.5 65.5t21 43l263 12q8 -15 26.5 -49.5t41.5 -78t48.5 -91.5
t48.5 -90.5t40.5 -76t25.5 -46.5zM474 396l-184 -9q7 17 18.5 42t23.5 52t24.5 54t22.5 49q10 -20 22.5 -45.5t26 -51.5t25.5 -50t21 -41zM491 838l-55 81l-165 -121l36 -55z" />
    <glyph glyph-name="acircumflex" unicode="&#xe2;" horiz-adv-x="777" 
d="M812 -38q-21 34 -54.5 95.5t-73.5 137t-83 158.5t-83 159.5t-73.5 140t-53.5 100.5h-22q-6 -12 -31 -63t-60.5 -123t-77 -156t-80 -163t-70.5 -143t-49 -96l73 -72q6 13 19.5 41.5t31 65t36.5 77t36.5 77t31.5 65.5t21 43l263 12q8 -15 26.5 -49.5t41.5 -78t48.5 -91.5
t48.5 -90.5t40.5 -76t25.5 -46.5zM474 396l-184 -9q7 17 18.5 42t23.5 52t24.5 54t22.5 49q10 -20 22.5 -45.5t26 -51.5t25.5 -50t21 -41zM515 795l-155 116l-165 -118l49 -61l113 86l104 -86z" />
    <glyph glyph-name="atilde" unicode="&#xe3;" horiz-adv-x="777" 
d="M812 -38q-21 34 -54.5 95.5t-73.5 137t-83 158.5t-83 159.5t-73.5 140t-53.5 100.5h-22q-6 -12 -31 -63t-60.5 -123t-77 -156t-80 -163t-70.5 -143t-49 -96l73 -72q6 13 19.5 41.5t31 65t36.5 77t36.5 77t31.5 65.5t21 43l263 12q8 -15 26.5 -49.5t41.5 -78t48.5 -91.5
t48.5 -90.5t40.5 -76t25.5 -46.5zM474 396l-184 -9q7 17 18.5 42t23.5 52t24.5 54t22.5 49q10 -20 22.5 -45.5t26 -51.5t25.5 -50t21 -41zM539 847l-62 44q-15 -31 -27 -42t-23 -12q-17 0 -31.5 6.5t-30.5 15t-33.5 15t-39.5 6.5q-32 0 -59.5 -28t-50.5 -67l59 -41
q17 29 30 41.5t24 12.5q15 0 30 -6.5t31 -14.5t34 -14.5t39 -6.5q32 0 59.5 26.5t50.5 64.5z" />
    <glyph glyph-name="adieresis" unicode="&#xe4;" horiz-adv-x="777" 
d="M787 10q-21 35 -51 89.5t-64.5 119.5t-71 135t-71.5 137q27 2 54 9.5t54 12.5l-3 54q-28 -7 -55.5 -13t-44.5 -8v58q16 1 36.5 3t33.5 2l-3 54q-21 -5 -37.5 -7t-29.5 -3v57q20 -2 38.5 -4.5t38.5 -2.5l-2 54q-32 -3 -64.5 -0.5t-64.5 2.5q0 -9 0.5 -26t0.5 -35
q0 -17 0.5 -31t0.5 -16v-44l-1 -25q-26 51 -49 94.5t-41 76.5h-22q-5 -9 -22.5 -43t-44 -85t-59.5 -114t-68.5 -130.5t-70.5 -134.5t-65.5 -125.5t-54.5 -104.5t-37 -71l85 -47q6 12 21.5 43.5t36 72.5t44 87.5t45 88.5t38.5 75.5t25 48.5l274 12q7 -14 22 -43t33.5 -66
l38.5 -77t38 -76.5t32 -64.5t21 -40zM477 404l-194 -9l20 40t25.5 50.5t26.5 53t24 47.5q10 -20 23.5 -44.5t27 -49.5t26 -48.5t21.5 -39.5z" />
    <glyph glyph-name="aring" unicode="&#xe5;" horiz-adv-x="777" 
d="M812 -38q-21 34 -54.5 95.5t-73.5 137t-83 158.5t-83 159.5t-73.5 140t-53.5 100.5h-22q-6 -12 -31 -63t-60.5 -123t-77 -156t-80 -163t-70.5 -143t-49 -96l73 -72q6 13 19.5 41.5t31 65t36.5 77t36.5 77t31.5 65.5t21 43l263 12q8 -15 26.5 -49.5t41.5 -78t48.5 -91.5
t48.5 -90.5t40.5 -76t25.5 -46.5zM474 396l-184 -9q7 17 18.5 42t23.5 52t24.5 54t22.5 49q10 -20 22.5 -45.5t26 -51.5t25.5 -50t21 -41zM538 796q0 38 -30.5 65t-80.5 27q-20 0 -40.5 -7.5t-37 -21t-27 -33t-10.5 -43.5q-1 -23 8.5 -40.5t25.5 -29.5t35 -18t38 -6
q21 0 42 7t38.5 21t28 33.5t10.5 45.5zM461 791q0 -16 -10 -25.5t-27 -9.5t-26.5 9.5t-9.5 21.5q0 14 10.5 23.5t27.5 9.5q19 0 27.5 -9.5t8.5 -19.5h-1z" />
    <glyph glyph-name="ae" unicode="&#xe6;" horiz-adv-x="876" 
d="M861 19l-4 92q-80 -12 -159 -24t-159 -21v212q21 2 61 5.5t81.5 7.5t77 6.5t47.5 2.5l-3 88l-54 -6t-76 -9t-77 -9.5t-57 -6.5v281l21 -3q15 -2 33.5 -5t38.5 -5q38 -6 76.5 -11t62.5 -5l-3 93q-20 -4 -65 -2t-100 6q-26 2 -51.5 4t-47 3.5t-37.5 2.5t-22 1
q-14 -19 -40 -56.5t-59 -86t-71 -105t-76.5 -114t-75.5 -112.5t-68 -100.5t-54 -78t-33 -45.5l79 -61q6 12 20.5 36t33 53.5t39.5 63t40.5 64t36 56t25.5 40.5l206 3v-74q0 -25 -0.5 -56t-1.5 -62t-2 -57.5t-2 -42.5q9 0 40.5 2.5t73.5 7t90.5 9t92 9t76.5 7t46 2.5z
M447 352l-152 -3q12 18 29 44t37.5 57t42.5 66l44 70z" />
    <glyph glyph-name="ccedilla" unicode="&#xe7;" horiz-adv-x="649" 
d="M638 -19l-11 87q-40 -9 -75 -12.5t-64 -3.5q-93 0 -157.5 11.5t-104.5 39t-57.5 74.5t-17.5 118q0 108 31.5 171.5t89 98.5t139 50t181.5 28l-17 92q-133 -25 -231.5 -54t-164 -77.5t-97.5 -125.5t-32 -198q0 -92 21.5 -152t71.5 -96t132 -50.5t203 -14.5q45 0 85 3.5
t75 10.5zM406 -128q0 29 -19 50.5t-44 32.5l43 62h-88l-63 -92q35 -11 58.5 -23.5t23.5 -32.5q-1 -17 -26 -31t-76 -18l14 -70q32 4 64 14.5t57 26t40.5 36.5t15.5 45z" />
    <glyph glyph-name="egrave" unicode="&#xe8;" horiz-adv-x="568" 
d="M555 33l-5 94q-34 -8 -78 -18t-87.5 -18.5t-81.5 -15t-60 -8.5v245q20 1 51.5 4l63 6t58 5.5t37.5 2.5l-3 90q-22 -5 -50.5 -9.5t-57.5 -8t-55 -7t-44 -4.5v247q20 -1 53.5 -4.5t68 -7t65 -6.5t45.5 -3l-4 92q-23 -3 -68 -2t-96 3t-96 4.5t-66 2.5q1 -10 2 -34t1.5 -55.5
t1 -65.5t1 -63.5t0.5 -50.5v-24v-134v-26v-48t-0.5 -61.5t-1 -65.5t-1 -60t-1.5 -46q10 0 31.5 2t49.5 6t61 8t66 9q34 5 66.5 9t58.5 8t43.5 6t31.5 2zM386 796l-158 121l-55 -81l178 -96z" />
    <glyph glyph-name="eacute" unicode="&#xe9;" horiz-adv-x="568" 
d="M555 33l-5 94q-34 -8 -78 -18t-87.5 -18.5t-81.5 -15t-60 -8.5v245q20 1 51.5 4l63 6t58 5.5t37.5 2.5l-3 90q-22 -5 -50.5 -9.5t-57.5 -8t-55 -7t-44 -4.5v247q20 -1 53.5 -4.5t68 -7t65 -6.5t45.5 -3l-4 92q-23 -3 -68 -2t-96 3t-96 4.5t-66 2.5q1 -10 2 -34t1.5 -55.5
t1 -65.5t1 -63.5t0.5 -50.5v-24v-134v-26v-48t-0.5 -61.5t-1 -65.5t-1 -60t-1.5 -46q10 0 31.5 2t49.5 6t61 8t66 9q34 5 66.5 9t58.5 8t43.5 6t31.5 2zM428 836l-55 81l-165 -121l36 -55z" />
    <glyph glyph-name="ecircumflex" unicode="&#xea;" horiz-adv-x="568" 
d="M555 33l-5 94q-34 -8 -78 -18t-87.5 -18.5t-81.5 -15t-60 -8.5v245q20 1 51.5 4l63 6t58 5.5t37.5 2.5l-3 90q-22 -5 -50.5 -9.5t-57.5 -8t-55 -7t-44 -4.5v247q20 -1 53.5 -4.5t68 -7t65 -6.5t45.5 -3l-4 92q-23 -3 -68 -2t-96 3t-96 4.5t-66 2.5q1 -10 2 -34t1.5 -55.5
t1 -65.5t1 -63.5t0.5 -50.5v-24v-134v-26v-48t-0.5 -61.5t-1 -65.5t-1 -60t-1.5 -46q10 0 31.5 2t49.5 6t61 8t66 9q34 5 66.5 9t58.5 8t43.5 6t31.5 2zM457 795l-155 116l-165 -118l49 -61l113 86l104 -86z" />
    <glyph glyph-name="edieresis" unicode="&#xeb;" horiz-adv-x="568" 
d="M501 799l-73 74l-76 -74l76 -74zM305 799l-73 74l-76 -74l76 -74zM555 32l-5 95q-34 -8 -78 -18t-87.5 -18.5t-81.5 -15t-60 -8.5v245q20 1 51.5 4l63 6t58 5.5t37.5 2.5l-3 90q-22 -5 -50.5 -9.5t-57.5 -8t-55 -7t-44 -4.5v247q20 -1 53.5 -4.5t68 -7t65 -6.5t45.5 -3
l-4 92q-23 -3 -68 -2t-96 3t-96 4.5t-66 2.5q1 -10 2 -34t1.5 -55.5t1 -65.5t1 -63.5t0.5 -50.5v-24v-134v-26v-48t-0.5 -61.5t-1 -65.5t-1 -60t-1.5 -46q10 0 31.5 2t49.5 6t61 8t66 9q34 5 66.5 9t58.5 8t43.5 6t31.5 2v-1z" />
    <glyph glyph-name="igrave" unicode="&#xec;" horiz-adv-x="393" 
d="M249 717h-104q1 -11 2 -36t1.5 -57.5t1 -68t1 -66t0.5 -52.5v-25v-108v-29q0 -21 -0.5 -52t-0.5 -67q0 -35 -0.5 -68t-1 -61.5t-1.5 -43.5h100q-1 15 -1.5 53t-1 84.5t-1 95t-0.5 86.5v108q0 45 0.5 93t1 91t1.5 76t3 47zM335 786l-158 121l-55 -81l178 -96z" />
    <glyph glyph-name="iacute" unicode="&#xed;" horiz-adv-x="393" 
d="M249 717h-104q1 -11 2 -36t1.5 -57.5t1 -68t1 -66t0.5 -52.5v-25v-108v-29q0 -21 -0.5 -52t-0.5 -67q0 -35 -0.5 -68t-1 -61.5t-1.5 -43.5h100q-1 15 -1.5 53t-1 84.5t-1 95t-0.5 86.5v108q0 45 0.5 93t1 91t1.5 76t3 47zM344 826l-55 81l-165 -121l36 -55z" />
    <glyph glyph-name="icircumflex" unicode="&#xee;" horiz-adv-x="393" 
d="M249 717h-104q1 -11 2 -36t1.5 -57.5t1 -68t1 -66t0.5 -52.5v-25v-108v-29q0 -21 -0.5 -52t-0.5 -67q0 -35 -0.5 -68t-1 -61.5t-1.5 -43.5h100q-1 15 -1.5 53t-1 84.5t-1 95t-0.5 86.5v108q0 45 0.5 93t1 91t1.5 76t3 47zM442 795l-155 116l-165 -118l49 -61l113 86
l104 -86z" />
    <glyph glyph-name="idieresis" unicode="&#xef;" horiz-adv-x="393" 
d="M373 791l-73 74l-76 -74l76 -74zM177 791l-73 74l-76 -74l76 -74zM249 717h-104q1 -11 2 -36t1.5 -57.5t1 -68t1 -66t0.5 -52.5v-25v-108v-29q0 -21 -0.5 -52t-0.5 -67q0 -35 -0.5 -68t-1 -61.5t-1.5 -43.5h100q-1 15 -1.5 53t-1 84.5t-1 95t-0.5 86.5v108q0 45 0.5 93
t1 91t1.5 76t3 47z" />
    <glyph glyph-name="eth" unicode="&#xf0;" horiz-adv-x="830" 
d="M782 432q0 29 -11 65.5t-43 72.5t-89.5 67.5t-150.5 51.5q-41 9 -86 14.5t-90 8.5t-87.5 4t-78.5 1q1 -12 1.5 -35.5t1 -52.5t1 -60t0.5 -58v-47v-24v-54q-25 -2 -49 -3t-53 -2l2 -83q29 2 53 3.5t47 3.5v-40v-56t-0.5 -65.5t-1 -66.5t-1 -58t-0.5 -40q54 -1 103.5 -0.5
t100.5 5.5q98 9 177.5 38t136 83t87 134.5t30.5 192.5zM681 412q0 -100 -25.5 -161t-79.5 -97t-136.5 -54t-196.5 -30v240q45 3 91 5.5t99 4.5l-2 83q-53 -4 -98 -7t-90 -5v241q439 -6 439 -220h-1z" />
    <glyph glyph-name="ntilde" unicode="&#xf1;" horiz-adv-x="902" 
d="M801 714l-105 22q0 -11 -0.5 -48.5t-1 -89.5t-1 -114t-1 -122.5t-1 -114t-0.5 -89.5q-29 34 -75.5 87.5t-101 115t-111 125.5t-105 119t-84 95t-47.5 55h-26q-1 -26 -3.5 -75.5t-6 -113.5t-9 -136.5t-12.5 -144.5q-7 -65 -15 -125t-15 -111t-12.5 -90t-6.5 -60l111 19
q-1 14 0 25t3 25q9 78 18 155.5t14 155.5q7 83 8.5 159t1.5 124q32 -38 81 -93.5t104 -118t112 -125.5t105 -117t82.5 -93t44.5 -52h26q1 67 3.5 143.5t5.5 153.5t6 150.5t5.5 134.5t5 105.5t3.5 63.5zM603 838l-62 44q-15 -31 -27 -42t-23 -12q-17 0 -31.5 6.5t-30.5 15
t-33.5 15t-39.5 6.5q-32 0 -59.5 -28t-50.5 -67l59 -41q17 29 30 41.5t24 12.5q15 0 30 -6.5t31 -14.5t34 -14.5t39 -6.5q32 0 59.5 26.5t50.5 64.5z" />
    <glyph glyph-name="ograve" unicode="&#xf2;" 
d="M808 375q0 85 -26 151.5t-72 112.5t-108 70t-135 24q-93 0 -168 -33.5t-128.5 -90.5t-82 -133t-28.5 -162q0 -69 23.5 -131.5t68 -110.5t109 -76.5t146.5 -28.5q75 0 134 19t103.5 51t75.5 74t50.5 87t28.5 91t9 86zM710 370q0 -74 -22.5 -133t-62 -101t-93 -64.5
t-114.5 -22.5q-64 0 -112.5 23t-81.5 61t-50 88.5t-17 106.5q0 64 20.5 122.5t59 103t94 71t124.5 26.5q55 0 102 -19.5t81.5 -56t53.5 -88.5t19 -117h-1zM498 786l-158 121l-55 -81l178 -96z" />
    <glyph glyph-name="oacute" unicode="&#xf3;" 
d="M808 375q0 85 -26 151.5t-72 112.5t-108 70t-135 24q-93 0 -168 -33.5t-128.5 -90.5t-82 -133t-28.5 -162q0 -69 23.5 -131.5t68 -110.5t109 -76.5t146.5 -28.5q75 0 134 19t103.5 51t75.5 74t50.5 87t28.5 91t9 86zM710 370q0 -74 -22.5 -133t-62 -101t-93 -64.5
t-114.5 -22.5q-64 0 -112.5 23t-81.5 61t-50 88.5t-17 106.5q0 64 20.5 122.5t59 103t94 71t124.5 26.5q55 0 102 -19.5t81.5 -56t53.5 -88.5t19 -117h-1zM580 826l-55 81l-165 -121l36 -55z" />
    <glyph glyph-name="ocircumflex" unicode="&#xf4;" 
d="M808 375q0 85 -26 151.5t-72 112.5t-108 70t-135 24q-93 0 -168 -33.5t-128.5 -90.5t-82 -133t-28.5 -162q0 -69 23.5 -131.5t68 -110.5t109 -76.5t146.5 -28.5q75 0 134 19t103.5 51t75.5 74t50.5 87t28.5 91t9 86zM710 370q0 -74 -22.5 -133t-62 -101t-93 -64.5
t-114.5 -22.5q-64 0 -112.5 23t-81.5 61t-50 88.5t-17 106.5q0 64 20.5 122.5t59 103t94 71t124.5 26.5q55 0 102 -19.5t81.5 -56t53.5 -88.5t19 -117h-1zM579 795l-155 116l-165 -118l49 -61l113 86l104 -86z" />
    <glyph glyph-name="otilde" unicode="&#xf5;" 
d="M808 375q0 85 -26 151.5t-72 112.5t-108 70t-135 24q-93 0 -168 -33.5t-128.5 -90.5t-82 -133t-28.5 -162q0 -69 23.5 -131.5t68 -110.5t109 -76.5t146.5 -28.5q75 0 134 19t103.5 51t75.5 74t50.5 87t28.5 91t9 86zM710 370q0 -74 -22.5 -133t-62 -101t-93 -64.5
t-114.5 -22.5q-64 0 -112.5 23t-81.5 61t-50 88.5t-17 106.5q0 64 20.5 122.5t59 103t94 71t124.5 26.5q55 0 102 -19.5t81.5 -56t53.5 -88.5t19 -117h-1zM598 862l-62 44q-15 -31 -27 -42t-23 -12q-17 0 -31.5 6.5t-30.5 15t-33.5 15t-39.5 6.5q-32 0 -59.5 -28t-50.5 -67
l59 -41q17 29 30 41.5t24 12.5q15 0 30 -6.5t31 -14.5t34 -14.5t39 -6.5q32 0 59.5 26.5t50.5 64.5z" />
    <glyph glyph-name="odieresis" unicode="&#xf6;" 
d="M808 375q0 85 -26 151.5t-72 112.5t-108 70t-135 24q-93 0 -168 -33.5t-128.5 -90.5t-82 -133t-28.5 -162q0 -69 23.5 -131.5t68 -110.5t109 -76.5t146.5 -28.5q75 0 134 19t103.5 51t75.5 74t50.5 87t28.5 91t9 86zM710 370q0 -74 -22.5 -133t-62 -101t-93 -64.5
t-114.5 -22.5q-64 0 -112.5 23t-81.5 61t-50 88.5t-17 106.5q0 64 20.5 122.5t59 103t94 71t124.5 26.5q55 0 102 -19.5t81.5 -56t53.5 -88.5t19 -117h-1zM535 370l-3 57q-28 -7 -55.5 -13t-44.5 -8v58q16 1 36.5 3t33.5 2l-3 54q-21 -5 -37.5 -7t-29.5 -3v57
q20 -2 38.5 -4.5t38.5 -2.5l-2 54q-32 -3 -64.5 -0.5t-64.5 2.5q0 -9 0.5 -26t0.5 -35q0 -17 0.5 -31t0.5 -16v-44v-16v-30t-0.5 -35.5t-1.5 -31.5q15 0 36.5 3t44.5 6l41 5q8 1 14.5 2t20.5 1v-1z" />
    <glyph glyph-name="oslash" unicode="&#xf8;" 
d="M820 701l-63 56l-45.5 -49t-38.5 -41q-43 33 -95.5 49t-110.5 16q-93 0 -168 -33t-128.5 -90t-82 -133t-28.5 -162q0 -57 19 -113t57 -103q-21 -21 -42 -43t-48 -50l56 -61q29 30 49.5 52t40.5 42q42 -33 94 -52t115 -19q77 0 137.5 19t105.5 51.5t76.5 74.5t51 87t28 91
t8.5 85q0 70 -19.5 129.5t-55.5 104.5q20 20 39.5 41.5t47.5 50.5zM611 601q-103 -109 -205.5 -217t-205.5 -220q-22 35 -32.5 77t-10.5 87q0 63 20.5 121.5t59 103.5t94 71.5t124.5 26.5q45 0 84.5 -12t71.5 -38zM711 370q0 -73 -23.5 -132.5t-63.5 -101.5t-93.5 -65
t-113.5 -23q-100 0 -164 55q103 110 205.5 218t208.5 219q44 -65 44 -170z" />
    <glyph glyph-name="ugrave" unicode="&#xf9;" horiz-adv-x="823" 
d="M792 777l-107 -17q0 -12 -8 -54.5t-22 -101t-31 -125.5t-34.5 -127t-33 -106.5t-25.5 -64.5q-9 -15 -20.5 -37t-25.5 -42t-31 -34.5t-38 -14.5q-24 0 -42.5 7t-33.5 21t-29 36t-29 51q-9 17 -20.5 63t-23.5 105t-23.5 125t-20.5 123.5t-13.5 99t-3.5 53.5l-110 -29
q0 -7 4 -33.5t11.5 -66t17.5 -89t21 -101t23.5 -102.5t24.5 -95t23 -76.5t21 -47.5q28 -43 54 -69t51 -39.5t48.5 -17.5t45.5 -4q26 0 50 12t46.5 33t44.5 49t44 60q16 23 36.5 77.5t42 123.5t42.5 145t37.5 141t26.5 111.5t10 57.5zM476 786l-158 121l-55 -81l178 -96z" />
    <glyph glyph-name="uacute" unicode="&#xfa;" horiz-adv-x="823" 
d="M792 777l-107 -17q0 -12 -8 -54.5t-22 -101t-31 -125.5t-34.5 -127t-33 -106.5t-25.5 -64.5q-9 -15 -20.5 -37t-25.5 -42t-31 -34.5t-38 -14.5q-24 0 -42.5 7t-33.5 21t-29 36t-29 51q-9 17 -20.5 63t-23.5 105t-23.5 125t-20.5 123.5t-13.5 99t-3.5 53.5l-110 -29
q0 -7 4 -33.5t11.5 -66t17.5 -89t21 -101t23.5 -102.5t24.5 -95t23 -76.5t21 -47.5q28 -43 54 -69t51 -39.5t48.5 -17.5t45.5 -4q26 0 50 12t46.5 33t44.5 49t44 60q16 23 36.5 77.5t42 123.5t42.5 145t37.5 141t26.5 111.5t10 57.5zM558 826l-55 81l-165 -121l36 -55z" />
    <glyph glyph-name="ucircumflex" unicode="&#xfb;" horiz-adv-x="823" 
d="M792 777l-107 -17q0 -12 -8 -54.5t-22 -101t-31 -125.5t-34.5 -127t-33 -106.5t-25.5 -64.5q-9 -15 -20.5 -37t-25.5 -42t-31 -34.5t-38 -14.5q-24 0 -42.5 7t-33.5 21t-29 36t-29 51q-9 17 -20.5 63t-23.5 105t-23.5 125t-20.5 123.5t-13.5 99t-3.5 53.5l-110 -29
q0 -7 4 -33.5t11.5 -66t17.5 -89t21 -101t23.5 -102.5t24.5 -95t23 -76.5t21 -47.5q28 -43 54 -69t51 -39.5t48.5 -17.5t45.5 -4q26 0 50 12t46.5 33t44.5 49t44 60q16 23 36.5 77.5t42 123.5t42.5 145t37.5 141t26.5 111.5t10 57.5zM572 795l-155 116l-165 -118l49 -61
l113 86l104 -86z" />
    <glyph glyph-name="udieresis" unicode="&#xfc;" horiz-adv-x="823" 
d="M511 501l-3 56q-28 -7 -55.5 -13t-44.5 -8v58q16 1 36.5 3t33.5 2l-3 54q-21 -5 -37.5 -7t-29.5 -3v57q20 -2 38.5 -4.5t38.5 -2.5l-2 54q-32 -3 -64.5 -0.5t-64.5 2.5q0 -9 0.5 -26t0.5 -35q0 -17 0.5 -31t0.5 -16v-44v-16v-30t-0.5 -35.5t-1.5 -31.5q15 0 36.5 3
t44.5 6l41 5q8 1 14.5 2t20.5 1zM792 777l-107 -17q0 -12 -8 -54.5t-22 -101t-31 -125.5t-34.5 -127t-33 -106.5t-25.5 -64.5q-9 -15 -20.5 -37t-25.5 -42t-31 -34.5t-38 -14.5q-24 0 -42.5 7t-33.5 21t-29 36t-29 51q-9 17 -20.5 63t-23.5 105t-23.5 125t-20.5 123.5
t-13.5 99t-3.5 53.5l-110 -29q0 -7 4 -33.5t11.5 -66t17.5 -89t21 -101t23.5 -102.5t24.5 -95t23 -76.5t21 -47.5q28 -43 54 -69t51 -39.5t48.5 -17.5t45.5 -4q26 0 50 12t46.5 33t44.5 49t44 60q16 23 36.5 77.5t42 123.5t42.5 145t37.5 141t26.5 111.5t10 57.5z" />
    <glyph glyph-name="yacute" unicode="&#xfd;" horiz-adv-x="673" 
d="M700 652l-32 85q-30 -10 -60.5 -25.5t-59 -34.5t-52.5 -40t-42 -40q-35 -38 -63 -81t-48 -99q-16 55 -40 104t-52 98q-15 26 -28.5 49.5t-30 44t-37.5 38t-49 31.5l-43 -82q49 -22 77.5 -61.5t48.5 -83.5q20 -42 38.5 -82.5t32.5 -81t22.5 -83.5t8.5 -91v-75
q0 -5 -0.5 -24.5t-1 -44.5l-1 -50t-1.5 -40h102q-2 14 -3 36t-1.5 43t-1 38.5t-0.5 22.5v94q0 72 23.5 141.5t65.5 127.5t100.5 101.5t127.5 64.5zM496 826l-55 81l-165 -121l36 -55z" />
    <glyph glyph-name="thorn" unicode="&#xfe;" horiz-adv-x="619" 
d="M557 390q0 59 -32 97.5t-80 61.5t-103 32.5t-101 11.5v16q0 22 0.5 47.5t3.5 60.5h-101q1 -9 2 -29t1.5 -46t1 -55t0.5 -54v-44v-24v-110v-48v-67q0 -36 -0.5 -75t-0.5 -75q0 -35 -0.5 -63.5t-1.5 -43.5h98q-2 15 -2.5 32t-0.5 33q0 17 0.5 30.5t0.5 21.5v18
q69 12 127 37.5t99.5 61.5t65 80.5t23.5 92.5zM457 377q0 -60 -55 -109.5t-161 -66.5v311q78 -3 121.5 -20.5t64.5 -39t26 -43t5 -32.5h-1z" />
    <glyph glyph-name="ydieresis" unicode="&#xff;" horiz-adv-x="673" 
d="M557 771l-73 74l-76 -74l76 -74zM361 771l-73 74l-76 -74l76 -74zM700 652l-32 85q-30 -10 -60.5 -25.5t-59 -34.5t-52.5 -40t-42 -40q-35 -38 -63 -81t-48 -99q-16 55 -40 104t-52 98q-15 26 -28.5 49.5t-30 44t-37.5 38t-49 31.5l-43 -82q49 -22 77.5 -61.5t48.5 -83.5
q20 -42 38.5 -82.5t32.5 -81t22.5 -83.5t8.5 -91v-75q0 -5 -0.5 -24.5t-1 -44.5l-1 -50t-1.5 -40h102q-2 14 -3 36t-1.5 43t-1 38.5t-0.5 22.5v94q0 72 23.5 141.5t65.5 127.5t100.5 101.5t127.5 64.5z" />
    <glyph glyph-name="DC4" unicode="&#xe000;" horiz-adv-x="850" 
d="M597 819l-73 74l-76 -74l76 -74zM401 819l-73 74l-76 -74l76 -74z" />
    <glyph glyph-name="summation" unicode="&#xe001;" horiz-adv-x="350" 
d="M224 272q-3 28 -2.5 69.5t0.5 105.5v80q0 12 0.5 43t0.5 65t0.5 63.5t0.5 38.5h-26q-8 -9 -28 -23.5t-43 -28t-44.5 -24t-32.5 -11.5l7 -60q24 5 50 12.5t47 16.5v-159q0 -30 -0.5 -58.5t-1.5 -51.5q-1 -24 -1 -43t2 -36z" />
    <glyph glyph-name="product" unicode="&#xe002;" horiz-adv-x="375" 
d="M301 416q0 35 -20.5 57t-49.5 35q23 17 40.5 41.5t17.5 55.5q0 51 -21.5 78t-53.5 38q-31 11 -64.5 11.5t-65.5 0.5l-12 -65q27 0 42 0.5t27 -1.5q34 -2 55.5 -15.5t21.5 -53.5q0 -13 -9 -26t-26 -23.5t-40.5 -17t-52.5 -6.5v-51q24 0 48.5 -2.5t44 -9.5t32 -19t12.5 -31
q0 -24 -16.5 -55t-42 -59.5t-57.5 -48t-63 -19.5l6 -65q48 2 92.5 29t79 65t55 81t20.5 76z" />
    <glyph glyph-name="pi" unicode="&#xe003;" horiz-adv-x="390" 
d="M381 292l-229 24q25 20 52.5 45t49.5 53.5t36.5 60.5t14.5 67q0 72 -16.5 109t-47.5 52.5t-74 16.5t-95 1l-16 -64q37 -3 69.5 -0.5t56.5 -4.5t37.5 -32t13.5 -82q0 -37 -24.5 -73.5t-59 -69.5t-73 -60.5l-66.5 -47.5l7 -28h74q32 0 71.5 -5.5t77.5 -13.5q28 -5 56 -12
t57 -9z" />
    <glyph glyph-name="integral" unicode="&#xe004;" horiz-adv-x="700" 
d="M700 0v700h-700v-700h700z" />
    <glyph glyph-name="nonbreakingspace" unicode="&#xe005;" horiz-adv-x="222" 
 />
  </font>
</defs>
</svg>
