<?xml version="1.0" standalone="no"?>
<!DOCTYPE svg PUBLIC "-//W3C//DTD SVG 1.1//EN" "http://www.w3.org/Graphics/SVG/1.1/DTD/svg11.dtd" >
<svg xmlns="http://www.w3.org/2000/svg" xmlns:xlink="http://www.w3.org/1999/xlink" version="1.1">
<metadata>
Created by FontForge 20160405 at Fri Apr 20 05:44:13 2018
 By www-data
2013 Iconian Fonts - www.iconian.com
</metadata>
<defs>
<font id="YoungFrankenstein" horiz-adv-x="365" >
  <font-face 
    font-family="Young Frankenstein"
    font-weight="400"
    font-stretch="normal"
    units-per-em="1000"
    panose-1="0 0 0 0 0 0 0 0 0 0"
    ascent="800"
    descent="-200"
    x-height="653"
    cap-height="768"
    bbox="-51 -140 722 846"
    underline-thickness="50"
    underline-position="-175"
    unicode-range="U+0020-2122"
  />
<missing-glyph horiz-adv-x="500" 
 />
    <glyph glyph-name=".notdef" horiz-adv-x="500" 
 />
    <glyph glyph-name=".null" horiz-adv-x="0" 
 />
    <glyph glyph-name="nonmarkingreturn" horiz-adv-x="500" 
 />
    <glyph glyph-name="space" unicode=" " horiz-adv-x="228" 
 />
    <glyph glyph-name="space" unicode="&#xa0;" horiz-adv-x="228" 
 />
    <glyph glyph-name="FL0021h" unicode="!" horiz-adv-x="185" 
d="M163 286l-8 -38q-5 -7 -10.5 -6t-14.5 -1q-2 2 -8.5 5.5t-9.5 4.5q0 2 -8.5 2.5t-10.5 1.5q-1 1 -4 6l-3 5q-1 1 -4.5 -3t-5.5 -4h-17q-5 0 -11 -12q-2 0 -3.5 -0.5t-3.5 -0.5t-5 0.5t-4 4.5q-3 18 -3.5 31t-0.5 25t1 24.5t1 29.5v18v55v20q3 12 4 28t1 30
q0 25 -4.5 38.5t-9 23.5t-7.5 20.5t0 28.5v17q2 1 4.5 4t3.5 4h2h2l16 -8h1h3q1 1 7 7.5t8 8.5q1 0 8.5 -1t10.5 -3q1 0 1.5 -3t2.5 -5l1.5 -5.5t2.5 -6.5h2q3 0 4.5 5.5t4 12.5t6.5 12.5t13 5.5l6.5 -3t14.5 -6.5t15 -6.5t7 -4q0 -4 -0.5 -11.5t-0.5 -17.5v-21v-21
q0 -10 0.5 -17.5t0.5 -11.5q0 -3 0.5 -11t1.5 -17t1.5 -16.5t0.5 -9.5q0 -1 1 -6t2.5 -11t2.5 -11t1 -6v-4q0 -3 0.5 -7t0.5 -9v-7q0 -30 -0.5 -44t-1 -20.5t-2 -8.5t-2.5 -8.5t-2 -21t-2 -44.5zM162 108l-10 -64q-2 -14 -18 -15.5t-42 -0.5l-24 12q-42 20 -46 53t15 70
q2 7 12.5 13t16.5 7l40 3q11 -4 14 -5t3 -4q0 -1 9.5 -4.5t11.5 -5.5q5 -5 10.5 -18.5t11.5 -18.5l-49 -19q4 -5 8.5 -4.5t12.5 0.5q5 0 9.5 3t10.5 0q2 -2 4 -2z" />
    <glyph glyph-name="FL0022h" unicode="&#x22;" horiz-adv-x="264" 
d="M11 597l6 44q2 11 13 18.5t34 9.5l20 -10q38 -18 43.5 -51t-6.5 -75q0 -4 -3.5 -13t-8 -19t-8.5 -18.5t-5 -10.5l-27 -27q-10 -5 -18 -3t-13 6.5t-8 9.5t-3 7q0 1 -0.5 8t-1.5 14.5t-1.5 13.5t-0.5 5q1 0 0.5 12t-6.5 19l32 44q-4 4 -7.5 3.5t-11.5 -1.5q-1 -1 -6 -1
q-2 0 -6 4q-1 1 -3 6t-4 5zM138 598l6 44q2 11 11 16t32 7l22 -6q21 -6 33 -30t12 -54q0 -22 -6 -41q0 -4 -3.5 -13t-8 -19t-8.5 -18.5t-5 -10.5l-30 -31q-21 -9 -32.5 -6t-12.5 6q0 1 0.5 7.5t0.5 14.5t0.5 17.5t0.5 16.5v9q2 0 11 3t17.5 8.5t4.5 9.5l-20 4q-4 4 -5 12.5
t-8 7.5q-2 0 -2.5 4.5t0 10.5t0 12t-2.5 8q-1 1 -3 6t-4 5z" />
    <glyph glyph-name="FL0023h" unicode="#" horiz-adv-x="512" 
d="M278 76q-2 23 -2.5 46.5t-1.5 46.5h-5h-14h-9t-10 1q-1 -9 -1.5 -17.5t-0.5 -11.5q0 -4 -0.5 -11.5t-0.5 -17.5v-42q0 -10 0.5 -17.5t0.5 -11.5q0 -1 -7 -4t-15 -6.5t-14.5 -6.5l-6.5 -3q-9 0 -13 5.5t-6.5 12.5t-4 12.5t-4.5 5.5h-2q-1 -1 -2.5 -6.5l-1.5 -5.5
q-2 -2 -2.5 -5t-1.5 -3q-3 -2 -10.5 -3t-8.5 -1q-2 2 -8 8.5t-7 7.5h-4l-16 -8h-4q-1 1 -3.5 4t-4.5 4v17q0 28 1 54.5t3 52.5q-7 1 -12 1h-9h-8l-35 8q-5 2 -8.5 9.5t-3.5 12.5q0 15 9.5 19t21.5 4v4q-5 0 -12.5 7.5t-6.5 16.5q0 1 6 1h29q-1 2 -6 4t-11 4t-10.5 4t-4.5 4
q-1 1 -1 7v8l72 1q1 6 1.5 12.5t0.5 12.5q1 12 6.5 20.5t5.5 19.5q0 17 -4 28h-98q1 18 6.5 23.5t12 6l13 1t9.5 8.5q0 11 -8.5 13.5t-14.5 2.5t-6 8q0 12 4.5 17t12.5 17q6 7 18.5 6.5t20.5 5.5l22 -1v13q0 33 -0.5 72t4.5 74q1 4 4 4.5t5 0.5t3.5 -0.5t3.5 -0.5
q6 -12 11.5 -16.5t16.5 -4.5q2 0 5.5 0.5t4.5 1.5l3 5t4 6q2 1 10.5 1.5t8.5 2.5q3 1 10.5 9t9.5 10q20 -5 31 -19v-35q1 -24 1.5 -47.5t1.5 -46.5l6 1h13h10t10 -1q1 9 1.5 17.5t0.5 11.5q0 4 0.5 11.5t0.5 17.5v42q0 10 -0.5 17.5t-0.5 11.5q0 1 7 4t15 6.5t14.5 6.5
l6.5 3q9 0 13 -5.5t6.5 -12.5t4 -12.5t4.5 -5.5h2q1 1 2.5 6.5l1.5 5.5q2 2 2.5 5t1.5 3q3 2 10.5 3t8.5 1q2 -2 8 -8.5t7 -7.5h4l16 8h4q1 -1 3.5 -4t4.5 -4v-17q0 -28 -1 -54.5t-3 -52.5q7 -1 11 -1h9h9l35 -8q5 -2 8.5 -9.5t3.5 -12.5q0 -15 -9.5 -19t-21.5 -4v-4
q5 0 12.5 -7.5t6.5 -16.5q0 -1 -6 -1h-29q1 -2 6 -4t11 -4t10.5 -4t4.5 -4q1 -1 1 -7v-8l-72 -1q-1 -6 -1.5 -12.5t-0.5 -12.5q-1 -12 -6.5 -20.5t-5.5 -19.5q0 -17 4 -28h98q-1 -18 -6.5 -23.5t-12 -6l-13 -1t-9.5 -8.5q0 -11 8.5 -13.5t14.5 -2.5t6 -8q0 -12 -4.5 -17
t-12.5 -17q-3 -4 -8 -5t-10.5 -1.5t-11 -1.5t-9.5 -4l-22 1v-13q0 -33 0.5 -72t-4.5 -74q-1 -4 -4 -4.5t-5 -0.5t-3.5 0.5t-3.5 0.5q-6 12 -11.5 16.5t-16.5 4.5q-2 0 -5.5 -0.5t-4.5 -1.5l-3 -5t-4 -6q-2 -1 -10.5 -1.5t-8.5 -2.5q-3 -1 -10.5 -9t-9.5 -10q-20 5 -31 19v35
zM280 300q0 23 -0.5 46.5t-0.5 46.5q-5 0 -19 -1t-22 -2q0 -23 0.5 -47t0.5 -47q5 1 19 2t22 2z" />
    <glyph glyph-name="FL0024h" unicode="$" horiz-adv-x="308" 
d="M201 19l-94 -18v7q0 5 0.5 9t0.5 7v4q0 1 0.5 6l1 10l1 10t0.5 6q0 2 -1 9t-1.5 15t-1.5 15.5t-1 10.5q0 4 0.5 11.5t0.5 17.5v1q-3 0 -6.5 0.5t-8.5 1.5v12q0 2 -1 3q-5 0 -10.5 -3t-10 -5.5t-8 -4t-4.5 1.5q-8 3 -15 11t-12.5 17t-8.5 16.5t-3 9.5v18l3 13h3
q5 0 2.5 2.5l-2.5 2.5q0 2 -3 7.5t-1 5.5q12 4 18 6.5t9.5 4t6 2t7.5 0.5q7 0 15 -3.5t30 -20.5q4 -5 16 -10.5t20 -1.5q1 0 6.5 3.5t9.5 7t5 4.5q1 7 1.5 12.5t0.5 12.5v11q0 11 1 14v6l-15 10q0 4 -4 8.5t-9.5 8.5t-11.5 6.5t-10 3.5l-42 3q0 2 -11 1t-19 -1q-6 0 -6 2
q0 11 -2 19t-19 15l4 34q-2 5 0 8t2 9q-1 5 -1.5 11.5t-0.5 16.5q0 14 3 30t10.5 30.5t20.5 26.5t32 17l26 1q1 11 2 20.5t1 13.5t0.5 11.5t0.5 17.5v21l-5 48q-10 11 0 10.5t21.5 -4.5t13.5 -5q2 2 2.5 5t1.5 3q3 2 10.5 3t8.5 1q2 -2 8 -8.5t7 -7.5h4l16 8h4q1 -1 3.5 -4
t4.5 -4v-17v-41v-18q0 -6 -1 -12t-2 -13.5t-2 -20.5q17 1 31 -1.5t22 -9.5q6 -10 8 -14.5t8 -20.5l2 -10q-5 -13 -7 -17t-5 -4h-4q-18 2 -19.5 0t13.5 -10l-4 -9l0.5 -1t1.5 -2q-31 6 -55.5 10t-28.5 6q-2 -9 -10 -9h-10q-5 0 -9 0.5t-9 1.5q-2 -1 -8.5 -3t-7.5 -3
q-2 -12 -1 -18.5t1 -20.5l2 -26l17 2q3 0 5.5 -2t9 -4t19.5 -4.5t36 -3.5q-1 -1 -1 -2q0 -2 5 -4t10.5 -4t10.5 -4t5 -4q0 -1 -1 -2q17 -14 30 -31t13 -45q-2 -16 -3.5 -35.5t-10.5 -54.5q-2 -14 -7 -19.5t-19 -14.5l-3 -2q-20 -15 -33 -19q0 -11 0.5 -17t0.5 -11
q0 -8 -0.5 -18.5t-2.5 -34.5l-1 -9q-1 -12 -2 -21t-1 -20zM176 482h1v1h-1v-1z" />
    <glyph glyph-name="FL0025h" unicode="%" horiz-adv-x="392" 
d="M265 337l-105 -124q-1 -5 -2 -9t-1 -5q0 -3 -7.5 -18t-16.5 -34.5l-18 -39t-12 -31.5q-1 -4 -2 -12.5t-2.5 -17t-4.5 -15t-9 -6.5q-13 0 -15 8t-1.5 17.5t-1.5 17.5t-14 8q-4 0 -5.5 -3t-2 -7t-2.5 -7t-6 -3h-1q-2 2 -6.5 5.5t-5.5 5.5l-3 -3h-3q-4 0 -4.5 3t-0.5 6
q0 20 5 38t6 37q0 4 3.5 12t7 16.5t7 16t3.5 11.5q2 9 9.5 23t15.5 28.5t15 28t9 22.5q54 57 85.5 105t48.5 87.5t22 69.5t5 50q0 4 2 12t5.5 15.5t8.5 13.5t11 6q13 0 13.5 -9t-1.5 -19.5t-1.5 -19.5t12.5 -9q4 0 5.5 3t2 7t2 7t6.5 3h1l12 -12q0 1 1.5 2t1.5 2h3
q4 0 4.5 -3t0.5 -6q0 -20 -5 -38t-6 -37q0 -4 -0.5 -13.5t-1.5 -20t-1.5 -19.5t-0.5 -13q-2 -9 -8.5 -18.5t-13.5 -19.5t-13 -19.5t-7 -18.5q-4 -12 -13.5 -28t-9.5 -28v-1zM178 494q0 -8 -3.5 -16.5t-1.5 -16.5q-2 -3 -6 -14.5t-5 -14.5q-5 -13 -9 -17.5t-11 -14.5
q-1 -2 -2.5 -6t-2.5 -5q-11 -9 -32 -9q-9 0 -19.5 1.5t-19.5 5.5q-6 3 -10.5 4t-6.5 5l-8 14q-5 7 -5.5 9.5t-5.5 10.5q-6 8 -8.5 11t-2.5 14q0 8 1 16t1 16v1q0 2 -1 9.5t-2.5 16.5t-2.5 17t-1 10v1q0 2 -0.5 3t-0.5 3v1v2q0 2 0.5 3t0.5 2v2q2 3 4.5 3.5t2.5 3.5
q0 4 -3 5.5t-4 5.5q0 2 -1 8.5t-1 8.5q0 9 5.5 20t13.5 21.5t16 19.5t13 15v2q0 9 6 11t14 2h7q3 0 11 -1.5t16.5 -4t15.5 -5.5t9 -7q4 -7 10 -13t7 -14v-3v-5v-5v-3q1 -2 6 -9q1 -3 4 -12.5t3 -11.5q4 -17 4 -42q0 -10 -0.5 -20t1.5 -21q0 -2 2 -4t2 -3v-6zM105 576
q0 3 -4 13t-6 10t-3 -2.5t-2 -3.5q-1 -2 -3 -7.5t-4 -7.5v-3q0 -14 1 -27.5t0 -28.5q2 -8 2 -13v-12q0 -1 -0.5 -4.5t-0.5 -4.5v-1v-3v-1q0 -8 5.5 -10t4.5 -6h2q1 0 1 5l6 24v2q0 5 -1 9t-1 8q0 17 1.5 32t1.5 32zM379 130q0 -8 -3.5 -16.5t-1.5 -16.5q-2 -3 -6 -14.5
t-5 -14.5q-5 -13 -9 -17.5t-11 -14.5q-1 -2 -2.5 -6t-2.5 -5q-11 -9 -32 -9q-9 0 -19.5 1.5t-19.5 5.5q-6 3 -10.5 4t-6.5 5l-8 14q-5 7 -5.5 9.5t-5.5 10.5q-6 8 -8.5 11t-2.5 14q0 8 1 16t1 16v1q0 2 -1 9.5t-2.5 16.5t-2.5 17t-1 10v1q0 2 -0.5 3t-0.5 3v1v2q0 2 0.5 3
t0.5 2v2q2 3 4.5 3.5t2.5 3.5q0 4 -3 5.5t-4 5.5q0 2 -1 8.5t-1 8.5q0 9 5.5 20t13.5 21.5t16 19.5t13 15v2q0 9 6 11t14 2h7q3 0 11 -1.5t16.5 -4t15.5 -5.5t9 -7q4 -7 10 -13t7 -14v-3v-5v-5v-3q1 -2 6 -9q1 -3 4 -12.5t3 -11.5q4 -17 4 -42q0 -10 -0.5 -20t1.5 -21
q0 -2 2 -4t2 -3v-6zM306 212q0 3 -4 13t-6 10t-3 -2.5t-2 -3.5q-1 -2 -3 -7.5t-4 -7.5v-3q0 -14 1 -27.5t0 -28.5q2 -8 2 -13v-12q0 -1 -0.5 -4.5t-0.5 -4.5v-1v-3v-1q0 -8 5.5 -10t4.5 -6h2q1 0 1 5l6 24v2q0 5 -1 9t-1 8q0 17 1.5 32t1.5 32z" />
    <glyph glyph-name="FL0026h" unicode="&#x26;" horiz-adv-x="375" 
d="M144 516q1 -1 0 -2q-4 -11 -4 -32q0 -9 -1.5 -16.5t-7.5 -11.5l-38 -22l48 -2l12 -26h29q11 3 24.5 4.5t26.5 2t24.5 -1.5t18.5 -6q15 -1 26 -1.5t12 -0.5l39 -5q5 -2 8.5 -9.5t3.5 -12.5q0 -15 -9.5 -19t-21.5 -4v-4q5 0 12.5 -7.5t6.5 -16.5q0 -1 -6 -1l-33 -3
q1 -2 7 -3.5t12.5 -3t11.5 -3t5 -3.5q1 -1 1 -7v-8l-65 -3q1 -6 6.5 -11.5t12 -11.5t11.5 -11.5t5 -11.5q-1 -11 0 -22.5t1 -25.5t-1.5 -32t-7.5 -42q-2 -16 -10.5 -25t-17.5 -17q-2 -3 -2.5 -6t-2.5 -6q-8 -11 -24.5 -18.5t-36.5 -12.5q-2 -1 -3.5 0.5t-3.5 0.5l-7 -4
q-17 -4 -24.5 -5t-15.5 -1l-1 1q-3 0 -9.5 5t-15 11t-17.5 11.5t-16 6.5q-1 0 4 -8.5t10 -15.5t6 -8l-1 1l-18 1q-14 -2 -16 6q-2 1 -3.5 1.5t-3.5 2.5q-8 5 -16 10.5t-17 13.5q-16 13 -22 21.5t-8 27.5q-11 49 -13 76t-4 48q0 19 5 32t12.5 23t16 18.5t14.5 17.5
q-17 17 -28.5 52.5t-11.5 73.5q1 11 0.5 21.5t-0.5 23.5q0 14 1.5 31t7.5 41q2 16 5.5 24t13.5 16q1 2 2 5t3 7q8 11 25.5 18.5t37.5 12.5h1q0 1 1 1q2 0 5.5 -10t5.5 -10l5 24q1 4 13 4h21v-2q3 -2 10 -1.5t24 2.5q14 2 16 -6q1 -1 2.5 -2t3.5 -3q8 -5 16.5 -10t17.5 -13
q16 -13 22 -21.5t8 -27.5q6 -24 8.5 -36t3.5 -19t1.5 -12.5t1.5 -15.5q0 -4 -13 -5t-29 -2t-29.5 -2t-14.5 -5q-14 13 -20 20.5t-9 13t-4 9.5t-5 10q-11 -2 -15 -5t-5 -4q-2 -1 -3.5 -1.5l-1.5 -0.5q-1 -1 -1 -5q0 -3 -1 -4zM177 273q-2 5 -4.5 7.5l-7.5 7.5v1l-1 -5
q-9 -2 -11.5 -2.5t-4.5 -11.5l-17 -29v-9q0 -12 1 -24.5t3 -25.5q4 -2 8 -5.5t9 -8.5q3 -2 3 -5q0 -2 8 -4q5 1 15 4.5t11 4.5q4 0 5 1q0 2 0.5 4.5t0.5 5.5l-2 8.5t-1 13.5q0 4 1 4q1 6 5.5 8.5t9.5 3.5t8 1.5t1 2.5l-23 24z" />
    <glyph glyph-name="FL0027h" unicode="'" horiz-adv-x="181" 
d="M16 596l8 46q2 11 15.5 19t42.5 10l26 -10q25 -9 38 -23t17.5 -31t1.5 -36.5t-11 -39.5q0 -4 -4 -13.5t-9.5 -20t-10.5 -19t-7 -10.5l-35 -33q-14 -5 -24.5 -4t-18 4t-11.5 6.5t-4 5.5q0 1 0.5 6.5t0.5 12.5q0 8 0.5 15.5t0.5 13.5q0 9 -1 8v3v9q0 14 -8 20l41 45
q-5 4 -10 3.5t-14 -1.5q-1 -1 -7 -1q-4 0 -8 4q-1 1 -4 6t-5 5z" />
    <glyph glyph-name="FL0028h" unicode="(" horiz-adv-x="294" 
d="M175 178l-5 39q0 -5 -7 -5q-9 0 -13 7q1 13 1.5 39.5t0.5 55.5v56v41q0 10 -5.5 13t-5.5 12q0 2 2 5.5t3 5.5l24 48l48 51q6 7 10.5 16t10.5 20t15 24.5t24 30.5l-12 13q-10 10 -18 13t-13.5 3.5t-8.5 0t-3 2.5q0 2 7.5 5.5t14.5 6.5q4 2 3 4t-3.5 4.5l-5.5 5.5t-3 8
q0 6 -11 1.5t-18 -4.5q-26 0 -42 -3.5t-37 -20.5q-2 -2 -6 -11t-5 -11q-15 -17 -23 -27.5t-16 -33.5q-1 -3 -8.5 -18t-16.5 -32.5t-16.5 -33t-8.5 -19.5q2 -7 -0.5 -24.5t-6 -37t-7 -37.5t-3.5 -26q0 -1 8.5 -9t19 -17.5t19 -17l8.5 -7.5l-7.5 2.5t-16.5 5t-16 4.5t-7 1
q1 -2 1 -8v-3q1 0 0 1.5t-2 1.5v-10q0 -10 3.5 -28.5t8.5 -38.5t10 -38.5t8 -28.5q0 -2 3.5 -8.5t8 -14t8.5 -14.5t5 -10l4.5 -6l1.5 -2q2 -14 4.5 -31t9.5 -33.5t20 -31t36 -24.5q10 -4 21.5 -5t21.5 -1q11 0 19.5 0.5t13.5 0.5q6 0 6 3v4q0 3 1.5 5.5t10.5 2.5q5 0 12.5 3
t25.5 -5l1 2q9 17 1 34t-23 30.5t-31 21.5t-22 7q-1 0 -4 11t-1 16z" />
    <glyph glyph-name="FL0029h" unicode=")" horiz-adv-x="294" 
d="M123 522l5 -39q0 5 7 5q9 0 13 -7q-1 -14 -1.5 -40t-0.5 -56v-56v-40q0 -10 5.5 -13t5.5 -12q0 -2 -2 -5.5t-3 -5.5l-24 -48l-48 -51q-6 -7 -10.5 -16t-10.5 -20t-15 -24.5t-24 -30.5l12 -13q10 -10 18 -13t13.5 -3.5t8.5 0t3 -2.5q0 -2 -7.5 -5.5t-14.5 -6.5
q-4 -2 -3 -4t3.5 -4.5t5.5 -6t3 -7.5q0 -6 11 -1.5t18 4.5q26 0 42 3.5t37 20.5q2 2 6 11t5 11q15 17 23 27.5t16 33.5q1 3 8.5 18t16.5 32.5t16.5 33t8.5 19.5q-2 7 0.5 24.5t6 37t7 37.5t3.5 26q0 1 -8.5 9t-19 17.5t-19 17l-8.5 7.5l7.5 -2.5t16.5 -5t16 -4.5t7 -1
l-1.5 7.5l-0.5 2.5q0 1 1 -0.5l1 -1.5q1 0 1 10t-3.5 28.5t-8.5 38.5t-10 38.5t-8 28.5q0 2 -3.5 8.5t-8 14t-8.5 14.5t-5 10l-4.5 6l-1.5 2q-2 14 -4.5 31t-9.5 33.5t-20 31t-36 24.5q-10 4 -21.5 5t-21.5 1q-11 0 -19.5 -0.5t-13.5 -0.5q-6 0 -6 -3v-5q0 -2 -1.5 -4.5
t-10.5 -2.5q-5 0 -12.5 -3t-25.5 5l-1 -2q-9 -17 -1 -34t23 -30.5t31 -21.5t22 -7q1 0 4 -11t1 -16z" />
    <glyph glyph-name="FL002Ah" unicode="*" horiz-adv-x="271" 
d="M140 552l-10 10l-54 -56l-4 5q-3 1 -3 4q-2 2 3 11.5t4 13.5l-1 -2l-7 -7l-6 -7q-2 -1 -2.5 -1.5l-0.5 -0.5q-5 5 -5.5 13t1.5 10v2q-8 -6 -14.5 -9t-14.5 5q-2 3 -4 8.5t0 9.5l13 22q0 1 10 11.5t24 27.5l-50 53l5 3q1 4 4 4q2 2 11 -4t14 -4l-3 3.5t-6 7.5t-5.5 8
t-2.5 5q5 5 11.5 2.5t8.5 -5.5l3 3q-6 5 -9 12.5t5 15.5q2 3 7 5t10 0l22 -14l32 -34l12 13l52 55q9 -11 9 -17q0 -7 -7 -12t-3 -13q6 -6 12 -3t8 7q4 1 8 -2q5 -6 8 -15t5 -20q0 -8 -6.5 -13.5t-7.5 -13.5l-20 -18l-8 -9q1 -1 3.5 -3t4.5 -5q4 -4 6 -4l44 -40
q-10 -9 -14 -11t-6.5 -1.5t-4.5 1.5t-8 -2q-5 -7 -2 -12.5t6 -9.5q4 -2 -1 -7q-6 -6 -14 -7.5t-19 -3.5q-7 -1 -12.5 6t-12.5 8z" />
    <glyph glyph-name="FL002Bh" unicode="+" horiz-adv-x="385" 
d="M135 291v20h-106v8q0 6 1 7q0 2 4.5 4t10.5 4t11 4t6 4h-5h-12h-13q-5 0 -5 1q-1 9 6.5 16.5t12.5 7.5v4q-12 0 -21.5 4t-9.5 19q0 5 3.5 12.5t8.5 9.5l35 8q1 0 20.5 0.5t48.5 1.5l1 99h8q6 0 7 -1q2 0 4 -4.5t4 -10.5t4 -11t4 -6l1 5.5t2 13t2 13.5t2 6q9 1 13.5 -8
t4.5 -14h4q0 12 4 21.5t19 9.5q5 0 12.5 -3.5t9.5 -8.5l8 -35v-63h24h103q-1 -18 -6.5 -23.5t-12 -6l-13 -1t-9.5 -8.5q0 -11 8.5 -13.5t14.5 -2.5t6 -8q0 -12 -6.5 -23t-14.5 -23q-3 -4 -8 -5t-10.5 -1.5t-11 -1.5t-9.5 -4l-36 2h-16q1 -2 1 -15q0 -9 1 -10l7 -80
q-18 1 -24.5 3t-8.5 4t-3.5 5t-9.5 6q-11 0 -13.5 -8.5t-2.5 -14.5t-8 -6q-12 0 -21 7t-21 15q-4 3 -5 8t-1.5 10.5t-1.5 11t-4 9.5z" />
    <glyph glyph-name="FL002Ch" unicode="," horiz-adv-x="179" 
d="M14 125l15 63q4 25 61 23l25 -12q46 -24 50 -59t-16 -75q-1 -4 -6 -13t-11 -19t-12 -18t-8 -10l-46 -42q-28 -7 -48 0t-20 10q0 1 4.5 12.5t9.5 25t9 25.5t3 13q-3 1 -3 10v17q0 9 -0.5 17t-3.5 10l46 19q-5 5 -9.5 4.5t-13.5 -0.5q-5 0 -10 -3.5t-11 0.5q-2 2 -5 2z" />
    <glyph glyph-name="FL002Dh" unicode="-" horiz-adv-x="256" 
d="M119 310l110 3v8q0 6 -1 7q0 2 -4.5 4t-10.5 4t-11 4t-6 4h5h12h12q6 0 6 1q1 9 -6.5 16.5t-12.5 7.5v4q12 0 21.5 4t9.5 19q0 5 -3.5 12.5t-8.5 9.5l-35 8q-1 0 -9 0.5t-20 1t-26 1t-27 0.5h-103q1 -18 6.5 -23.5t12 -6l13 -1t9.5 -8.5q0 -11 -8.5 -13.5t-14.5 -2.5
t-6 -8q0 -12 6.5 -23t14.5 -23q3 -4 8 -5t10.5 -1.5t11 -1.5t9.5 -4z" />
    <glyph glyph-name="FL002Eh" unicode="." horiz-adv-x="179" 
d="M164 127l-11 -69q-2 -14 -19 -16t-46 -1l-25 12q-46 24 -50 58t16 76q2 8 13.5 14.5t17.5 7.5l43 3q12 -4 15.5 -5t3.5 -4q0 -2 10 -6t12 -6q6 -5 11.5 -20t12.5 -20l-53 -21q5 -5 9.5 -4.5t13.5 0.5q5 0 10 3.5t11 -0.5q2 -2 5 -2z" />
    <glyph glyph-name="FL005Ch" unicode="/" horiz-adv-x="353" 
d="M163 209l105 124v1q0 12 9.5 28t13.5 28q3 18 16 40t17 40q0 4 0.5 13t1.5 19.5t1.5 20t0.5 13.5q1 19 6 37t5 38q0 3 -0.5 6t-4.5 3h-3q0 -1 -1.5 -2t-1.5 -2l-12 12h-1q-5 0 -6.5 -3t-2 -7t-2 -7t-5.5 -3q-12 0 -17 8.5t-8.5 19t-8.5 19t-18 8.5q-6 0 -10.5 -6
t-8 -13.5t-5.5 -15.5l-3 -12q-4 -17 -12 -41t-24 -59t-43.5 -82.5t-70.5 -111.5q-2 -9 -9 -23.5t-15 -30t-15 -30.5t-9 -24q0 -4 -0.5 -13t-1.5 -19.5t-1.5 -20t-0.5 -13.5q-1 -19 -6 -37t-5 -38q0 -3 0.5 -6t4.5 -3h3l3 3q1 -2 5.5 -5.5t6.5 -5.5h1q4 0 6 3t2.5 7t2 7
t5.5 3q12 0 17 -8.5t8.5 -19t8.5 -19t18 -8.5q6 0 10.5 6t8 13.5t5.5 15.5l3 12q3 12 8.5 32.5t11.5 40.5t10 35.5t4 18.5q0 1 1 5t2 9z" />
    <glyph glyph-name="FL0030h" unicode="0" horiz-adv-x="351" 
d="M340 279q0 -8 -2.5 -16.5t-4.5 -17t-3.5 -17t0.5 -15.5q-1 -3 -4 -11.5t-7 -18t-7 -18t-4 -11.5q-5 -12 -9.5 -20t-9 -14.5t-9.5 -13t-12 -16.5q-1 -2 -4.5 -11t-5.5 -11q-20 -18 -63 -18q-19 0 -39.5 3.5t-39.5 11.5q-11 5 -20 7.5t-13 10.5l-17 27q-5 7 -7 11t-3.5 8
t-3.5 8.5t-8 12.5t-10 12.5t-7 9.5t-4 11.5t-1 17.5q0 16 2 31.5t2 31.5v2q0 4 -2 19.5t-5 33.5t-5 33.5t-2 19.5v3q0 2 -0.5 4.5t-0.5 6.5v3v4q0 2 0.5 5t0.5 5v4q3 5 9 6.5t6 6.5q0 8 -6.5 11.5t-8.5 10.5q0 4 -2 17t-2 18q0 18 11.5 39.5t27 42.5t31.5 39.5t26 30.5
l0.5 1t0.5 2q0 19 11.5 22.5t28.5 3.5h13q7 0 23 -3t33 -7.5t31 -11.5t17 -14q8 -13 20.5 -25.5t14.5 -27.5v-6v-11v-9v-6q1 -5 5 -9t6 -9q1 -3 3.5 -10t4.5 -15t4 -14.5t2 -8.5q5 -22 7 -42t2 -42q0 -20 -0.5 -40.5t2.5 -42.5q0 -2 3.5 -7t3.5 -6v-12zM219 458q0 4 -5 14
t-11 20.5t-12 18.5t-8 8q-6 0 -11 -7.5t-7 -9.5q-1 -2 -4.5 -7.5t-7 -11.5t-7.5 -12t-6 -8v-6q0 -38 3 -72t1 -73q3 -14 5 -34t2 -31q0 -2 -2 -11.5t-2 -11.5v-1q0 -2 -0.5 -4t-0.5 -4v-3q0 -11 6 -17.5t13.5 -10t13 -6.5t4.5 -7h7q2 0 3 1.5t0 9.5l22 62v6q0 11 -3.5 22.5
t-3.5 22.5q0 42 5.5 81.5t5.5 81.5z" />
    <glyph glyph-name="FL0031h" unicode="1" horiz-adv-x="244" 
d="M127 75q-3 0 -9 -6l-13 -13t-12.5 -13t-7.5 -6q-9 0 -13 18.5t-5.5 42.5t-1 46t0.5 30q0 91 6.5 176t6.5 176q-2 2 -2.5 5t-1.5 3l-53 4q0 6 3 10t3 10l-1 4l-4 4.5t-4 6.5q0 4 4.5 6t9.5 2q6 0 12 -0.5t9 -0.5l-26 18q-12 0 -16.5 5.5t-4.5 20.5q0 5 3.5 12.5t8.5 9.5
l35 8h117h36l18 -26q0 -3 -1 -27t-1.5 -52t-1.5 -52.5t-1 -27.5v-15q0 -7 -1.5 -22t-3.5 -31t-4 -30.5t-3 -20.5v-264q0 -7 -2 -19t-6 -20q-15 3 -24.5 -1t-16 -10.5t-12.5 -12t-15 -5.5q-8 0 -7.5 9t3.5 19.5t4.5 19.5t-5.5 9z" />
    <glyph glyph-name="FL0032h" unicode="2" horiz-adv-x="320" 
d="M14 272l1 61q17 8 19.5 18.5t2.5 25.5q0 3 2.5 8.5t1.5 8.5l90 -13q4 1 10 4.5t12 8.5t10 11t4 12l17 27v8q-1 17 -7 35t-8 35q-2 4 -6 6q-8 -2 -19 -5t-15 -5q-9 -10 -19 -15.5t-19.5 -7.5t-17 -2.5t-11.5 -0.5q-5 0 -8 0.5t-6.5 2t-10 5.5t-18.5 10q-2 0 1 8t3 10
l2.5 2.5t-2.5 2.5t-3 2l-3 16v24q0 3 5.5 12.5t13.5 20.5t17.5 21.5t17.5 14.5q2 8 10.5 6t19.5 -2q2 1 5 1q14 2 22.5 3.5t10.5 1.5q9 0 13 -4l37 -31q1 -1 1 3q0 6 0.5 16t4.5 10h3q20 -6 33 -13.5t29 -21.5q16 -13 22 -20.5t8 -26.5q10 -46 11.5 -72.5t3.5 -47.5
q0 -37 -14.5 -67t-31.5 -47q3 -4 -2.5 -7.5t-12.5 -7t-12.5 -6.5t-2.5 -6q-24 -1 -39 -2.5t-23.5 -3t-12.5 -2t-6 0.5l-18 2l1 -61q0 -17 -0.5 -25.5t1.5 -24.5q1 -1 7.5 -4t8.5 -4q10 2 21.5 5.5t12.5 4.5q3 0 4 -6.5t2 -12.5q4 3 29.5 8t57.5 13q-2 -2 -2 -4v-8
q2 0 5.5 0.5t8.5 0.5q10 0 12 -8q0 1 -1 1q-7 0 -7 -11q0 -1 3 -10.5t3 -11.5l-38 -23q0 -1 7 -0.5t16 0.5t16 0.5t7 -0.5l-2 -14q-3 -11 -5 -16.5t-3.5 -9.5t-3.5 -8t-5 -11q-8 -11 -25.5 -14t-37 -2t-37 3.5t-25.5 2.5l-8 18q-3 3 -11.5 -5t-14.5 -8l-84 -6
q-8 10 -13.5 29.5t-9 42t-5 46t-1.5 42.5q0 14 0.5 24t1.5 16q0 8 -2 13t0 10zM189 171h-1q0 -1 0.5 -1.5l0.5 -0.5v2z" />
    <glyph glyph-name="FL0033h" unicode="3" horiz-adv-x="333" 
d="M34 381l122 16q9 2 14 7t7 16l17 29v9q-1 17 -2.5 35t-4.5 35q-1 1 -7.5 4t-8.5 4q-11 -2 -23 -5.5t-13 -4.5q-5 -1 -6 -2t-1 -6v-3q4 -1 -2.5 -3t-19.5 -5t-31 -6.5t-37 -7.5q2 2 2 4v8q-2 0 -6 -0.5t-10 -0.5q-12 0 -12 8q0 -3 5 1t2 15l41 24q0 1 -5 1q-6 0 -17 -1
t-20 -1q-7 0 -7 1l2 14q3 11 4.5 18.5t3 13.5t3.5 11.5t5 13.5q8 11 26 19t38.5 13t39 7t27.5 2l8 -19q1 -2 6 0.5t11 6t11.5 7t8.5 3.5h4q20 -7 34 -15t31 -22q16 -13 22 -21.5t8 -27.5q11 -49 13 -76t4 -48q0 -18 -5.5 -31.5t-13 -24t-15.5 -18.5t-14 -17q17 -17 32.5 -49
t15.5 -70q-2 -22 -4 -49t-13 -75q-2 -19 -8 -28t-22 -21q-17 -14 -31 -22.5t-34 -14.5h-4q-4 0 -4.5 11t-0.5 16t-1 4l-39 -33q-4 -4 -13 -4q-3 0 -11.5 1.5t-22.5 3.5q-2 -2 -7 1q-11 0 -20 -2t-11 6q-8 5 -18 16t-18.5 22.5t-14 21.5t-5.5 13v25l3 16q-2 2 3 2t2.5 2.5
l-2.5 2.5q0 2 -3 11t-1 9q13 6 20 10t10.5 5.5t6 2t8.5 0.5q4 0 12 -0.5t17.5 -3t20 -8t20.5 -16.5q4 -2 15.5 -5t19.5 -5q7 2 8 6q2 18 8 37t7 36v9l-17 28q-1 6 -6 12t-11 11.5t-12 9t-10 4.5l-93 -14q3 20 -2 36.5t-26 27.5q-1 0 1.5 3t6 6.5t6.5 7t3 4.5z" />
    <glyph glyph-name="FL0034h" unicode="4" horiz-adv-x="432" 
d="M394 239h-50q0 -34 -0.5 -69t-0.5 -64v-47v-22q-2 -7 -8.5 -13t-14.5 -6q-9 0 -12.5 3t-5.5 7t-5.5 7t-12.5 3q-6 0 -13 -4.5t-13 -8.5t-10 -5t-3 6l3 28q-1 -3 -5 -7.5t-8.5 -8t-8 -5.5t-2.5 1l-4 11q1 3 1 12v18v47v56v30v16t-1 16q-6 -1 -14 -4t-15.5 -5.5t-12.5 -3.5
t-5 2q-4 3 -23.5 1.5t-42 -4t-41.5 -3.5t-22 3q-4 6 0 13t10.5 14t12.5 14t6 13t-7.5 8t-16.5 4t-15 6t-3 13q0 1 -6.5 9t-9.5 3q-2 -3 -3.5 1.5t-1.5 7.5q0 10 6 18t13.5 15t13.5 14.5t6 16.5v67q2 9 10.5 29t18 42t17.5 42.5t9 29.5q4 12 13.5 28t9.5 28v1l63 6
q0 6 4.5 3.5t10 -6.5t10 -6.5t4.5 2.5q2 5 4 6.5t7 1.5h4q1 0 3.5 -3.5t4.5 -4.5l2 -49q0 -11 2.5 -4.5t6 18t6.5 23l3 11.5q9 0 9 -2v-4q0 -7 1 -8q2 1 6 2t5 1h4q2 0 8 -3l8 -4q5 3 7 7.5t4.5 9t5.5 7.5t11 3q3 0 6 -1t4 -7l4 -31q-2 -48 -3 -84.5t-1 -62.5q0 -40 1 -61
t2.5 -30t2.5 -10t2 -1t1 -7v-9q12 0 14 0.5t3 0.5l35 -8q5 -2 8.5 -9.5t3.5 -12.5q0 -15 -13.5 -21.5t-25.5 -6.5l13 -2q5 0 10 -6t4 -15q0 -2 -4 -6.5l-4 -4.5l-1 -4q0 -6 3 -10t3 -10l-1 -4q-1 0 -1.5 -3t-2.5 -5zM224 506q0 -1 -8 -7.5t-9 -8.5q0 -2 -3 -9t-6.5 -15
t-6.5 -14.5t-4 -7.5q0 -4 -7.5 -27.5t-20.5 -49.5l5 -2l63 1q-2 45 -1.5 84t-1.5 56z" />
    <glyph glyph-name="FL0035h" unicode="5" horiz-adv-x="308" 
d="M15 427l-4 -46q17 -8 19.5 -18.5t2.5 -25.5q0 -2 6 -2q8 0 19.5 0.5t11.5 -1.5l44 -4q4 -1 10 -4.5t12 -8.5t10 -11t4 -12l17 -27v-8q-1 -3 -1 -8v-9v-16q0 -8 -0.5 -16t-1.5 -16q0 -1 -3 -4t-7 -6.5t-7.5 -6.5t-4.5 -3q-4 -3 -9.5 -2t-11 4t-10 6.5t-6.5 6.5
q-23 22 -31.5 27.5t-15.5 5.5q-5 0 -8 -0.5t-6.5 -2t-10 -5.5t-18.5 -10q-2 0 1 -8t3 -10l2.5 -2.5t-2.5 -2.5t-3 -2l-3 -16v-24q0 -3 3.5 -13t9 -21.5t13 -22.5t15.5 -15q1 -4 4.5 -2t8.5 5.5t10.5 7.5t10.5 4q1 -1 1 -4v-7v-7v-2q25 -5 33 -4t13 3l22 7q3 1 9.5 -2
t11.5 -3h3q20 6 33 13.5t29 21.5q16 13 22 20.5t8 26.5q10 46 11.5 72.5t3.5 47.5q0 37 -14.5 67t-31.5 47q3 4 -2.5 7.5t-12.5 7t-12.5 6.5t-2.5 6q-24 1 -39 2.5t-23.5 3t-12.5 2t-6 -0.5l-18 -2l6 46q0 17 3 34t5 33q1 1 7.5 4t8.5 4q5 -1 9.5 -1.5t9.5 -0.5q9 0 10 -1
q3 0 6.5 3t4.5 9q4 -3 29.5 -8t57.5 -13q-2 2 -2 4l4 11q-16 12 -14 14.5t20 0.5h5q3 0 5 5t7 22l-2 14q-3 11 -5 16.5t-3.5 9.5t-3.5 8t-5 11q-8 11 -24.5 14t-35 2t-35.5 -3.5t-25 -2.5l-38 -19q-2 -1 -0.5 2t3 6.5t2.5 6.5t-1 3l-89 2q-11 -14 -15.5 -42t-5.5 -58.5
t1 -57.5t4 -39q0 -8 -2 -13t0 -10zM184 542h-1q0 1 0.5 1.5l0.5 0.5v-2z" />
    <glyph glyph-name="FL0036h" unicode="6" horiz-adv-x="374" 
d="M130 410v-11q0 -4 -0.5 -8t-0.5 -9q0 -9 1 -11q8 9 24 15t32.5 10t30 5.5t16.5 1.5q12 0 25 -3.5t26 -13t25 -27t21 -45.5q2 -6 12 -15t10 -20q0 -3 1 -9t1 -12q0 -5 -2 -9.5t-8 -5.5q-1 -6 -2.5 -12t-1.5 -13q0 -6 1.5 -14t6.5 -19q4 -8 -7.5 -22.5t-23.5 -31.5
q-5 -8 -5.5 -12.5t-0.5 -8.5t-0.5 -8t-5.5 -11l-9 -24q-8 -10 -23 -19t-23 -11q-3 0 -10.5 4.5t-17 9.5t-19.5 9.5t-16 4.5q-9 0 -10.5 -9t-1.5 -16q0 -4 -1 -4q-13 0 -18.5 0.5t-9 3.5t-7.5 8t-14 14q-2 2 -8 6t-6 7q-14 18 -33.5 34t-27.5 40q-1 4 -4 12.5t-7 18.5
t-7 18.5t-4 12.5q4 14 -1 33t-5 35q0 2 5 8t5 7q-1 1 -7.5 9.5t-6.5 10.5q3 22 1 37.5t-2 36.5q0 20 3.5 41.5t5.5 42.5q1 15 6 44t16.5 58.5t30 53t45.5 26.5q10 4 21 5.5t21 1.5t18.5 -0.5t12.5 -0.5q8 0 11 -1.5t6.5 -3t9.5 -3t21 -1.5l20 -8q25 -10 38.5 -26t19.5 -36.5
t7 -45t1 -51.5q-2 -8 -5.5 -15.5t-10.5 -7.5l-61 -14q-14 5 -16.5 8.5t-2 8t0 9.5t-10.5 13l-13 25q-3 3 -1.5 5t2 5t-2 7.5t-13.5 12.5q-2 2 -5 2q-1 0 -6 -1.5t-11.5 -4t-7.5 -4.5l-6.5 -6.5t-3.5 -10.5l-22 -41l6 -58q-1 6 -4 2.5t-7 -9.5zM189 269l-4 8t-6.5 5.5
t-13.5 0t-25 -7.5v-13q0 -2 2 -6l3 -6v-51l51 -31q8 -8 9 -8.5t1 0.5q0 7 5 17t5 33v17q0 6 0.5 12.5t0.5 12.5v6z" />
    <glyph glyph-name="FL0037h" unicode="7" horiz-adv-x="308" 
d="M25 154q-2 -2 -2.5 -5t-1.5 -3l-1 -4q0 -6 3 -10t3 -10l-1 -4l-4 -4.5t-4 -6.5q-1 -9 4 -15t10 -6l13 -2q-12 0 -25.5 -6.5t-13.5 -21.5q0 -5 3.5 -12.5t8.5 -9.5l58 -2q29 -6 40 -2.5t16 18t8.5 39t17.5 60.5l9 79q2 6 10 21.5t16.5 32.5t15 32.5t5.5 21.5l75 204v8
q0 6 -1 7q0 2 -4.5 4t-10.5 4t-11 4t-6 4q1 0 9 2.5t17.5 5.5t9.5 4q1 9 -10.5 14t-16.5 5v4q12 0 25.5 6.5t13.5 21.5q0 5 -3.5 12.5t-8.5 9.5l-35 8q-1 0 -16 0.5t-35.5 1.5t-41.5 1.5t-34 0.5h-124q1 -18 6.5 -23.5t12 -6l13 -1t9.5 -8.5q0 -11 -8.5 -13.5t-14.5 -2.5
t-6 -8q0 -12 6 -28.5t14 -28.5q3 -4 8 -5t10.5 -1.5t11 -1.5t9.5 -4l57 2q-4 -45 -21.5 -94t-36.5 -98.5t-34.5 -98t-15.5 -91.5z" />
    <glyph glyph-name="FL0038h" unicode="8" horiz-adv-x="333" 
d="M91 37q-2 1 -3.5 1.5t-3.5 2.5q-8 5 -16 10.5t-17 13.5q-16 13 -22 21.5t-8 27.5q-11 49 -13 76t-4 48q0 19 5 32t12.5 23t16 18.5t14.5 17.5q-17 17 -28.5 52.5t-11.5 73.5q1 11 0.5 21.5t-0.5 23.5q0 14 1.5 31t7.5 41q2 16 5.5 24t13.5 16q1 2 2 5t3 7q8 11 25.5 18.5
t37.5 12.5h1q0 1 1 1q2 0 5.5 -10t5.5 -10l5 24q1 4 13 4h21v-2q3 0 6 -4t7.5 -9.5t10 -10t12.5 -5.5q0 1 1.5 5.5t3 9.5t3 9.5l1.5 4.5h4l9 -3q14 2 16 -6q1 -1 2.5 -2t3.5 -3q8 -5 16.5 -10t17.5 -13q16 -13 22 -21.5t8 -27.5q6 -24 9 -37.5t4.5 -22.5t2 -16t1.5 -17
q0 -19 -5.5 -37t-13 -34t-15.5 -29t-14 -22q17 -17 32.5 -49t15.5 -70q-1 -11 0 -22.5t1 -25.5t-1.5 -32t-7.5 -42q-2 -16 -10.5 -25t-17.5 -17q-2 -3 -2.5 -6t-2.5 -6q-8 -11 -24.5 -18.5t-36.5 -12.5q-2 -1 -3.5 0.5t-3.5 0.5l-7 -4q-17 -4 -24.5 -5t-15.5 -1l-1 1
q-5 0 -12.5 1.5t-21.5 3.5q-4 -1 -4 -3l-1 1l-17 19l-1 -18q-14 -2 -16 6zM144 516q1 -1 0 -2q-4 -11 -4 -32q0 -18 -9 -28l-9 -11l19 -13l15 -33q4 -8 11.5 1.5t9.5 21.5l17 29v9q-1 17 -2.5 35t-4.5 35q-1 1 -7.5 4t-8.5 4q-11 -2 -15 -5t-5 -4q-2 -1 -3.5 -1.5l-1.5 -0.5
q-1 -1 -1 -5q0 -3 -1 -4zM177 273q-3 10 -13 20l-1 -5q-9 -2 -11 -4.5t-4 -13.5l-17 -29v-9q0 -12 1 -24.5t3 -25.5q4 -2 8 -5.5t9 -8.5q3 -2 3 -5q0 -2 8 -4q5 1 15 4.5t11 4.5q4 0 5 1q0 2 0.5 4.5t0.5 5.5l-2 8.5t-1 13.5q0 4 1 4q2 12 1.5 14t-0.5 7v10v9z" />
    <glyph glyph-name="FL0039h" unicode="9" horiz-adv-x="371" 
d="M239 286q-1 13 0 19t0 20q-8 -9 -20.5 -13t-25 -5.5t-22.5 -1t-13 0.5q-12 0 -28.5 1.5t-33.5 8.5t-32.5 22.5t-24.5 43.5q-2 6 -12 15t-10 20q0 3 -1 9t-1 11q0 6 2 10.5t8 5.5q1 6 2.5 12t1.5 13q0 6 -1.5 14t-6.5 19q-4 8 7.5 22.5t23.5 31.5q5 8 5.5 12.5t0.5 8.5
t0.5 8t5.5 11l9 24q8 10 23 19t23 11q5 1 19 -1t27 -2q12 0 20 2t10 2q13 0 18.5 -0.5t9 -3.5t7.5 -8t14 -14q2 -2 8 -6t6 -7q15 -19 33 -34.5t28 -39.5q1 -4 4 -12.5t7 -18.5t7 -18.5t4 -12.5q-4 -14 1 -33t5 -35q0 -1 -6 -8t-13 -14.5t-13 -14l-6 -6.5l7 1.5t14.5 3t14 3
t6.5 0.5q-3 -22 -1 -37.5t2 -36.5q0 -20 -3.5 -41.5t-5.5 -42.5q-1 -15 -6.5 -44t-16.5 -58.5t-29.5 -53t-45.5 -26.5q-10 -4 -21 -5.5t-21 -1.5t-18.5 0.5t-12.5 0.5q-8 0 -11 1.5t-6.5 3t-9.5 3t-21 1.5l-20 8q-25 10 -36 27t-14 38.5t-1.5 47t1.5 52.5q2 8 5.5 15.5
t10.5 7.5l45 8q14 -5 16.5 -8.5t2 -8t0 -9.5t10.5 -13l13 -25q3 -3 1.5 -5t-2 -5t2 -7.5t13.5 -12.5q2 -2 5 -2q1 0 6 1.5t11.5 4t7.5 4.5l6.5 6.5t3.5 10.5l22 41l-6 58q1 -6 4 -2.5t7 9.5zM165 412q5 -11 18.5 -6.5t45.5 15.5v13q0 2 -2 6l-3 6v51l-51 31q-8 8 -9 8.5
t-1 -0.5q0 -3 -4.5 -6t-10 -7.5t-10 -11.5t-4.5 -19v-17q0 -6 1.5 -23t1.5 -23v-6z" />
    <glyph glyph-name="FL003Ah" unicode=":" horiz-adv-x="179" 
d="M164 127l-11 -69q-2 -14 -19 -16t-46 -1l-25 12q-46 24 -50 58t16 76q2 8 13.5 14.5t17.5 7.5l43 3q12 -4 15.5 -5t3.5 -4q0 -2 10 -6t12 -6q6 -5 11.5 -20t12.5 -20l-53 -21q5 -5 9.5 -4.5t13.5 0.5q5 0 10 3.5t11 -0.5q2 -2 5 -2zM160 383q4 -11 2 -18t-6 -11.5
t-9 -8.5t-7 -8q-6 -14 -18 -15.5t-41 -0.5l-25 12q-26 13 -36.5 27.5t-10.5 31.5q0 14 5.5 29.5t13.5 32.5q2 8 13.5 14.5t17.5 7.5l37 2q12 -4 15.5 -5t3.5 -4q0 -2 10 -6t12 -6q6 -5 11.5 -20t12.5 -20l-11 -17q-1 -1 3.5 -9t6.5 -8z" />
    <glyph glyph-name="FL003Bh" unicode=";" horiz-adv-x="179" 
d="M160 383q4 -11 2 -18t-6 -11.5t-9 -8.5t-7 -8q-6 -14 -18 -15.5t-41 -0.5l-25 12q-26 13 -36.5 27.5t-10.5 31.5q0 14 5.5 29.5t13.5 32.5q2 8 13.5 14.5t17.5 7.5l37 2q12 -4 15.5 -5t3.5 -4q0 -2 10 -6t12 -6q6 -5 11.5 -20t12.5 -20l-11 -17q-1 -1 3.5 -9t6.5 -8z
M14 125l15 63q4 25 61 23l25 -12q46 -24 50 -59t-16 -75q-1 -4 -6 -13t-11 -19t-12 -18t-8 -10l-46 -42q-28 -7 -48 0t-20 10q0 1 4.5 12.5t9.5 25t9 25.5t3 13q-3 1 -3 10v17q0 9 -0.5 17t-3.5 10l46 19q-5 5 -9.5 4.5t-13.5 -0.5q-5 0 -10 -3.5t-11 0.5q-2 2 -5 2z" />
    <glyph glyph-name="FL003Ch" unicode="&#x3c;" horiz-adv-x="290" 
d="M146 52q3 -12 14 -12q7 0 10.5 2t9.5 10q5 -8 7.5 -20t13.5 -12q8 0 12 1.5t6.5 3.5t5.5 5.5t9 7.5l4 63q0 3 4.5 -8t10 -25t11 -26.5t8.5 -13.5q4 4 4.5 6.5t0.5 7.5q0 1 -0.5 3t-0.5 3q0 2 -4 17t-10 37t-12.5 46.5t-12.5 46t-10 35.5t-4 15q-8 25 -11 32t-4.5 9
t-4.5 7t-12 27v1q0 12 7 30.5t11 30.5q3 18 16 40t17 40q0 4 3.5 14.5t8 22.5t8 22.5t3.5 14.5q1 19 6 37t5 38q0 3 -0.5 6t-4.5 3h-3q0 -1 -1.5 -2t-1.5 -2l-12 12h-1q-5 0 -6.5 -3t-2 -7t-2 -7t-5.5 -3q-12 0 -17 8.5t-8.5 19t-8.5 19t-18 8.5q-6 0 -10.5 -6t-8 -13.5
t-5.5 -15.5l-3 -12q-3 -12 -13 -34.5t-21.5 -45.5t-20 -41t-8.5 -21q-1 -2 -1.5 -6t-2.5 -9l-74 -93v-1q9 -26 15 -50t13 -44t16.5 -36.5t24.5 -27.5z" />
    <glyph glyph-name="FL003Dh" unicode="=" horiz-adv-x="391" 
d="M31 232l235 -1l36 -2q4 3 9.5 4t11 1.5t10.5 1.5t8 5q8 12 12.5 17t4.5 17q0 8 -6 8t-14.5 2.5t-8.5 13.5q3 8 9.5 8.5l13 1t12 6t6.5 23.5h-103q-13 0 -46.5 -1t-69 -1.5t-63 -1.5t-28.5 -1l-35 -8q-5 -2 -8.5 -9.5t-3.5 -12.5q0 -15 9.5 -19t21.5 -4v-4
q-5 0 -10.5 -1.5t-4.5 -10.5q0 -1 5 -1h13h12h5q-1 -2 -6 -4t-11 -4t-10.5 -4t-4.5 -4q-1 -1 -1 -7v-8zM123 383l235 1v8q0 6 -1 7q0 2 -4.5 4t-10.5 4t-11 4t-6 4h5h12h12q6 0 6 1q1 9 -6.5 16.5t-12.5 7.5v4q12 0 21.5 4t9.5 19q0 5 -3.5 12.5t-8.5 9.5l-35 8
q-1 0 -28.5 1t-63 1.5t-69 1.5t-46.5 1h-103q1 -18 6.5 -23.5t12 -6l13 -1t9.5 -8.5q0 -11 -8.5 -13.5t-14.5 -2.5t-6 -8q0 -12 6.5 -23t14.5 -23q3 -4 8 -5t10.5 -1.5t11 -1.5t9.5 -4z" />
    <glyph glyph-name="FL003Eh" unicode="&#x3e;" horiz-adv-x="297" 
d="M178 209l105 124v1q1 1 -2 3.5t-7 6t-7 6.5t-3 5q0 16 -9.5 34t-21 34t-22.5 29.5t-14 21.5l-45 158q-3 12 -14 12q-7 0 -10.5 -2t-9.5 -10q-5 8 -7.5 20t-13.5 12q-17 0 -26 -6t-22 -14h-3q-6 0 -10.5 4.5t-9.5 7.5q-4 -4 -4.5 -6.5t-0.5 -7.5q0 -1 0.5 -3t0.5 -3
q0 -3 0.5 -12t1.5 -18.5t2 -17t2 -8.5q6 -26 17 -52.5t24 -52.5t26.5 -51t24.5 -47v-1q0 -12 -9.5 -28t-13.5 -28q-2 -9 -11 -23t-19 -29.5t-19 -30t-11 -23.5q0 -4 -0.5 -13t-1.5 -19.5t-1.5 -20t-0.5 -13.5q-1 -19 -6 -37t-5 -38q0 -3 0.5 -6t4.5 -3h3l3 3q1 -2 5.5 -5.5
t6.5 -5.5h1q4 0 6 3t2.5 7t2 7t5.5 3q12 0 17 -8.5t8.5 -19t8.5 -19t18 -8.5q6 0 10.5 6t8 13.5t5.5 15.5l3 12q3 12 8.5 32.5t11.5 40.5t10 35.5t4 18.5q0 1 1 5t2 9z" />
    <glyph glyph-name="FL003Fh" unicode="?" horiz-adv-x="320" 
d="M14 272l1 61q17 8 19.5 18.5t2.5 25.5q0 3 2.5 8.5t1.5 8.5l90 -13q4 1 10 4.5t12 8.5t10 11t4 12l17 27v8q-1 17 -7 35t-8 35q-2 4 -6 6q-8 -2 -19 -5t-15 -5q-9 -10 -19 -15.5t-19.5 -7.5t-17 -2.5t-11.5 -0.5q-5 0 -8 0.5t-6.5 2t-10 5.5t-18.5 10q-2 0 1 8t3 10
l2.5 2.5t-2.5 2.5t-3 2l-3 16v24q0 3 5.5 12.5t13.5 20.5t17.5 21.5t17.5 14.5q2 8 10.5 6t19.5 -2q2 1 5 1q14 2 22.5 3.5t10.5 1.5q9 0 13 -4l37 -31q1 -1 1 3q0 6 0.5 16t4.5 10h3q20 -6 33 -13.5t29 -21.5q16 -13 22 -20.5t8 -26.5q10 -46 11.5 -72.5t3.5 -47.5
q0 -37 -14.5 -67t-31.5 -47q3 -4 -2.5 -7.5t-12.5 -7t-12.5 -6.5t-2.5 -6q-24 -1 -39 -2.5t-23.5 -3t-12.5 -2t-6 0.5l-18 2l1 -61q0 -10 -0.5 -16t-0.5 -12q0 -2 -4.5 -3.5t-10 -2.5t-10 -3t-4.5 -5q-2 -3 -17 -2.5t-31 6.5t-28 17.5t-9 30.5q0 8 -2 13t0 10zM157 106
l-9 -58q-2 -12 -17 -13.5t-39 -0.5l-23 11q-20 9 -30 21t-12.5 26.5t1.5 30t12 32.5q2 6 12 11.5t15 6.5l38 3q10 -4 13 -5t3 -3q0 -1 9 -4t10 -5q5 -5 10.5 -17t10.5 -17l-46 -17q4 -4 8 -3.5t12 0.5q5 0 9 2.5t10 0.5q0 -2 3 -2z" />
    <glyph glyph-name="FL0040h" unicode="@" horiz-adv-x="456" 
d="M348 305q0 -8 -3.5 -16.5t-1.5 -16.5q-2 -3 -6 -14.5t-5 -14.5q-5 -13 -9 -17.5t-11 -14.5q-1 -2 -2.5 -6t-2.5 -5q-11 -9 -32 -9q-9 0 -19.5 1.5t-19.5 5.5q-6 3 -10.5 4t-6.5 5l-8 14q-5 7 -5.5 9.5t-5.5 10.5q-6 8 -8.5 11t-2.5 14q0 8 -5.5 20t-5.5 20v1q0 2 -1 9.5
t-2.5 16.5t-2.5 17t-1 10v1q0 2 -0.5 3t-0.5 3v3q0 2 0.5 3t0.5 2v2q2 3 4.5 3.5t2.5 3.5q0 4 -3 5.5t-4 5.5q0 2 -1 8.5t-1 8.5q0 9 7.5 18.5t18 18.5t20.5 17t15 14v2q0 9 6 11t14 2h7q4 0 14 -2t20 -5l19 -13q9 -6 6.5 2t-8.5 20.5t-13 25t-7 15.5l-6.5 3.5t-15 6
t-16.5 3.5t-12 -3l-90 -53l-14 -48q-1 -2 -3 -5.5t-2 -5.5q0 -9 5.5 -12t5.5 -13q0 -28 -2 -65t-4 -64q4 -6 7 -9.5t4 2.5l8 -50l27 -48q-2 -5 -4.5 -8.5t-1.5 -4.5q6 -6 16 -7t13 -1l39 -18q9 5 23 1t20 -4q1 0 4 -4t6 -8.5t5.5 -8.5t2.5 -3q0 3 -1.5 10t-2.5 14.5t1 14
t10 9.5l67 -2q7 0 10 -7t5 -15q1 -3 2.5 -16t1.5 -18q0 -17 -17.5 -24.5t-40.5 -12t-45.5 -9.5t-32.5 -16l-1 -2q-20 4 -31.5 5t-20.5 1t-17 -1t-20 -1q-10 0 -21.5 1t-21.5 5q-23 10 -36 24.5t-20 31t-9.5 33.5t-4.5 31l-1.5 2l-4.5 6q-1 3 -5 10t-8.5 14.5t-8 14t-3.5 8.5
q-5 20 -7 40.5t-2 40.5t1.5 40.5t-1.5 41.5q0 1 2.5 4t6 6t6.5 6l3 3l-8 6.5t-8 8.5q0 16 6 33.5t2 31.5q1 4 4.5 12.5t7 17.5t7 17.5t4.5 11.5q8 23 16 33.5t23 27.5q1 2 5 11t6 11q10 9 31 14.5t44.5 9t46 4.5t34.5 1q7 0 18 4.5t11 -1.5q0 -5 7 -8.5t15 -6.5t13.5 -5.5
t1.5 -4.5q-7 -3 -9.5 -13.5t-2.5 -12.5q0 -3 4.5 -0.5t11.5 4.5t16 1.5t19 -10.5l12 -13q5 -7 6.5 -11t3 -7.5t4 -7.5t8.5 -11q12 -16 19 -29t3 -21q-1 -2 3 -11.5t9.5 -20.5t10.5 -20.5t5 -12.5q0 -23 -7 -32t-16 -17l-34 -31q-1 -1 -2 -1.5t-5 -4t-12.5 -11t-24.5 -22.5
q-1 -1 1.5 -3.5t2.5 -3.5v-6zM275 387q0 3 -4 13t-6 10q-1 0 -5 3.5t-8.5 7.5t-8.5 7l-4 3v-6q0 -7 1.5 -16.5t-0.5 -11.5v-3q0 -14 1 -27.5t0 -28.5q2 -8 2 -13v-12q0 -1 -0.5 -4.5t-0.5 -4.5l13 -13q0 -8 5.5 -10t4.5 -6h2q1 0 1 5l6 24v2q0 5 -1 9t-1 8q0 17 1.5 32
t1.5 32z" />
    <glyph glyph-name="FL0041h" unicode="A" horiz-adv-x="394" 
d="M45 86h-4q0 -1 -1.5 -2.5l-1.5 -1.5v-45q0 -1 -1.5 -1.5t-3.5 -3.5h-2q-6 0 -10.5 11.5t-4.5 15.5t-0.5 12.5t-0.5 19.5q0 10 0.5 18t0.5 12q-4 4 -4 7v8v7q0 18 2.5 61t6 91.5t6 92t2.5 61.5q6 26 14.5 52.5t11.5 52.5q10 60 19 112t31 109q1 3 7.5 -3.5t14 -16.5
t14.5 -18.5t9 -8.5q3 0 4 8.5t2 18.5t1.5 18t3.5 7h89l17 8q2 1 4 -3t3.5 -9.5t3 -10t3.5 -4.5q4 -1 10.5 -0.5t11.5 -0.5t9 -4t4 -12v-110q0 -14 4 -26.5t9 -25t10.5 -25t7.5 -25.5q0 -14 2 -47.5t4.5 -71.5t4.5 -72t2 -48v-4q11 -57 15.5 -110.5t4.5 -110.5q-14 0 -27 4.5
t-26 4.5q-4 0 -6.5 -4.5t-4.5 -10t-5 -10t-7 -4.5q-5 0 -6 8t-1.5 18t-1.5 18t-5 8q-1 0 -4.5 -8.5t-6.5 -15.5t-3 -8q0 -3 -3.5 -13.5t-5.5 -13.5q0 -2 -5 -4v-1h-1q-15 0 -21 22.5t-8.5 49t-5 49t-10.5 22.5h-26q-16 0 -20 -10v-55v-55q0 -8 -1.5 -21t-2.5 -14l-5 -4h-70
l-22 21l-9 5q-4 4 -4.5 10t-0.5 13t-1.5 12t-8.5 5zM175 337q0 -2 -1 -9t5 -8q11 0 26 5.5t15 19.5q0 2 2 4.5t2 4.5q-1 6 -2.5 19.5t-3 29.5t-2.5 29.5t-1 19.5q0 2 -0.5 9t-1.5 14t-3 12.5t-4 5.5q-8 0 -14 -23t-10 -51t-5.5 -53t-1.5 -29z" />
    <glyph glyph-name="FL0042h" unicode="B" horiz-adv-x="420" 
d="M171 39q3 -2 3 -13v-10q14 -1 20 1.5t13 3.5l30 3q4 0 12 -0.5t14 -0.5h5q24 8 41.5 18t37.5 27q20 14 28 24.5t10 34.5q14 55 16.5 87.5t4.5 59.5q0 46 -19 83.5t-41 57.5q3 19 12.5 30t20 21t19 22.5t8.5 35.5q-1 13 -2 27t-2.5 31t-5.5 39t-11 51q-2 23 -10 33.5
t-28 24.5q-20 17 -37.5 27t-41.5 18h-5q-6 0 -14 -0.5t-12 -0.5l-30 3q-11 0 -36 -1t-53.5 -5.5t-53.5 -12.5t-35 -22q-6 -7 -5.5 -20t-0.5 -25q0 -2 1 -10t1 -15v-6l-2 -16q0 -1 6.5 -4.5t15 -7t15 -6.5t6.5 -4l-40 -3q0 -3 -1 -12.5t-1 -10.5q0 -9 15 -9q7 0 12.5 0.5
t8.5 0.5v-10q0 -1 -4 -8.5t-4 -8.5q-2 -2 -4 -12t-3.5 -21.5t-2.5 -21.5t-1 -13q0 -1 2 -9t4 -17.5t4 -17.5t1 -9q0 -1 -3 -5.5t-7 -9.5t-7 -9t-3 -5l4 -214q-2 0 3 -4.5t11.5 -10.5t12 -11.5t5.5 -6.5l-11 1.5t-17 1.5q-5 0 -3 -3l-5 -19v-29q0 -6 3 -17.5t8 -24.5
q-9 -17 -5 -21q4 -5 1.5 -6t5.5 -4l2 -4t7 0q11 -3 22.5 -6t25.5 -5q3 -10 14 -7.5t24 2.5q6 -3 8 -1zM178 202q1 2 2 5.5t-1 9.5q2 36 2.5 65t0.5 39l-1 34q11 -2 27 -15.5t20 -27.5l20 -35v-10q-1 -21 -7.5 -43.5t-10.5 -42.5q-2 -7 -9 -8q-11 2 -24.5 6t-18.5 6v17z
M187 477q-1 19 0 26.5t2 13t2 13t0 25.5q-1 20 -3 31t-20 13v4q0 6 1.5 7t7.5 2q1 1 16 5.5t28 6.5q2 -1 10 -4.5t9 -4.5q4 -20 5.5 -41.5t2.5 -42.5v-10l-20 -35q-3 -14 -9 -19.5t-17 -7.5q-6 1 -10.5 8.5t-4.5 9.5z" />
    <glyph glyph-name="FL0043h" unicode="C" horiz-adv-x="424" 
d="M176 259l-9 57q-1 -7 -4.5 -3t-8.5 11q1 16 2.5 35t2.5 39t1.5 39.5t0.5 35.5q0 11 -6.5 14.5t-6.5 13.5q0 3 2.5 7t3.5 6l16 55l61 35q10 9 11 9.5t1 -0.5q0 -8 1.5 -19t1.5 -36v-3q0 -2 -0.5 -3.5t-0.5 -4.5v-2l10 -40q24 -24 48 -29.5t43 -1.5t30.5 12.5t11.5 11.5v2
q0 9 -2 16.5t-3 15t0 17t8 23.5q5 9 -3 24t-22 33q-7 8 -10 13t-4.5 9t-3.5 8.5t-8 12.5l-13 15q-11 11 -22 12t-19 -2t-13 -6t-5 1q0 3 3 15t11 15q4 2 -2 5t-15 6.5t-17.5 8t-8.5 9.5q0 3 -4 3q-5 0 -14 -3t-15 -3q-30 0 -48.5 -4.5t-42.5 -23.5q-2 -3 -6.5 -13t-6.5 -12
q-9 -9 -15.5 -16.5t-11.5 -15.5t-9 -17t-8 -22q-2 -3 -5.5 -12.5t-8 -20t-8.5 -20.5t-5 -14q2 -8 -1 -17.5t-8 -19.5t-9.5 -19.5t-4.5 -18.5q0 -1 8.5 -5.5t15.5 -7.5t8 -4l-3.5 -3.5l-7 -7t-6.5 -7t-3 -4.5q3 -24 1.5 -47.5t-1.5 -47.5q0 -23 2 -46.5t8 -46.5q0 -2 4 -9.5
t9 -16.5t9.5 -17t6.5 -11q3 -4 5 -6.5l2 -2.5q2 -17 5 -36t11 -38t23 -35.5t41 -28.5q11 -5 25 -6t25 -1q13 0 22 0.5t15 0.5q7 0 6 5.5t-3.5 11.5t-2 11.5t11.5 5.5q16 0 53 -19l1 3q11 12 29.5 35t36.5 49.5t31 52.5t13 45q0 6 -1.5 21t-2.5 19q-3 9 -6 17t-11 8l-77 2
q-17 -6 -21.5 -12t-4.5 -13t-1.5 -15t-14.5 -16l-18 -46q-3 -3 -1.5 -5.5t2 -5.5t-2.5 -8.5t-16 -14.5q-2 -2 -14 0t-19 10q-1 1 2 5t5 10z" />
    <glyph glyph-name="FL0044h" unicode="D" horiz-adv-x="449" 
d="M210 64l-2 -27l-4.5 -0.5t-6.5 0.5q-10 1 -20.5 0t-21.5 -1q-9 0 -16.5 2t-7.5 9q0 3 -3.5 14t-3.5 14v7q0 4 -1.5 8t-8.5 8q-7 0 -7 -14q0 -5 0.5 -11t0.5 -11q0 -7 -2 -9h-4l-8 2h-9q-2 -1 -4.5 -3.5t-4.5 0.5q-7 8 -13.5 19.5t-11.5 23t-8 21t-3 14.5v7q0 6 -0.5 10
t-0.5 7v4l7 289q0 1 6 5.5t13.5 9.5t13.5 9.5t6 6.5l-33 19q0 3 0.5 11t1.5 16.5t2.5 16.5t3.5 11q0 1 3.5 8t3.5 8v8h-12q-13 0 -29.5 2.5t-16.5 10.5q0 1 3.5 9t3.5 10v2q0 2 -1 3t1 3l16 15l-15 14q-2 3 -1 5.5t0 3.5q4 6 10 7t6 8v4q0 2 -3.5 9l-7.5 15t-6.5 14.5
t-0.5 8.5q10 12 38 19.5t60 11.5t60.5 5.5t39.5 1.5l31 -2q4 0 13 0.5t15 1.5h5q25 -7 44 -13.5t40 -21.5q10 -7 17 -12.5t11.5 -11t7 -12.5t4.5 -18q16 -54 20.5 -85t8.5 -54q0 -9 0.5 -20t0.5 -22q0 -34 -2 -79.5t-7 -94t-13.5 -96t-22.5 -85t-33.5 -61.5t-45.5 -26
l-53 -14q-1 5 1.5 6t-0.5 1zM201 173q0 -3 0.5 -8.5t6.5 -6.5q6 1 14.5 7.5t16.5 14.5t13.5 16.5t5.5 13.5l18 320v11q-1 10 -6 18.5t-10.5 17t-10.5 17t-7 19.5q-2 0 -6 3t-6 3h-1h9q-4 0 -15 1.5t-23 3t-21 2.5t-10 0q-6 -3 -7.5 -3.5t-1.5 -6.5v-3q10 0 16.5 -7
t10.5 -17.5t6.5 -22t4.5 -20.5q0 -6 2 -16.5t3.5 -24.5t1.5 -31q0 -16 -5 -35q-7 -26 -10 -64.5t-2.5 -77.5t4 -72.5t9.5 -51.5z" />
    <glyph glyph-name="FL0045h" unicode="E" horiz-adv-x="331" 
d="M35 143q0 27 5.5 54.5t5.5 55.5q0 57 -5 109t-5 107q0 30 5.5 63.5t5.5 62.5v4v13v3q-2 6 -11 8.5t-15 -0.5l-22 22q-1 1 -1 5l3.5 7.5t8 16.5t8 16.5t3.5 9.5q0 1 3.5 2t8 2t8.5 1.5l4 0.5q-1 1 -11 8t-18 7l-0.5 1t-0.5 3q0 12 10.5 19t25.5 11t32.5 5t31.5 1h18
q32 0 64.5 -2.5t64.5 -2.5q11 0 19 2.5t19 2.5v-9q0 -8 -1 -9q0 -3 -4 -11t-4 -11v-9l-18 -15l18 -15v-9q-1 -13 -11 -23t-23.5 -17.5t-27.5 -12t-23 -5.5l-4 -4q-1 -1 -1 -10v-19q0 -11 -0.5 -21.5t-0.5 -17.5v-5q0 -2 1.5 -7t-2.5 -8l-16 -11l16 -1q4 0 2.5 -6t-1.5 -10
v-5q2 -5 4 -5h4q18 0 36 5t35 5q11 0 16.5 -8t5.5 -19q0 -7 -7.5 -14t-17 -13t-17 -11.5t-7.5 -8.5q0 -2 7 -4t15 -5t14 -8.5t5 -15.5q-2 -20 -11.5 -27t-22.5 -10t-27 -5t-24 -10q-2 -2 -3 -14.5t-2.5 -27.5t-2 -28.5t-0.5 -17.5v-1q1 -6 2.5 -15.5t2 -18.5t1.5 -15.5
l1 -6.5h71q11 0 11 -10q0 -7 2 -17q1 -4 5.5 -6.5t9.5 -6t9 -9.5t4 -17q0 -9 -8.5 -14t-18.5 -9t-18.5 -8.5t-8.5 -12.5l4.5 -6t4.5 -7v-4q0 -13 -7.5 -15t-20.5 -3q-21 -2 -37.5 -5.5t-31.5 -3.5q-9 0 -19 3l-31 9l-12 -9q-5 -3 -14 -1t-16 2h-10q-27 19 -33.5 45t-6.5 57z
" />
    <glyph glyph-name="FL0046h" unicode="F" horiz-adv-x="322" 
d="M16 435v19q0 11 0.5 23t0.5 20v9q0 2 1 10t2.5 18t3 19.5t2.5 14.5l5 14v2v1q-1 3 -5.5 5.5t-9.5 4.5t-8.5 3t-2.5 1q0 1 -1 2.5t-1 2.5q0 9 6 14.5t12.5 8.5t12.5 5t6 5t-3 5t-6.5 3.5t-6.5 4t-3 7.5q0 7 4.5 12t9.5 8t9.5 5t4.5 3q0 2 -1 3q-17 8 -24.5 10.5t-7.5 19.5
q0 20 15 32q63 2 130.5 5.5t130.5 3.5q11 0 19 -2.5t8 -13.5q0 -6 -6.5 -9.5t-13 -6.5t-11 -6t-0.5 -7l21 -22q0 -1 1 -2l1 -1q0 -6 -3.5 -9t-8 -5t-8 -4t-3.5 -5q0 -7 4 -10.5t9.5 -6t9.5 -5.5t4 -9t-5 -10t-12 -6.5t-14 -4t-10 -2.5l-2 -1t-3 -4q-16 -20 -31.5 -25
t-43.5 -5v-4v-29q0 -14 0.5 -30.5t3 -30.5t6 -24t9.5 -10q20 0 39.5 7t39.5 7q7 0 8 -4t1 -10q0 -14 -6.5 -21.5t-14 -12t-14 -8t-6.5 -9.5v-2q27 0 34 -17.5t7 -39.5t-17 -30.5t-38 -12t-38 -6t-17 -11.5l-9 -196q-5 -6 -6 -14.5t-1 -17.5q0 -10 1 -16.5t1 -9.5
q-2 -4 -5.5 -4.5t-5.5 -0.5q-21 0 -36.5 11.5t-28.5 28.5l-1 0.5t-2 0.5q-12 0 -15 -6.5t-4 -14t-4 -14t-13 -6.5q-13 0 -20 17t-10.5 39t-4.5 43t-1 29q-2 73 -6 143.5t-4 143.5z" />
    <glyph glyph-name="FL0047h" unicode="G" horiz-adv-x="445" 
d="M221 360l10 -21q-14 -1 -17.5 -7t3.5 -23l33 -12v-7q0 -7 -1 -14.5t-1 -14.5v-7v-12q0 -27 -5.5 -38.5t-5.5 -19.5q0 -1 -1 -0.5t-11 9.5l-58 36v59q-1 2 -3.5 6.5t-2.5 6.5q0 11 -0.5 14.5t-0.5 16.5q0 34 -4 70t-6 70q4 7 7.5 11t4.5 -3l9 59l30 58q-2 6 4.5 12t7.5 7
q5 8 8 8l6 -2q12 -9 15 -14.5t2.5 -8.5t-2 -5.5t1.5 -5.5l17 -49q11 -9 11.5 -15t0 -11t2.5 -9t19 -9l75 2q8 0 12 8.5t7 17.5q0 119 -75 220l-2 2q-23 -10 -35.5 -9t-20 6t-13.5 11t-15 6q-5 0 -15 0.5t-21 0.5t-24 -1.5t-24 -6.5q-32 -3 -53 -30t-34 -61t-19 -68t-7 -50
q-3 -24 -6.5 -49t-3.5 -48q0 -24 2 -42t-1 -43q0 -1 2.5 -4.5t5.5 -7.5t5.5 -7.5l2.5 -3.5q0 -1 -6 -8t-6 -9q0 -18 6 -39.5t1 -38.5q1 -5 5 -15t8 -21.5t8 -21.5t5 -14q8 -27 30.5 -46t39.5 -39q0 -3 -9 -7t-6 -7q23 -20 40.5 -25.5t46.5 -5.5q3 0 14.5 -0.5t25.5 -0.5
q15 0 28 0.5t20 2.5q9 2 26 12.5t26 21.5l11 28q6 8 6.5 12.5t0.5 9.5q0 4 0.5 9t6.5 15q14 20 17 43t-1 33q-6 13 -8 21.5t-2 16.5t2 14.5t3 13.5q18 3 30 13.5t16 37.5q-20 5 -27 10t-15 7q-5 1 1 3t16 4.5t19.5 5t12.5 4.5l-6 41v19h-81q3 0 -2 -3t-15.5 -6.5t-24.5 -6.5
t-29 -3q-20 0 -33 10z" />
    <glyph glyph-name="FL0048h" unicode="H" horiz-adv-x="411" 
d="M392 47v40q4 105 1.5 202.5t-2.5 201.5v8q0 6 4.5 14t4.5 11v5q0 1 -1.5 7t-3 12.5t-2.5 12.5t-1 7q0 2 -0.5 11t-1.5 19t-1.5 19.5t-0.5 12.5q0 5 -1 14t-1 20v48q0 11 1 19.5t1 13.5q-1 1 -9 4.5t-17 7.5t-16.5 7.5l-7.5 3.5q-10 0 -15 -6.5t-7.5 -14t-4.5 -14t-5 -6.5
h-2q-2 1 -3.5 7.5l-1.5 6.5q-2 2 -2.5 5.5t-2.5 3.5q-4 2 -6.5 3l-2.5 1q-2 -2 -9 -9.5t-8 -8.5h-5l-18 9h-5q-1 -1 -3.5 -4.5t-5.5 -4.5v-20q0 -63 -2 -121t4 -121q-14 -1 -29 -4.5t-29 -4.5q1 1 1 3q0 4 1 5v107q0 38 1 82t-5 86q-2 4 -5 4.5t-6 0.5q-2 0 -3.5 -0.5
t-4.5 -0.5q-7 -14 -13 -19t-19 -5q-6 0 -12 2l-3 6t-5 7t-11.5 1.5t-9.5 3.5q-2 0 -5.5 3t-7 6.5t-6.5 7t-4 4.5q-23 -5 -36 -21v-41q0 -52 0.5 -99.5t1.5 -93.5t1.5 -92t0.5 -94v-8q0 -2 -2 -9.5t-4 -16t-4 -15.5t-2 -9v-4q0 -1 1 -7t2.5 -13t3 -12.5t1.5 -6.5
q0 -2 0.5 -10.5t1.5 -19t1.5 -20t0.5 -13.5t1 -13t1 -20v-48q0 -11 -1 -20t-1 -14q1 -1 9 -4.5t17 -7t16.5 -7t7.5 -4.5q10 0 15 6.5t7.5 14.5t4.5 14.5t5 6.5h2q2 -1 3.5 -7.5l1.5 -6.5q2 -2 2.5 -5.5t2.5 -3.5q3 -3 11.5 -4t9.5 -1q3 3 3.5 10.5t1.5 8.5h5l18 -10h5
q1 2 3.5 5.5t5.5 4.5v19v122q0 30 -1 60.5t-3 61.5q16 4 34.5 6t29.5 16q-3 -6 -4 -11.5t-2 -10.5v-107q0 -38 -1 -82t6 -86q1 -5 4 -5.5t6 -0.5q2 0 3.5 1t4.5 1q7 14 13 19t19 5q3 0 6.5 -0.5t5.5 -2.5l3.5 -5.5t4.5 -6.5q2 -1 12 -1.5t10 -3.5q3 -1 11.5 -10t11.5 -12
q24 6 35 22z" />
    <glyph glyph-name="FL0049h" unicode="I" horiz-adv-x="219" 
d="M32 47v40q-3 106 -6 205.5t-3 205.5v8q0 6 0.5 10.5t0.5 7.5v5q0 1 1 7t2.5 12.5t3 12.5t1.5 7q0 2 1 11t1.5 19t1.5 19.5t1 12.5q0 5 0.5 14t0.5 20v24v24q0 11 -0.5 19.5t-0.5 13.5q0 1 8 4.5t17 7.5t16.5 7.5l7.5 3.5q10 0 15 -6.5t7.5 -14t4.5 -14t5 -6.5h3
q1 1 2.5 7.5l1.5 6.5q3 2 3.5 5.5t1.5 3.5q4 2 12.5 3t9.5 1q2 -2 9 -9.5t8 -8.5h4h1l18 9h2h3q1 -1 3.5 -4.5t5.5 -4.5v-20q0 -72 -6 -141.5t-13 -142.5q-1 -14 -7 -23t-6 -23q0 -16 5 -33t8 -31v-23v-63v-21q0 -38 1 -82t-5 -86q-1 -5 -4.5 -5.5t-5.5 -0.5q-3 0 -4.5 1
t-4.5 1q-7 14 -12.5 19t-19.5 5q-2 0 -6 -0.5t-5 -2.5l-3.5 -5.5t-4.5 -6.5q-3 -1 -12.5 -1.5t-9.5 -3.5q-4 -1 -12.5 -10t-10.5 -12q-23 6 -36 22z" />
    <glyph glyph-name="FL004Ah" unicode="J" horiz-adv-x="417" 
d="M399 572l-1 -82q0 -27 -0.5 -52t3.5 -52q0 -1 -0.5 -11.5t-0.5 -24.5t-0.5 -25l-0.5 -11q0 -1 2 -7t-1 -8q-4 -5 -10.5 -6.5t-10 -3.5t-0.5 -5.5t18 -12.5q-2 -3 -6 -14t-8.5 -23t-8 -22.5t-4.5 -14.5q-6 -15 -11 -25t-10 -18t-12 -16.5t-16 -20.5q-1 -2 -5.5 -13.5
t-7.5 -13.5l-32 -31q-21 -14 -42 -16t-44 -2q-17 0 -17 17q0 5 -9 5q-5 0 -11 -1.5t-12 -2t-10 0t-4 4.5q0 1 -0.5 7.5t-1.5 13.5t-1.5 13t-0.5 8q-3 -2 -5 -8.5t-4 -14t-4 -13.5t-5 -6t-8 2t-5 4v22h-9q-5 -6 -16 21.5t-24 79.5q-7 10 -12 15.5t-8.5 11.5t-5 13.5
t-1.5 21.5q0 25 4 45q-2 29 1 46.5t8.5 27.5t13.5 15.5t16 10.5q36 21 95 -14q5 -16 1.5 -33.5t-3.5 -30.5q0 -1 3 -6.5t6.5 -12t6.5 -12t3 -6.5v-2q0 -3 -0.5 -5t-0.5 -4v-4q0 -14 7 -21.5t16 -12l16 -8t7 -7.5q0 -1 -0.5 -1.5l-0.5 -0.5l-5 -5q-1 0 -1 -4v-2q8 0 13 8.5
t6 15.5l27 79v8q0 7 -1.5 16t-2 18t0.5 17t6 14q-6 64 -12.5 121.5t-6.5 122.5q0 28 -2.5 59t0.5 63q2 6 11 5.5t14 5.5h5l17 -70l6 54q1 13 7 16t14 10l2 -27l10 22l16 -32q1 -3 2 1.5t2 12t1.5 14.5l0.5 7q12 -5 18.5 -6.5t11 -2t8 -2.5t9.5 -8l2 -135v-8q2 -9 3 -21.5
t2 -13.5z" />
    <glyph glyph-name="FL004Bh" unicode="K" horiz-adv-x="392" 
d="M183 305q-8 -60 -10 -115t1 -115l-5 -13q1 -4 -3 -1.5t-9.5 7.5t-10.5 10.5t-5 7.5l4 -33q1 -8 -3.5 -7t-11.5 5.5t-15.5 10t-14.5 5.5q-11 0 -14.5 -3.5t-6 -8t-6.5 -8t-14 -3.5t-17 7t-10 15q-1 6 -2.5 19.5t-3 29t-2.5 29t-1 19.5q0 12 -1 43t-1.5 65.5t-1.5 65.5
t-1 43l-8 62q-1 2 -2 9t-2 9v246l4 36q2 7 5 8t7 1q9 0 12.5 -3.5t6 -9t5 -10.5t8.5 -8q3 1 9.5 4.5t8.5 3.5h2h3q1 0 5.5 -1t7.5 -2q1 1 1 9v4q0 3 10 3l3.5 -13.5t7.5 -27t7 -20.5t3 5l2 57q3 1 5.5 5t3.5 4h5q6 0 8 -1.5t5 -7.5q1 -11 1.5 -23t0.5 -26q0 -37 1.5 -76
t9.5 -73q0 -1 3 -7.5t6.5 -14l3.5 -7.5l-1 4.5t-1 10.5t2 13t8 12l42 178q5 19 19 19h1q7 0 13 -3t17 -20l1.5 7.5t0.5 4.5q0 9 1.5 18.5t9.5 9.5q9 0 16 -6.5t12.5 -15.5l11 -18t12.5 -14l5 20q8 0 13 11t11 14q5 -5 5.5 -7.5t0.5 -8.5q0 -1 -0.5 -3.5t-0.5 -3.5
q0 -3 -1 -10t-2.5 -14t-3 -13t-2.5 -7q-18 -59 -36 -103.5t-38 -94.5v-2q0 -14 11 -32t16 -32q1 -11 6.5 -36t12 -53t12.5 -53t8 -35q0 -5 0.5 -15.5t1.5 -22.5t1.5 -22.5t0.5 -15.5q2 -22 7.5 -42.5t5.5 -43.5q0 -4 -1.5 -9t-4.5 -2q-3 6 -11 14t-9 8q-3 0 0 -9t3 -16
q0 -5 -3 -6h-2q-5 0 -6.5 3.5t-2.5 8t-2.5 8t-6.5 3.5q-14 0 -20 -10t-10 -21.5t-9.5 -21.5t-20.5 -10q-7 0 -12 6.5t-9 15.5t-6.5 18t-3.5 14q-3 14 -9.5 37.5t-13 46.5t-11.5 41t-5 21q-1 1 -3 10.5t-4.5 21.5t-4 22t-1.5 12l-2.5 5t-1.5 4z" />
    <glyph glyph-name="FL004Ch" unicode="L" horiz-adv-x="323" 
d="M23 684v-5q0 -4 -0.5 -8t-0.5 -7v-6q0 -42 6.5 -81.5t7.5 -81.5q0 -11 -1 -40.5t-2 -63.5t-2 -64.5t-1 -41.5l4 -16t6 -26t5 -26t2 -16v-3v-1q-6 -3 -15 -5t-15 -8v-5q0 -2 -0.5 -6t-0.5 -6v-4q0 -10 2.5 -18t2.5 -16v-4l51 -18l-55 3v-2l8 -17v-4q0 -3 -2 -6t-2 -7
q0 -20 18 -33q48 4 99 -3.5t99 -7.5h6q4 0 4.5 4.5t4.5 2.5l14 -6q1 0 8.5 5t15.5 12t14.5 13.5t6.5 9.5v5l-2 4t-5 8.5t-5 8.5l-2 4q-3 6 3 17t6 18q0 9 -1 14t-8 13q-40 4 -61.5 6.5t-31.5 8.5t-12 19t-2 39q0 57 -0.5 98.5t-0.5 73.5t-1 56t-1 44q0 21 -0.5 40.5
t-0.5 42.5v17v6q0 3 5 5l-23 145l-18 -18v7q0 7 -1.5 14t-3.5 7h-6q-28 0 -47 -6t-31.5 -17t-21 -28t-16.5 -39z" />
    <glyph glyph-name="FL004Dh" unicode="M" horiz-adv-x="583" 
d="M177 320q5 -3 10 -18.5t10 -36.5t10 -46t9 -46t7 -36.5t5 -18.5q1 -2 6 -13t5 -13q5 -20 9 -40t20 -26q2 -1 12.5 1t12.5 4q5 10 5 16q0 3 -0.5 5t-0.5 9q9 0 11 -5.5t3.5 -12.5t4 -12.5t13.5 -5.5l5 36q1 6 5 11t6 11v14q0 10 6.5 19t6.5 20l-7 18q7 15 14 38.5t13 46.5
t11 42t8 25q2 2 6.5 10.5t7.5 11.5q0 2 2 4l4 -4q2 -1 3 -13.5t2 -22.5l4 -59l5 -154q1 -23 8.5 -31.5t30.5 -8.5q6 0 9.5 2.5t6.5 2.5h4l8 -5h5q7 6 11.5 12.5t15.5 6.5h2l15 -12h5q5 6 10 12.5t7 13.5q1 15 0 37t-3 45t-4 44t-2 34q0 41 1 79t2 75t2 74.5t1 78.5
q0 17 0.5 27.5t0.5 18.5q0 10 -1.5 19t-7.5 26l-8 21q-4 10 -2.5 21t1.5 21v14q-3 6 -11 13.5t-9 13.5q0 3 -0.5 16t-0.5 17q-10 0 -15 -6t-9 -12.5t-8.5 -12.5t-13.5 -6q0 7 0.5 9.5t0.5 4.5q0 6 -5 16q-2 3 -12 4t-13 1q-14 0 -20.5 -4.5t-9.5 -12t-4.5 -17t-4.5 -19.5
q0 -2 -5 -7t-11.5 -11t-11.5 -11t-5 -7q-20 -60 -38 -119t-54 -121l-60 105l17 23q-1 1 -8.5 6.5t-15.5 12l-8 6.5l-2 15q-5 9 -7 26.5t-3.5 36.5t-3.5 36.5t-6 26.5q-7 14 -31.5 21t-51 9.5t-47.5 1.5t-21 -2l31 -44q-3 -3 -10.5 -0.5t-15.5 4.5t-14.5 1t-7.5 -11
q-2 -20 -7 -31.5t-5 -26.5q0 -9 3 -21q1 -2 4 -10t7 -17.5t7 -18t3 -11.5v-2q0 -4 0.5 -7.5t0.5 -6.5v-7q0 -81 -7.5 -157.5t-7.5 -157.5v-16q0 -14 0.5 -27t0.5 -26v-17q1 -9 3.5 -28.5t7 -38.5t11.5 -33.5t17 -14.5q3 0 7.5 1t4.5 3v30q3 0 7 -5.5t11 -11.5t18 -11.5
t29 -5.5q5 0 11 0.5t9 8.5q-1 2 -3 13t-2 13q0 20 5 42t5 40l10 152z" />
    <glyph glyph-name="FL004Eh" unicode="N" horiz-adv-x="446" 
d="M122 89l-22 -29q-5 0 -8.5 -3t-6.5 -7t-6.5 -7t-8.5 -3q-8 0 -11.5 11t-3.5 17v4l5 44v5v4l-9 89l5 347q-16 28 -29.5 62.5t-13.5 68.5q0 2 6 10t13.5 17t14.5 15t9 4l35 -38q7 0 8 9.5t1 20.5t2.5 20.5t10.5 9.5h5q3 0 13.5 -1.5t13.5 -1.5q32 -46 61 -94t54 -97l-2 -22
l10 22q0 1 1.5 11.5t3 23.5t3 26.5t1.5 22.5q1 1 1 12q0 10 6 15l27 14l-23 16q-7 3 -9 14.5t-2 21.5v9q1 2 5 5.5t8.5 6t8.5 2t5 -6.5q0 -10 4 -12.5t6 -4.5q7 -2 26.5 -3t40.5 -3t37 -7.5t16 -15.5q0 -2 -1 -5t-1 -5q-1 -11 -3.5 -37t-5 -55.5t-5 -56t-3.5 -36.5l8 -102
v-363l-2.5 -3.5t-5.5 -4.5q-3 -3 -11.5 -6t-11.5 -3q-6 0 -12.5 7.5t-13 17t-12 18.5t-7.5 11l-17 -19v-22q0 -2 -5 -3.5t-8 -1.5q-18 0 -31.5 16.5t-17.5 33.5l-26 162l-26 76h-3q0 -45 -1.5 -90.5t-1.5 -90.5v-20q0 -14 -1 -26.5t-3 -32.5l-2.5 -2.5t-2.5 -1.5h-2h-2
q-1 0 -4.5 2l-3.5 2q-5 0 -7 -6.5t-3 -14t-3 -14t-8 -6.5q-1 0 -1.5 0.5l-0.5 0.5q-3 8 -7.5 15.5t-11.5 11.5q-7 -3 -8 -9.5t-1 -14.5t-1 -14.5t-10 -6.5q-8 0 -9.5 10.5t0 23.5t3.5 25t1 16z" />
    <glyph glyph-name="FL004Fh" unicode="O" horiz-adv-x="420" 
d="M3 474q0 10 3 20.5t6 21.5t5 21.5t0 19.5q1 4 4.5 14.5t8 22.5t8.5 23t6 14q6 15 11 25t10.5 18t12 16t15.5 21q1 2 5.5 13.5t7.5 13.5q12 12 35.5 22t50.5 16.5t52 10.5t40 4q17 0 17 -16q0 -6 -3 -10t-6.5 -7.5t-6.5 -7t-3 -8.5q0 -6 5.5 -9t12.5 -4.5t13.5 -3
t8.5 -5.5l22 -36q6 -9 8 -14.5t3.5 -10t4.5 -9.5t10 -14q7 -11 12.5 -17t9 -11t5 -12.5t1.5 -22.5q0 -20 -2.5 -40t-2.5 -41v-2q0 -5 3 -24.5t6 -42t6 -42t3 -23.5v-4q0 -2 0.5 -5.5t0.5 -8.5v-4v-5q0 -2 -0.5 -6t-0.5 -6v-5q-4 -6 -11.5 -8t-7.5 -9q0 -10 8 -14t11 -14
q0 -5 2 -20.5t2 -23.5q0 -21 -14 -48t-33.5 -53.5t-39 -50t-31.5 -38.5l-0.5 -1.5t-0.5 -2.5q0 -6 2.5 -9t2.5 -9q0 -5 -5.5 -7.5t-13.5 -4t-17.5 -2t-18.5 -0.5h-17q-9 0 -28 3.5t-39.5 10t-38 14.5t-22.5 17q-5 8 -12 16t-13.5 16t-11.5 16.5t-6 17.5v7v14v12v7
q-2 7 -7 11t-7 12q-2 3 -5 12t-6 19t-5 18.5t-2 10.5q-6 27 -8 52.5t-2 52.5t0.5 52t-3.5 52q0 2 -4 9t-4 8t-1 6t-1 9zM154 248q0 -5 6 -17t13.5 -25t15 -23t10.5 -10q7 0 13 9.5t9 11.5q1 2 5 9t9 15t10 15.5t7 9.5v7q0 48 -3.5 90.5t-1.5 91.5q-2 8 -3.5 19.5l-3 23
t-2 22t-0.5 16.5q0 3 2.5 15t2.5 15v2q0 3 0.5 5t0.5 4v4q0 15 -8 22.5t-17 12t-15.5 8t-4.5 9.5h-9q-3 0 -4 -2.5t0 -11.5l-27 -78v-9q0 -14 4.5 -27.5t4.5 -28.5q0 -52 -7 -102.5t-7 -102.5z" />
    <glyph glyph-name="FL0050h" unicode="P" horiz-adv-x="442" 
d="M197 288l-6 -43q0 -9 -1 -29.5t-1.5 -43.5t-1.5 -43.5t-1 -29.5v-7q0 -8 -1 -15t-1 -9q0 -5 -5 -5l-4 -1q-1 -1 -3.5 -2t-2.5 -2l2 -37h-4q-6 0 -7 1q-9 1 -18 -0.5t-16.5 -2t-12 1.5t-4.5 10q0 1 -0.5 6.5t-0.5 13.5v13v7q-1 1 -1.5 2.5t-2.5 2.5h-3q-6 0 -8 -5
t-3.5 -11.5t-2 -12.5t-3.5 -9h-3l-9 3h-9q-2 -1 -4 -3t-5 0q-6 10 -12 22.5t-10.5 24t-7 21.5t-2.5 16v7v17v5l16 260q0 1 3 5t7 9t7 9.5t3 5.5q1 1 -1 9t-4 17.5t-4 17.5t-2 9q0 3 1 13t2.5 21.5t3.5 21.5t4 12q0 1 4 8.5t4 8.5v10q-2 0 -9.5 0.5t-15.5 2t-14.5 4.5t-6.5 8
q0 1 3 9t3 10v1q0 3 -0.5 4.5t2.5 3.5l16 15l-14 14q-3 3 -1.5 5.5t0.5 4.5q5 7 11.5 8t5.5 11q0 3 -3.5 10.5t-7.5 15.5t-6 15t0 9q10 14 37 21.5t57.5 11.5t57.5 4.5t38 0.5l29 -3q5 0 14 0.5t15 0.5h5q25 -8 44 -18t39 -27q20 -14 27.5 -24.5t10.5 -33.5q7 -29 11 -51
t6 -39t3 -31t3 -27q0 -25 -4 -56t-10 -61.5t-14.5 -57.5t-17.5 -44q-20 -11 -41 -21t-48 -19l-53 -12q-1 5 1.5 6t-0.5 1zM206 398q0 -3 0.5 -8.5t6.5 -6.5q11 2 17 8t8 20l23 110v10q-1 21 -8.5 43.5t-10.5 43.5q-3 8 -11 8h-1l9 1q-3 -2 -11.5 -4t-17.5 -4.5t-16 -4
t-8 -2.5q-6 -1 -7.5 -2t-1.5 -7v-4q20 -2 26 -14.5t7 -32.5q3 -37 -2 -77t-2 -77z" />
    <glyph glyph-name="FL0051h" unicode="Q" horiz-adv-x="420" 
d="M403 484q0 9 -2.5 18.5t-5.5 19t-4.5 19t0.5 17.5q-1 4 -5 14t-8 20.5t-8 20t-5 13.5q-6 13 -10.5 22t-9 16t-10.5 14t-15 18q-1 2 -5.5 12.5t-7.5 12.5q-24 20 -50.5 32t-56.5 12q-17 0 -17 -13q0 -5 -6.5 -8.5t-15 -6t-15 -6t-6.5 -8.5q0 -6 -5 -8t-12 -3t-13 -2t-9 -5
l-19 -32q-6 -8 -8 -12.5t-3.5 -8.5t-4.5 -9t-10 -13q-7 -9 -11.5 -14t-7.5 -10.5t-4.5 -13t-1.5 -19.5q0 -17 2 -35t2 -37v-2q0 -6 -2.5 -23.5t-6 -37t-6 -36.5t-2.5 -21v-3q0 -2 -0.5 -5t-0.5 -7v-8q0 -3 0.5 -6t0.5 -6v-4q4 -5 11 -6.5t7 -8.5q0 -8 -7.5 -12t-10.5 -14
q-1 -3 -2.5 -18t-1.5 -21q0 -19 13 -43t31 -48t36.5 -45t30.5 -34l2 -2q0 -24 15 -26.5t49 -2.5q5 0 15 1.5t22 4t25 6t25 8.5l4.5 -10.5t2.5 -6.5q1 -5 5 -13t9.5 -16.5t12 -14t12.5 -4.5q9 1 12 7t2.5 13t-2 14.5t-1.5 11.5q0 9 13 12q5 1 7.5 -2.5t4 -7.5t3.5 -7.5
t7 -2.5h1q3 3 7 8t5 7q2 -2 5 -3l2 1q8 0 4 10q-3 23 -12 42.5t-14 40.5q-1 6 -4 19t-6 27l1.5 2t5.5 7q1 3 4 11t6 17t5 16.5t2 10.5q6 23 8 46.5t2 46.5t-0.5 46t2.5 48q0 2 3.5 7.5l3.5 5.5q0 2 1 7t1 7zM193 348l23 -131q3 -7 4.5 -10l2.5 -5q0 2 0.5 0t1.5 -8
q-8 -20 -13 -20q-6 0 -11.5 9t-8.5 11q-2 5 -2.5 17.5t-5.5 17.5l-16 56q-17 12 -18 30.5t4.5 40.5t12.5 45.5t6 45.5q2 7 3.5 17.5l3 21t2 20t0.5 14.5q0 1 -2.5 13t-2.5 13v3q0 2 -0.5 3.5t-0.5 4.5v2q0 12 6.5 19t15 11.5t15 8t6.5 6.5q0 1 0.5 0.5t10.5 -9.5l26 -72v-7
q0 -13 -4.5 -25t-4.5 -25q0 -32 4 -63.5t7 -63.5q-5 -7 -8.5 -11t-4.5 3z" />
    <glyph glyph-name="FL0052h" unicode="R" horiz-adv-x="452" 
d="M200 274q-2 0 -2.5 -0.5l-0.5 -0.5l-4 -19q0 -9 -1 -31t-2.5 -46t-2.5 -46t-1 -31q1 -5 0 -17t-2 -14q0 -5 -5 -5l-4 -1q-1 -1 -3.5 -2t-2.5 -2l2 -37h-4q-6 0 -7 1q-20 4 -28 19.5t-2 33.5q-3 3 -5 3h-2q-5 0 -7.5 -5t-4 -11t-2.5 -12t-3 -8h-1h-1l-2 -2h-4h-9
q-2 0 -6.5 -0.5t-9.5 -1.5t-9.5 -1.5t-5.5 -0.5q-11 -2 -17 9t-10 25.5t-5 29t-1 19.5v7q0 6 0.5 9.5t-0.5 7.5v4l14 264q0 2 1 10.5t1 11.5q1 2 2.5 11t2.5 19.5t1.5 19.5t0.5 12t1.5 12.5t4 20.5t5 20.5t4.5 12.5q0 2 4 10t4 9v4v5q-2 0 -9.5 0.5t-15.5 2t-14.5 4.5
t-6.5 8q0 1 3.5 8.5t3.5 9.5l4 1.5t8.5 3t7.5 3t2 3.5l-22 12v15q-1 1 -1 6q0 4 -1 5q3 3 7 4t8.5 1.5t7.5 2t3 5.5l-23 27q-8 9 0.5 17.5t27 16t43 13.5t48 10.5t42.5 7t27 2.5q14 1 28 -3t27 -4q5 1 7 3t8 2h5q25 -8 43 -18t38 -26q21 -15 28.5 -25.5t10.5 -34.5l-15 -21
l16 -9l2 -19v-10q2 -25 9.5 -49t8.5 -51q1 -22 -16 -37l-61 -130l1 -17q21 -63 42 -128.5t25 -132.5q-11 0 -16.5 1t-10 2.5t-9 2.5t-11.5 1q0 -7 1.5 -8.5t-4.5 -14.5q-4 -11 -12 -23t-14 -12t-8 5t-4 10.5t-4.5 10.5t-8.5 5q-2 0 -5.5 -4t-6.5 -8.5t-5.5 -9t-3.5 -5.5
q-1 -3 -3 -4l-2 -1q-10 -1 -20 14.5t-19.5 40.5t-18 55t-15.5 58.5t-12 51l-7 31.5q-2 6 -9 6zM202 403v-9q0 -5 6 -6q13 2 24.5 8.5t13.5 20.5l31 104v10q0 10 -5 20t-11.5 19.5t-12 19.5t-6.5 21q-3 8 -10 8h-1h-2q-5 -2 -13.5 -3.5l-17 -3t-15 -3t-7.5 -2.5
q-6 -1 -7.5 -2t-1.5 -7l1 -3q20 -3 28.5 -14.5t10.5 -31.5q2 -38 -2.5 -73.5t-2.5 -72.5z" />
    <glyph glyph-name="FL0053h" unicode="S" horiz-adv-x="323" 
d="M10 83v2q1 4 11 7t18 4.5t9 1.5q0 2 -6.5 11.5t-12 17t-6.5 8.5l60 -2q0 4 -7 7.5t-13 4.5q-9 2 -15 4t-9 2q-8 0 -18 15q1 1 1.5 7l1 12t2 11t6.5 5q11 0 26.5 -9.5t33.5 -9.5q13 0 23 7t16 18.5t9 25t3 25.5q0 6 6 8t4 8q-1 1 -8 8.5t-15.5 16t-15 16t-7.5 9.5
q-1 3 -7 15t-12.5 25.5t-12.5 25.5l-7 14q-12 22 -20.5 36t-14.5 28.5t-8.5 33t-2.5 48.5q0 52 10 92t33.5 67.5t62 42t95.5 14.5h4q1 0 -2 -5t-6.5 -11t-6 -10.5l-2.5 -4.5q1 0 7 3.5t13 7t13 7t8 3.5q9 0 16.5 -3t7.5 -16q0 -7 -3.5 -9.5t-8 -4t-9 -3.5t-6.5 -7
q0 -2 -4 -8t-9 -12.5t-8.5 -12l-3.5 -5.5l56 31q1 0 3 -8.5t3.5 -19.5t2.5 -21.5t1 -13.5q0 -13 -12.5 -20.5t-23.5 -11.5q-3 -2 -10.5 -4.5t-16 -5.5t-16 -5t-10.5 -3q-9 -6 -9 -17q0 -5 4 -17t9 -25.5t9.5 -25t6.5 -16.5l-12 -32q6 2 10.5 4.5t8.5 2.5q9 0 20 -20
q7 -13 19.5 -38t24.5 -53.5t20.5 -55.5t8.5 -45v-2q-10 -24 -15 -51t-16 -50q-2 -5 -7 -16t-11.5 -23t-12.5 -22.5t-10 -14.5q-7 -11 -27 -17.5t-44.5 -11t-48 -6t-36.5 -1.5q-8 0 -21.5 3.5t-27 9.5t-23.5 13.5t-10 16.5z" />
    <glyph glyph-name="FL0054h" unicode="T" horiz-adv-x="354" 
d="M127 75q-3 0 -6 -5t-6 -11t-6 -11t-5 -5q-11 0 -15.5 21.5t-6 48.5t-1 52.5t0.5 34.5q0 105 9 207t9 207q-2 3 -2.5 6t-2.5 3h-72q0 8 3.5 12t3.5 11l-1 5l-4.5 5t-4.5 8q0 5 6 8t14 5t16 2.5t11 0.5l-16 10q-14 0 -29.5 7.5t-15.5 24.5q0 6 4 14.5t10 11.5l40 9
q1 0 18.5 0.5t41 1.5t47.5 1.5t39 0.5h41h59h25h17q0 -12 -4.5 -15.5t-10.5 -4.5t-12 -2.5t-9 -9.5q0 -20 6.5 -33t6.5 -31q0 -14 -2 -21t-11 -21q-6 -7 -19 -5.5t-24 1.5q-9 0 -13 -4q0 -3 -0.5 -11.5t-1.5 -18t-1.5 -18.5t-0.5 -13v-17q0 -8 -0.5 -27.5t-1.5 -41t-2.5 -40
t-2.5 -25.5v-304q0 -8 -2 -21.5t-7 -23.5q-17 3 -24 -1.5t-10.5 -11.5l-6.5 -13t-13 -6t-16.5 8.5t-12.5 18t-12 18t-14 8.5z" />
    <glyph glyph-name="FL0055h" unicode="U" horiz-adv-x="434" 
d="M14 565l3 -95q0 -26 1 -51t-4 -52q0 -1 0.5 -12t0.5 -25q0 -13 0.5 -24.5l0.5 -11.5q0 -1 -1.5 -6.5t0.5 -8.5q4 -5 11 -6.5t10 -3t0 -5t-18 -12.5q1 -5 4.5 -15.5t8 -22.5t8.5 -22.5t6 -14.5q6 -15 11 -24.5t10.5 -17.5t12 -16.5t15.5 -20.5q1 -3 6 -14t7 -14
q7 -7 13 -12t13 -9l4 -12v11q44 -26 88 -26q18 0 18 16q0 6 7 6q4 0 11 -1.5t13 -2t10.5 0t4.5 4.5q0 1 0.5 7t1 13.5t1 13.5t0.5 7q3 -1 5 -7.5t4.5 -14l4.5 -13.5t5 -6q2 0 7 1.5t5 4.5v21h9q5 -6 16 22t25 80q7 9 12 15t8 11.5t4.5 13.5t1.5 22q0 11 -1 22.5t-2 22.5
q6 32 11 66.5t9 69.5l-23 45l20 -9l-5 66q1 10 3.5 36.5t5 56t5 55.5t4.5 37q0 2 1 5t0 5q-7 20 -22.5 25.5t-32 5t-31.5 -4t-22 -1.5q-2 1 -4 5.5t-5 9t-6 8t-6 3.5q-7 -3 -15.5 -7t-12.5 -10q1 -1 1 -22v-56q0 -18 -1 -19q0 -9 -1.5 -23t-3 -27t-3 -23t-1.5 -11l5 -25
l-15 8l8 -122q-4 -13 -4.5 -27.5t0.5 -31.5q-4 -17 -0.5 -34t3.5 -30q0 -1 -2 -7t-5 -13t-5 -12.5t-2 -6.5v-3q0 -2 0.5 -4t0.5 -5v-3q0 -14 -7 -21.5t-16 -12.5t-16 -8t-7 -8q0 -1 0.5 -1.5l0.5 -0.5l5 -5q1 0 1 -3v-2q-7 0 -12 8.5t-7 15.5l-27 78v8q0 14 3 33.5t-5 32.5
q6 66 11 128t5 128q0 28 -1 52t-4 55q-2 7 -8 13.5t-10 12.5h-5l-18 -32l-5 16q-4 11 -8.5 15.5t-12.5 10.5l-2 -27l-10 22l-16 -32q-2 -3 -3 2t-1.5 12.5t-1 14l-0.5 6.5q-13 -5 -18.5 -11t-8.5 -12t-5 -12.5t-8 -12.5l-10 -106v-8q-1 -9 -2 -21.5t-2 -13.5z" />
    <glyph glyph-name="FL0056h" unicode="V" horiz-adv-x="388" 
d="M216 463q0 -5 -0.5 -25.5t-3 -43.5t-7 -41.5t-12.5 -18.5q-9 0 -8 10q0 6 -1.5 20t-3.5 30.5t-4 30.5t-3 20q0 3 -1 5.5t-1 4.5q0 6 -1.5 14.5t-1.5 35.5v21v12v7q0 5 1 8l-8 69q-2 9 -1.5 32.5t-1 48t-7.5 43.5t-21 19q-1 0 -1 -1q-5 -3 -5 -5q-2 -2 -5.5 -13t-3.5 -13
q-1 0 -2.5 -1t-4.5 -1q-4 0 -8 4.5t-8 10.5t-8 10.5t-8 4.5q-5 0 -6 -5.5t-1 -13.5q0 -7 -0.5 -13t-4.5 -6q-13 0 -26 5t-26 5q0 -57 4 -111.5t15 -109.5v-5q0 -14 4.5 -46.5t10.5 -69t10.5 -69t4.5 -46.5q5 -27 9.5 -55t4.5 -54l16 -109q0 -9 3.5 -12.5t9 -4t11.5 0
t11 -0.5q1 0 3 -4.5t3.5 -9.5t3.5 -9t4 -3l17 8l75 -4q2 -2 4.5 4t5 14.5t4.5 16t4 7.5q3 0 5.5 -7.5t4.5 -15.5t3.5 -13.5t2.5 -1.5q22 57 41 110t29 113q3 27 11.5 53t14.5 53q0 17 2 60.5t4.5 92.5t5.5 92.5t6 60.5v7v8l-1.5 1.5t-3.5 5.5q0 3 0.5 11.5t0.5 18.5
t-0.5 18.5t-0.5 13.5q0 3 -4.5 14.5t-10.5 11.5h-2q-1 -2 -3 -2.5t-2 -1.5v-45l-1.5 -2t-1.5 -3h-4q-7 0 -8.5 5t-1.5 12q0 8 -0.5 14t-4.5 9l-9 5l-22 22h-70l-5 -5q-1 -1 -2.5 -14t-1.5 -20v-111q-3 -3 -1 -15t2 -21q0 -6 -2 -6q3 -63 -0.5 -93.5t-3.5 -32.5z" />
    <glyph glyph-name="FL0057h" unicode="W" horiz-adv-x="628" 
d="M175 473l-2 12.5t-2 41.5q0 10 0.5 22.5t1.5 26.5q-3 0 -3 6q0 10 2 21.5t-1 15.5l-27 73v12v18v16v8l-3 5h-65l-21 -21l-8 -4q-3 -4 -1 -7t5 -5t4 -3t-4 -1h-4q-16 19 -22 19t-8 -9t-2.5 -21.5t0 -25.5t0.5 -20v-7q0 -11 2 -34t5.5 -52t8 -60.5t8 -60.5t6.5 -52t4 -34
q7 -25 14 -51t11 -52q9 -57 29 -108t40 -106q0 -4 1.5 1.5t3.5 13.5t4.5 15.5t5.5 7.5q2 0 4 -7.5t4 -16t4 -15t4 -4.5l32 2l-7 -13q3 -2 4 1.5t2.5 9t2.5 10t4 4.5h10q8 0 15 1.5t7 15.5l30 99q0 25 8.5 51.5t13.5 52.5q4 26 3.5 37t2.5 11q1 0 4 -3.5t6 -7.5t5 -7.5
t2 -4.5q6 -45 9 -75t16 -45l-8 -22q0 -10 7 -16.5t7 -17.5v-14q2 -6 5.5 -10.5t4.5 -10.5l20 -33q9 0 13.5 5t8 11t7.5 11t13 5q0 -7 -0.5 -9t-0.5 -5q0 -6 5 -16q2 -2 11 -3.5t12 -0.5q14 6 17.5 25t9.5 39q0 3 4.5 13t5.5 12q2 5 8 27t13.5 47t15.5 46.5t14 25.5l-1 35
l52 235v6q0 4 0.5 7.5t0.5 6.5v3q0 1 2.5 9t6 17.5t6.5 18t4 9.5q4 11 4 21q0 14 -3 26.5t-5 30.5t-7 18q-2 0 -5 -4t-5.5 -8.5t-4.5 -9l-2 -4.5q-2 0 -2 3v9v8q0 5 -1 6l-43 5q-1 0 -9.5 5t-19.5 8.5t-22 1.5t-18 -15q-5 -9 -7.5 -26.5t-4 -36.5t-3 -36t-4.5 -25l-2 -15
l-4 -4t-8 -10.5t-6 -14.5t4 -17l-23 -165q-20 83 -31 147t-24 123q1 19 1.5 36t0.5 37q-9 0 -11.5 -1t-12.5 -4l-1 1v2q-3 10 -3.5 16.5t-2.5 10t-7 4.5t-17 1q-2 0 -12 -1t-12 -4q-5 -3 -1 -6t4 -5q6 -16 5 -20.5t-4.5 -3.5t-7.5 4t-4 2l-1 5t-3 5q-15 0 -20.5 -15
t-7 -34.5t-1 -38.5t-2.5 -28l-7 -67q1 -30 -1.5 -47t-6.5 -26t-7 -13t-3 -7v-11q-2 -13 -4 -16.5t-3 -14.5q1 -6 -4 -15.5t-6 -7.5q-5 7 -8 20t-4.5 26.5t-2 25t-0.5 16.5z" />
    <glyph glyph-name="FL0058h" unicode="X" horiz-adv-x="406" 
d="M240 60q5 -14 16 -14q8 0 12 2t11 12q3 -5 4.5 -11.5t4 -12t6 -9.5t10.5 -4q9 0 13.5 1.5t7.5 4t6.5 6.5t10.5 9l4 72q0 3 5 -9.5t11.5 -28.5t13 -30.5t9.5 -15.5q5 5 5.5 7.5t0.5 8.5q0 1 -0.5 3.5t-0.5 3.5q0 2 -3 20.5t-7 45t-9.5 57t-9.5 56.5t-7 43.5t-3 18.5
q-10 28 -14 36t-7 11t-7.5 9t-14.5 31v1q0 14 11 32.5t16 32.5q1 10 6.5 22t12 24t12 23.5t7.5 22.5q0 4 0.5 14.5t1.5 22.5t1.5 22.5t0.5 15.5q1 22 7 43t6 44q0 3 -0.5 6.5t-5.5 3.5h-3q0 -1 -2 -2t-2 -3l-14 14h-1q-6 0 -7.5 -3.5t-2 -8t-2 -8t-6.5 -3.5q-14 0 -20 10
t-10 21.5t-9.5 21.5t-20.5 10q-7 0 -12 -6.5t-9 -15.5t-6.5 -18t-3.5 -14q-3 -14 -9.5 -37t-13 -46.5t-11.5 -41.5t-5 -21q-1 -2 -1.5 -6.5t-3.5 -10.5l-51 182q-5 14 -17 14q-8 0 -11.5 -2.5t-11.5 -11.5q-3 4 -4.5 10.5t-3.5 12.5t-5.5 10t-10.5 4q-20 0 -30 -7t-25 -16
h-3q-8 0 -12.5 5t-10.5 8q-5 -4 -5.5 -7t-0.5 -9q0 -1 0.5 -3t0.5 -4q0 -4 1 -14t2 -21t2 -19.5t2 -9.5q12 -59 40 -119.5t52 -111.5v-1q0 -14 -11 -32.5t-15 -32.5q-2 -10 -10 -26.5t-17 -34.5l-17.5 -35t-11.5 -28q0 -4 -0.5 -14.5t-1.5 -22.5t-1.5 -23t-0.5 -16
q-1 -22 -7 -42.5t-6 -43.5q0 -4 0.5 -7t5.5 -3h3l4 3q1 -2 6 -6t8 -7h1q5 0 6.5 3.5t2.5 8t2.5 8t6.5 3.5q14 0 20 -10t10 -21.5t9.5 -21.5t20.5 -10q7 0 12 6.5t8.5 15.5t6 18t4.5 14q3 14 9.5 37.5t13 46.5t11.5 41t5 21q0 1 1 5.5t2 10.5z" />
    <glyph glyph-name="FL0059h" unicode="Y" horiz-adv-x="406" 
d="M291 439v1q24 51 51.5 112t40.5 120q1 1 2 9.5t2 19.5t2 21t1 14q0 1 0.5 3.5t0.5 3.5q0 6 -0.5 8.5t-5.5 7.5q-6 -4 -11 -9t-12 -5h-3q-15 10 -25 16.5t-30 6.5q-6 0 -7 -6.5t0 -15.5l2 -18t-1 -14q-7 10 -20.5 20.5t-21.5 10.5q-11 0 -16 -14l-51 -181q-3 6 -3.5 10.5
t-1.5 6.5q0 3 -5 21t-11.5 41t-13 46.5t-9.5 37.5q-2 5 -4.5 14t-6 18t-8.5 15.5t-12 6.5q-15 0 -17.5 -7t-2.5 -17q0 -8 -1.5 -15.5t-15.5 -7.5q-10 0 -20.5 3.5t-20.5 3.5h-1l-14 -14q0 1 -2 2t-2 3h-3q-5 0 -5.5 -3.5t-0.5 -7.5q0 -23 6 -43.5t7 -42.5q0 -5 0.5 -15.5
t1.5 -22.5t1.5 -23t0.5 -15q2 -10 7.5 -22t11.5 -24t11.5 -24t7.5 -22q5 -14 16 -32t11 -32v-1l62 -46l-34 -34q-2 -2 -2.5 -7.5t-0.5 -11.5q0 -5 0.5 -9.5t2.5 -5.5l23 -12q1 0 -1 -4.5t-5 -10.5l-5.5 -11t-2.5 -6q0 -2 0.5 -11t1.5 -19t1.5 -19.5t0.5 -12.5
q0 -5 0.5 -13.5t0.5 -19.5v-49q0 -11 -0.5 -19.5t-0.5 -13.5q0 -1 9 -5.5t16 -7.5t8 -4q10 0 15 6.5t8 14t4.5 14t5.5 6.5h2q1 -1 3 -7.5l2 -6.5q2 -2 2.5 -5.5t1.5 -3.5q2 -1 11.5 -3.5t17.5 -4.5t9 -2q3 2 9.5 9.5t7.5 8.5h5l18 -9h5q1 1 4 4.5t5 4.5v20q0 72 -6 141.5
t-12 142.5q0 3 -4 7q4 16 6.5 32t6.5 34z" />
    <glyph glyph-name="FL005Ah" unicode="Z" horiz-adv-x="354" 
d="M325 614q3 3 3.5 6t1.5 3l1 5q0 7 -3.5 11.5t-3.5 11.5l1 5l5 5t5 7q1 11 -4.5 17.5t-11.5 6.5l-15 3q14 0 29 7.5t15 24.5q0 6 -3.5 14.5t-9.5 10.5l-41 9q-1 0 -18.5 1t-41 1.5t-47.5 1.5t-39 1h-142q0 -12 4 -20t9.5 -14.5t11 -12.5t8.5 -14q0 -9 -1.5 -12.5t-3.5 -6
t-3.5 -6t-1.5 -11.5q0 -14 2 -20.5t12 -20.5q3 -5 19.5 -7t36.5 -3.5t37.5 -3t22.5 -4.5q0 -4 7 0t15 9.5t14 9.5t5 0l-37 -98q-2 -7 -11 -24.5t-19 -37t-17.5 -37.5t-6.5 -25l-86 -234v-10q0 -7 1 -8q0 -2 5.5 -4t12 -4.5t12.5 -5t7 -4.5l-6 -2t-14 -4.5t-14.5 -4.5
t-6.5 -3q-1 -5 2.5 -9t9 -7t11 -4.5t8.5 -1.5v-4q-14 0 -29.5 -8t-15.5 -25q0 -6 4 -14t10 -11l40 -9q1 0 18.5 -1t41 -1.5t47.5 -1.5t39 -1h142q0 13 -7 20t-16 12t-17.5 10t-11.5 14q0 7 3 8.5t8 1.5q6 0 11.5 -1t9.5 -1q7 0 7 9q0 14 -7 32.5t-16 32.5q-8 8 -22 7.5
t-23 6.5l-66 -2q5 52 25 108.5t42 113.5t39.5 112t17.5 105z" />
    <glyph glyph-name="FL005Bh" unicode="[" horiz-adv-x="288" 
d="M23 45q0 24 5 48t5 48t-0.5 59.5t-0.5 73.5q0 39 -0.5 74.5t-0.5 59.5q0 13 1 38.5t2.5 53.5t3 53.5t1.5 37.5v4v11v3q-2 5 -1 8t-4 1l-19 19q-1 1 -1 4l3 6.5t7 14.5t7 14.5t3 8.5q0 1 1.5 2l1.5 1q-1 1 -0.5 8t-6.5 7l-0.5 1t-0.5 2q0 10 6.5 16t16 9t22 4t24.5 1h16
q28 0 56 -2.5t56 -2.5q9 0 16.5 2.5t16.5 2.5v-8q0 -7 -1 -8q0 -2 -3.5 -9.5t-3.5 -9.5v-8l-16 -13l16 -13v-8q-1 -11 -9.5 -20t-20 -15t-24 -10t-20.5 -5l-3 -4q-1 -1 -1 -8v-17q0 -5 -1 -37.5t-2 -89.5t-2 -137t-1 -179v-1q1 -6 2 -14t1.5 -16t1.5 -13.5l1 -5.5h62
q10 0 9.5 -8.5t1.5 -14.5q1 -3 5 -5.5t8 -5.5t7.5 -8.5t3.5 -14.5q0 -8 -7.5 -12.5t-16 -8t-16 -7.5t-7.5 -11l4 -5t4 -6v-3q0 -11 -6.5 -13t-17.5 -3q-25 -2 -42 -6t-35 1l-27 8l-10 -8q-4 -3 -12 -1t-14 2h-9q-23 16 -29 39t-6 49z" />
    <glyph glyph-name="FL002Fh" unicode="\" horiz-adv-x="353" 
d="M209 52q3 -12 14 -12q3 0 5.5 5t5 11.5t4.5 13.5t5 11q3 -4 7 -14t9.5 -20.5t11 -18.5t11.5 -8q11 0 10 3t-1 7q0 3 6 8l4 63q0 3 4.5 -8t10 -25t11 -26.5t8.5 -13.5q4 4 4.5 6.5t0.5 7.5q0 1 -0.5 3t-0.5 3q0 2 -3.5 18t-8.5 38.5t-11 48.5t-11 48.5t-8.5 37.5t-3.5 16
q-8 25 -11.5 32t-6 9.5t-6.5 7.5t-13 27v1q3 12 -11 45.5t-34.5 76.5t-41.5 90.5t-32 87.5q-3 12 -14 12q-3 0 -7 -5t-7.5 -11.5t-7 -13.5t-6.5 -11q-3 4 -3 14v15q0 13 -2 22.5t-8 9.5q-17 0 -26 -6t-22 -14l-5 -17q-1 -3 -3 0.5t-4.5 9t-5 11.5t-5.5 8q-4 -4 -4.5 -6.5
t-0.5 -7.5q0 -1 0.5 -3t0.5 -3q0 -3 0.5 -12t1.5 -18.5t2 -17t2 -8.5q11 -51 35 -104t45 -97v-1q10 -12 18 -31.5t14 -42t11.5 -44.5t9.5 -38.5t7.5 -24.5t6.5 -2l1.5 -3t3 -6.5t3.5 -5.5t2 1z" />
    <glyph glyph-name="FL005Dh" unicode="]" horiz-adv-x="288" 
d="M261 643q0 -24 -5 -48t-5 -48t0.5 -59.5t0.5 -74.5q0 -38 0.5 -73.5t0.5 -59.5q0 -13 -1.5 -38.5t-3 -53.5t-2.5 -53.5t-1 -37.5v-4v-11v-3q2 -5 1 -8t4 -1l19 -19q1 -1 1 -4l-5.5 -11t-9.5 -20.5t-5 -12.5t-1.5 -2l-1.5 -1q1 -1 0.5 -8t6.5 -7l0.5 -1t0.5 -2
q0 -11 -6.5 -17t-16 -9t-22 -3.5t-24.5 -0.5h-16q-28 0 -56 2.5t-56 2.5q-9 0 -16.5 -2.5t-16.5 -2.5v8q0 7 1 8q0 2 3.5 9.5t3.5 9.5v8l16 13l-16 13v8q1 11 9.5 20t20 15t24 10t20.5 5l3 4q1 1 1 8v17q0 4 1 37t2 90t2 137t1 179v1q-1 7 -2.5 19.5t-2.5 20.5t-1 9h-62
q-10 0 -9.5 8.5t-1.5 14.5q-1 3 -5 5.5t-8 5.5t-7.5 8.5t-3.5 14.5q0 8 7.5 12.5t16 8t16 7.5t7.5 11l-4 5t-4 6v3q0 11 6.5 13t17.5 3q25 2 42 6t35 -1l27 -8l10 8q4 3 12 1t14 -2h9q23 -16 29 -39t6 -49z" />
    <glyph glyph-name="FL005Eh" unicode="^" horiz-adv-x="337" 
d="M152 285q0 4 0.5 22t2.5 38.5t6 36.5t11 16q8 0 7 -9q0 -5 1.5 -17.5t3 -26.5t3.5 -26.5t3 -17.5q0 -2 0.5 -4.5t0.5 -4.5q0 -5 1.5 -12.5t1.5 -30.5v-18v-11q0 -10 -1 -13l7 -60q2 -8 1.5 -28.5t0.5 -41.5t6 -37.5t19 -16.5q1 0 1 1q4 1 4 4q2 2 5 11.5t3 11.5
q1 0 2.5 0.5t3.5 0.5q3 0 6.5 -4t7 -9t7 -9t7.5 -4t5 5t1 12q0 6 0.5 11t3.5 5q11 0 23 -4t23 -4q0 49 -4 96.5t-13 95.5v4q0 12 -4 40.5t-9 60t-9 60t-4 40.5q-4 23 -8 47.5t-4 47.5v96q0 8 -3 11t-8 3.5t-10.5 0t-9.5 0.5q-1 0 -2.5 4t-3 8.5t-3 8t-3.5 2.5l-15 -7h-96
q-2 2 -4 -3.5t-4 -13t-4 -14t-4 -6.5q-3 0 -5 6.5t-3.5 13.5t-3 11.5t-2.5 1.5q-19 -49 -27 -95t-16 -97q-3 -23 -10.5 -46t-12.5 -46q0 -15 -2 -53t-4 -80t-5 -80t-4 -53v-6v-7q0 -2 4 -6q0 -3 -0.5 -10.5t-0.5 -15.5q0 -9 0.5 -16.5t0.5 -11.5q0 -3 4 -13t9 -10h2
q1 2 2.5 2.5t1.5 1.5v39l1.5 1.5t1.5 2.5h3q6 0 7.5 -4.5t1.5 -10.5t0.5 -11.5t3.5 -8.5l8 -4l19 -19h61l4 4q1 1 2.5 12.5t1.5 17.5v96q2 3 0.5 13.5t-1.5 18.5q0 5 2 5q-3 54 0 81t3 28z" />
    <glyph glyph-name="FL005Fh" unicode="_" horiz-adv-x="388" 
d="M33 1l235 -1l36 -2q4 3 9.5 4t11 1.5t10.5 1.5t8 5q8 12 12.5 17t4.5 17q0 8 -6 8t-14.5 2.5t-8.5 13.5q3 8 9.5 8.5l13 1t12 6t6.5 23.5h-103q-13 0 -46.5 -1t-69 -1.5t-63 -1.5t-28.5 -1l-35 -8q-5 -2 -8.5 -9.5t-3.5 -12.5q0 -15 9.5 -19t21.5 -4v-4q-5 0 -10.5 -1.5
t-4.5 -10.5q0 -1 5 -1h13h12h5q-1 -2 -6 -4t-11 -4t-10.5 -4t-4.5 -4q-1 -1 -1 -7v-8z" />
    <glyph glyph-name="FL0060h" unicode="`" horiz-adv-x="165" 
d="M99 646q-2 -2 0.5 -6.5t2.5 -5.5q0 -3 5 -7.5t11 -8t10 -7t3 -4.5q-5 -5 0.5 -12t5.5 -12l-6 -17q0 -3 1 -3q2 -2 7 -2.5t9 -4.5q2 -2 2 -4q0 -9 -15.5 -15t-35.5 -6q-9 5 -23.5 10.5t-22.5 13.5q-22 20 -35 39.5t-3 39.5l6 12q18 16 27.5 19t19.5 -3z" />
    <glyph glyph-name="a" unicode="a" horiz-adv-x="341" 
d="M39 75h-3q0 -1 -1.5 -2.5l-1.5 -1.5v-39q0 -1 -1.5 -1.5t-2.5 -2.5h-2q-5 0 -9 10t-4 13q0 4 -0.5 11.5t-0.5 16.5q0 8 0.5 15.5t0.5 10.5q-4 4 -4 6v7v6q0 15 2.5 53t5 80t5 80t2.5 53q5 23 12.5 46t10.5 46q8 51 16 97t27 95q1 3 6.5 -3t12 -14.5t12.5 -16t8 -7.5
q3 0 4 7.5t1.5 16t1.5 15.5t3 6h77l15 7q2 1 3.5 -2.5t3 -8t2.5 -8.5t3 -4q4 -1 9.5 -0.5t10 -0.5t8 -4t3.5 -10v-96q0 -23 11.5 -44t15.5 -44q0 -12 1.5 -41.5t4 -62.5t4 -62.5t1.5 -41.5v-4q9 -48 13 -95.5t4 -96.5q-11 0 -23 4t-23 4q-3 0 -5 -4t-4 -8.5t-4.5 -8.5
t-6.5 -4t-5 7t-1.5 15.5t-1.5 15.5t-4 7q-1 0 -2.5 -4.5t-3.5 -9.5t-4 -9.5l-2 -4.5q0 -2 -3 -11.5t-5 -11.5q0 -3 -4 -4v-1h-1q-13 0 -18 19.5t-7.5 43t-4.5 43t-9 19.5h-23q-14 0 -17 -9v-48v-48q0 -6 -1.5 -17.5t-2.5 -12.5l-4 -4h-61l-19 19l-8 4q-3 3 -3.5 8.5
t-0.5 11.5t-1.5 10.5t-7.5 4.5zM152 293q0 -2 -0.5 -8t4.5 -7q10 1 22.5 5t12.5 17q0 2 2 4t2 4q-1 5 -2.5 17t-2.5 25.5t-2 25.5t-1 17q0 2 -0.5 8t-1.5 12t-2.5 11t-3.5 5q-7 0 -12 -20t-8.5 -44.5t-5 -46t-1.5 -25.5z" />
    <glyph glyph-name="FL0062h" unicode="b" 
d="M149 34q2 -2 2 -11v-9q12 -1 17.5 1t11.5 3l26 3q3 0 10.5 -0.5t12.5 -0.5h4q21 7 36.5 16t32.5 23q17 13 24 22t9 29q6 24 9 43t4.5 34t2.5 27l2 24q0 40 -16.5 73t-35.5 50q3 16 11.5 25.5t17.5 18.5t16 20t7 31q-2 22 -4 50t-14 78q-2 20 -9 29t-24 22
q-17 14 -32.5 23t-36.5 16h-4q-5 0 -12.5 -0.5t-10.5 -0.5l-26 3q-9 0 -31 -1t-46.5 -5t-46.5 -11t-31 -19q-5 -6 -4.5 -17t-0.5 -22q1 -2 2 -13t0 -14l-2 -14q0 -1 6 -4t12.5 -6t12.5 -5.5t6 -3.5l-34 -3q0 -2 -1 -10.5t-1 -9.5q0 -8 13 -8q6 0 11 0.5t7 0.5v-8
q0 -1 -3.5 -7.5t-3.5 -7.5q-2 -2 -3.5 -10.5t-3 -18.5t-2 -18.5t-0.5 -11.5q0 -1 1.5 -8t3.5 -15.5t3.5 -15t0.5 -7.5q0 -1 -2.5 -5t-6 -8.5t-6 -8t-2.5 -4.5l3 -186q-2 0 2.5 -4t10 -9t10.5 -9.5t5 -5.5l-9.5 1t-14.5 1t-3 -2l-4 -17v-25q0 -5 2.5 -15.5t6.5 -21.5
q-7 -13 -4 -18q3 -4 1 -5t5 -4q1 -1 2 -3t6 0q9 -3 19.5 -5.5t22.5 -4.5q2 -8 12 -6t21 2q5 -3 7 -1zM155 176q2 2 1 13q1 31 1.5 56.5t0.5 33.5l-1 30q4 -1 11 -5t13 -9t11 -11.5t6 -12.5l18 -30v-9q-1 -18 -7 -37.5t-9 -37.5q-2 -5 -8 -7q-9 2 -21 5.5t-16 5.5v15z
M163 415q-1 16 -0.5 23t2 11.5t2 11t-0.5 22.5q-1 17 -2.5 26.5t-17.5 11.5v3q0 5 1.5 6t6.5 2q1 1 14 5t24 6q2 -1 9 -4t8 -4q3 -18 4.5 -36.5t2.5 -36.5v-9l-18 -30q-2 -12 -7 -17t-15 -7q-5 1 -9 7.5t-4 8.5z" />
    <glyph glyph-name="FL0063h" unicode="c" horiz-adv-x="369" 
d="M153 225l-8 50q-1 -6 -4 -2.5t-7 9.5q2 27 4 64t2 65q0 10 -5.5 13t-5.5 12q0 2 2 5.5t3 5.5l14 48l53 30q8 8 9 8.5t1 -0.5q0 -7 1.5 -16.5t1.5 -31.5v-2q0 -2 -0.5 -3.5t-0.5 -3.5v-2l9 -35q21 -21 41.5 -25.5t37 -1.5t26.5 10.5t10 10.5v2q0 8 -2 14t-2.5 13t0.5 15
t7 20q4 8 -3 21t-19 29q-6 7 -8.5 11t-4 7.5t-3 7.5t-6.5 11l-12 13q-10 10 -19 10.5t-16 -1.5t-11.5 -4.5t-4.5 0.5q0 2 2.5 12.5t9.5 13.5q4 2 -1.5 4.5t-13.5 5.5t-15 6.5t-7 8.5q0 6 -11 1.5t-18 -4.5q-26 0 -42 -3.5t-37 -20.5q-2 -2 -6 -11t-5 -11q-15 -17 -23 -27.5
t-16 -33.5q-1 -3 -4.5 -11.5t-7 -17.5t-7 -17.5t-4.5 -12.5q2 -7 -1 -15t-7 -16.5l-8 -17t-4 -16.5q0 -1 4.5 -3.5t10 -5t9.5 -4.5l4 -2l-3 -3t-6.5 -6t-6 -6t-2.5 -4q3 -21 1.5 -41.5t-1.5 -40.5t2 -40.5t7 -40.5q0 -2 3.5 -8.5t8 -14t8.5 -14.5t5 -10l4.5 -6l1.5 -2
q2 -14 4.5 -31t9.5 -33.5t20 -31t36 -24.5q10 -4 21.5 -5t21.5 -1q11 0 19.5 0.5t13.5 0.5q6 0 5 4.5t-3 10t-1.5 10t9.5 4.5q15 0 46 -16l1 2q10 11 26 31t31.5 43t27 45.5t11.5 39.5q0 5 -1.5 18t-2.5 16q-2 8 -5 15t-10 7l-67 2q-15 -5 -18.5 -10.5t-3.5 -11.5t-1.5 -13
t-12.5 -14l-16 -40q-3 -3 -1.5 -5t2 -4.5t-2 -7t-13.5 -12.5q-2 -2 -12.5 0t-16.5 8q-1 1 1.5 4.5t4.5 8.5z" />
    <glyph glyph-name="FL0064h" unicode="d" horiz-adv-x="390" 
d="M183 56l-2 -24l-4 -0.5t-6 0.5q-8 1 -17.5 0t-18.5 -1q-8 0 -14.5 2t-6.5 8q0 2 -3 12t-3 12v6q0 4 -1.5 7.5t-7.5 6.5q-7 0 -6 -11.5t1 -19.5q0 -6 -2 -8h-3l-7 2h-8q-2 -1 -4 -3t-4 0q-6 7 -11.5 17t-10 20t-7 18.5t-2.5 12.5v6q0 5 -0.5 8.5t-0.5 6.5v3l6 252l5.5 4
t12 8.5t11.5 9t5 5.5l-29 16v9q0 7 1 14.5t2.5 14.5t3.5 10q0 1 3 7t3 7v7h-10q-11 0 -25.5 2t-14.5 9q0 1 3 8t3 9v1q0 2 -1 3t1 3l14 13l-13 12q-2 2 -1 4.5t0 3.5q3 5 8.5 6t5.5 7v3q0 2 -3 8l-6.5 13t-6 12.5t-0.5 7.5q9 11 33.5 17.5t52 10t52 4.5t34.5 1l27 -2
q4 0 12 0.5t13 1.5h4q22 -6 38.5 -11.5t34.5 -18.5q18 -12 25 -20t10 -27q14 -47 18 -74t7 -47q0 -8 0.5 -17.5t0.5 -19.5q0 -30 -1.5 -69.5t-6 -81.5t-12 -83t-19.5 -73.5t-29 -53.5t-40 -23l-46 -12q-1 4 1 5t0 1zM175 150q0 -2 0.5 -7t5.5 -6q5 1 12.5 6.5t14 12.5
t11.5 14.5t5 12.5l16 278v9q-2 17 -14 31t-16 32q-1 0 -4.5 2.5t-5.5 2.5h-1h8q-4 0 -13.5 1t-19.5 2.5t-18 2.5t-9 0q-5 -2 -6.5 -2.5t-1.5 -5.5v-3q9 0 15 -6t9.5 -15t5.5 -19t3 -18q1 -11 5.5 -36t-3.5 -57q-6 -24 -8.5 -57t-2 -66.5t3.5 -63t8 -45.5z" />
    <glyph glyph-name="e" unicode="e" horiz-adv-x="288" 
d="M30 124q0 24 5 48t5 48q0 48 -4.5 94t-4.5 94q0 26 5 55t5 54v4v11v3q-2 5 -10 7t-13 0l-19 19q-1 1 -1 4l3 6.5t7 14.5t7 14.5t3 8.5q0 1 10.5 3l10.5 2q-1 1 -9.5 7t-15.5 6l-0.5 1t-0.5 2q0 10 9 16.5t22.5 10t28.5 4.5t27 1h16q28 0 56 -2.5t56 -2.5q9 0 16.5 2.5
t16.5 2.5v-8q0 -7 -1 -8q0 -2 -3.5 -9.5t-3.5 -9.5v-8l-16 -13l16 -13v-8q-1 -11 -9.5 -20t-20 -15t-24 -10t-20.5 -5l-3 -4q-1 -1 -1 -8v-17q0 -9 -0.5 -18.5t-0.5 -15.5v-4q0 -2 1 -6.5t-2 -6.5l-14 -10l14 -1q3 0 2 -5t-1 -9v-4q1 -4 3 -4h4q16 0 31.5 4t30.5 4
q9 0 14 -7t5 -16q0 -6 -6.5 -12t-15 -11.5t-15 -10t-6.5 -7.5q0 -2 6 -3.5t13 -4.5t12.5 -7.5t4.5 -13.5q-2 -17 -10.5 -23.5t-19.5 -9t-23 -4t-21 -8.5q-2 -2 -3 -12.5t-2 -24t-1.5 -25t-0.5 -14.5v-1q1 -6 2 -14t1.5 -16t1.5 -13.5l1 -5.5h62q10 0 9.5 -8.5t1.5 -14.5
q1 -3 5 -5.5t8 -5.5t7.5 -8.5t3.5 -14.5q0 -8 -7.5 -12.5t-16 -8t-16 -7.5t-7.5 -11l4 -5t4 -6v-3q0 -11 -6.5 -13t-17.5 -3q-25 -2 -42 -6t-35 1l-27 8l-10 -8q-4 -3 -12 -1t-14 2h-9q-23 16 -29 39t-6 49z" />
    <glyph glyph-name="f" unicode="f" horiz-adv-x="280" 
d="M14 378v17q0 10 0.5 20t0.5 17v8q0 2 1 9t2.5 15.5t2.5 16.5t2 13l4 12v2v1q-2 5 -13 8.5t-10 3.5q0 1 -0.5 2t-0.5 2q0 8 5 12.5t11 7.5t11 5t5 4q0 6 -8.5 7.5t-8.5 9.5q0 6 4 10.5t8.5 7.5t8.5 4.5t4 2.5t-1 2q-15 7 -21.5 9.5t-6.5 16.5q0 18 13 28q54 2 113 5t114 3
q9 0 16 -2.5t7 -11.5q0 -5 -5.5 -8.5t-11.5 -6t-9.5 -5t-0.5 -5.5l19 -19q0 -1 0.5 -2l0.5 -1q0 -5 -3 -7.5t-7 -4.5l-7 -3.5t-3 -4.5q0 -6 3.5 -9t8 -5.5t8.5 -5t4 -7.5q0 -6 -4.5 -9t-10.5 -5.5t-12 -3.5t-9 -2l-1.5 -1t-2.5 -3q-14 -18 -27 -21.5t-38 -4.5v-4v-25
q0 -12 0.5 -26t2 -27t5 -21.5t8.5 -8.5q17 0 34.5 6.5t34.5 6.5q6 0 7 -4t1 -9q0 -12 -5.5 -18.5t-12.5 -10.5t-12.5 -7t-5.5 -8v-2q23 0 29.5 -15t6.5 -34t-15 -26.5t-33 -10.5t-33 -5t-15 -10l-8 -171q-4 -5 -5 -12.5t-1 -15.5t1 -14t1 -8q-2 -4 -5 -4.5t-5 -0.5
q-18 0 -31.5 10t-24.5 25l-1 0.5t-2 0.5q-10 0 -13 -5.5t-4 -12.5t-3 -12.5t-11 -5.5q-11 0 -17.5 15t-9.5 34t-3.5 37.5t-0.5 25.5q-2 63 -5.5 124.5t-3.5 124.5z" />
    <glyph glyph-name="FL0067h" unicode="g" horiz-adv-x="387" 
d="M192 313l9 -18q-13 -1 -15.5 -6.5t3.5 -19.5l28 -11v-6q0 -6 -0.5 -12.5t-0.5 -12.5v-6v-11q0 -23 -5 -33t-5 -17q0 -1 -1 -0.5t-9 8.5l-51 31v51l-3 6t-2 6q0 9 -0.5 12.5t-0.5 14.5q0 29 -3.5 60.5t-5.5 60.5q4 6 7 9.5t4 -2.5l8 52l26 50q-2 5 3.5 10.5l6.5 6.5
q4 7 7 7t5 -2q11 -8 13.5 -12.5t2 -7.5t-2 -5t1.5 -5l15 -42q10 -8 10.5 -13t0 -9.5t2 -8t16.5 -8.5l65 2q7 0 10.5 7.5t5.5 15.5q0 105 -65 191l-2 2q-20 -9 -30.5 -8t-17.5 5.5t-12 9.5t-13 5q-4 0 -12.5 0.5t-18.5 0.5t-21 -1.5t-21 -5.5q-27 -3 -45.5 -26.5t-30 -53
t-16.5 -58.5t-6 -44q-2 -21 -5.5 -42.5t-3.5 -41.5q0 -21 2 -36.5t-1 -37.5q0 -2 6.5 -10.5t7.5 -9.5q0 -1 -5 -7t-5 -8q0 -16 5 -35t1 -33q1 -4 4 -12.5t7 -18.5t7 -18.5t4 -12.5q8 -24 27.5 -40t33.5 -34q0 -3 -7.5 -6.5t-5.5 -5.5q10 -9 18.5 -14.5t17 -8t18 -3.5
t22.5 -1q2 0 12.5 -0.5t22.5 -0.5q13 0 24.5 0.5t16.5 1.5q8 2 23 11t23 19l9 24q5 7 5.5 11t0.5 8t0.5 8.5t5.5 12.5q12 17 15 37.5t-1 28.5q-5 11 -6.5 19t-1.5 14q0 7 1.5 13t2.5 12q16 2 26.5 11.5t13.5 32.5q-17 4 -23.5 8.5t-13.5 6.5q-3 1 2 3t13 4t16.5 4t11.5 4
l-5 35v17h-71q3 0 -1.5 -2.5t-13.5 -6t-21 -6t-25 -2.5q-17 0 -29 9z" />
    <glyph glyph-name="FL0068h" unicode="h" horiz-adv-x="357" 
d="M341 41v35q3 91 1 175.5t-2 175.5v7q0 5 4 12t4 10v4q0 1 -1 6t-2.5 11t-2.5 11t-1 6q0 2 -0.5 9.5t-1.5 16.5t-1.5 17t-0.5 11q0 4 -0.5 11.5t-0.5 17.5v42q0 10 0.5 17.5t0.5 11.5q0 1 -7 4t-15 6.5t-14.5 6.5l-6.5 3q-9 0 -13 -5.5t-6.5 -12.5t-4 -12.5t-4.5 -5.5h-2
q-1 1 -2.5 6.5l-1.5 5.5q-2 2 -2.5 5t-1.5 3l-6 3l-2 1q-2 -2 -8 -8.5t-7 -7.5h-4l-16 8h-4q-1 -1 -3.5 -4t-4.5 -4v-17q0 -54 -1.5 -105.5t3.5 -105.5q-13 -1 -25.5 -4t-25.5 -4q1 1 1 3q0 3 1 4v93q0 33 0.5 72t-4.5 74q-1 4 -4 4.5t-5 0.5t-3.5 -0.5t-3.5 -0.5
q-6 -12 -11.5 -16.5t-16.5 -4.5q-2 0 -5.5 0.5t-4.5 1.5l-3 5t-4 6q-2 1 -10.5 1.5t-8.5 2.5q-3 1 -10.5 9t-9.5 10q-20 -5 -31 -19v-35q0 -90 2 -168t2 -162v-7q0 -2 -1.5 -8.5t-4 -13.5t-4 -13.5t-1.5 -7.5v-4q0 -1 1 -6t2.5 -11t2.5 -11t1 -6q0 -2 0.5 -9.5t1.5 -16.5
t1.5 -17t0.5 -11q0 -4 0.5 -11.5t0.5 -17.5v-42q0 -10 -0.5 -17.5t-0.5 -11.5q0 -1 7 -4t15 -6.5t14.5 -6.5l6.5 -3q9 0 13 5.5t6.5 12.5t4 12.5t4.5 5.5h2q1 -1 2.5 -6.5l1.5 -5.5q2 -2 2.5 -5t1.5 -3q3 -2 10.5 -3t8.5 -1q2 2 2.5 8.5t1.5 7.5h4l16 -8h4q1 1 3.5 4t4.5 4
v17v106q0 52 -3 106q14 4 30 5.5t25 13.5q-2 -5 -3 -10t-2 -9v-93q0 -33 -0.5 -72t4.5 -74q1 -4 4 -4.5t5 -0.5t3.5 0.5t3.5 0.5q6 12 11.5 16.5t16.5 4.5q2 0 5.5 -0.5t4.5 -1.5l3 -5t4 -6q2 -1 10.5 -1.5t8.5 -2.5q3 -1 10.5 -9t9.5 -10q20 5 31 19z" />
    <glyph glyph-name="i" unicode="i" horiz-adv-x="190" 
d="M28 41v35q-3 91 -5.5 178.5t-2.5 178.5v7q0 5 0.5 9t0.5 7v4q0 1 1 6t2.5 11t2.5 11t1 6q0 2 0.5 9.5t1.5 16.5t1.5 17t0.5 11q0 4 0.5 11.5t0.5 17.5v21v21q0 10 -0.5 17.5t-0.5 11.5q0 1 7 4t15 6.5t14.5 6.5l6.5 3q9 0 13 -5.5t6.5 -12.5t4 -12.5t4.5 -5.5h2
q1 1 2.5 6.5l1.5 5.5q2 2 2.5 5t1.5 3q3 2 10.5 3t8.5 1q2 -2 8 -8.5t7 -7.5h3h1l16 8h2h2q1 -1 3.5 -4t4.5 -4v-17q0 -63 -5.5 -123.5t-10.5 -123.5q-1 -12 -6.5 -20.5t-5.5 -19.5q0 -14 4.5 -29t7.5 -27v-20v-55v-18q0 -33 0.5 -72t-4.5 -74q-1 -4 -4 -4.5t-5 -0.5
t-3.5 0.5t-3.5 0.5q-6 12 -11.5 16.5t-16.5 4.5q-2 0 -5.5 -0.5t-4.5 -1.5l-3 -5t-4 -6q-2 -1 -10.5 -1.5t-8.5 -2.5q-3 -1 -10.5 -9t-9.5 -10q-20 5 -31 19z" />
    <glyph glyph-name="FL006Ah" unicode="j" horiz-adv-x="363" 
d="M347 497l-1 -71q0 -23 -0.5 -45t3.5 -45q0 -1 -0.5 -10.5t-0.5 -21.5q0 -11 -0.5 -21l-0.5 -10q0 -1 1.5 -6t-0.5 -7q-4 -5 -9.5 -6t-8.5 -2.5t-0.5 -4.5t15.5 -11q-1 -4 -4.5 -13t-7 -19.5t-7 -19.5t-4.5 -13q-5 -13 -9 -21.5t-9 -15.5t-11 -14.5l-14 -17.5
q-1 -2 -5 -12t-6 -12l-28 -27q-18 -11 -36.5 -13t-38.5 -2q-15 0 -15 14q0 5 -7 5q-4 0 -9.5 -1l-11 -2t-9 0t-3.5 4q0 1 -0.5 6.5t-1 11.5t-1 11.5t-0.5 6.5q-2 -1 -4 -7t-4 -12.5t-4 -11.5t-4 -5t-6.5 1.5t-4.5 3.5v19h-8q-4 -5 -14 19t-21 69q-6 8 -10.5 13t-7 10t-4 12
t-1.5 19q0 10 1 19.5t2 19.5q-2 25 0.5 40.5t7.5 24.5t12 13.5t14 8.5q32 18 83 -12q4 -14 1 -29.5t-3 -26.5q0 -1 2.5 -5.5t6 -10.5t6 -10.5t2.5 -5.5v-2q0 -2 -0.5 -4t-0.5 -4v-3q0 -12 6 -18.5t13.5 -10.5t14 -7t6.5 -7q0 -1 -0.5 -1.5l-0.5 -0.5l-4 -4q-1 0 -1 -3v-2
q6 0 10.5 7.5t5.5 13.5l24 68v7q0 12 -3 29.5t5 27.5q-5 56 -10.5 105.5t-5.5 106.5q0 24 -2 51.5t0 54.5q2 6 10 5.5t12 4.5h4l15 -61l5 47q1 11 6 14t12 8l2 -23l9 19l14 -28q1 -3 1.5 1.5t1.5 11.5t1.5 12.5l0.5 5.5q10 -4 16 -5.5t9.5 -2t7 -2.5t8.5 -7l2 -117v-7
q1 -8 2 -19t2 -12z" />
    <glyph glyph-name="k" unicode="k" horiz-adv-x="341" 
d="M159 265q-7 -51 -8.5 -100t0.5 -100l-4 -11q1 -3 -2.5 -1t-8.5 6.5t-9 9t-4 6.5l3 -29q1 -7 -3 -6t-10 5t-13 8.5t-13 4.5q-9 0 -12.5 -3t-5.5 -7t-5.5 -7t-12.5 -3q-8 0 -14.5 6t-8.5 13q-1 5 -2.5 17t-2.5 25.5t-2 25.5t-1 17q0 10 -0.5 37t-1.5 57t-1.5 56.5
t-0.5 37.5l-7 54q-1 2 -2 8t-2 8v214l4 31q1 6 4 7t6 1q7 0 10.5 -3t5.5 -7.5t4.5 -9t7.5 -7.5l8 4t8 3h1h3q1 0 5 -1t6 -2q1 1 1 8v4q0 2 9 2l3 -11.5t6.5 -23t6 -18t2.5 4.5l2 49q2 1 4.5 4.5t3.5 3.5h4q5 0 7 -1.5t4 -6.5q1 -10 1.5 -20.5t0.5 -21.5q0 -32 1.5 -66.5
t8.5 -63.5l2.5 -6.5t5.5 -12t3 -6.5q-1 0 -2 12.5t9 22.5l36 154q2 7 6.5 12t10.5 5h1q6 0 11 -2.5t15 -17.5l1.5 7.5l0.5 2.5q0 8 1 16.5t8 8.5q8 0 14 -6t11 -13.5t9.5 -15.5t10.5 -12l5 17q6 0 11 9.5t10 12.5q4 -4 4.5 -6.5t0.5 -7.5q0 -1 -0.5 -3t-0.5 -3q0 -3 -1 -9
t-2.5 -12t-2.5 -11t-2 -6q-16 -51 -31.5 -90t-32.5 -83v-1q0 -12 9.5 -28t13.5 -28q1 -9 6 -31t10.5 -46.5t10.5 -46t7 -30.5q0 -4 0.5 -13t1.5 -19.5t1.5 -20t0.5 -13.5q1 -19 6 -37t5 -38q0 -3 -1.5 -7.5t-3.5 -1.5q-3 5 -10 12t-8 7q-2 0 0.5 -8t2.5 -14q0 -4 -3 -5h-1
q-5 0 -6.5 3t-2 7t-2 7t-5.5 3q-12 0 -17 -8.5t-8.5 -19t-8.5 -19t-18 -8.5q-6 0 -10.5 6t-8 13.5t-5.5 15.5l-3 12q-3 12 -8.5 32.5t-11.5 40.5t-10 35.5t-4 18.5q-1 1 -2.5 9.5t-3.5 18.5t-3.5 18.5t-1.5 10.5q-1 2 -2.5 4.5t-1.5 3.5z" />
    <glyph glyph-name="l" unicode="l" horiz-adv-x="281" 
d="M20 595v-5q0 -3 -0.5 -6.5t-0.5 -6.5v-5q0 -36 5.5 -71t6.5 -71q0 -9 -1 -35t-1.5 -55.5t-1.5 -55.5t-1 -36q1 -4 3.5 -14.5t5 -22.5t4.5 -22.5t2 -13.5v-3v-1q-5 -2 -13 -4t-13 -7v-4q0 -2 -0.5 -5.5t-0.5 -5.5v-3q0 -9 2 -16t2 -14v-3l45 -16l-48 3v-2l7 -15v-3
q0 -3 -2 -5.5t-2 -6.5q0 -10 4.5 -16.5t11.5 -11.5q42 4 86 -3t86 -7h5q4 0 4.5 4t3.5 2l12 -5q2 0 8.5 4.5t13 10.5t12 11.5t5.5 8.5v4l-2 3t-4 7t-4 7.5t-2 4.5q-2 5 3 14.5t5 15.5q0 8 -1 12.5t-7 11.5q-35 3 -53.5 5t-27.5 7.5t-10.5 17t-1.5 33.5q0 74 -0.5 120t-1 78
t-1 56.5t-0.5 54.5v15v5q0 3 4 4l-20 126l-16 -15v6q0 6 -1 12t-3 6h-5q-24 0 -40.5 -5t-27.5 -15t-18.5 -24.5t-14.5 -33.5z" />
    <glyph glyph-name="m" unicode="m" horiz-adv-x="507" 
d="M154 278q6 -4 13 -30.5t13 -57t11 -57t7 -30.5q1 -2 5.5 -11.5t4.5 -11.5q5 -18 8 -35t17 -22q2 -1 11 0.5t11 3.5q4 7 4 14q0 2 -0.5 4t-0.5 8q8 0 10 -5t3 -10.5t3.5 -10.5t11.5 -5l4 31q1 5 4.5 9.5t5.5 9.5v12q0 9 5.5 17t5.5 17l-6 16q6 13 12 33.5t11.5 40.5
t10 36.5t6.5 21.5q2 2 6 9.5t6 9.5q0 2 2 4l4 -4q1 -1 2 -12t2 -19l3 -51l5 -134q1 -20 7.5 -27.5t26.5 -7.5q5 0 8 2t6 2h3l7 -4h4q6 5 10 10.5t14 5.5h2l13 -10h4q4 5 8.5 11t6.5 12q1 13 0 32t-3 39t-3.5 38t-1.5 30q0 71 2.5 133.5t2.5 133.5q0 15 0.5 24t0.5 16
q0 8 -1.5 16.5t-6.5 22.5l-7 18q-3 8 -2 18t1 19v12q-2 5 -9 11.5t-8 11.5q0 3 -0.5 14.5t-0.5 14.5q-9 0 -13 -5t-7.5 -11t-7.5 -11t-12 -5q0 6 0.5 8t0.5 4q0 7 -4 14q-2 2 -11 3t-11 1q-12 0 -17.5 -4t-8.5 -10t-4 -14.5t-4 -17.5q0 -1 -4.5 -5.5t-10 -9.5t-10 -10
t-4.5 -6q-17 -52 -32.5 -103.5t-47.5 -105.5l-52 91l15 20l-7.5 6t-13.5 10.5t-7 5.5l-2 13q-4 7 -6 22.5t-3 32.5t-2.5 32t-5.5 23q-6 12 -27 18t-44.5 8t-41.5 1.5t-18 -1.5l27 -38q-3 -3 -9.5 -1t-13.5 4t-12.5 1t-6.5 -10q-2 -17 -6.5 -27t-4.5 -23q0 -8 3 -18
q1 -2 4 -9t6 -15.5t5.5 -16t2.5 -9.5v-2q0 -3 0.5 -6t0.5 -6v-6q0 -69 -6.5 -137t-6.5 -137v-14q0 -11 0.5 -23t0.5 -23v-15q1 -8 3.5 -24.5t6 -33.5t9.5 -29.5t15 -12.5q2 0 6 1t4 3v26q3 0 6.5 -4.5t9.5 -10.5t16 -10.5t25 -4.5q4 0 9.5 0.5t7.5 7.5q-1 2 -2.5 11.5
t-1.5 11.5q0 17 4.5 36t4.5 35l8 132z" />
    <glyph glyph-name="n" unicode="n" horiz-adv-x="388" 
d="M106 77l-19 -25q-8 0 -13 -8.5t-13 -8.5q-7 0 -10 9.5t-3 14.5v4l4 38v4v4l-8 77l5 302q-14 24 -26 54.5t-12 59.5q0 1 5 8.5t12 15t13 13t8 3.5l30 -33q6 0 7 8t1 18t2 18t9 8h5q2 0 11.5 -1.5t11.5 -1.5q28 -40 53 -81.5t47 -84.5l-2 -19l9 19q0 1 1 10t2.5 20.5l3 23
t1.5 19.5q1 1 1 11t5 13l20 13l-17 13q-5 2 -7 12.5t-2 18.5v8q2 5 11.5 10t11.5 0v-4q0 -8 3.5 -10.5t5.5 -4.5q6 -2 23 -2.5t35 -2.5t32 -6.5t14 -13.5q0 -2 -0.5 -4.5t-0.5 -4.5q-1 -9 -3 -32t-4.5 -48.5t-4.5 -48.5t-3 -32l7 -88v-316l-2.5 -3t-4.5 -4q-3 -2 -10.5 -5
t-9.5 -3q-5 0 -11 6.5t-11.5 15t-10 16t-6.5 9.5l-15 -16v-19q0 -2 -4.5 -3.5t-6.5 -1.5q-16 0 -28 14.5t-15 29.5l-23 141l-22 66h-3q0 -39 -1 -79t-1 -79v-17q0 -12 -1 -23t-3 -28q-1 -1 -2 -2.5t-2 -1.5h-2h-2q-1 0 -4 2l-3 2q-5 0 -6 -5.5t-2 -12.5t-3 -12.5t-7 -5.5
q-1 0 -1.5 0.5l-0.5 0.5q-2 7 -6 13.5t-10 9.5q-6 -2 -7 -8t-1 -13t-1 -12.5t-9 -5.5q-7 0 -8 9t0.5 20.5t3 22t0.5 13.5z" />
    <glyph glyph-name="o" unicode="o" 
d="M3 412q0 17 8 36.5t4 35.5q1 4 4.5 13t7 19.5t7 19.5t4.5 13q5 13 9.5 21.5t9 15.5t10.5 14t14 18q1 2 5 12t6 12q11 10 31.5 18.5t43.5 14.5t44.5 9.5t35.5 3.5q15 0 15 -14q0 -10 -8.5 -15t-8.5 -14q0 -5 5 -7.5t11 -4t11.5 -3t7.5 -4.5l19 -31q6 -8 8 -12t3.5 -8
t3.5 -9t8 -13q6 -9 10.5 -14t7.5 -10t4.5 -12t1.5 -19q0 -17 -2 -34.5t-2 -35.5v-2q0 -5 2.5 -21.5t5 -36t5 -36.5t2.5 -21v-3q0 -2 0.5 -5t0.5 -7v-4v-4q0 -2 -0.5 -5.5t-0.5 -5.5v-4q-3 -5 -9.5 -7t-6.5 -8q0 -8 7 -12t9 -12q0 -4 2 -18t2 -20q0 -19 -12.5 -42.5
t-29 -46.5t-34 -43.5t-27.5 -33.5l-0.5 -1t-0.5 -2q0 -5 2.5 -8t2.5 -8q0 -8 -16.5 -10t-31.5 -2h-15q-8 0 -24.5 3t-34.5 8.5t-33 12.5t-19 15q-8 14 -22 28t-16 30v6v12v10v6q-1 6 -5.5 10t-6.5 10q-1 3 -3.5 11t-5 16.5t-4.5 16t-2 9.5q-5 23 -7 45.5t-2 45.5t0.5 45
t-3.5 45q0 2 -3.5 8t-3.5 7t-0.5 5.5t-0.5 7.5zM134 216q0 -4 5 -14.5t12 -22t13 -20.5t9 -9q6 0 11.5 8.5t7.5 10.5q1 2 4.5 8t8 13t8.5 13t6 8v6q0 42 -3 79t-1 80q-2 7 -3.5 17t-2.5 20t-1.5 19t-0.5 14q0 2 2 13t2 13v2q0 2 0.5 4t0.5 4v3q0 12 -7 19t-14.5 11t-13.5 7
t-4 8h-8q-2 0 -3 -2t0 -10l-24 -68v-7q0 -12 4 -24t4 -25q0 -45 -6 -89t-6 -89z" />
    <glyph glyph-name="FL0070h" unicode="p" horiz-adv-x="384" 
d="M171 250l-5 -37q0 -8 -0.5 -26t-1.5 -37.5t-1.5 -37.5t-0.5 -26q0 -4 -0.5 -14.5t-1.5 -12.5q0 -4 -4 -4l-4 -1q-1 -1 -3 -2t-2 -2l2 -32h-4q-5 0 -6 1q-8 1 -15.5 0t-14 -1.5t-10.5 1t-4 8.5q0 1 -0.5 6t-0.5 11v12v6q-1 1 -1.5 2t-2.5 2h-2q-5 0 -7 -4.5t-3 -10l-2 -11
t-3 -7.5h-3l-7 3h-8q-2 -1 -4 -3t-4 0q-6 9 -11 19.5t-8.5 21t-6 19t-2.5 13.5v6v15v4l14 226q0 1 2.5 4.5t6 8t6 8.5t2.5 5q1 1 -0.5 7.5t-3.5 15t-3.5 15.5t-1.5 8q0 3 0.5 11.5t2 18.5t3 18.5t3.5 10.5q0 1 3.5 7.5t3.5 7.5v8q-2 0 -8.5 0.5t-13.5 2t-12.5 4t-5.5 6.5
q0 1 3 8t3 9v1q0 2 -0.5 3.5t1.5 3.5l14 13l-12 12q-2 2 -1 4.5t0 4.5q4 5 10 6.5t5 9.5q0 3 -3 9.5t-6.5 13.5t-5.5 13t0 8q9 12 32.5 18.5t49.5 10t50 4t33 0.5l26 -3q4 0 12 0.5t13 0.5h4q22 -7 38.5 -16t33.5 -23q17 -13 24 -22t9 -29q12 -50 15 -78t5 -50
q0 -22 -3.5 -49t-9 -53.5t-12.5 -50t-15 -38.5q-17 -10 -35.5 -18.5t-41.5 -16.5l-46 -10q-1 4 1 5t0 1zM179 346q0 -2 0.5 -7t5.5 -6q10 2 15 7t7 17l20 96v9q-1 18 -7.5 37.5t-9.5 37.5q-1 7 -9 7h-1l8 1q-3 -1 -10.5 -3l-15 -4t-13.5 -3.5t-7 -2.5q-5 -1 -6.5 -2t-1.5 -6
v-3q17 -2 22.5 -13t6.5 -28q2 -32 -2 -67t-2 -67z" />
    <glyph glyph-name="FL0071h" unicode="q" 
d="M350 421q0 16 -7 33t-3 31q-1 4 -4.5 12.5t-7 17.5t-7 17.5t-4.5 11.5q-5 12 -9 19.5t-8 13.5t-9.5 12.5t-12.5 15.5q-1 2 -5 11t-6 11q-21 17 -44 27.5t-49 10.5q-15 0 -15 -11q0 -5 -6 -7.5t-12.5 -5t-12.5 -5.5t-6 -7q0 -5 -4.5 -7t-10.5 -2.5t-11.5 -2t-7.5 -4.5
l-17 -28q-5 -7 -6.5 -11t-3 -7.5t-4 -7.5t-8.5 -11q-6 -8 -10 -12.5t-7 -9.5t-4 -11t-1 -17q0 -15 1.5 -30.5t1.5 -31.5v-2q0 -5 -2 -20t-5 -32t-5 -32t-2 -19v-2q0 -2 -0.5 -4.5t-0.5 -6.5v-7q0 -2 0.5 -5t0.5 -5v-4q3 -4 9 -5.5t6 -7.5q0 -7 -6.5 -10.5t-8.5 -11.5
q-1 -3 -2.5 -16t-1.5 -18q0 -17 11.5 -37.5t27 -41.5t32 -39.5t26.5 -29.5l1 -2q0 -21 13.5 -23t42.5 -2q9 0 32.5 4.5t43.5 12.5q2 -5 3.5 -8.5t2.5 -5.5q1 -4 4.5 -11.5t8 -14.5t10 -12t11.5 -4q8 1 10.5 6t2 11t-2 12.5t-1.5 10.5q0 8 12 10q4 1 6 -1.5t3.5 -6.5t3 -7
t6.5 -2h1q2 2 5.5 6.5t4.5 6.5q1 -1 2 -1.5t2 -1.5l2 1q4 0 4.5 3t-0.5 6q-3 20 -11 37t-12 35q-1 5 -3.5 16.5t-5.5 23.5l1.5 2l4.5 6q1 3 3.5 10t5 14.5t4.5 14.5t2 9q5 20 7 40.5t2 40.5t-0.5 40t2.5 41q0 2 3 7l3 5q0 1 0.5 5.5t0.5 6.5zM168 303l20 -114q5 -12 6 -13
q0 2 0.5 0t1.5 -7q-8 -18 -12 -18q-5 0 -10 8t-7 10q-2 4 -2.5 15t-4.5 15l-14 49q-15 10 -16 26t4 35.5t11 40t5 39.5q4 13 6 33.5t2 29.5q0 1 -2 11.5t-2 11.5v2q0 2 -0.5 3.5t-0.5 3.5v2q0 10 6 16.5t12.5 10.5t12.5 6.5t6 5.5q0 1 1 0.5t9 -8.5l23 -62v-6q0 -11 -4 -22
t-4 -22q0 -28 3.5 -55.5t5.5 -54.5q-4 -6 -7 -9.5t-4 2.5z" />
    <glyph glyph-name="r" unicode="r" horiz-adv-x="393" 
d="M174 238q-2 0 -2.5 -0.5l-0.5 -0.5l-3 -16q0 -8 -1 -27t-2 -40t-2 -40t-1 -27q1 -4 0 -14.5t-2 -12.5q0 -4 -4 -4l-4 -1q-1 -1 -3 -2t-2 -2l2 -32h-4q-5 0 -6 1q-17 3 -24 16.5t-2 29.5q-3 3 -4 3h-2q-5 0 -7 -4.5t-3 -10t-2 -10.5t-3 -7h-1h-1l-1 -1h-4h-8
q-2 0 -13.5 -2t-13.5 -2q-9 -1 -14.5 8.5t-8.5 22t-4 24.5t-1 17v6q0 5 0.5 8.5t-0.5 6.5v4l12 229q0 2 1 9.5t1 9.5q1 2 2 10t2 17t1.5 17t0.5 10q0 3 1.5 11t3.5 18t4 18t4 11q0 1 3.5 8t3.5 8v4v4q-2 0 -8.5 0.5t-13.5 1.5t-12.5 3.5t-5.5 7.5q0 1 3 7.5t3 8.5q1 1 11 4
t8 5l-19 11v13q-1 1 -1 5q0 3 -1 4q2 3 6 4t7.5 1.5t6.5 1.5t3 5l-20 23q-7 8 0.5 15.5t23.5 14t37.5 11.5t41.5 9t37 6t23 2q12 1 24.5 -2.5t23.5 -3.5q4 1 6 3t7 2h4q22 -7 38 -16t33 -23q18 -13 24.5 -22t9.5 -30l-13 -18l14 -8l1 -16v-9q2 -22 8.5 -43t7.5 -44
q1 -19 -14 -32l-53 -113l1 -15q18 -54 36.5 -111.5t21.5 -115.5q-9 0 -14 1t-9 2t-7.5 2t-10.5 1q0 -2 1.5 -5t0.5 -5q-1 -3 -4 -9.5t-7 -13.5t-8.5 -12t-7.5 -5q-5 0 -7 4t-3.5 9.5t-4 9.5t-7.5 4q-2 0 -4.5 -3.5t-5 -7.5l-5 -8t-3.5 -5q-1 -2 -2.5 -3l-1.5 -1
q-9 -1 -17.5 12.5t-17 35t-16 48t-13 51t-10 44t-6.5 27.5q-2 5 -8 5zM176 350v-7q0 -4 5 -6q11 2 21 8t12 18l27 90v9q0 9 -4.5 17.5t-10 17t-10.5 17t-6 17.5q-1 7 -8 7h-1h-2q-4 -1 -11.5 -2.5l-15 -3t-13 -2.5t-6.5 -2q-5 -1 -6.5 -2t-1.5 -6l1 -3q17 -2 24.5 -12.5
t9.5 -27.5q2 -32 -2 -63.5t-2 -63.5z" />
    <glyph glyph-name="s" unicode="s" horiz-adv-x="281" 
d="M9 72v2q0 3 5.5 4.5t11.5 3t11 2.5l5 1q0 1 -3.5 6.5t-7.5 11t-7.5 10l-3.5 4.5l52 -1q0 3 -6 6t-11 4q-20 5 -21 5q-7 0 -16 13q1 1 1.5 6.5t1 10.5t2 9.5t5.5 4.5q10 0 23 -8.5t29 -8.5q12 0 20.5 6.5t13.5 16t7.5 21t2.5 22.5q0 5 5.5 7t3.5 7q-1 1 -7 7.5t-13 14
t-13 14t-7 8.5q-1 3 -6 13l-11 22l-11 22l-6 12q-11 19 -18.5 31.5t-12.5 25t-7 28.5t-2 42q0 45 9 80t29.5 59t54 36.5t82.5 12.5h3q1 0 -1.5 -4t-5.5 -9.5t-5 -9.5l-2 -4q1 0 6 3t11 6t11.5 6t6.5 3q8 0 14.5 -2.5t6.5 -13.5q0 -6 -3 -8.5t-6.5 -4t-7.5 -3t-6 -5.5
q0 -1 -3.5 -6.5t-8 -11.5t-7.5 -10.5l-3 -4.5l49 27q1 0 2 -7.5t2.5 -17t2.5 -18.5t1 -12q0 -11 -10.5 -17.5t-20.5 -10.5q-3 -1 -9.5 -3t-13.5 -4.5t-13.5 -4.5t-9.5 -3q-8 -6 -8 -15q0 -5 3.5 -15.5t8 -21.5t8.5 -21.5t5 -14.5l-10 -28q5 2 9 4t7 2q4 0 8.5 -3.5
t9.5 -13.5q6 -12 16.5 -33.5t21 -46.5t18 -48.5t7.5 -38.5v-2q-8 -21 -12.5 -44.5t-14.5 -43.5q-2 -4 -6.5 -13.5t-10 -20t-10.5 -19.5t-8 -13q-6 -9 -24 -15t-39 -9.5t-41.5 -5t-31.5 -1.5q-6 0 -18 3t-24 8t-20.5 11.5t-8.5 14.5z" />
    <glyph glyph-name="t" unicode="t" horiz-adv-x="308" 
d="M110 65q-2 0 -5 -4.5t-5.5 -9.5t-5 -9.5t-4.5 -4.5q-9 0 -13 18.5t-5.5 42.5t-1 46t0.5 30q0 91 8 180t8 180q-2 2 -2.5 5t-1.5 3h-63q0 6 3 10t3 10l-1 4l-4 4.5t-4 6.5q0 4 5.5 7t12 4.5t13.5 2t10 0.5l-14 9q-12 0 -25.5 6.5t-13.5 21.5q0 5 3.5 12.5t8.5 9.5l35 8
q1 0 16 0.5t35.5 1.5t41.5 1.5t34 0.5h36h51h22h15q0 -11 -4 -14t-9 -4t-10.5 -2t-8.5 -8q0 -17 6 -28.5t6 -27.5q0 -12 -2 -18t-10 -18q-5 -6 -16 -5t-21 1q-7 0 -11 -3q0 -3 -0.5 -10.5t-1.5 -15.5t-1.5 -16t-0.5 -11v-15q0 -7 -0.5 -24t-1.5 -35.5t-2 -35t-2 -22.5v-264
q0 -7 -2 -19t-6 -20q-15 3 -21 -1t-9 -10t-5.5 -11.5t-11.5 -5.5q-8 0 -14 7t-11 16t-10.5 16t-12.5 7z" />
    <glyph glyph-name="FL0075h" unicode="u" horiz-adv-x="377" 
d="M12 491l3 -82q0 -23 0.5 -45t-3.5 -45q0 -1 0.5 -10.5t0.5 -21.5q0 -11 0.5 -21l0.5 -10q0 -1 -1.5 -6t0.5 -7q4 -5 9.5 -6t8.5 -2.5t0.5 -4.5t-15.5 -11q1 -4 4.5 -13t7 -19.5t7 -19.5t4.5 -13q5 -13 9 -21.5t9 -15.5t11 -14.5l14 -17.5q1 -2 5 -12t6 -12
q5 -5 10.5 -9.5t12.5 -8.5l3 -11v10q38 -23 77 -23q15 0 15 14q0 5 6 5q4 0 10 -1t11 -2t9 0t4 4q0 1 0.5 6.5t1 11.5t1 11.5t0.5 6.5q2 -1 4 -7t4 -12.5t4 -11.5t4 -5t6.5 1.5t4.5 3.5v19h8q4 -5 14 19t21 69q6 8 10.5 13t7 10t4 12t1.5 19q0 10 -1 19.5t-2 19.5
q10 55 18 119l-20 39l17 -8l-4 57q1 9 3 32t4.5 48.5t4.5 48.5t3 32q0 2 1 4.5t0 4.5q-6 18 -19 22.5t-27.5 4t-28 -3.5t-19.5 -1q-2 2 -7.5 12.5t-10.5 9.5q-6 -2 -13.5 -6t-10.5 -9q1 -1 1 -19v-48q0 -16 -1 -17q0 -8 -1.5 -20t-3 -23.5t-2.5 -20t-1 -9.5l4 -22l-13 7
l7 -106q-3 -11 -3.5 -24t0.5 -27q-4 -14 -1 -29.5t3 -26.5q0 -1 -2 -6t-4 -11t-4 -11t-2 -6v-2q0 -2 0.5 -4t0.5 -4v-3q0 -12 -6.5 -18.5t-14 -10.5t-13.5 -7t-6 -7q0 -1 0.5 -1.5l0.5 -0.5l4 -4q1 0 1 -3v-2q-6 0 -10.5 7.5t-5.5 13.5l-24 68v7q0 12 3 29.5t-5 27.5
q5 57 9.5 111.5t4.5 111.5q0 24 -1 45t-3 48q-2 6 -7 12t-9 11h-4l-16 -28l-4 14q-3 10 -7 13.5t-11 8.5l-2 -23l-9 19l-14 -28q-2 -3 -2.5 1.5t-1 11t-1 12.5l-0.5 6q-11 -4 -16 -9.5t-7.5 -11t-4.5 -11t-7 -10.5l-8 -92v-7q-1 -8 -2 -19t-2 -12z" />
    <glyph glyph-name="FL0076h" unicode="v" horiz-adv-x="337" 
d="M188 403q0 -4 -0.5 -22t-2.5 -38.5t-6 -36.5t-11 -16q-9 0 -7 9q0 5 -1.5 17.5t-3 26.5t-3.5 26.5t-3 17.5q0 2 -0.5 4.5t-0.5 4.5q0 5 -1.5 12.5t-1.5 30.5v18v11q0 10 1 13l-7 60q-2 8 -1.5 28.5t-0.5 41.5t-6.5 37.5t-18.5 16.5q-1 0 -1 -1q-4 -1 -4 -4
q-2 -2 -5 -11.5t-3 -11.5q-1 0 -2.5 -0.5t-3.5 -0.5q-3 0 -6.5 4t-7 9t-7 9t-7.5 4t-5 -5t-1 -12q0 -6 -0.5 -11t-3.5 -5q-11 0 -23 4t-23 4q0 -49 4 -96.5t13 -95.5v-4q0 -12 4 -40.5t9 -60t9 -60t4 -40.5q4 -23 8 -47.5t4 -47.5l16 -96q0 -8 3 -11t8 -3.5t10 0t10 -0.5
q1 0 2.5 -4t3 -8.5t3 -8t3.5 -2.5l15 7l66 2q2 -2 4 3.5t4 13t4 14t4 6.5q3 0 5 -6.5t3.5 -13.5t3 -11.5t2.5 -1.5q19 49 34 94t23 96q3 23 10.5 46t12.5 46q0 15 2 53t4 80t4.5 80t4.5 53v6v7q0 2 -4 6q0 3 0.5 10.5t0.5 15.5q0 9 -0.5 16.5t-0.5 11.5q0 3 -4 13t-9 10h-2
q-1 -2 -2.5 -2.5t-1.5 -1.5v-39l-1.5 -1.5t-1.5 -2.5h-3q-6 0 -7.5 4.5t-1.5 10.5t-0.5 11.5t-3.5 8.5l-8 4l-19 19h-61l-4 -4q-1 -1 -2.5 -12.5t-1.5 -17.5v-96q-2 -3 -0.5 -13.5t1.5 -18.5q0 -5 -2 -5q3 -54 0 -81t-3 -28z" />
    <glyph glyph-name="FL00BAh" unicode="w" horiz-adv-x="546" 
d="M152 411q0 1 -2.5 20t0.5 70q-2 0 -2 5q0 8 1.5 18.5t-0.5 13.5l-24 64v10v16v14v7l-2 4h-57l-18 -18l-7 -4q-3 -3 -1 -5.5t4.5 -4.5t3.5 -3t-4 -1h-3q-14 17 -19 17t-7 -8t-2.5 -18.5t0 -22t0.5 -17.5v-6q0 -15 4.5 -51t9.5 -76.5t10 -76.5t6 -51q5 -22 11.5 -44.5
t9.5 -45.5q8 -49 25.5 -93.5t34.5 -92.5q0 -3 1 1.5t3 11.5t4.5 13.5t4.5 6.5t4 -6.5t3.5 -13.5t3 -13t3.5 -4l28 2l-6 -12q3 -1 4 2t2 7.5t2 8.5t3 4h9q7 0 13 1.5t6 13.5l26 86q0 22 7.5 45t11.5 45q4 23 3.5 32.5t2.5 9.5q1 0 3.5 -3t4.5 -6.5t4 -6.5t2 -4q5 -39 8 -65
t14 -39l-7 -19q0 -9 6 -15t6 -15v-12q2 -5 5 -9t4 -9l17 -29q8 0 12 4.5t7 9.5t6.5 9.5t11.5 4.5q0 -6 -0.5 -8t-0.5 -4q0 -7 4 -14q2 -2 10 -3.5t10 -0.5q13 5 16 21.5t8 34.5q0 2 4 11t5 11q2 4 7 23t11.5 41t13 40.5t12.5 22.5l-1 30l45 204v6q0 3 0.5 6t0.5 6v2
q0 1 2.5 8t5.5 15.5t5.5 15.5t3.5 8q6 20 2 34t-6 34q-1 16 -6 16q-2 0 -6 -6t-6.5 -11t-2.5 -6q-1 0 -1 3v8v7q0 4 -1 5l-38 4q-1 0 -8 4.5t-16.5 7.5t-19.5 1.5t-16 -13.5q-4 -8 -6 -23t-3 -31.5t-2.5 -31.5t-4.5 -22l-2 -13l-3.5 -3.5t-7 -9t-5 -12.5t3.5 -15l-20 -143
q-17 72 -26.5 128t-21.5 107q1 16 1.5 31t0.5 32q-8 0 -10.5 -1t-10.5 -3l-1 1v1q-3 9 -3.5 14.5t-2 8.5t-6 4t-14.5 1q-2 0 -10.5 -1t-10.5 -3q-4 -3 -0.5 -5.5t3.5 -4.5q5 -14 4 -17.5t-4 -3t-6.5 3.5t-3.5 2l-1 4t-2 4q-13 0 -18 -13t-6.5 -30t-1 -34t-1.5 -24l-6 -58
q1 -26 -1.5 -40.5t-5.5 -22.5t-6 -11.5t-3 -6.5v-9q-2 -11 -3.5 -14.5t-2.5 -12.5q1 -5 -3.5 -13.5t-5.5 -6.5q-4 7 -6.5 18t-4 23t-2 21.5t-0.5 13.5z" />
    <glyph glyph-name="FL00B6h" unicode="x" horiz-adv-x="353" 
d="M209 52q3 -12 14 -12q7 0 10.5 2t9.5 10q5 -8 7.5 -20t13.5 -12q8 0 12 1.5t6.5 3.5t5.5 5.5t9 7.5l4 63q0 3 4.5 -8t10 -25t11 -26.5t8.5 -13.5q4 4 4.5 6.5t0.5 7.5q0 1 -0.5 3t-0.5 3q0 2 -2.5 18t-6.5 39t-8 49.5t-8 49t-6.5 37.5t-2.5 16q-8 25 -11.5 32t-6 9.5
t-6.5 7.5t-13 27v1q0 12 9.5 28t13.5 28q3 18 16 40t17 40q0 4 0.5 13t1.5 19.5t1.5 20t0.5 13.5q1 19 6 37t5 38q0 3 -0.5 6t-4.5 3h-3q0 -1 -1.5 -2t-1.5 -2l-12 12h-1q-5 0 -6.5 -3t-2 -7t-2 -7t-5.5 -3q-12 0 -17 8.5t-8.5 19t-8.5 19t-18 8.5q-6 0 -10.5 -6t-8 -13.5
t-5.5 -15.5l-3 -12q-3 -12 -8.5 -32.5t-11.5 -40.5t-10 -35.5t-4 -18.5q-1 -2 -1.5 -6t-2.5 -9l-45 158q-3 12 -14 12q-7 0 -10.5 -2t-9.5 -10q-5 8 -7.5 20t-13.5 12q-17 0 -26 -6t-22 -14h-3q-6 0 -10.5 4.5t-9.5 7.5q-4 -4 -4.5 -6.5t-0.5 -7.5q0 -1 0.5 -3t0.5 -3
q0 -3 0.5 -12t1.5 -18.5t2 -17t2 -8.5q11 -51 35 -104t45 -97v-1q0 -12 -9.5 -28t-13.5 -28q-2 -9 -9 -23.5t-15 -30t-15 -30.5t-9 -24q0 -4 -0.5 -13t-1.5 -19.5t-1.5 -20t-0.5 -13.5q-1 -19 -6 -37t-5 -38q0 -3 0.5 -6t4.5 -3h3l3 3q1 -2 5.5 -5.5t6.5 -5.5h1q4 0 6 3
t2.5 7t2 7t5.5 3q12 0 17 -8.5t8.5 -19t8.5 -19t18 -8.5q6 0 10.5 6t8 13.5t5.5 15.5l3 12q3 12 8.5 32.5t11.5 40.5t10 35.5t4 18.5q0 1 1 5t2 9z" />
    <glyph glyph-name="FL0079h" unicode="y" horiz-adv-x="353" 
d="M253 382v1q21 44 45 97t35 104q1 1 2 8.5t2 17t1.5 18.5t0.5 12q0 1 0.5 3t0.5 3q0 5 -0.5 7.5t-4.5 6.5q-5 -3 -9.5 -7.5t-10.5 -4.5h-3q-13 8 -22 14t-26 6q-5 0 -5.5 -6t0 -13.5t1.5 -15.5t-1 -12q-6 8 -17.5 17.5t-18.5 9.5q-11 0 -14 -12l-45 -158q-2 5 -2.5 9
t-1.5 6q0 3 -4 18.5t-10 35.5t-11.5 40.5t-8.5 32.5l-3 12t-5.5 15.5t-8 13.5t-10.5 6q-13 0 -15 -6.5t-2 -14.5q0 -7 -1.5 -13.5t-13.5 -6.5q-8 0 -17.5 3t-18.5 3h-1l-12 -12q0 1 -1.5 2t-1.5 2h-3q-4 0 -4.5 -3t-0.5 -6q0 -20 5 -38t6 -37q0 -4 0.5 -13.5t1.5 -20
t1.5 -19.5t0.5 -13q4 -18 17 -40t16 -40q4 -12 13.5 -28t9.5 -28v-1l54 -40l-29 -29q-4 -4 -3.5 -16t3.5 -14l20 -10q1 0 -1 -4l-4.5 -9t-5 -9.5t-2.5 -5.5q0 -2 0.5 -9.5t1.5 -16.5t1.5 -17t0.5 -11q0 -4 0.5 -11.5t0.5 -17.5v-42q0 -10 -0.5 -17.5t-0.5 -11.5q0 -1 5 -3
t10 -4.5t9.5 -5l4.5 -2.5q9 0 13 5.5t6.5 12.5t4 12.5t4.5 5.5h2q1 -1 2.5 -6.5l1.5 -5.5q2 -2 2.5 -5t1.5 -3q1 -1 9.5 -3.5t15.5 -4t8 -1.5q2 2 8 8.5t7 7.5h4l16 -8h4q1 1 3.5 4t4.5 4v17q0 63 -5.5 123.5t-10.5 123.5q0 3 -3 6q3 14 5.5 28t5.5 30z" />
    <glyph glyph-name="FL007Ah" unicode="z" horiz-adv-x="308" 
d="M283 534q2 2 2.5 5t1.5 3l1 4q0 6 -3 10t-3 10l1 4l4 4.5t4 6.5q1 9 -4 15t-10 6l-13 2q12 0 25.5 6.5t13.5 21.5q0 5 -3.5 12.5t-8.5 9.5l-35 8q-1 0 -16 0.5t-35.5 1.5t-41.5 1.5t-34 0.5h-124q0 -11 3.5 -18t8 -12.5t9.5 -10.5t8 -12q0 -8 -1.5 -11t-3 -5t-3 -5
t-1.5 -10q0 -12 2 -18t10 -18q3 -4 17.5 -6t32 -3t32.5 -2.5t19 -4.5q0 -3 6 0.5t13 8.5t12.5 8t4.5 0l-32 -85q-2 -6 -10 -21.5t-16.5 -32.5t-15 -32.5t-5.5 -21.5l-75 -204v-8q0 -6 1 -7q0 -2 4.5 -4t10.5 -4t11 -4t6 -4q-1 0 -9 -2.5t-17.5 -5.5t-9.5 -4q-1 -9 10.5 -14
t16.5 -5v-4q-12 0 -25.5 -6.5t-13.5 -21.5q0 -5 3.5 -12.5t8.5 -9.5l35 -8q1 0 16 -0.5t35.5 -1.5t41.5 -1.5t34 -0.5h124q0 11 -6 17t-14 10.5t-15.5 8.5t-10.5 12q0 6 3 7.5t7 1.5q5 0 10 -1t8 -1q6 0 6 8q0 12 -6 28.5t-14 28.5q-6 7 -18.5 6.5t-20.5 5.5l-57 -2
q4 45 21.5 94t36.5 98.5t34.5 98t15.5 91.5z" />
    <glyph glyph-name="FL007Bh" unicode="{" horiz-adv-x="408" 
d="M121 303l-36 -2q-4 3 -9.5 4t-11 1.5t-10.5 1.5t-8 5q-8 12 -14.5 23t-6.5 23q0 8 6 8t14.5 2.5t8.5 13.5q-3 8 -9.5 8.5l-13 1t-12 6t-6.5 23.5h103h18q4 21 7 40.5t1 27.5q1 4 8.5 19.5t16.5 33t16.5 32.5t8.5 18q8 23 16 33.5t23 27.5q1 2 5 11t6 11q21 17 37 20.5
t42 3.5q7 0 18 4.5t11 -1.5q0 -5 3 -8l5.5 -5.5t3.5 -4.5t-3 -4q-7 -3 -14.5 -6.5t-7.5 -5.5q0 -3 3 -2.5t8.5 0t13.5 -3.5t18 -13l12 -13q-15 -17 -24 -30.5t-15 -24.5t-10.5 -20t-10.5 -16l-48 -51l-24 -48q-1 -2 -3 -5.5t-2 -5.5q0 -9 5.5 -12t5.5 -13v-97
q0 -29 -0.5 -55.5t-1.5 -39.5q4 -7 13 -7q7 0 7 5l5 -39l27 -48q-2 -5 1 -16t4 -11q6 1 22 -7t31 -21.5t23 -30.5t-1 -34l-1 -2q-18 8 -25.5 5t-12.5 -3q-9 0 -10.5 -2.5t-1.5 -5.5v-4q0 -3 -6 -3q-5 0 -13.5 -0.5t-19.5 -0.5q-10 0 -21.5 1t-21.5 5q-23 10 -36 24.5t-20 31
t-9.5 33.5t-4.5 31l-1.5 2l-4.5 6q-1 3 -5 10t-8.5 14.5t-8 14t-3.5 8.5q-3 9 -7.5 26t-9 35.5t-8.5 36.5t-5 30h-11z" />
    <glyph glyph-name="FL007Ch" unicode="|" horiz-adv-x="165" 
d="M14 -121v35q-1 30 -2 78t-2 105t-2 118.5t-1.5 118.5t-1 105t-0.5 77v7q0 5 0.5 9t0.5 7v4q0 1 1 6t2.5 11t2.5 11t1 6q0 2 0.5 9.5t1.5 16.5t1.5 17t0.5 11q0 4 0.5 11.5t0.5 17.5v21v21q0 10 -0.5 17.5t-0.5 11.5q0 1 7 4t15 6.5t14.5 6.5l6.5 3q9 0 13 -5.5t6.5 -12.5
t4 -12.5t4.5 -5.5h2q1 1 2.5 6.5l1.5 5.5q2 2 2.5 5t1.5 3q3 2 10.5 3t8.5 1q2 -2 8 -8.5t7 -7.5h3h1l16 8h2h2q1 -1 3.5 -4t4.5 -4v-17q0 -31 -1.5 -78.5t-4.5 -98t-6 -97.5t-6 -78q-1 -12 -6.5 -20.5t-5.5 -19.5q0 -14 4.5 -29t7.5 -27v-20v-55l3 -158q0 -33 0.5 -72
t-4.5 -74q-1 -4 -4 -4.5t-5 -0.5t-3.5 0.5t-3.5 0.5q-6 12 -11.5 16.5t-16.5 4.5q-2 0 -5.5 -0.5t-4.5 -1.5l-3 -5t-4 -6q-2 -1 -10.5 -1.5t-8.5 -2.5q-3 -1 -10.5 -9t-9.5 -10q-20 5 -31 19z" />
    <glyph glyph-name="FL007Dh" unicode="}" horiz-adv-x="408" 
d="M293 397l36 2q8 -6 20.5 -5.5t18.5 -6.5q8 -12 14.5 -23t6.5 -23q0 -8 -6 -8t-14.5 -2.5t-8.5 -13.5q3 -8 9.5 -8.5l13 -1t12 -6t6.5 -23.5h-103h-18q-4 -21 -7 -40.5t-1 -27.5q-1 -4 -8.5 -19.5t-16.5 -33t-16.5 -32.5t-8.5 -18q-8 -23 -16 -33.5t-23 -27.5
q-1 -2 -5 -11t-6 -11q-21 -17 -37 -20.5t-42 -3.5q-7 0 -18 -4.5t-11 1.5q0 4 -3 7.5t-5.5 6t-3.5 4.5t3 4q7 3 14.5 6.5t7.5 5.5q0 3 -3 2.5t-8.5 0t-13.5 3.5t-18 13l-12 13q15 17 24 30.5t15 24.5t10.5 20t10.5 16l48 51l24 48q1 2 3 5.5t2 5.5q0 9 -5.5 12t-5.5 13v97
q0 29 0.5 55.5t1.5 39.5q-4 7 -13 7q-7 0 -7 -5l-5 39l-27 48q2 5 -1 16t-4 11q-6 -1 -22 7t-31 21.5t-23 30.5t1 34l1 2q18 -8 25.5 -5t12.5 3q9 0 10.5 2.5t1.5 5.5v4q0 3 6 3q5 0 13.5 0.5t19.5 0.5q10 0 21.5 -1t21.5 -5q23 -10 36 -24.5t20 -31t9.5 -33.5t4.5 -31
l1.5 -2l4.5 -6q1 -3 5 -10t8.5 -14.5t8 -14t3.5 -8.5q3 -9 7.5 -26t9 -36t8.5 -36.5t5 -29.5h11z" />
    <glyph glyph-name="FL007Eh" unicode="~" horiz-adv-x="294" 
d="M171 294h-11q-5 2 -11 8.5t-12 14l-12 15t-10 11.5l-14 -4q-5 -2 -10 -8.5t-10 -14t-10 -14.5t-9 -9q-20 0 -35.5 6t-15.5 15q0 2 2 4q4 4 9 4.5t7 2.5q1 0 1 3l-6 17l8 20q0 2 -2 4v1q0 2 4.5 5t10 7t10 7.5t4.5 6.5q0 1 1.5 4.5t1.5 5.5v2l31 16q7 4 13 4h3q1 1 7 1h16
q5 -2 11 -8.5t12 -14l12 -15t10 -11.5l14 4q5 2 10 8.5t9.5 14.5t9.5 14.5t10 8.5q20 0 35.5 -6t15.5 -15q0 -2 -2 -4q-4 -4 -9 -4.5t-7 -2.5q-1 0 -1 -3l6 -17l-8 -20q0 -2 2 -4v-1q0 -2 -4.5 -5.5t-10 -7t-10 -7t-4.5 -6.5q0 -1 -1.5 -4.5t-1.5 -5.5v-2l-31 -16
q-7 -4 -13 -4h-3q-1 -1 -12 -1z" />
    <glyph glyph-name="FL007Fh" horiz-adv-x="172" 
 />
    <glyph glyph-name="FL00A1h" unicode="&#xa1;" horiz-adv-x="185" 
d="M21 408l8 38q5 7 10.5 6t14.5 1q2 -2 8.5 -5.5t9.5 -4.5q0 -2 8.5 -2.5t10.5 -1.5q1 -1 4 -6l3 -5q1 -1 4.5 3t5.5 4h17q5 0 11 12q2 0 3.5 0.5t3.5 0.5t5 -0.5t4 -4.5q3 -18 3.5 -31t0.5 -25t-1 -24.5t-1 -29.5v-18v-55v-20q-3 -12 -4 -28t-1 -30q0 -25 4.5 -38.5
t9 -23.5t7.5 -20.5t0 -28.5v-17q-2 -1 -4.5 -4t-3.5 -4h-2h-2l-16 8h-1h-3q-1 -1 -7 -7.5t-8 -8.5q-1 0 -8.5 1t-10.5 3q-1 0 -1.5 3t-2.5 5l-1.5 5.5t-2.5 6.5h-2q-3 0 -4.5 -5.5t-4 -12.5t-6.5 -12.5t-13 -5.5l-6.5 3t-14.5 6.5t-15 6.5t-7 4q0 4 0.5 11.5t0.5 17.5v21v21
q0 10 -0.5 17.5t-0.5 11.5q0 3 -0.5 11t-1.5 17t-1.5 16.5t-0.5 9.5q0 1 -1 6t-2.5 11t-2.5 11t-1 6v4q0 3 -0.5 7t-0.5 9v7q0 30 0.5 44t1 20.5t2 8.5t2.5 8.5t2 21t2 44.5zM22 586l10 64q2 14 18 15.5t42 0.5l24 -12q42 -20 46 -53t-15 -70q-2 -7 -12.5 -13t-16.5 -7
l-40 -3q-11 4 -14 5t-3 4q0 1 -9.5 4.5t-11.5 5.5q-5 5 -10.5 18.5t-11.5 18.5l49 19q-4 5 -8.5 4.5t-12.5 -0.5q-5 0 -9.5 -3t-10.5 0q-2 2 -4 2z" />
    <glyph glyph-name="FL00A2h" unicode="&#xa2;" horiz-adv-x="369" 
d="M236 22l-94 -18v7q0 5 0.5 9t0.5 7l3 36q0 2 -1 9t-1.5 15t-1.5 15.5t-1 10.5q0 4 0.5 11.5t0.5 17.5v1q-5 0 -9 1l-8 2q-21 6 -34 15.5t-19.5 20t-9.5 21.5t-5 21l-1 4l-1.5 1t-4.5 4q-1 2 -5 7l-8 10t-7.5 9.5t-3.5 5.5q-5 14 -7 27t-2 27l2 37q0 5 -0.5 9t-1.5 9
q0 2 9 7.5l9 5.5l-7.5 2.5t-13.5 5t-7 2.5q0 10 10.5 20.5t10.5 19.5l-1 4q1 3 4 9t7 12t7 11.5t4 7.5q8 16 16.5 23t23.5 18q1 2 4.5 7.5t5.5 7.5q25 13 48 15q1 9 1.5 17.5t0.5 11.5q0 4 0.5 11.5t0.5 17.5v21l-5 48q-5 5 -5 8q0 2 5 2t14 -2.5t14.5 -4.5t6.5 -2
q2 2 2.5 5t1.5 3q3 2 10.5 3t8.5 1l15 -16h4l16 8h4q1 -1 3.5 -4t4.5 -4v-17v-36v-17q0 -6 -0.5 -11t-1 -10.5t-1.5 -12.5q-1 -6 -1.5 -13.5t-1.5 -18.5l-1 -17q10 2 14 2q13 0 23 -7l12 -9q5 -5 6.5 -7.5t3 -4.5t4.5 -5t9 -8q10 -9 16 -17t6 -13q0 -3 -1 -4q-7 -10 -7 -18
l5 -25q0 -3 -14.5 -9.5t-37.5 -6.5q-14 0 -30 4.5t-32 15.5l-9 24l1 7q0 15 -1.5 21.5t-1.5 10.5q0 1 -1 1t-9 -5l-53 -21l-14 -33l-3 -3t-2 -4q0 -6 5.5 -8t5.5 -9q0 -19 -2 -44t-4 -43q6 -8 9 -8q2 0 2 3l8 -34l27 -32l-6 -9q1 -2 7 -4q4 2 9.5 2.5t6.5 0.5l6 -5
q10 5 13 7.5t3 4.5l-3 6q0 1 2 3l16 26q11 5 12.5 9t1.5 9v1q0 5 3.5 7.5t17.5 5.5h67q6 0 9 -4.5t5 -10.5q1 -2 2.5 -10.5t1.5 -11.5q0 -11 -11.5 -26.5t-26.5 -31.5t-31 -29.5t-25 -20.5l-1 -1q-5 2 -8.5 2.5t-6.5 2.5q0 -14 0.5 -20.5t0.5 -13.5q0 -8 -1 -20t-3 -40
q-1 -12 -2 -21t-1 -20z" />
    <glyph glyph-name="FL00A3h" unicode="&#xa3;" horiz-adv-x="438" 
d="M122 308l-36 -2q-4 3 -9.5 4t-11 1.5t-10.5 1.5t-8 5q-8 12 -14.5 23t-6.5 23q0 8 6 8t14.5 2.5t8.5 13.5q-3 8 -9.5 8.5l-13 1t-12 6t-6.5 23.5h113q2 23 5.5 46.5t3.5 43.5v15q-1 63 18.5 96.5t40.5 33.5h16q28 0 56 -2.5t56 -2.5q9 0 11.5 0.5t11.5 0.5v-8q0 -7 -1 -8
q0 -2 -3.5 -9.5t-3.5 -9.5v-8l-6 -9l6 -17v-8q-1 -11 -8.5 -19.5t-17 -14t-20 -8.5t-18.5 -4l-3 -4q-1 -1 -1 -8v-17q0 -9 -0.5 -18.5t-0.5 -15.5v-4q0 -2 1 -6.5t-2 -6.5l-14 -10l14 -1q3 0 2 -5t-1 -9v-4q1 -4 3 -4h4q16 0 37 -0.5t36 -0.5q9 0 14 -7t5 -16q0 -6 -6.5 -12
t-15 -11.5t-15 -10t-6.5 -7.5q0 -2 6 -3.5t13 -4.5t12.5 -7.5t4.5 -13.5q-2 -12 -8 -18t-15 -8.5t-20 -2.5h-20q-14 0 -22 -7q-2 -2 -3 -12.5t-2 -24t-1.5 -25t-0.5 -14.5v-1q1 -6 2 -14t1.5 -16t1.5 -13.5l1 -5.5h116q10 0 9.5 -8.5t1.5 -14.5q1 -3 5 -5.5t8 -5.5t7.5 -8.5
t3.5 -14.5q0 -8 -7.5 -12.5t-16 -8t-16 -7.5t-7.5 -11l4 -5t4 -6v-3q0 -11 -6.5 -13t-17.5 -3q-11 -2 -27.5 -3t-33.5 -3q-1 0 -1.5 -0.5l-0.5 -0.5h-10q-9 -1 -18 -1h-16q-17 0 -24 3h-37q-3 -2 -7.5 -1.5t-9.5 1.5h-2l-147 1v8q0 6 1 7q0 2 4.5 4t10.5 4t11 4t6 4h-30
q-5 0 -5 1q-1 9 4.5 10.5t10.5 1.5v4q-12 0 -21.5 4t-9.5 19q0 3 1 9.5t2.5 13.5t3.5 12.5t5 6.5l35 8q1 0 20.5 0.5t47.5 1.5q2 16 5.5 28.5t3.5 32.5q0 23 -1 44.5t-3 43.5h-9z" />
    <glyph glyph-name="FL00A4h" unicode="&#xa4;" horiz-adv-x="353" 
d="M176 162l33 -110q3 -12 14 -12q7 0 10.5 2t9.5 10q5 -8 7.5 -20t13.5 -12q8 0 12 1.5t6.5 3.5t5.5 5.5t9 7.5l4 63q0 3 4.5 -8t10 -25t11 -26.5t8.5 -13.5q4 4 4.5 6.5t0.5 7.5q0 1 -0.5 3t-0.5 3q0 2 -2.5 18t-6.5 39t-8 49.5t-8 49t-6.5 37.5t-2.5 16q-6 17 -9.5 25
t-5.5 11.5t-3.5 4.5t-3.5 4v8q0 1 -2.5 3.5t-2.5 4.5q-1 5 -1.5 10.5t-0.5 10.5v20q4 8 8.5 16t6.5 15q3 18 16 40t17 40q0 4 0.5 13t1.5 19.5t1.5 20t0.5 13.5q1 19 6 37t5 38q0 3 -0.5 6t-4.5 3h-3q0 -1 -1.5 -2t-1.5 -2l-12 12h-1q-5 0 -6.5 -3t-2 -7t-2 -7t-5.5 -3
q-12 0 -17 8.5t-8.5 19t-8.5 19t-18 8.5q-6 0 -10.5 -6t-8 -13.5t-5.5 -15.5l-3 -12q-4 -14 -11 -39t-13 -47q-10 2 -18.5 3.5t-13.5 2.5l-27 96q-3 12 -14 12q-7 0 -10.5 -2t-9.5 -10q-5 8 -7.5 20t-13.5 12q-17 0 -26 -6t-22 -14h-3q-6 0 -10.5 4.5t-9.5 7.5
q-4 -4 -4.5 -6.5t-0.5 -7.5q0 -1 0.5 -3t0.5 -3q0 -3 0.5 -12t1.5 -18.5t2 -17t2 -8.5q8 -35 22 -71.5t30 -71.5q-1 -4 -1.5 -7t-0.5 -6l-1 -21q0 -10 3 -22v-2q0 -2 -0.5 -3.5t-0.5 -3.5v-3q0 -3 0.5 -4.5t0.5 -3.5v-1q0 -3 2 -13.5t4 -22.5q0 -1 -0.5 -1.5l-0.5 -0.5
q-2 -9 -9 -23.5t-15 -30t-15 -30.5t-9 -24q0 -4 -0.5 -13t-1.5 -19.5t-1.5 -20t-0.5 -13.5q-1 -19 -6 -37t-5 -38q0 -3 0.5 -6t4.5 -3h3l3 3q1 -2 5.5 -5.5t6.5 -5.5h1q4 0 6 3t2.5 7t2 7t5.5 3q12 0 17 -8.5t8.5 -19t8.5 -19t18 -8.5q6 0 10.5 6t8 13.5t5.5 15.5l3 12
q2 8 5 19.5t7 25l8 27t7 25.5l12 -2t11 -1zM211 333q0 -5 -2 -9.5t0 -9.5q-1 -2 -3 -8t-3 -8q-2 -7 -4 -9.5t-6 -8.5q0 -1 -1 -3t-1 -3q-8 -5 -16 -5q-12 0 -19 4q-3 2 -5 2.5t-4 2.5l-4 8l-2.5 5t-2.5 6q-3 5 -4.5 6.5t-1.5 7.5q0 5 0.5 9t0.5 9v1q0 2 -1.5 14.5t-1.5 14.5
v1q0 1 -0.5 1.5t-0.5 1.5v1v1q0 1 0.5 1.5t0.5 1.5v1l2 2q1 0 1 2t-1.5 3t-1.5 3q0 1 -0.5 4.5t-0.5 5.5q0 10 9.5 23t14.5 19v1q0 8 10 8h3q3 0 13.5 -3t12.5 -8q2 -4 5 -7t3 -8v-1v-3v-3v-2q1 -1 3 -5q1 -2 2.5 -6.5t1.5 -6.5q1 -6 1.5 -11.5t0.5 -12.5q0 -5 -0.5 -11
t0.5 -12q0 -1 1 -2t1 -2v-3z" />
    <glyph glyph-name="FL00A5h" unicode="&#xa5;" 
d="M27 152v6q0 4 1 5q0 1 4.5 3t10 3.5t10.5 3t6 2.5h-29q-5 0 -5 1q-1 7 4 8t10 1v2q-11 0 -20.5 3t-9.5 14q0 12 12 17l34 6q1 0 23.5 0.5t54.5 0.5l-19 10q-2 2 -3.5 10t0.5 15l-29 -1q-8 5 -20.5 4t-18.5 5q-8 9 -14 17t-6 17q0 6 6 6t14 1.5t8 9.5q-3 6 -9 6.5t-12.5 1
t-12 4.5t-6.5 17h75q-4 11 -10.5 22.5t-9.5 20.5q-3 18 -16 40t-17 40q0 4 -0.5 13t-1.5 19.5t-1.5 20t-0.5 13.5q-1 19 -6 37t-5 38q0 3 0.5 6t4.5 3h3q0 -1 1.5 -2t1.5 -2l12 12h1q9 0 18.5 -3t17.5 -3q12 0 13.5 6.5t1.5 13.5q0 8 2 14.5t15 6.5q6 0 10.5 -6t8 -13.5
t5.5 -15.5l3 -12q3 -12 8.5 -32.5t11.5 -40.5t10 -35.5t4 -18.5q1 -2 1.5 -6t2.5 -9l45 158q3 12 14 12q7 0 18.5 -9.5t17.5 -17.5q2 4 1 12t-1.5 15.5t0 13.5t5.5 6q17 0 26 -6t22 -14h3q6 0 10.5 4.5t9.5 7.5q4 -4 4.5 -6.5t0.5 -7.5q0 -1 -0.5 -3t-0.5 -3q0 -3 -0.5 -12
t-1.5 -18.5t-2 -17t-2 -8.5q-11 -51 -35 -104t-45 -97v-1q-2 -8 -3 -15.5t-3 -15.5h53l34 -5q5 -2 8.5 -7.5t3.5 -8.5q0 -11 -9.5 -14.5t-21.5 -3.5v-3q5 0 12.5 -5t6.5 -13h-34q1 -1 6 -2.5t10.5 -3t10 -3.5t4.5 -3q1 -1 1 -5v-6l-83 -2l3 -36l92 4q-1 -14 -6.5 -17.5
t-12 -4l-13 -1t-9.5 -6.5q0 -8 8.5 -9.5t14.5 -1.5t6 -6q0 -9 -4.5 -12.5t-12.5 -13.5q-6 -5 -18 -4t-20 -4l-19 -2q3 -41 3 -81v-17q-2 -1 -4.5 -4t-3.5 -4h-4l-16 8h-4q-1 -1 -7 -7.5t-8 -8.5q-1 0 -8 1.5t-15.5 4t-9.5 3.5q-1 0 -1.5 3t-2.5 5l-1.5 5.5t-2.5 6.5h-2
q-3 0 -4.5 -5.5t-4 -12.5t-6.5 -12.5t-13 -5.5l-4.5 2.5t-9.5 5t-10 4.5t-5 3q0 4 0.5 11.5t0.5 17.5v42q0 10 -0.5 17.5t-0.5 11.5v6h-98z" />
    <glyph glyph-name="FL00A6h" unicode="&#xa6;" horiz-adv-x="165" 
d="M14 -121v35q-1 30 -2 78t-2 105t-2 118.5t-1.5 118.5t-1 105t-0.5 77v7q0 5 0.5 9t0.5 7v4q0 1 1 6t2.5 11t2.5 11t1 6q0 2 0.5 9.5t1.5 16.5t1.5 17t0.5 11q0 4 0.5 11.5t0.5 17.5v21v21q0 10 -0.5 17.5t-0.5 11.5q0 1 7 4t15 6.5t14.5 6.5l6.5 3q9 0 13 -5.5t6.5 -12.5
t4 -12.5t4.5 -5.5h2q1 1 2.5 6.5l1.5 5.5q2 2 2.5 5t1.5 3q3 2 10.5 3t8.5 1q2 -2 8 -8.5t7 -7.5h3h1l16 8h2h2q1 -1 3.5 -4t4.5 -4v-17q0 -31 -1.5 -78.5t-4.5 -98t-6 -97.5t-6 -78q-1 -12 -6.5 -20.5t-5.5 -19.5q0 -14 4.5 -29t7.5 -27v-20v-55l3 -158q0 -33 0.5 -72
t-4.5 -74q-1 -4 -4 -4.5t-5 -0.5t-3.5 0.5t-3.5 0.5q-6 12 -11.5 16.5t-16.5 4.5q-2 0 -5.5 -0.5t-4.5 -1.5l-3 -5t-4 -6q-2 -1 -10.5 -1.5t-8.5 -2.5q-3 -1 -10.5 -9t-9.5 -10q-20 5 -31 19z" />
    <glyph glyph-name="FL00A7h" unicode="&#xa7;" horiz-adv-x="353" 
d="M170 162l-33 -110q-3 -12 -14 -12q-7 0 -10.5 2t-9.5 10q-5 -8 -7.5 -20t-13.5 -12q-8 0 -12 1.5t-6.5 3.5t-5.5 5.5t-9 7.5l-4 63q0 3 -4.5 -8t-10 -25t-11 -26.5t-8.5 -13.5q-4 4 -4.5 6.5t-0.5 7.5q0 1 0.5 3t0.5 3q0 2 2.5 18t6.5 39t8 49.5t8 49t6.5 37.5t2.5 16
q6 17 9.5 25t5.5 11.5t3.5 4.5t3.5 4v8q0 1 2.5 3.5t2.5 4.5q1 5 1.5 10.5t0.5 10.5v20q-4 8 -8.5 16t-6.5 15q4 4 4.5 13t-0.5 21t-2.5 25.5t-1.5 26.5q0 25 9.5 43.5t40.5 18.5q9 0 20 -1.5t25 -6.5q10 2 18.5 3.5t13.5 2.5l27 96q3 12 14 12q7 0 10.5 -2t9.5 -10
q5 8 7.5 20t13.5 12q17 0 26 -6t22 -14h3q6 0 10.5 4.5t9.5 7.5q4 -4 4.5 -6.5t0.5 -7.5q0 -1 -0.5 -3t-0.5 -3q0 -3 -0.5 -12t-1.5 -18.5t-2 -17t-2 -8.5q-8 -35 -22 -71.5t-30 -71.5q1 -4 1.5 -7t0.5 -6l1 -21q0 -10 -3 -22v-2q0 -2 0.5 -3.5t0.5 -3.5v-3q0 -3 -0.5 -4.5
t-0.5 -3.5v-1q0 -3 -2 -13.5t-4 -22.5q0 -1 0.5 -1.5l0.5 -0.5q2 -9 4.5 -23.5t5.5 -30.5t5.5 -31t4.5 -24q0 -9 -4 -20t-11.5 -20t-18.5 -15t-26 -6q-21 0 -43 13l-12 -2t-11 -1zM135 333q0 -5 2 -9.5t0 -9.5q1 -2 3 -8t3 -8q2 -7 4 -9.5t6 -8.5q0 -1 1 -3t1 -3q8 -5 16 -5
q12 0 19 4q3 2 5 2.5t4 2.5l4 8l2.5 5t2.5 6q3 5 4.5 6.5t1.5 7.5q0 5 -0.5 9t-0.5 9v1q0 2 1.5 14.5t1.5 14.5v1q0 1 0.5 1.5t0.5 1.5v1v1q0 1 -0.5 1.5t-0.5 1.5v1l-2 2q-1 0 -1 2t1.5 3t1.5 3q0 1 0.5 4.5t0.5 5.5q0 10 -9.5 23t-14.5 19v1q0 8 -10 8h-3q-3 0 -13.5 -3
t-12.5 -8q-2 -4 -5 -7t-3 -8v-1v-3v-3v-2q-1 -1 -3 -5q-1 -2 -2.5 -6.5t-1.5 -6.5q-1 -6 -1.5 -11.5t-0.5 -12.5q0 -5 0.5 -11t-0.5 -12q0 -1 -1 -2t-1 -2v-3z" />
    <glyph glyph-name="FL00A8h" unicode="&#xa8;" horiz-adv-x="293" 
d="M282 594l-9 -46q-2 -9 -14 -10t-34 -1l-17 8q-35 16 -38.5 39t12.5 49q2 6 10 10t13 5l31 2q10 -3 12 -3.5t2 -2.5q0 -1 7.5 -3.5t9.5 -4.5q4 -4 8 -13.5t9 -11.5l-38 -15q3 -4 6 -3.5t10 0.5q5 0 8 2.5t8 -0.5l1 -0.5t3 -0.5zM124 585q6 -14 -3 -19.5t-13 -11.5
q-4 -9 -12.5 -10t-31.5 0l-18 8q-34 13 -34 39q0 9 4 19t10 21q2 6 10 10t13 4l28 2q9 -2 11.5 -2.5t2.5 -2.5t6.5 -4.5t8.5 -4.5q5 -4 9 -12.5t9 -13.5l-8 -11q0 -1 3 -6t5 -5z" />
    <glyph glyph-name="FL00A9h" unicode="&#xa9;" horiz-adv-x="231" 
d="M113 743q-1 1 -7 1t-16.5 -2.5t-24.5 -9.5q-24 -7 -38 -34q-6 -11 -10 -22.5t-4 -24.5v-2q0 -16 8 -32t21.5 -29t30.5 -21t35 -8h5q11 0 23 2.5t26 9.5q14 6 23 15.5t14 20.5q13 22 13 44q0 28 -13 47q-14 23 -37 34q-14 6 -26.5 8.5t-22.5 2.5zM113 729q24 0 40 -10
q20 -9 31 -29q5 -20 8 -29.5l3 -9.5q0 12 -11 -37q-14 -22 -30 -29q-20 -9 -41 -9q-22 0 -41 9q-11 5 -18.5 11.5t-12.5 17.5q-5 25 -8 34t-3 3l3 9.5t8 29.5q11 20 30.5 29.5t41.5 9.5zM145 637q-6 -23 -34 -23q-32 0 -32 37q0 39 35 39q18 0 30 -19l15 4q-9 29 -45 29
q-25 0 -39 -13.5t-14 -39.5t14 -38.5t38 -12.5q37 0 49 33z" />
    <glyph glyph-name="FL00AAh" unicode="&#xaa;" horiz-adv-x="210" 
d="M42 440h-1l-2 -2v-19l-2 -2h-1q-2 0 -4 4.5t-2 6.5t-0.5 5.5t-0.5 8.5t0.5 8t0.5 5l-2 2v1v4v3q0 7 1 26t2.5 40t2.5 40t1 27q3 11 6.5 22.5t5.5 23.5q4 26 8 48.5t13 47.5q1 1 4 -2t6 -7.5t5.5 -8t4.5 -3.5q1 0 1.5 3.5t1 8t1 8t1.5 3.5h38l8 3q2 2 3 -4.5t3 -6.5
q4 -2 9.5 -1t5.5 -7v-48q0 -11 6 -21.5t8 -22.5q0 -6 1 -21t1.5 -31.5t1.5 -31t1 -20.5v-2q9 -48 9 -96q-6 0 -12 2t-11 2q-3 0 -4.5 -6t-5.5 -6q-2 0 -2.5 3.5t-1 7.5t-1 7.5t-1.5 3.5t-3.5 -7l-2.5 -7q0 -1 -1.5 -5.5t-2.5 -5.5q0 -2 -2 -2v-1h-1q-6 0 -8.5 10t-4 21.5
t-2.5 21.5t-4 10h-12q-6 0 -8 -5v-24v-24q0 -3 -1 -8.5t-1 -6.5l-2 -2h-31l-9 10l-4 2q-2 2 -2 10q0 7 -5 7zM99 549q0 -1 -0.5 -4t2.5 -3q5 0 11 2t6 9q0 1 1 1.5t1 2.5q0 3 -1 8.5t-1.5 12.5t-1 12.5t-0.5 8.5q0 2 -1 10t-3 8q-3 0 -5.5 -10t-4 -22t-2.5 -23t-1 -13z" />
    <glyph glyph-name="FL00ABh" unicode="&#xab;" horiz-adv-x="305" 
d="M213 478l-59 -61q-4 -7 -4 -13t1 -7v-3q0 -6 4 -13l16 -31h2q2 0 5.5 -1.5t4.5 -1.5q3 0 6.5 -4.5t7 -10t7 -10t5.5 -4.5h1q2 2 4 2l20 -8l17 6q3 0 3 -1q2 -2 2.5 -7t4.5 -9q2 -2 4 -2q9 0 15 15.5t6 35.5q-2 4 -9 9t-14.5 10t-14 10t-8.5 10l-4 14q4 4 11.5 10l15 12
t14 12t8.5 11q0 20 -6 35.5t-15 15.5q-6 0 -8 -3.5t-12 -3.5q-6 0 -7 1zM82 478l-59 -61q-4 -7 -4 -13t1 -7v-3q0 -6 4 -13l16 -31h2q2 0 5.5 -1.5t4.5 -1.5q3 0 6.5 -4.5t7 -10t7 -10t5.5 -4.5h1q2 2 4 2l20 -8l17 6q3 0 3 -1q2 -2 2.5 -7t4.5 -9q2 -2 4 -2q9 0 15 15.5
t6 35.5q-2 4 -9 9t-14.5 10t-14 10t-8.5 10l-4 14q4 4 11.5 10l15 12t14 12t8.5 11q0 20 -6 35.5t-15 15.5q-6 0 -8 -3.5t-12 -3.5q-6 0 -7 1z" />
    <glyph glyph-name="FL00ACh" unicode="&#xac;" horiz-adv-x="387" 
d="M223 287v24h-194v8q0 6 1 7q0 2 4.5 4t10.5 4t11 4t6 4h-30q-5 0 -5 1v1q0 9 7 16t12 7v4q-12 0 -21.5 4t-9.5 19q0 5 3.5 12.5t8.5 9.5l35 8l7.5 1t30 1.5t63 1.5t106.5 1h103q-6 -21 -12 -43.5t-11.5 -42t-8.5 -34t-3 -18.5q0 -9 1 -10l7 -80q-18 1 -24.5 3t-8.5 4
t-3.5 5t-9.5 6q-11 0 -13.5 -8.5t-2.5 -14.5t-8 -6q-12 0 -21 7t-21 15q-4 3 -5 8t-1.5 10.5t-1.5 11t-4 9.5z" />
    <glyph glyph-name="FL00ADh" unicode="&#xad;" horiz-adv-x="234" 
d="M125 304l82 9v8q0 6 -1 7q0 2 -4.5 4t-10.5 4t-11 4t-6 4h5h12h12q6 0 6 1q1 9 -6.5 16.5t-12.5 7.5v4q12 0 21.5 4t9.5 19q0 5 -3.5 12.5t-8.5 9.5l-35 8q-2 0 -15 -1.5t-39 -1.5h-103q1 -18 6.5 -23.5t12 -6l13 -1t9.5 -8.5q0 -11 -8.5 -13.5t-14.5 -2.5t-6 -8
q0 -12 6.5 -23t14.5 -23q3 -4 8 -5t10.5 -1.5t11 -1.5t9.5 -4z" />
    <glyph glyph-name="FL00AEh" unicode="&#xae;" horiz-adv-x="232" 
d="M115 746q-24 0 -48 -11t-38 -35q-6 -11 -9.5 -21.5t-3.5 -23.5q0 -24 13 -43q8 -13 17 -20.5t20 -15.5q11 -5 23.5 -8.5t25.5 -3.5q11 0 23 3.5t26 8.5q13 8 21.5 15.5t14.5 20.5q15 19 15 43t-15 45q-14 29 -40 39q-23 5 -33.5 6t-11.5 1zM115 731q24 0 40 -10
q13 -6 19.5 -13t12.5 -15q10 -16 10 -38q0 -17 -10 -36q-10 -18 -31 -28q-20 -11 -41 -11q-9 0 -19 2t-22 9q-11 6 -18 13t-12 15q-5 18 -8 27l-3 9l3 9.5t8 28.5q11 20 31 29t40 9zM73 606h17v40h10q1 0 4 -0.5t8 -1.5q5 -2 19 -23l9 -15h22l-14 19q-8 10 -12.5 15.5
t-12.5 9.5q14 0 22.5 7.5t8.5 18.5q0 9 -6 15q-2 2 -5 4t-7 4q-5 2 -11.5 2.5t-15.5 0.5h-36v-96zM90 660v29h19q16 0 17 -1q10 -1 10 -13q0 -8 -5.5 -11.5t-20.5 -3.5h-20z" />
    <glyph glyph-name="FL00AFh" unicode="&#xaf;" horiz-adv-x="389" 
d="M36 600l235 -1l36 -2q4 3 9.5 4t11 1.5t10.5 1.5t8 5q8 12 12.5 17t4.5 17q0 8 -6 8t-14.5 2.5t-8.5 13.5q3 8 9.5 8.5l13 1t12 6t6.5 23.5h-103q-13 0 -46.5 -1t-69 -1.5t-63 -1.5t-28.5 -1l-35 -8q-5 -2 -8.5 -9.5t-3.5 -12.5q0 -15 9.5 -19t21.5 -4v-4
q-5 0 -10.5 -1.5t-4.5 -10.5q0 -1 5 -1h13h12h5q-1 -2 -6 -4t-11 -4t-10.5 -4t-4.5 -4q-1 -1 -1 -7v-8z" />
    <glyph glyph-name="FL00B0h" unicode="&#xb0;" horiz-adv-x="150" 
d="M124 585q6 -14 -3 -19.5t-13 -11.5q-4 -9 -12.5 -10t-31.5 0l-18 8q-34 13 -34 39q0 9 4 19t10 21q2 6 10 10t13 4l28 2q9 -2 11.5 -2.5t2.5 -2.5t6.5 -4.5t8.5 -4.5q5 -4 9 -12.5t9 -13.5l-8 -11q0 -1 3 -6t5 -5z" />
    <glyph glyph-name="FL00B1h" unicode="&#xb1;" horiz-adv-x="385" 
d="M135 291v20h-106v8q0 6 1 7q0 2 4.5 4t10.5 4t11 4t6 4h-5h-12h-13q-5 0 -5 1q-1 9 6.5 16.5t12.5 7.5v4q-12 0 -21.5 4t-9.5 19q0 5 3.5 12.5t8.5 9.5l35 8q1 0 20.5 0.5t48.5 1.5l1 99h8q6 0 7 -1q2 0 4 -4.5t4 -10.5t4 -11t4 -6l1 5.5t2 13t2 13.5t2 6q9 1 13.5 -8
t4.5 -14h4q0 12 4 21.5t19 9.5q5 0 12.5 -3.5t9.5 -8.5l8 -35v-63h24h103q-1 -18 -6.5 -23.5t-12 -6l-13 -1t-9.5 -8.5q0 -11 8.5 -13.5t14.5 -2.5t6 -8q0 -12 -6.5 -23t-14.5 -23q-3 -4 -8 -5t-10.5 -1.5t-11 -1.5t-9.5 -4l-36 2h-16q1 -2 1 -15q0 -9 1 -10l7 -80
q-18 1 -24.5 3t-8.5 4t-3.5 5t-9.5 6q-11 0 -13.5 -8.5t-2.5 -14.5t-8 -6q-12 0 -21 7t-21 15q-4 3 -5 8t-1.5 10.5t-1.5 11t-4 9.5zM264 57l-235 1v8q0 6 1 7q0 2 4.5 4t10.5 4t11 4t6 4h-5h-12h-13q-5 0 -5 1q-1 5 -1 7v4q0 2 5 2v4q-12 0 -14 9.5t-2 24.5q0 3 6.5 4
t14.5 1q19 0 27 2l-1 23h7h20q14 0 37.5 1t58 1.5t84.5 2.5l33 -9q-1 -18 4.5 -22t12 -3t11 2t1.5 -7q0 -11 8.5 -13.5t14.5 -2.5t6 -8q0 -12 -6.5 -23t-14.5 -23q-3 -4 -8 -5t-10.5 -1.5t-11 -1.5t-9.5 -4z" />
    <glyph glyph-name="FL00B2h" unicode="&#xb2;" horiz-adv-x="194" 
d="M21 551v30q9 5 10 9.5t1 12.5q0 2 1.5 4.5t0.5 4.5l45 -7q4 1 11 6.5t7 11.5l9 14v4q-1 8 -3.5 17t-4.5 18q0 1 -3 3q-4 -2 -9.5 -3t-7.5 -2q-9 -11 -19 -12t-14 -1q-5 0 -7 1t-15 8q-1 0 0.5 3.5t1.5 5.5l1.5 1t-1.5 1q-1 0 -1.5 0.5t0.5 0.5l-2 8v12q0 1 2.5 6
t6.5 10.5t8.5 11t9.5 7.5q7 7 21 9t29 0t28 -8.5t17 -16.5q8 -6 10.5 -10t4.5 -13q5 -23 5.5 -36t1.5 -24q0 -19 -7 -34t-16 -23l1 -1l-16 -12v-1q-20 -1 -27.5 -2.5t-10.5 -1.5l-2 1l-9 1v-44q0 -9 1 -12l8 -4q5 2 10.5 3.5t6.5 1.5q2 0 2 -3q0 -4 1 -6q2 2 14.5 4t28.5 6
l-0.5 -0.5t-0.5 -1.5v-4q2 0 3.5 0.5t3.5 0.5q6 0 6 -4q-4 0 -4 -5l3 -11l-19 -12h23l-1 -7q-3 -11 -4 -13t-4 -9q-8 -8 -26 -8q-11 0 -21.5 1.5t-15.5 1.5l-4 9h-1q-2 0 -5.5 -3.5t-6.5 -3.5l-42 -3q-4 6 -7 15.5t-4.5 20.5t-2 23t-0.5 21q0 17 1 20q0 3 -1 5t-1 4t1 3z
M108 500v-1v1z" />
    <glyph glyph-name="FL00B3h" unicode="&#xb3;" horiz-adv-x="201" 
d="M37 603l61 8q5 2 7 4t3 8l9 14v5q-1 8 -1.5 17t-2.5 18l-8 4q-5 -2 -11 -3.5t-7 -1.5q-3 -2 -3 -4v-2q4 -1 -11 -3.5t-34 -7.5q0 1 0.5 1.5l0.5 0.5v4h-8q-6 0 -6 4q0 -2 2.5 0t0.5 8l21 12q0 1 -8 0t-13 -1q-4 0 -4 1l1 7q3 11 4 15.5t4 12.5q4 6 13 10t19.5 6.5
t19.5 3.5t14 1l4 -10q1 -2 8.5 3.5t9.5 5.5h2q11 -4 17.5 -7.5t15.5 -11.5q8 -6 10.5 -10.5t4.5 -13.5q5 -25 6 -38t2 -24q0 -19 -9 -28t-15 -18q9 -8 16.5 -24t7.5 -35q-1 -11 -2 -24.5t-6 -37.5q-2 -10 -4.5 -14.5t-10.5 -10.5q-9 -7 -15.5 -11t-17.5 -7h-2q-2 0 -2 5v8
q0 3 -1 2l-19 -16q-2 -2 -7 -2q-2 0 -5.5 0.5t-11.5 1.5h-1q-1 0 -2 1q-6 0 -10 -1.5t-6 3.5q-4 3 -9 8.5t-9 11t-7 10t-3 6.5v13l2 8q-1 0 -0.5 0.5t1.5 0.5q3 0 1.5 1l-1.5 1q0 2 -1.5 6t-0.5 4q13 7 15 8t8 1h1q5 0 15 -1.5t19 -12.5q2 -1 7.5 -2t9.5 -3q4 1 4 3
q2 9 4.5 18.5t3.5 18.5v4l-9 14q-1 6 -8 12t-11 7l-47 -7l1 8q0 16 -15 24z" />
    <glyph glyph-name="FL00B4h" unicode="&#xb4;" horiz-adv-x="165" 
d="M61 646q2 -2 -0.5 -6.5t-2.5 -5.5q0 -3 -5 -7.5t-11 -8.5l-10.5 -7t-2.5 -4q5 -5 -0.5 -12t-5.5 -12l6 -17q0 -3 -1 -3q-2 -2 -7 -2.5t-9 -4.5q-2 -2 -2 -4q0 -9 15.5 -15t35.5 -6q9 5 23.5 10.5t22.5 13.5q22 20 35 39.5t3 39.5l-6 12q-18 16 -27.5 19t-19.5 -3z" />
    <glyph glyph-name="FL00B5h" unicode="&#xb5;" horiz-adv-x="707" 
d="M689 273l-3 10l-76 44l48 16h3l-3 12l-108 26l37 30h-128l12 39l-120 -21l-6 33l-9 3l-84 -48l-38 33l-51 -61q-7 -2 -9.5 -2.5l-2.5 -0.5q-21 0 -46 21l-6 -74l-63 5l3 -22l34 -47l-58 -5l78 -47l-54 -29l113 -27l-35 -31l129 -5l-13 -38l118 26l13 -20l-6 -20l95 52
l42 -32l45 65l64 -23v75l64 -10v2q0 11 -8.5 27t-29.5 40zM602 310l-14 -67l-12 1l4 73zM593 213l-16 -13l-8 9l11 10zM556 219q-19 0 -52 47v-47h-13v91l49 -58l1 65l15 -6v-92zM479 219l-11 3q-10 22 -19 22q-8 0 -23 -22h-16q4 24 12.5 47.5t22.5 46.5q0 2 12 2
q15 0 22 -28v-71zM402 317l-5 -92l-20 -6l3 87zM362 216q-8 0 -21 10.5t-28 33.5v-43l-16 -4v96l49 -62v64l16 -2v-93zM287 282q-8 -66 -32 -66q-1 -1 -9 -1h-4q-25 0 -28 14q0 59 32 82h3h3q32 0 35 -29zM206 316l-1 -25l-6 3l-2 1q-7 0 -10.5 -3t-11.5 -10
q-12 -18 -12 -39q0 -18 17 -18h16l1 -15q-5 -1 -8.5 -1.5t-8.5 -0.5q-25 0 -34 39v13q0 45 60 56zM139 311l-4 -91l-18 -7l5 96zM461 266l-8 31l-16 -31h24zM270 267q0 9 -1 10q-3 13 -17 13q-13 0 -22 -30v-7q0 -22 13 -22q-5 0 0.5 2t22.5 6q4 4 4 28z" />
    <glyph glyph-name="FL00B9h" unicode="&#xb6;" horiz-adv-x="540" 
d="M512 310l-14 -67l-12 1l4 73zM503 213l-16 -13l-8 9l11 10zM466 219q-19 0 -52 47v-47h-13v91l49 -58l1 65l15 -6v-92zM389 219l-11 3q-10 22 -19 22q-8 0 -23 -22h-16q4 24 12.5 47.5t22.5 46.5q0 2 12 2q15 0 22 -28v-71zM312 317l-5 -92l-20 -6l3 87zM272 216
q-8 0 -21 10.5t-28 33.5v-43l-16 -4v96l49 -62v64l16 -2v-93zM197 282q-8 -66 -32 -66q-1 -1 -9 -1h-4q-25 0 -28 14q0 59 32 82h3h3q32 0 35 -29zM116 316l-1 -25l-6 3l-2 1q-7 0 -10.5 -3t-11.5 -10q-12 -18 -12 -39q0 -18 17 -18h16l1 -15q-5 -1 -8.5 -1.5t-8.5 -0.5
q-25 0 -34 39v13q0 45 60 56zM49 311l-4 -91l-18 -7l5 96zM371 266l-8 31l-16 -31h24zM180 267q0 9 -1 10q-3 13 -17 13q-13 0 -22 -30v-7q0 -22 13 -22q-5 0 0.5 2t22.5 6q4 4 4 28z" />
    <glyph glyph-name="FL00B7h" unicode="&#xb7;" horiz-adv-x="179" 
d="M162 344q4 -11 2 -18t-6 -11.5t-9 -8.5t-7 -8q-6 -14 -18 -15.5t-41 -0.5l-25 12q-26 13 -36.5 27.5t-10.5 31.5q0 14 5.5 29.5t13.5 32.5q2 8 13.5 14.5t17.5 7.5l37 2q12 -4 15.5 -5t3.5 -4q0 -2 10 -6t12 -6q6 -5 11.5 -20t12.5 -20l-11 -17q-1 -1 3.5 -9t6.5 -8z" />
    <glyph glyph-name="FL00B8h" unicode="&#xb8;" horiz-adv-x="119" 
d="M100 -81l-82 -11l-58 1v7q0 5 1 6q0 1 4 3t8.5 3.5t9 3.5t5.5 4h-5h-10h-11q-4 0 -4 1q-1 8 5.5 10t11.5 2v4q-10 0 -18 3t-8 16q0 12 7 13l30 7h2q1 0 7 0.5t18 0.5l6 61h7q5 0 6 -1q1 0 3 -4t3.5 -9t3 -9t3.5 -5l0.5 5t1.5 11t2 11t2 5q8 1 11.5 -6.5t3.5 -12.5h4
q0 11 1 18.5t14 7.5q9 0 14 -8l10 -21l-6 -33z" />
    <glyph glyph-name="FL00BDh" unicode="&#xb9;" horiz-adv-x="143" 
d="M75 456q-1 0 -4 -3l-6.5 -6.5l-6.5 -6.5t-4 -3q-5 0 -6.5 9.5t-2.5 21.5t-0.5 23t0.5 15q0 45 3 87.5t3 88.5q-1 1 -1 2q0 2 -1 2l-26 2q0 3 1.5 5t1.5 5l-1 2l-2 2t-2 3q0 4 7 4h11l-13 9q-11 0 -11 13q0 6 6 11l18 4h58h18l9 -13q0 -2 -0.5 -13.5t-0.5 -26.5
q0 -14 -0.5 -26t-0.5 -14v-7q0 -4 -1 -11.5t-2 -15.5t-2 -15t-1 -10v-132q0 -4 -1 -9.5t-3 -10.5q-8 1 -12.5 -1t-8 -5t-6.5 -5.5t-7 -2.5t-4 4q0 6 3 15t-2 9z" />
    <glyph glyph-name="FL00BCh" unicode="&#xba;" horiz-adv-x="217" 
d="M190 562q0 -8 -3.5 -16.5t-1.5 -16.5q-2 -3 -6 -14.5t-5 -14.5q-5 -13 -9 -17.5t-11 -14.5q-1 -2 -2.5 -6t-2.5 -5q-11 -9 -32 -9q-9 0 -19.5 1.5t-19.5 5.5q-6 3 -10.5 4t-6.5 5l-8 14q-5 7 -5.5 9.5t-5.5 10.5q-6 8 -8.5 11t-2.5 14q0 8 1 16t1 16v1q0 2 -1 9.5
t-2.5 16.5t-2.5 17t-1 10v1q0 2 -0.5 3t-0.5 3v1v2q0 2 0.5 3t0.5 2v2q2 3 4.5 3.5t2.5 3.5q0 4 -3 5.5t-4 5.5q0 2 -1 8.5t-1 8.5q0 9 5.5 20t13.5 21.5t16 19.5t13 15v2q0 9 6 11t14 2h7q3 0 11 -1.5t16.5 -4t15.5 -5.5t9 -7q4 -7 10 -13t7 -14v-3v-5v-5v-3q1 -2 6 -9
q1 -3 4 -12.5t3 -11.5q4 -17 4 -42q0 -10 -0.5 -20t1.5 -21q0 -2 2 -4t2 -3v-6zM117 644q0 3 -4 13t-6 10t-3 -2.5t-2 -3.5q-1 -2 -3 -7.5t-4 -7.5v-3q0 -14 1 -27.5t0 -28.5q2 -8 2 -13v-12q0 -1 -0.5 -4.5t-0.5 -4.5v-1v-3v-1q0 -8 5.5 -10t4.5 -6h2q1 0 1 5l6 24v2
q0 5 -1 9t-1 8q0 17 1.5 32t1.5 32z" />
    <glyph glyph-name="FL00BBh" unicode="&#xbb;" horiz-adv-x="305" 
d="M91 478l59 -61q4 -7 4 -13t-1 -7v-3q0 -6 -4 -13l-16 -31h-2q-2 0 -5.5 -1.5t-4.5 -1.5q-3 0 -6.5 -4.5t-7.5 -10t-7 -10t-5 -4.5h-1q-2 2 -4 2l-20 -8l-17 6q-3 0 -3 -1q-2 -2 -2.5 -7t-4.5 -9q-2 -2 -4 -2q-9 0 -15 15.5t-6 35.5q2 4 9 9t14.5 10t14 10t8.5 10l4 14
q-4 4 -11.5 10l-15 12t-14 12t-8.5 11q0 20 6 35.5t15 15.5q6 0 8 -3.5t12 -3.5q6 0 7 1zM222 478l59 -61q4 -7 4 -13t-1 -7v-3q0 -6 -4 -13l-16 -31h-2q-2 0 -5.5 -1.5t-4.5 -1.5q-3 0 -6.5 -4.5t-7.5 -10t-7 -10t-5 -4.5h-1q-2 2 -4 2l-20 -8l-17 6q-3 0 -3 -1
q-2 -2 -2.5 -7t-4.5 -9q-2 -2 -4 -2q-9 0 -15 15.5t-6 35.5q2 4 9 9t14.5 10t14 10t8.5 10l4 14q-4 4 -11.5 10l-15 12t-14 12t-8.5 11q0 20 6 35.5t15 15.5q6 0 8 -3.5t12 -3.5q6 0 7 1z" />
    <glyph glyph-name="FL0870h" unicode="&#xbc;" horiz-adv-x="424" 
d="M265 337l-105 -124q-1 -5 -2 -9t-1 -5q0 -3 -7.5 -18t-16.5 -34.5l-18 -39t-12 -31.5q-1 -4 -2 -12.5t-2.5 -17t-4.5 -15t-9 -6.5q-11 0 -13.5 5.5t-2.5 13.5v12q0 8 -2.5 14t-13.5 6q-4 0 -5.5 -3t-2 -7t-2.5 -7t-6 -3h-1q-2 2 -6.5 5.5t-5.5 5.5l-3 -3h-3q-4 0 -4.5 3
t-0.5 6q0 20 5 38t6 37q0 4 3.5 12t7 16.5t7 16t3.5 11.5q2 9 9.5 23t15.5 28.5t15 28t9 22.5q54 57 85.5 105t48.5 87.5t22 69.5t5 50q0 4 2 12t5.5 15.5t8.5 13.5t11 6q14 0 14 -14l-4 -30q0 -13 13 -13q4 0 5.5 3t2 7t2 7t6.5 3l13 -12l3 4h3q4 0 4.5 -3t0.5 -6
q0 -20 -5 -38t-6 -37l-4 -66q-2 -9 -8.5 -18.5t-13.5 -19.5t-13 -19.5t-7 -18.5q-4 -12 -13.5 -28t-9.5 -28v-1zM89 393l-21 -19q-6 0 -7.5 15t-2.5 30v2l1 22l6 176q-1 1 -1 2q0 2 -1 2l-26 2l3 10l-1 2l-2 2t-2 3q0 4 7 4h11l-13 9q-11 0 -11 13q0 6 6 11l18 4h76l7 -13
v-87q0 -4 -1 -11.5t-2 -15.5t-2 -15t-1 -10v-132q0 -4 -1 -9.5t-3 -10.5l-6 1q-12 0 -16 -7.5t-12 -7.5q-4 0 -4 4l4 20q0 4 -3 4zM401 115h-26v-66v-35q-1 -3 -4 -6t-7 -3l-18 10q-5 0 -11 -4.5t-8 -4.5q-1 0 -1 2v1l2 14q-2 -2 -6 -6.5t-6 -4.5v1l-2 5v15v52v31
q-5 -2 -12 -4.5t-10 -2.5q-2 0 -2 1q-1 1 -6 1q-8 0 -23 -2t-26 -2q-7 0 -9 2q-1 1 -1 3q0 6 7.5 12.5t7.5 11.5q0 3 -3.5 4l-7 2t-7 2.5t-3.5 4.5v2q0 1 -2.5 4t-4.5 3q-1 0 -1 -1q-1 -2 -1.5 0.5t-0.5 4.5q0 10 9.5 16.5t9.5 15.5v33q1 4 5.5 14t9 21.5t8.5 21.5t5 15
q2 6 6.5 14t4.5 14l32 3q0 2 1 2q2 0 6 -3.5t6 -3.5q1 0 1 2q2 2 2.5 3t3.5 1h2l1 -2t3 -2l1 -28l2.5 7t4.5 13t2 7q4 0 4 -1v-2q0 -3 1 -4q1 1 3 1.5l2 0.5h2q2 0 4.5 -1.5t3.5 -2.5q5 3 5.5 8.5t8.5 5.5q5 0 5 -4l2 -16q-1 -24 -1.5 -42t-0.5 -31q0 -19 0.5 -29.5t1 -15
t1.5 -5.5l1 -1q1 0 1 -4v-4h8l18 -4q2 -1 4 -4.5t2 -6.5q0 -8 -7 -11t-13 -3l7 -1q7 0 7 -10q0 -2 -2 -4l-2 -2l-1 -2l3 -12l-0.5 -1zM316 249q0 -1 -4 -4t-5 -4q0 -2 -4.5 -12t-5.5 -11q0 -2 -3.5 -13.5t-10.5 -25.5h3h31q-1 5 -1 11v11v20v28z" />
    <glyph glyph-name="FL00BEh" unicode="&#xbd;" horiz-adv-x="403" 
d="M265 337l-105 -124q-1 -5 -2 -9t-1 -5q0 -3 -7.5 -18t-16.5 -34.5l-18 -39t-12 -31.5q-1 -4 -2 -12.5t-2.5 -17t-4.5 -15t-9 -6.5q-13 0 -15 8t-1.5 17.5t-1.5 17.5t-14 8q-4 0 -5.5 -3t-2 -7t-2.5 -7t-6 -3h-1q-2 2 -6.5 5.5t-5.5 5.5l-3 -3h-3q-4 0 -4.5 3t-0.5 6
q0 20 5 38t6 37q0 4 3.5 12t7 16.5t7 16t3.5 11.5q2 9 9.5 23t15.5 28.5t15 28t9 22.5q54 57 85.5 105t48.5 87.5t22 69.5t5 50q0 4 2 12t5.5 15.5t8.5 13.5t11 6q13 0 13.5 -9t-1.5 -19.5t-1.5 -19.5t12.5 -9q4 0 5.5 3t2 7t2 7t6.5 3h1l12 -12q0 1 1.5 2t1.5 2h3
q4 0 4.5 -3t0.5 -6q0 -20 -5 -38t-6 -37q0 -4 -0.5 -13.5t-1.5 -20t-1.5 -19.5t-0.5 -13q-2 -9 -8.5 -18.5t-13.5 -19.5t-13 -19.5t-7 -18.5q-4 -12 -13.5 -28t-9.5 -28v-1zM91 386q-1 0 -4 -3l-6.5 -6.5l-6.5 -6.5t-4 -3q-5 0 -6.5 9.5t-2.5 21.5t-0.5 23t0.5 15
q0 45 3 87.5t3 88.5q-1 1 -1 2q0 2 -1 2l-26 2q0 3 1.5 5t1.5 5l-1 2l-2 2t-2 3q0 4 7 4h11l-13 9q-11 0 -11 13q0 6 6 11l18 4h58h18l9 -13q0 -2 -0.5 -13.5t-0.5 -26.5q0 -14 -0.5 -26t-0.5 -14v-7q0 -4 -1 -11.5t-2 -15.5t-2 -15t-1 -10v-132q0 -4 -1 -9.5t-3 -10.5
q-8 1 -12.5 -1t-8 -5t-6.5 -5.5t-7 -2.5t-4 4q0 6 3 15t-2 9zM238 124v30q9 5 10 9.5t1 12.5q0 2 1.5 4.5t0.5 4.5l45 -7q4 1 11 6.5t7 11.5l9 14v4q-1 8 -3.5 17t-4.5 18q0 1 -3 3q-4 -2 -9.5 -3t-7.5 -2q-9 -11 -19 -12t-14 -1q-5 0 -7 1t-15 8q-1 0 0.5 3.5t1.5 5.5
l1.5 1t-1.5 1q-1 0 -1.5 0.5t0.5 0.5l-2 8v12q0 1 2.5 6t6.5 10.5t8.5 11t9.5 7.5q7 7 21 9t29 0t28 -8.5t17 -16.5q8 -6 10.5 -10t4.5 -13q5 -23 5.5 -36t1.5 -24q0 -19 -7 -34t-16 -23l1 -1l-16 -12v-1q-20 -1 -27.5 -2.5t-10.5 -1.5l-2 1l-9 1v-44q0 -9 1 -12l8 -4
q5 2 10.5 3.5t6.5 1.5q2 0 2 -3q0 -4 1 -6q2 2 14.5 4t28.5 6l-0.5 -0.5t-0.5 -1.5v-4q2 0 3.5 0.5t3.5 0.5q6 0 6 -4q-4 0 -4 -5l3 -11l-19 -12h23l-1 -7q-3 -11 -4 -13t-4 -9q-8 -8 -26 -8q-11 0 -21.5 1.5t-15.5 1.5l-4 9h-1q-2 0 -5.5 -3.5t-6.5 -3.5l-42 -3
q-4 6 -7 15.5t-4.5 20.5t-2 23t-0.5 21q0 17 1 20q0 3 -1 5t-1 4t1 3zM325 73v-1v1z" />
    <glyph glyph-name="FL088Ch" unicode="&#xbe;" horiz-adv-x="426" 
d="M267 337l-105 -124q-1 -5 -2 -9t-1 -5q0 -3 -7.5 -18t-16.5 -34.5l-18 -39t-12 -31.5q-1 -4 -2 -12.5t-2.5 -17t-4.5 -15t-9 -6.5q-11 0 -13.5 5.5t-2.5 13.5v12q0 8 -2.5 14t-13.5 6q-4 0 -5.5 -3t-2 -7t-2.5 -7t-6 -3h-1q-2 2 -6.5 5.5t-5.5 5.5l-3 -3h-3q-4 0 -4.5 3
t-0.5 6q0 20 5 38t6 37q0 4 3.5 12t7 16.5t7 16t3.5 11.5q2 9 9.5 23t15.5 28.5t15 28t9 22.5q54 57 85.5 105t48.5 87.5t22 69.5t5 50q0 4 2 12t5.5 15.5t8.5 13.5t11 6q14 0 14 -14l-4 -30q0 -13 13 -13q4 0 5.5 3t2 7t2 7t6.5 3l13 -12l3 4h3q4 0 4.5 -3t0.5 -6
q0 -20 -5 -38t-6 -37l-4 -66q-2 -9 -8.5 -18.5t-13.5 -19.5t-13 -19.5t-7 -18.5q-4 -12 -13.5 -28t-9.5 -28v-1zM403 115h-26v-66v-35q-1 -3 -4 -6t-7 -3l-18 10q-5 0 -11 -4.5t-8 -4.5q-1 0 -1 2v1l2 14q-2 -2 -6 -6.5t-6 -4.5v1l-2 5v15v52v31q-5 -2 -12 -4.5t-10 -2.5
q-2 0 -2 1q-1 1 -6 1q-8 0 -23 -2t-26 -2q-7 0 -9 2q-1 1 -1 3q0 6 7.5 12.5t7.5 11.5q0 3 -3.5 4l-7 2t-7 2.5t-3.5 4.5v2q0 1 -2.5 4t-4.5 3q-1 0 -1 -1q-1 -2 -1.5 0.5t-0.5 4.5q0 10 9.5 16.5t9.5 15.5v33q1 4 5.5 14t9 21.5t8.5 21.5t5 15q2 6 6.5 14t4.5 14l32 3
q0 2 1 2q2 0 6 -3.5t6 -3.5q1 0 1 2q2 2 2.5 3t3.5 1h2l1 -2t3 -2l1 -28l2.5 7t4.5 13t2 7q4 0 4 -1v-2q0 -3 1 -4q1 1 3 1.5l2 0.5h2q2 0 4.5 -1.5t3.5 -2.5q5 3 5.5 8.5t8.5 5.5q5 0 5 -4l2 -16q-1 -24 -1.5 -42t-0.5 -31q0 -19 0.5 -29.5t1 -15t1.5 -5.5l1 -1q1 0 1 -4
v-4h8l18 -4q2 -1 4 -4.5t2 -6.5q0 -8 -7 -11t-13 -3l7 -1q7 0 7 -10q0 -2 -2 -4l-2 -2l-1 -2l3 -12l-0.5 -1zM318 249q0 -1 -4 -4t-5 -4q0 -2 -4.5 -12t-5.5 -11q0 -2 -3.5 -13.5t-10.5 -25.5h3h31q-1 5 -1 11v11v20v28zM28 544l61 8q5 2 7 4t3 8l9 14v5q-1 8 -1.5 17
t-2.5 18l-8 4q-5 -2 -11 -3.5t-7 -1.5q-3 -2 -3 -4v-2q4 -1 -11 -3.5t-34 -7.5q0 1 0.5 1.5l0.5 0.5v4h-8q-6 0 -6 4q0 -2 2.5 0t0.5 8l21 12q0 1 -8 0t-13 -1q-4 0 -4 1l1 7q3 11 4 15.5t4 12.5q4 6 13 10t19.5 6.5t19.5 3.5t14 1l4 -10q1 -2 8.5 3.5t9.5 5.5h2
q11 -4 17.5 -7.5t15.5 -11.5q8 -6 10.5 -10.5t4.5 -13.5q5 -25 6 -38t2 -24q0 -19 -9 -28t-15 -18q9 -8 16.5 -24t7.5 -35q-1 -11 -2 -24.5t-6 -37.5q-2 -10 -4.5 -14.5t-10.5 -10.5q-9 -7 -15.5 -11t-17.5 -7h-2q-2 0 -2 5v8q0 3 -1 2l-19 -16q-2 -2 -7 -2q-2 0 -5.5 0.5
t-11.5 1.5h-1q-1 0 -2 1q-6 0 -10 -1.5t-6 3.5q-4 3 -9 8.5t-9 11t-7 10t-3 6.5v13l2 8q-1 0 -0.5 0.5t1.5 0.5q3 0 1.5 1l-1.5 1q0 2 -1.5 6t-0.5 4q13 7 15 8t8 1h1q5 0 15 -1.5t19 -12.5q2 -1 7.5 -2t9.5 -3q4 1 4 3q2 9 4.5 18.5t3.5 18.5v4l-9 14q-1 6 -8 12t-11 7
l-47 -7l1 8q0 16 -15 24z" />
    <glyph glyph-name="FL00BFh" unicode="&#xbf;" horiz-adv-x="320" 
d="M304 414l-1 -61q-17 -8 -19.5 -18.5t-2.5 -25.5q0 -3 -2.5 -8.5t-1.5 -8.5l-90 13q-4 -1 -10 -4.5t-12 -8.5t-10 -11t-4 -12l-17 -27v-8q1 -17 7 -35t8 -35q1 -5 6 -6q8 2 19 5t15 5q9 10 19 15.5t19.5 7.5t17 2.5t11.5 0.5q5 0 8 -0.5t6.5 -2t10 -5.5t18.5 -10
q2 0 -1 -8t-3 -10l-2.5 -2.5t2.5 -2.5t3 -2l3 -16v-24q0 -3 -5.5 -12.5t-13.5 -20.5t-17.5 -21.5t-17.5 -14.5q-2 -8 -10.5 -6t-19.5 2q-5 -2 -5 -1q-14 -2 -22.5 -3.5t-10.5 -1.5q-9 0 -13 4l-37 31q-1 1 -1 -3q0 -6 -0.5 -16t-4.5 -10h-3q-20 6 -33 13.5t-29 21.5
q-16 13 -22 20.5t-8 26.5q-10 46 -11.5 72.5t-3.5 47.5q0 37 14.5 67t31.5 47q-3 4 2.5 7.5t12.5 7t12.5 6.5t2.5 6q24 1 39 2.5t23.5 3t12.5 2t6 -0.5l18 -2l-1 61q0 10 0.5 16t0.5 12q0 2 4.5 3.5t10 2.5t10 3t4.5 5q2 3 17 2.5t31 -6.5t28 -17.5t9 -30.5q0 -8 2 -13
t0 -10zM161 580l9 58q2 12 17 13.5t39 0.5l23 -11q20 -9 30 -21.5t12.5 -26.5t-1.5 -30t-12 -32q-2 -6 -12 -11.5t-15 -6.5l-38 -3q-10 4 -13 5t-3 3q0 1 -9 4t-10 5q-5 5 -10.5 17t-10.5 17l46 17q-4 4 -8 3.5t-12 -0.5q-5 0 -9 -2.5t-10 -0.5q0 2 -3 2z" />
    <glyph glyph-name="FL00C0h" unicode="&#xc0;" horiz-adv-x="337" 
d="M39 75h-3q0 -1 -1.5 -2.5l-1.5 -1.5v-39q0 -1 -1.5 -1.5t-2.5 -2.5h-2q-5 0 -9 10t-4 13q0 4 -0.5 11.5t-0.5 16.5q0 8 0.5 15.5t0.5 10.5q-4 4 -4 6v7v6q0 15 2.5 53t5 80t5 80t2.5 53q5 23 12.5 46t10.5 46q8 51 16 97t27 95q1 3 6.5 -3t12 -14.5t12.5 -16t8 -7.5
q3 0 4 7.5t1.5 16t1.5 15.5t3 6h77l15 7q2 1 3.5 -2.5t3 -8t2.5 -8.5t3 -4q4 -1 9.5 -0.5t10 -0.5t8 -4t3.5 -10v-96q0 -23 11.5 -44t15.5 -44q0 -12 1.5 -41.5t4 -62.5t4 -62.5t1.5 -41.5v-4q9 -48 13 -95.5t4 -96.5q-11 0 -23 4t-23 4q-3 0 -5 -4t-4 -8.5t-4.5 -8.5
t-6.5 -4t-5 7t-1.5 15.5t-1.5 15.5t-4 7q-1 0 -2.5 -4.5t-3.5 -9.5t-4 -9.5l-2 -4.5q0 -2 -3 -11.5t-5 -11.5q0 -3 -4 -4v-1h-1q-13 0 -18 19.5t-7.5 43t-4.5 43t-9 19.5h-23q-14 0 -17 -9v-48v-48q0 -6 -1.5 -17.5t-2.5 -12.5l-4 -4h-61l-19 19l-8 4q-3 3 -3.5 8.5
t-0.5 11.5t-1.5 10.5t-7.5 4.5zM152 293q0 -2 -0.5 -8t4.5 -7q10 1 22.5 5t12.5 17q0 2 2 4t2 4q-1 5 -2.5 17t-2.5 25.5t-2 25.5t-1 17q0 2 -0.5 8t-1.5 12t-2.5 11t-3.5 5q-7 0 -12 -20t-8.5 -44.5t-5 -46t-1.5 -25.5zM182 825q-2 -2 0.5 -6.5t2.5 -5.5q0 -3 5 -7.5t11 -8
t10 -7t3 -4.5q-5 -5 0.5 -12t5.5 -12l-6 -17q0 -3 1 -3q2 -2 7 -2.5t9 -4.5q2 -2 2 -4q0 -9 -15.5 -15t-35.5 -6q-9 5 -23.5 10.5t-22.5 13.5q-22 20 -35 39.5t-3 39.5l6 12q18 16 27.5 19t19.5 -3z" />
    <glyph glyph-name="FL00C1h" unicode="&#xc1;" horiz-adv-x="337" 
d="M39 75h-3q0 -1 -1.5 -2.5l-1.5 -1.5v-39q0 -1 -1.5 -1.5t-2.5 -2.5h-2q-5 0 -9 10t-4 13q0 4 -0.5 11.5t-0.5 16.5q0 8 0.5 15.5t0.5 10.5q-4 4 -4 6v7v6q0 15 2.5 53t5 80t5 80t2.5 53q5 23 12.5 46t10.5 46q8 51 16 97t27 95q1 3 6.5 -3t12 -14.5t12.5 -16t8 -7.5
q3 0 4 7.5t1.5 16t1.5 15.5t3 6h77l15 7q2 1 3.5 -2.5t3 -8t2.5 -8.5t3 -4q4 -1 9.5 -0.5t10 -0.5t8 -4t3.5 -10v-96q0 -23 11.5 -44t15.5 -44q0 -12 1.5 -41.5t4 -62.5t4 -62.5t1.5 -41.5v-4q9 -48 13 -95.5t4 -96.5q-11 0 -23 4t-23 4q-3 0 -5 -4t-4 -8.5t-4.5 -8.5
t-6.5 -4t-5 7t-1.5 15.5t-1.5 15.5t-4 7q-1 0 -2.5 -4.5t-3.5 -9.5t-4 -9.5l-2 -4.5q0 -2 -3 -11.5t-5 -11.5q0 -3 -4 -4v-1h-1q-13 0 -18 19.5t-7.5 43t-4.5 43t-9 19.5h-23q-14 0 -17 -9v-48v-48q0 -6 -1.5 -17.5t-2.5 -12.5l-4 -4h-61l-19 19l-8 4q-3 3 -3.5 8.5
t-0.5 11.5t-1.5 10.5t-7.5 4.5zM152 293q0 -2 -0.5 -8t4.5 -7q10 1 22.5 5t12.5 17q0 2 2 4t2 4q-1 5 -2.5 17t-2.5 25.5t-2 25.5t-1 17q0 2 -0.5 8t-1.5 12t-2.5 11t-3.5 5q-7 0 -12 -20t-8.5 -44.5t-5 -46t-1.5 -25.5zM163 818l31 16q10 6 19.5 3t27.5 -19l6 -12
q10 -20 -3 -39.5t-35 -39.5q-8 -8 -22.5 -13.5t-23.5 -10.5q-20 0 -35.5 6t-15.5 15q0 2 2 4q4 4 9 4.5t7 2.5q1 0 1 3l-6 17q0 5 5.5 12t0.5 12q-2 1 2.5 4t10.5 7.5t11 8.5t5 7q0 1 2.5 5.5t0.5 6.5z" />
    <glyph glyph-name="FL00C2h" unicode="&#xc2;" horiz-adv-x="335" 
d="M152 293q0 4 1.5 25.5t5 46t8.5 44.5t12 20q2 0 3.5 -5t2.5 -11t1.5 -12t0.5 -8q0 -5 1 -17t2 -25.5t2.5 -25.5t2.5 -17q0 -2 -2 -4t-2 -4q0 -13 -12.5 -17t-22.5 -5q-5 1 -4.5 7t0.5 8zM36 75h3q6 0 7.5 -4.5t1.5 -10.5t0.5 -11.5t3.5 -8.5l8 -4l19 -19h61l4 4
q1 1 2.5 12.5t1.5 17.5v48v48q3 9 17 9h23q7 0 9 -19.5t4.5 -43t7.5 -43t18 -19.5h1v1q4 1 4 4q2 2 5 11.5t3 11.5l2 4.5t4 9.5t3.5 9.5t2.5 4.5q3 0 4 -7t1.5 -15.5t1.5 -15.5t5 -7t6.5 4t4.5 8.5t4 8.5t5 4q11 0 23 -4t23 -4q0 49 -4 96.5t-13 95.5v4q0 12 -1.5 41.5
t-4 62.5t-4 62.5t-1.5 41.5q-4 23 -15.5 44t-11.5 44v96q0 7 -3.5 10t-8 4t-10 0.5t-9.5 0.5q-2 0 -3 4t-2.5 8.5t-3 8t-3.5 2.5l-15 -7h-77q-2 1 -3 -6t-1.5 -15.5t-1.5 -16t-4 -7.5q-2 0 -8 7.5t-12.5 16t-12 14.5t-6.5 3q-19 -49 -27 -95t-16 -97q-3 -23 -10.5 -46
t-12.5 -46q0 -15 -2.5 -53t-5 -80t-5 -80t-2.5 -53v-6v-7q0 -2 4 -6q0 -3 -0.5 -10.5t-0.5 -15.5q0 -9 0.5 -16.5t0.5 -11.5q0 -3 4 -13t9 -10h2q1 2 2.5 2.5t1.5 1.5v39l1.5 1.5t1.5 2.5zM250 781l-61 59q-7 4 -13 4t-7 -1h-3q-6 0 -13 -4l-31 -16v-2q0 -2 -1.5 -5.5
t-1.5 -4.5q0 -3 -4.5 -6.5t-10 -7.5t-10 -7t-4.5 -5v-1q2 -2 2 -4l-8 -20l6 -17q0 -3 -1 -3q-2 -2 -7 -2.5t-9 -4.5q-2 -2 -2 -4q0 -9 15.5 -15t35.5 -6q4 2 9 9t10 14.5t10 14t10 8.5l14 4q4 -4 10 -11.5l12 -15t12 -14t11 -8.5q20 0 35.5 6t15.5 15q0 6 -3.5 8t-3.5 12
q0 6 1 7z" />
    <glyph glyph-name="FL00C3h" unicode="&#xc3;" horiz-adv-x="337" 
d="M39 75h-3q0 -1 -1.5 -2.5l-1.5 -1.5v-39q0 -1 -1.5 -1.5t-2.5 -2.5h-2q-5 0 -9 10t-4 13q0 4 -0.5 11.5t-0.5 16.5q0 8 0.5 15.5t0.5 10.5q-4 4 -4 6v7v6q0 15 2.5 53t5 80t5 80t2.5 53q5 23 12.5 46t10.5 46q8 51 16 97t27 95q1 3 6.5 -3t12 -14.5t12.5 -16t8 -7.5
q3 0 4 7.5t1.5 16t1.5 15.5t3 6h77l15 7q2 1 3.5 -2.5t3 -8t2.5 -8.5t3 -4q4 -1 9.5 -0.5t10 -0.5t8 -4t3.5 -10v-96q0 -23 11.5 -44t15.5 -44q0 -12 1.5 -41.5t4 -62.5t4 -62.5t1.5 -41.5v-4q9 -48 13 -95.5t4 -96.5q-11 0 -23 4t-23 4q-3 0 -5 -4t-4 -8.5t-4.5 -8.5
t-6.5 -4t-5 7t-1.5 15.5t-1.5 15.5t-4 7q-1 0 -2.5 -4.5t-3.5 -9.5t-4 -9.5l-2 -4.5q0 -2 -3 -11.5t-5 -11.5q0 -3 -4 -4v-1h-1q-13 0 -18 19.5t-7.5 43t-4.5 43t-9 19.5h-23q-14 0 -17 -9v-48v-48q0 -6 -1.5 -17.5t-2.5 -12.5l-4 -4h-61l-19 19l-8 4q-3 3 -3.5 8.5
t-0.5 11.5t-1.5 10.5t-7.5 4.5zM152 293q0 -2 -0.5 -8t4.5 -7q10 1 22.5 5t12.5 17q0 2 2 4t2 4q-1 5 -2.5 17t-2.5 25.5t-2 25.5t-1 17q0 2 -0.5 8t-1.5 12t-2.5 11t-3.5 5q-7 0 -12 -20t-8.5 -44.5t-5 -46t-1.5 -25.5zM198 696h-11q-5 2 -11 8.5t-12 14l-12 15t-10 11.5
l-14 -4q-5 -2 -10 -8.5t-10 -14t-10 -14.5t-9 -9q-20 0 -35.5 6t-15.5 15q0 2 2 4q4 4 9 4.5t7 2.5q1 0 1 3l-6 17l8 20q0 2 -2 4v1q0 2 4.5 5t10 7t10 7.5t4.5 6.5q0 1 1.5 4.5t1.5 5.5v2l31 16q7 4 13 4h3q1 1 7 1h16q5 -2 11 -8.5t12 -14l12 -15t10 -11.5l14 4
q5 2 10 8.5t9.5 14.5t9.5 14.5t10 8.5q20 0 35.5 -6t15.5 -15q0 -2 -2 -4q-4 -4 -9 -4.5t-7 -2.5q-1 0 -1 -3l6 -17l-8 -20q0 -2 2 -4v-1q0 -2 -4.5 -5.5t-10 -7t-10 -7t-4.5 -6.5q0 -1 -1.5 -4.5t-1.5 -5.5v-2l-31 -16q-7 -4 -13 -4h-3q-1 -1 -12 -1z" />
    <glyph glyph-name="FL00C4h" unicode="&#xc4;" horiz-adv-x="326" 
d="M39 75h-3q0 -1 -1.5 -2.5l-1.5 -1.5v-39q0 -1 -1.5 -1.5t-2.5 -2.5h-2q-5 0 -9 10t-4 13q0 4 -0.5 11.5t-0.5 16.5q0 8 0.5 15.5t0.5 10.5q-4 4 -4 6v7v6q0 15 2.5 53t5 80t5 80t2.5 53q5 23 12.5 46t10.5 46q8 51 16 97t27 95q1 3 6.5 -3t12 -14.5t12.5 -16t8 -7.5
q3 0 4 7.5t1.5 16t1.5 15.5t3 6h77l15 7q2 1 3.5 -2.5t3 -8t2.5 -8.5t3 -4q4 -1 9.5 -0.5t10 -0.5t8 -4t3.5 -10v-96q0 -23 11.5 -44t15.5 -44q0 -12 1.5 -41.5t4 -62.5t4 -62.5t1.5 -41.5v-4q9 -48 13 -95.5t4 -96.5q-11 0 -23 4t-23 4q-3 0 -5 -4t-4 -8.5t-4.5 -8.5
t-6.5 -4t-5 7t-1.5 15.5t-1.5 15.5t-4 7q-1 0 -2.5 -4.5t-3.5 -9.5t-4 -9.5l-2 -4.5q0 -2 -3 -11.5t-5 -11.5q0 -3 -4 -4v-1h-1q-13 0 -18 19.5t-7.5 43t-4.5 43t-9 19.5h-23q-14 0 -17 -9v-48v-48q0 -6 -1.5 -17.5t-2.5 -12.5l-4 -4h-61l-19 19l-8 4q-3 3 -3.5 8.5
t-0.5 11.5t-1.5 10.5t-7.5 4.5zM152 293q0 -2 -0.5 -8t4.5 -7q10 1 22.5 5t12.5 17q0 2 2 4t2 4q-1 5 -2.5 17t-2.5 25.5t-2 25.5t-1 17q0 2 -0.5 8t-1.5 12t-2.5 11t-3.5 5q-7 0 -12 -20t-8.5 -44.5t-5 -46t-1.5 -25.5zM299 767l-9 -46q-2 -9 -14 -10t-34 -1l-17 8
q-35 16 -38.5 39t12.5 49q2 6 10 10t13 5l31 2q10 -3 12 -3.5t2 -2.5q0 -1 7.5 -3.5t9.5 -4.5q4 -4 8 -13.5t9 -11.5l-38 -15q3 -4 6 -3.5t10 0.5q5 0 8 2.5t8 -0.5l1 -0.5t3 -0.5zM141 758q6 -14 -3 -19.5t-13 -11.5q-4 -9 -12.5 -10t-31.5 0l-18 8q-34 13 -34 39q0 9 4 19
t10 21q2 6 10 10t13 4l28 2q9 -2 11.5 -2.5t2.5 -2.5t6.5 -4.5t8.5 -4.5q5 -4 9 -12.5t9 -13.5l-8 -11q0 -1 3 -6t5 -5z" />
    <glyph glyph-name="FL00C5h" unicode="&#xc5;" horiz-adv-x="326" 
d="M39 75h-3q0 -1 -1.5 -2.5l-1.5 -1.5v-39q0 -1 -1.5 -1.5t-2.5 -2.5h-2q-5 0 -9 10t-4 13q0 4 -0.5 11.5t-0.5 16.5q0 8 0.5 15.5t0.5 10.5q-4 4 -4 6v7v6q0 15 2.5 53t5 80t5 80t2.5 53q5 23 12.5 46t10.5 46q8 51 16 97t27 95q1 3 6.5 -3t12 -14.5t12.5 -16t8 -7.5
q3 0 4 7.5t1.5 16t1.5 15.5t3 6h77l15 7q2 1 3.5 -2.5t3 -8t2.5 -8.5t3 -4q4 -1 9.5 -0.5t10 -0.5t8 -4t3.5 -10v-96q0 -23 11.5 -44t15.5 -44q0 -12 1.5 -41.5t4 -62.5t4 -62.5t1.5 -41.5v-4q9 -48 13 -95.5t4 -96.5q-11 0 -23 4t-23 4q-3 0 -5 -4t-4 -8.5t-4.5 -8.5
t-6.5 -4t-5 7t-1.5 15.5t-1.5 15.5t-4 7q-1 0 -2.5 -4.5t-3.5 -9.5t-4 -9.5l-2 -4.5q0 -2 -3 -11.5t-5 -11.5q0 -3 -4 -4v-1h-1q-13 0 -18 19.5t-7.5 43t-4.5 43t-9 19.5h-23q-14 0 -17 -9v-48v-48q0 -6 -1.5 -17.5t-2.5 -12.5l-4 -4h-61l-19 19l-8 4q-3 3 -3.5 8.5
t-0.5 11.5t-1.5 10.5t-7.5 4.5zM152 293q0 -2 -0.5 -8t4.5 -7q10 1 22.5 5t12.5 17q0 2 2 4t2 4q-1 5 -2.5 17t-2.5 25.5t-2 25.5t-1 17q0 2 -0.5 8t-1.5 12t-2.5 11t-3.5 5q-7 0 -12 -20t-8.5 -44.5t-5 -46t-1.5 -25.5zM220 763q6 -14 -3 -19.5t-13 -11.5q-4 -9 -12.5 -10
t-31.5 0l-18 8q-34 13 -34 39q0 9 4 19t10 21q2 6 10 10t13 4l28 2q9 -2 11.5 -2.5t2.5 -2.5t6.5 -4.5t8.5 -4.5q5 -4 9 -12.5t9 -13.5l-8 -11q0 -1 3 -6t5 -5z" />
    <glyph glyph-name="FL00C6h" unicode="&#xc6;" horiz-adv-x="499" 
d="M43 72h-3q0 -1 -1.5 -2.5l-1.5 -1.5v-39q0 -1 -1.5 -1.5t-2.5 -2.5h-2q-5 0 -9 10t-4 13q0 4 -0.5 11.5t-0.5 16.5q0 8 0.5 15.5t0.5 10.5q-4 4 -4 6v13q0 15 2.5 53t5 80t5 80t2.5 53q5 23 12.5 46t10.5 46q8 51 16 97t27 95q1 3 6.5 -3t12 -14.5t12.5 -16t8 -7.5
q3 0 4 7.5t1.5 16t1.5 15.5t3 6h77l15 7q2 1 3.5 -2.5t3 -8t2.5 -8.5t3 -4q3 -1 13 -1q13 2 26 3t24 1h16q28 0 56 -2.5t56 -2.5q9 0 16.5 2.5t16.5 2.5v-8q0 -7 -1 -8q0 -2 -3.5 -9.5t-3.5 -9.5v-8l-16 -13l16 -13v-8q-1 -11 -9.5 -20t-20 -15t-24 -10t-20.5 -5l-3 -4
q-1 -1 -1 -8v-17q0 -9 -0.5 -18.5t-0.5 -15.5v-4q0 -2 1 -6.5t-2 -6.5l-14 -10l14 -1q3 0 2 -5t-1 -9v-4q1 -4 3 -4h4q16 0 31.5 4t30.5 4q9 0 14 -7t5 -16q0 -6 -6.5 -12t-15 -11.5t-15 -10t-6.5 -7.5q0 -2 6 -3.5t13 -4.5t12.5 -7.5t4.5 -13.5q-2 -17 -10.5 -23.5
t-19.5 -9t-23 -4t-21 -8.5q-2 -2 -3 -12.5t-2 -24t-1.5 -25t-0.5 -14.5v-1q1 -6 2 -14t1.5 -16t1.5 -13.5l1 -5.5h62q10 0 9.5 -8.5t1.5 -14.5q1 -3 5 -5.5t8 -5.5t7.5 -8.5t3.5 -14.5q0 -8 -7.5 -12.5t-16 -8t-16 -7.5t-7.5 -11l4 -5t4 -6v-3q0 -11 -6.5 -13t-17.5 -3
q-25 -2 -42 -6t-35 1l-27 8l-10 -8q-4 -3 -12 -1t-14 2h-9q-3 1 -5 3h-3q-4 0 -6 8q-9 8 -13 22q-2 -5 -3.5 -9l-1.5 -4q0 -2 -3 -11.5t-5 -11.5q0 -3 -4 -4v-1h-1q-13 0 -18 19.5t-7.5 43t-4.5 43t-9 19.5h-23q-14 0 -17 -9v-96q0 -6 -1.5 -17.5t-2.5 -12.5l-4 -4h-61
l-19 19l-8 4q-3 3 -3.5 8.5t-0.5 11.5t-1.5 10.5t-7.5 4.5zM156 290q0 -2 -0.5 -8t4.5 -7q10 1 22.5 5t12.5 17q0 2 2 4t2 4q-1 5 -2.5 17t-2.5 25.5t-2 25.5t-1 17q0 2 -0.5 8t-1.5 12t-2.5 11t-3.5 5q-7 0 -12 -20t-8.5 -44.5t-5 -46t-1.5 -25.5z" />
    <glyph glyph-name="FL00C7h" unicode="&#xc7;" horiz-adv-x="369" 
d="M145 275l8 -50l27 -48q-2 -5 -4.5 -8.5t-1.5 -4.5q6 -6 16.5 -8t12.5 0q11 8 13.5 12.5t2 7t-2 4.5t1.5 5l16 40q11 7 12.5 14t1.5 13t3.5 11.5t18.5 10.5l67 -2q7 0 10 -7t5 -15q1 -3 2.5 -16t1.5 -18q0 -17 -10.5 -39t-25 -44t-30 -41t-25.5 -30l-1 -2q-17 8 -30.5 9.5
t-20.5 1.5q-9 0 -9.5 -4.5t1.5 -10t3 -10t-5 -4.5q-5 0 -13.5 -0.5t-19.5 -0.5q-10 0 -21.5 1t-21.5 5q-23 10 -36 24.5t-20 31t-9.5 33.5t-4.5 31l-1.5 2l-4.5 6q-1 3 -5 10t-8.5 14.5t-8 14t-3.5 8.5q-5 20 -7 40.5t-2 40.5t1.5 40.5t-1.5 41.5q0 1 2.5 4t6 6t6.5 6l3 3
l-4 2t-9.5 4.5t-10 5t-4.5 3.5q0 8 4 16.5l8 17t7 16.5t1 15q1 4 4.5 12.5t7 17.5t7 17.5t4.5 11.5q8 23 16 33.5t23 27.5q1 2 5 11t6 11q21 17 37 20.5t42 3.5q7 0 18 4.5t11 -1.5q0 -5 7 -8.5t15 -6.5t13.5 -5.5t1.5 -4.5q-7 -3 -9.5 -13.5t-2.5 -12.5q0 -3 4.5 -0.5
t11.5 4.5t16 1.5t19 -10.5l12 -13q5 -7 6.5 -11t3 -7.5t4 -7.5t8.5 -11q12 -16 19 -29t3 -21q-6 -12 -7 -20t-0.5 -15t2.5 -13t2 -14v-2q0 -3 -10 -10.5t-26.5 -10.5t-37 1.5t-41.5 25.5l-9 35v2q0 2 0.5 3.5t0.5 3.5v2q0 22 -1.5 31.5t-1.5 16.5q0 1 -1 0.5t-9 -8.5
l-53 -30l-14 -48q-1 -2 -3 -5.5t-2 -5.5q0 -9 5.5 -12t5.5 -13q0 -28 -2 -65t-4 -64q4 -6 7 -9.5t4 2.5zM250 -81l-82 -11l-64 2v7q0 5 1 6q0 1 4 3t8.5 3.5t9 3.5t5.5 4h-5h-10h-11q-4 0 -4 1q-1 8 5.5 10t11.5 2v4q-10 0 -18 3t-8 16q0 12 7 13l30 7q1 0 4.5 -0.5
t28.5 0.5l4 91h7q5 0 6 -1q1 0 3 -4t3.5 -9t3 -9t3.5 -5l0.5 5t1.5 11t2 11t2 5q8 1 11.5 -6.5t3.5 -12.5h4q0 11 1 18.5t14 7.5q9 0 14 -8l10 -21l-4 -63z" />
    <glyph glyph-name="FL00C8h" unicode="&#xc8;" horiz-adv-x="288" 
d="M30 124q0 24 5 48t5 48q0 48 -4.5 94t-4.5 94q0 26 5 55t5 54v4v11v3q-2 5 -10 7t-13 0l-19 19q-1 1 -1 4l3 6.5t7 14.5t7 14.5t3 8.5q0 1 10.5 3l10.5 2q-1 1 -9.5 7t-15.5 6l-0.5 1t-0.5 2q0 10 9 16.5t22.5 10t28.5 4.5t27 1h16q28 0 56 -2.5t56 -2.5q9 0 16.5 2.5
t16.5 2.5v-8q0 -7 -1 -8q0 -2 -3.5 -9.5t-3.5 -9.5v-8l-16 -13l16 -13v-8q-1 -11 -9.5 -20t-20 -15t-24 -10t-20.5 -5l-3 -4q-1 -1 -1 -8v-17q0 -9 -0.5 -18.5t-0.5 -15.5v-4q0 -2 1 -6.5t-2 -6.5l-14 -10l14 -1q3 0 2 -5t-1 -9v-4q1 -4 3 -4h4q16 0 31.5 4t30.5 4
q9 0 14 -7t5 -16q0 -6 -6.5 -12t-15 -11.5t-15 -10t-6.5 -7.5q0 -2 6 -3.5t13 -4.5t12.5 -7.5t4.5 -13.5q-2 -17 -10.5 -23.5t-19.5 -9t-23 -4t-21 -8.5q-2 -2 -3 -12.5t-2 -24t-1.5 -25t-0.5 -14.5v-1q1 -6 2 -14t1.5 -16t1.5 -13.5l1 -5.5h62q10 0 9.5 -8.5t1.5 -14.5
q1 -3 5 -5.5t8 -5.5t7.5 -8.5t3.5 -14.5q0 -8 -7.5 -12.5t-16 -8t-16 -7.5t-7.5 -11l4 -5t4 -6v-3q0 -11 -6.5 -13t-17.5 -3q-25 -2 -42 -6t-35 1l-27 8l-10 -8q-4 -3 -12 -1t-14 2h-9q-23 16 -29 39t-6 49zM150 824q-2 -2 0.5 -6.5t2.5 -5.5q0 -3 5 -7.5t11 -8t10 -7
t3 -4.5q-5 -5 0.5 -12t5.5 -12l-6 -17q0 -3 1 -3q2 -2 7 -2.5t9 -4.5q2 -2 2 -4q0 -9 -15.5 -15t-35.5 -6q-9 5 -23.5 10.5t-22.5 13.5q-22 20 -35 39.5t-3 39.5l6 12q18 16 27.5 19t19.5 -3z" />
    <glyph glyph-name="FL00C9h" unicode="&#xc9;" horiz-adv-x="288" 
d="M30 124q0 24 5 48t5 48q0 48 -4.5 94t-4.5 94q0 26 5 55t5 54v4v11v3q-2 5 -10 7t-13 0l-19 19q-1 1 -1 4l3 6.5t7 14.5t7 14.5t3 8.5q0 1 10.5 3l10.5 2q-1 1 -9.5 7t-15.5 6l-0.5 1t-0.5 2q0 10 9 16.5t22.5 10t28.5 4.5t27 1h16q28 0 56 -2.5t56 -2.5q9 0 16.5 2.5
t16.5 2.5v-8q0 -7 -1 -8q0 -2 -3.5 -9.5t-3.5 -9.5v-8l-16 -13l16 -13v-8q-1 -11 -9.5 -20t-20 -15t-24 -10t-20.5 -5l-3 -4q-1 -1 -1 -8v-17q0 -9 -0.5 -18.5t-0.5 -15.5v-4q0 -2 1 -6.5t-2 -6.5l-14 -10l14 -1q3 0 2 -5t-1 -9v-4q1 -4 3 -4h4q16 0 31.5 4t30.5 4
q9 0 14 -7t5 -16q0 -6 -6.5 -12t-15 -11.5t-15 -10t-6.5 -7.5q0 -2 6 -3.5t13 -4.5t12.5 -7.5t4.5 -13.5q-2 -17 -10.5 -23.5t-19.5 -9t-23 -4t-21 -8.5q-2 -2 -3 -12.5t-2 -24t-1.5 -25t-0.5 -14.5v-1q1 -6 2 -14t1.5 -16t1.5 -13.5l1 -5.5h62q10 0 9.5 -8.5t1.5 -14.5
q1 -3 5 -5.5t8 -5.5t7.5 -8.5t3.5 -14.5q0 -8 -7.5 -12.5t-16 -8t-16 -7.5t-7.5 -11l4 -5t4 -6v-3q0 -11 -6.5 -13t-17.5 -3q-25 -2 -42 -6t-35 1l-27 8l-10 -8q-4 -3 -12 -1t-14 2h-9q-23 16 -29 39t-6 49zM127 814l31 16q10 6 19.5 3t27.5 -19l6 -12q10 -20 -3 -39.5
t-35 -39.5q-8 -8 -22.5 -13.5t-23.5 -10.5q-20 0 -35.5 6t-15.5 15q0 2 2 4q4 4 9 4.5t7 2.5q1 0 1 3l-6 17q0 5 5.5 12t0.5 12q-2 1 2.5 4t10.5 7.5t11 8.5t5 7q0 1 2.5 5.5t0.5 6.5z" />
    <glyph glyph-name="FL00CAh" unicode="&#xca;" horiz-adv-x="288" 
d="M30 124q0 -26 6 -49t29 -39h9q6 0 14 -2t12 1l10 8l27 -8q18 -5 35 -1t42 6q11 1 17.5 3t6.5 13v3q0 1 -4 6l-4 5q0 7 7.5 11t16 7.5t16 8t7.5 12.5q0 9 -3.5 14.5t-7.5 8.5t-8 5.5t-5 5.5q-2 6 -1.5 14.5t-9.5 8.5h-62l-1 5.5t-1.5 13.5t-1.5 16t-2 14v1q0 3 0.5 14.5
t1.5 25t2 24t3 12.5q9 7 21 8.5t23 4t19.5 9t10.5 23.5q1 9 -4.5 13.5t-12.5 7.5t-13 4.5t-6 3.5q0 3 6.5 7.5t15 10t15 11.5t6.5 12q0 9 -5 16t-14 7q-15 0 -30.5 -4t-31.5 -4h-4q-2 0 -3 4v4q0 4 1 9t-2 5l-14 1l14 10q3 2 2 6.5t-1 6.5v4q0 6 0.5 15.5t0.5 18.5v17
q0 7 1 8l3 4q8 1 20.5 5t24 10t20 15t9.5 20v8l-16 13l16 13v8q0 2 3.5 9.5t3.5 9.5q1 1 1 8v8q-9 0 -16.5 -2.5t-16.5 -2.5q-28 0 -56 2.5t-56 2.5h-16q-12 0 -27 -1t-28.5 -4.5t-22.5 -10t-9 -16.5q0 -1 0.5 -2l0.5 -1q7 0 15.5 -6t9.5 -7l-10.5 -2t-10.5 -3q0 -2 -3 -8.5
t-7 -14.5t-7 -14.5l-3 -6.5q0 -3 1 -4l19 -19q5 2 13 0t10 -7v-3v-11v-4q0 -25 -5 -54t-5 -55q0 -48 4.5 -94t4.5 -94q0 -24 -5 -48t-5 -48zM220 781l-61 59q-7 4 -13 4t-7 -1h-3q-6 0 -13 -4l-31 -16v-2q0 -2 -1.5 -5.5t-1.5 -4.5q0 -3 -4.5 -6.5t-10 -7.5t-10 -7t-4.5 -5
v-1q2 -2 2 -4l-8 -20l6 -17q0 -3 -1 -3q-2 -2 -7 -2.5t-9 -4.5q-2 -2 -2 -4q0 -9 15.5 -15t35.5 -6q4 2 9 9t10 14.5t10 14t10 8.5l14 4q4 -4 10 -11.5l12 -15t12 -14t11 -8.5q20 0 35.5 6t15.5 15q0 6 -3.5 8t-3.5 12q0 6 1 7z" />
    <glyph glyph-name="FL00CBh" unicode="&#xcb;" horiz-adv-x="288" 
d="M30 124q0 24 5 48t5 48q0 48 -4.5 94t-4.5 94q0 26 5 55t5 54v4v11v3q-2 5 -10 7t-13 0l-19 19q-1 1 -1 4l3 6.5t7 14.5t7 14.5t3 8.5q0 1 10.5 3l10.5 2q-1 1 -9.5 7t-15.5 6l-0.5 1t-0.5 2q0 10 9 16.5t22.5 10t28.5 4.5t27 1h16q28 0 56 -2.5t56 -2.5q9 0 16.5 2.5
t16.5 2.5v-8q0 -7 -1 -8q0 -2 -3.5 -9.5t-3.5 -9.5v-8l-16 -13l16 -13v-8q-1 -11 -9.5 -20t-20 -15t-24 -10t-20.5 -5l-3 -4q-1 -1 -1 -8v-17q0 -9 -0.5 -18.5t-0.5 -15.5v-4q0 -2 1 -6.5t-2 -6.5l-14 -10l14 -1q3 0 2 -5t-1 -9v-4q1 -4 3 -4h4q16 0 31.5 4t30.5 4
q9 0 14 -7t5 -16q0 -6 -6.5 -12t-15 -11.5t-15 -10t-6.5 -7.5q0 -2 6 -3.5t13 -4.5t12.5 -7.5t4.5 -13.5q-2 -17 -10.5 -23.5t-19.5 -9t-23 -4t-21 -8.5q-2 -2 -3 -12.5t-2 -24t-1.5 -25t-0.5 -14.5v-1q1 -6 2 -14t1.5 -16t1.5 -13.5l1 -5.5h62q10 0 9.5 -8.5t1.5 -14.5
q1 -3 5 -5.5t8 -5.5t7.5 -8.5t3.5 -14.5q0 -8 -7.5 -12.5t-16 -8t-16 -7.5t-7.5 -11l4 -5t4 -6v-3q0 -11 -6.5 -13t-17.5 -3q-25 -2 -42 -6t-35 1l-27 8l-10 -8q-4 -3 -12 -1t-14 2h-9q-23 16 -29 39t-6 49zM261 766l-9 -46q-2 -9 -14 -10t-34 -1l-17 8q-35 16 -38.5 39
t12.5 49q2 6 10 10t13 5l31 2q10 -3 12 -3.5t2 -2.5q0 -1 7.5 -3.5t9.5 -4.5q4 -4 8 -13.5t9 -11.5l-38 -15q3 -4 6 -3.5t10 0.5q5 0 8 2.5t8 -0.5l1 -0.5t3 -0.5zM103 757q6 -14 -3 -19.5t-13 -11.5q-4 -9 -12.5 -10t-31.5 0l-18 8q-34 13 -34 39q0 9 4 19t10 21q2 6 10 10
t13 4l28 2q9 -2 11.5 -2.5t2.5 -2.5t6.5 -4.5t8.5 -4.5q5 -4 9 -12.5t9 -13.5l-8 -11q0 -1 3 -6t5 -5z" />
    <glyph glyph-name="FL00CCh" unicode="&#xcc;" horiz-adv-x="190" 
d="M28 41v35q-3 91 -5.5 178.5t-2.5 178.5v7q0 5 0.5 9t0.5 7v4q0 1 1 6t2.5 11t2.5 11t1 6q0 2 0.5 9.5t1.5 16.5t1.5 17t0.5 11q0 4 0.5 11.5t0.5 17.5v21v21q0 10 -0.5 17.5t-0.5 11.5q0 1 7 4t15 6.5t14.5 6.5l6.5 3q9 0 13 -5.5t6.5 -12.5t4 -12.5t4.5 -5.5h2
q1 1 2.5 6.5l1.5 5.5q2 2 2.5 5t1.5 3q3 2 10.5 3t8.5 1q2 -2 8 -8.5t7 -7.5h3h1l16 8h2h2q1 -1 3.5 -4t4.5 -4v-17q0 -63 -5.5 -123.5t-10.5 -123.5q-1 -12 -6.5 -20.5t-5.5 -19.5q0 -14 4.5 -29t7.5 -27v-20v-55v-18q0 -33 0.5 -72t-4.5 -74q-1 -4 -4 -4.5t-5 -0.5
t-3.5 0.5t-3.5 0.5q-6 12 -11.5 16.5t-16.5 4.5q-2 0 -5.5 -0.5t-4.5 -1.5l-3 -5t-4 -6q-2 -1 -10.5 -1.5t-8.5 -2.5q-3 -1 -10.5 -9t-9.5 -10q-20 5 -31 19zM110 810q-2 -2 0.5 -6.5t2.5 -5.5q0 -3 5 -7.5t11 -8t10 -7t3 -4.5q-5 -5 0.5 -12t5.5 -12l-6 -17q0 -3 1 -3
q2 -2 7 -2.5t9 -4.5q2 -2 2 -4q0 -9 -15.5 -15t-35.5 -6q-9 5 -23.5 10.5t-22.5 13.5q-22 20 -35 39.5t-3 39.5l6 12q18 16 27.5 19t19.5 -3z" />
    <glyph glyph-name="FL00CDh" unicode="&#xcd;" horiz-adv-x="190" 
d="M28 41v35q-3 91 -5.5 178.5t-2.5 178.5v7q0 5 0.5 9t0.5 7v4q0 1 1 6t2.5 11t2.5 11t1 6q0 2 0.5 9.5t1.5 16.5t1.5 17t0.5 11q0 4 0.5 11.5t0.5 17.5v21v21q0 10 -0.5 17.5t-0.5 11.5q0 1 7 4t15 6.5t14.5 6.5l6.5 3q9 0 13 -5.5t6.5 -12.5t4 -12.5t4.5 -5.5h2
q1 1 2.5 6.5l1.5 5.5q2 2 2.5 5t1.5 3q3 2 10.5 3t8.5 1q2 -2 8 -8.5t7 -7.5h3h1l16 8h2h2q1 -1 3.5 -4t4.5 -4v-17q0 -63 -5.5 -123.5t-10.5 -123.5q-1 -12 -6.5 -20.5t-5.5 -19.5q0 -14 4.5 -29t7.5 -27v-20v-55v-18q0 -33 0.5 -72t-4.5 -74q-1 -4 -4 -4.5t-5 -0.5
t-3.5 0.5t-3.5 0.5q-6 12 -11.5 16.5t-16.5 4.5q-2 0 -5.5 -0.5t-4.5 -1.5l-3 -5t-4 -6q-2 -1 -10.5 -1.5t-8.5 -2.5q-3 -1 -10.5 -9t-9.5 -10q-20 5 -31 19zM79 811l31 16q10 6 19.5 3t27.5 -19l6 -12q10 -20 -3 -39.5t-35 -39.5q-8 -8 -22.5 -13.5t-23.5 -10.5
q-20 0 -35.5 6t-15.5 15q0 2 2 4q4 4 9 4.5t7 2.5q1 0 1 3l-6 17q0 5 5.5 12t0.5 12q-2 1 2.5 4t10.5 7.5t11 8.5t5 7q0 1 2.5 5.5t0.5 6.5z" />
    <glyph glyph-name="FL00CEh" unicode="&#xce;" horiz-adv-x="190" 
d="M28 76v-35q11 -14 31 -19q2 2 9.5 10t10.5 9q0 2 8.5 2.5t10.5 1.5q1 1 4 6l3 5q1 1 4.5 1.5t5.5 0.5q11 0 16.5 -4.5t11.5 -16.5q2 0 3.5 -0.5t3.5 -0.5t5 0.5t4 4.5q5 35 4.5 74t-0.5 72v18v55v20q-3 12 -7.5 27t-4.5 29q0 11 5.5 19.5t6.5 20.5q5 63 10.5 123.5
t5.5 123.5v17q-2 1 -4.5 4t-3.5 4h-2h-2l-16 -8h-1h-3q-1 1 -7 7.5t-8 8.5q-1 0 -8.5 -1t-10.5 -3q-1 0 -1.5 -3t-2.5 -5l-1.5 -5.5t-2.5 -6.5h-2q-3 0 -4.5 5.5t-4 12.5t-6.5 12.5t-13 5.5l-6.5 -3t-14.5 -6.5t-15 -6.5t-7 -4q0 -4 0.5 -11.5t0.5 -17.5v-21v-21
q0 -10 -0.5 -17.5t-0.5 -11.5q0 -3 -0.5 -11t-1.5 -17t-1.5 -16.5t-0.5 -9.5q0 -1 -1 -6t-2.5 -11t-2.5 -11t-1 -6v-4q0 -3 -0.5 -7t-0.5 -9v-7q0 -91 2.5 -178.5t5.5 -178.5zM181 780l-61 59q-7 4 -13 4t-7 -1h-3q-6 0 -13 -4l-31 -16v-2q0 -2 -1.5 -5.5t-1.5 -4.5
q0 -3 -4.5 -6.5t-10 -7.5t-10 -7t-4.5 -5v-1q2 -2 2 -4l-8 -20l6 -17q0 -3 -1 -3q-2 -2 -7 -2.5t-9 -4.5q-2 -2 -2 -4q0 -9 15.5 -15t35.5 -6q4 2 9 9t10 14.5t10 14t10 8.5l14 4q4 -4 10 -11.5l12 -15t12 -14t11 -8.5q20 0 35.5 6t15.5 15q0 6 -3.5 8t-3.5 12q0 6 1 7z" />
    <glyph glyph-name="FL00CFh" unicode="&#xcf;" horiz-adv-x="190" 
d="M28 41v35q-3 91 -5.5 178.5t-2.5 178.5v7q0 5 0.5 9t0.5 7v4q0 1 1 6t2.5 11t2.5 11t1 6q0 2 0.5 9.5t1.5 16.5t1.5 17t0.5 11q0 4 0.5 11.5t0.5 17.5v21v21q0 10 -0.5 17.5t-0.5 11.5q0 1 7 4t15 6.5t14.5 6.5l6.5 3q9 0 13 -5.5t6.5 -12.5t4 -12.5t4.5 -5.5h2
q1 1 2.5 6.5l1.5 5.5q2 2 2.5 5t1.5 3q3 2 10.5 3t8.5 1q2 -2 8 -8.5t7 -7.5h3h1l16 8h2h2q1 -1 3.5 -4t4.5 -4v-17q0 -63 -5.5 -123.5t-10.5 -123.5q-1 -12 -6.5 -20.5t-5.5 -19.5q0 -14 4.5 -29t7.5 -27v-20v-55v-18q0 -33 0.5 -72t-4.5 -74q-1 -4 -4 -4.5t-5 -0.5
t-3.5 0.5t-3.5 0.5q-6 12 -11.5 16.5t-16.5 4.5q-2 0 -5.5 -0.5t-4.5 -1.5l-3 -5t-4 -6q-2 -1 -10.5 -1.5t-8.5 -2.5q-3 -1 -10.5 -9t-9.5 -10q-20 5 -31 19zM236 760l-9 -46q-2 -9 -14 -10t-34 -1l-17 8q-35 16 -38.5 39t12.5 49q2 6 10 10t13 5l31 2q10 -3 12 -3.5t2 -2.5
q0 -1 7.5 -3.5t9.5 -4.5q4 -4 8 -13.5t9 -11.5l-38 -15q3 -4 6 -3.5t10 0.5q5 0 8 2.5t8 -0.5l1 -0.5t3 -0.5zM78 751q6 -14 -3 -19.5t-13 -11.5q-4 -9 -12.5 -10t-31.5 0l-18 8q-34 13 -34 39q0 9 4 19t10 21q2 6 10 10t13 4l28 2q9 -2 11.5 -2.5t2.5 -2.5t6.5 -4.5
t8.5 -4.5q5 -4 9 -12.5t9 -13.5l-8 -11q0 -1 3 -6t5 -5z" />
    <glyph glyph-name="FL00D0h" unicode="&#xd0;" horiz-adv-x="427" 
d="M24 293v8q0 6 1 7q0 2 4.5 4t10.5 4t11 4t6 4h-30q-5 0 -5 1q-1 9 4.5 10.5t10.5 1.5v4q-12 0 -21.5 4t-9.5 19q0 5 3.5 12.5t8.5 9.5l35 8q1 0 10.5 0.5t23.5 1.5q8 6 10 11t2 7l-17 18v9q0 7 1 14.5t2.5 14.5t3.5 10q0 1 3 7t3 7v7h-10q-11 0 -25.5 2t-14.5 9q0 1 3 8
t3 9v1q0 2 -1 3t1 3l14 13l-13 12q-2 2 -1 4.5t0 3.5q3 5 8.5 6t5.5 7v3q0 2 -3 8l-6.5 13t-6 12.5t-0.5 7.5q9 11 33.5 17.5t52 10t52 4.5t34.5 1l27 -2q4 0 12 0.5t13 1.5h4q22 -6 38.5 -11.5t34.5 -18.5q18 -12 25 -20t10 -27q14 -47 18 -74t7 -47q0 -8 0.5 -17.5
t0.5 -19.5q0 -30 -1.5 -69.5t-6 -81.5t-12 -83t-19.5 -73.5t-29 -53.5t-40 -23l-46 -12q-1 4 1 5t0 1l-38 22l-2 -24l-4 -0.5t-6 0.5q-8 1 -17.5 0t-18.5 -1q-8 0 -14.5 2t-6.5 8q0 2 -3 12t-3 12v6q0 4 -1.5 7.5t-7.5 6.5q-7 0 -6 -11.5t1 -19.5q0 -6 -2 -8h-3l-7 2h-8
q-2 -1 -4 -3t-4 0q-6 7 -11.5 17t-10 20t-7 18.5t-2.5 12.5v6q0 5 -0.5 8.5t-0.5 6.5v3l3 155zM212 150q0 -2 0.5 -7t5.5 -6q5 1 12.5 6.5t14 12.5t11.5 14.5t5 12.5l16 278v9q-2 17 -14 31t-16 32q-1 0 -4.5 2t-5.5 3h3q-6 0 -15 1t-18 2.5t-15.5 2.5t-7.5 0
q-5 -2 -6.5 -2.5t-1.5 -5.5v-3q9 0 15 -6t9.5 -15t5.5 -19t3 -18q1 -10 4.5 -30t0.5 -46l23 -1q-1 -9 -1 -15v-8v-6h-1q-1 0 -4 -8q0 -11 -3 -14t3 -3t6 -8q0 -12 -4.5 -17t-12.5 -17q-3 -4 -8.5 -5t-10.5 -2q-1 -21 -0.5 -42.5t2 -41t4 -35.5t5.5 -26z" />
    <glyph glyph-name="FL00D1h" unicode="&#xd1;" horiz-adv-x="388" 
d="M106 77l-19 -25q-8 0 -13 -8.5t-13 -8.5q-7 0 -10 9.5t-3 14.5v4l4 38v4v4l-8 77l5 302q-14 24 -26 54.5t-12 59.5q0 1 5 8.5t12 15t13 13t8 3.5l30 -33q6 0 7 8t1 18t2 18t9 8h5q2 0 11.5 -1.5t11.5 -1.5q28 -40 53 -81.5t47 -84.5l-2 -19l9 19q0 1 1 10t2.5 20.5l3 23
t1.5 19.5q1 1 1 11t5 13l32 18l-29 8q-5 2 -7 12.5t-2 18.5v8q2 4 11 10.5t12 6.5q1 0 1 -1v-1q-1 -1 -1 -5v-4q0 -8 3.5 -10.5t5.5 -4.5q6 -2 23 -2.5t35 -2.5t32 -6.5t14 -13.5q0 -2 -0.5 -4.5t-0.5 -4.5q-1 -9 -3 -32t-4.5 -48.5t-4.5 -48.5t-3 -32l7 -88v-316l-2.5 -3
t-4.5 -4q-3 -2 -10.5 -5t-9.5 -3q-5 0 -11 6.5t-11.5 15t-10 16t-6.5 9.5l-15 -16v-19q0 -2 -4.5 -3.5t-6.5 -1.5q-16 0 -28 14.5t-15 29.5l-23 141l-22 66h-3q0 -39 -1 -79t-1 -79v-17q0 -12 -1 -23t-3 -28q-1 -1 -2 -2.5t-2 -1.5h-2h-2q-1 0 -4 2l-3 2q-5 0 -6 -5.5
t-2 -12.5t-3 -12.5t-7 -5.5q-1 0 -1.5 0.5l-0.5 0.5q-2 7 -6 13.5t-10 9.5q-6 -2 -7 -8t-1 -13t-1 -12.5t-9 -5.5q-7 0 -8 9t0.5 20.5t3 22t0.5 13.5zM223 707h-11q-5 2 -11 8.5t-12 14l-12 15t-10 11.5l-14 -4q-5 -2 -10 -8.5t-10 -14t-10 -14.5t-9 -9q-20 0 -35.5 6
t-15.5 15q0 2 2 4q4 4 9 4.5t7 2.5q1 0 1 3l-6 17l8 20q0 2 -2 4v1q0 2 4.5 5t10 7t10 7.5t4.5 6.5q0 1 1.5 4.5t1.5 5.5v2l31 16q7 4 13 4h3q1 1 7 1h16q5 -2 11 -8.5t12 -14l12 -15t10 -11.5l14 4q5 2 10 8.5t9.5 14.5t9.5 14.5t10 8.5q20 0 35.5 -6t15.5 -15q0 -2 -2 -4
q-4 -4 -9 -4.5t-7 -2.5q-1 0 -1 -3l6 -17l-8 -20q0 -2 2 -4v-1q0 -2 -4.5 -5.5t-10 -7t-10 -7t-4.5 -6.5q0 -1 -1.5 -4.5t-1.5 -5.5v-2l-31 -16q-7 -4 -13 -4h-3q-1 -1 -12 -1z" />
    <glyph glyph-name="FL00D2h" unicode="&#xd2;" 
d="M3 412q0 17 8 36.5t4 35.5q1 4 4.5 13t7 19.5t7 19.5t4.5 13q5 13 9.5 21.5t9 15.5t10.5 14t14 18q1 2 5 12t6 12q11 10 31.5 18.5t43.5 14.5t44.5 9.5t35.5 3.5q15 0 15 -14q0 -10 -8.5 -15t-8.5 -14q0 -5 5 -7.5t11 -4t11.5 -3t7.5 -4.5l19 -31q6 -8 8 -12t3.5 -8
t3.5 -9t8 -13q6 -9 10.5 -14t7.5 -10t4.5 -12t1.5 -19q0 -17 -2 -34.5t-2 -35.5v-2q0 -5 2.5 -21.5t5 -36t5 -36.5t2.5 -21v-3q0 -2 0.5 -5t0.5 -7v-4v-4q0 -2 -0.5 -5.5t-0.5 -5.5v-4q-3 -5 -9.5 -7t-6.5 -8q0 -8 7 -12t9 -12q0 -4 2 -18t2 -20q0 -19 -12.5 -42.5
t-29 -46.5t-34 -43.5t-27.5 -33.5l-0.5 -1t-0.5 -2q0 -5 2.5 -8t2.5 -8q0 -8 -16.5 -10t-31.5 -2h-15q-8 0 -24.5 3t-34.5 8.5t-33 12.5t-19 15q-8 14 -22 28t-16 30v6v12v10v6q-1 6 -5.5 10t-6.5 10q-1 3 -3.5 11t-5 16.5t-4.5 16t-2 9.5q-5 23 -7 45.5t-2 45.5t0.5 45
t-3.5 45q0 2 -3.5 8t-3.5 7t-0.5 5.5t-0.5 7.5zM134 216q0 -4 5 -14.5t12 -22t13 -20.5t9 -9q6 0 11.5 8.5t7.5 10.5q1 2 4.5 8t8 13t8.5 13t6 8v6q0 42 -3 79t-1 80q-2 7 -3.5 17t-2.5 20t-1.5 19t-0.5 14q0 2 2 13t2 13v2q0 2 0.5 4t0.5 4v3q0 12 -7 19t-14.5 11t-13.5 7
t-4 8h-8q-2 0 -3 -2t0 -10l-24 -68v-7q0 -12 4 -24t4 -25q0 -45 -6 -89t-6 -89zM206 824q-2 -2 0.5 -6.5t2.5 -5.5q0 -3 5 -7.5t11 -8t10 -7t3 -4.5q-5 -5 0.5 -12t5.5 -12l-6 -17q0 -3 1 -3q2 -2 7 -2.5t9 -4.5q2 -2 2 -4q0 -9 -15.5 -15t-35.5 -6q-9 5 -23.5 10.5
t-22.5 13.5q-22 20 -35 39.5t-3 39.5l6 12q18 16 27.5 19t19.5 -3z" />
    <glyph glyph-name="FL00D3h" unicode="&#xd3;" 
d="M3 412q0 17 8 36.5t4 35.5q1 4 4.5 13t7 19.5t7 19.5t4.5 13q5 13 9.5 21.5t9 15.5t10.5 14t14 18q1 2 5 12t6 12q11 10 31.5 18.5t43.5 14.5t44.5 9.5t35.5 3.5q15 0 15 -14q0 -10 -8.5 -15t-8.5 -14q0 -5 5 -7.5t11 -4t11.5 -3t7.5 -4.5l19 -31q6 -8 8 -12t3.5 -8
t3.5 -9t8 -13q6 -9 10.5 -14t7.5 -10t4.5 -12t1.5 -19q0 -17 -2 -34.5t-2 -35.5v-2q0 -5 2.5 -21.5t5 -36t5 -36.5t2.5 -21v-3q0 -2 0.5 -5t0.5 -7v-4v-4q0 -2 -0.5 -5.5t-0.5 -5.5v-4q-3 -5 -9.5 -7t-6.5 -8q0 -8 7 -12t9 -12q0 -4 2 -18t2 -20q0 -19 -12.5 -42.5
t-29 -46.5t-34 -43.5t-27.5 -33.5l-0.5 -1t-0.5 -2q0 -5 2.5 -8t2.5 -8q0 -8 -16.5 -10t-31.5 -2h-15q-8 0 -24.5 3t-34.5 8.5t-33 12.5t-19 15q-8 14 -22 28t-16 30v6v12v10v6q-1 6 -5.5 10t-6.5 10q-1 3 -3.5 11t-5 16.5t-4.5 16t-2 9.5q-5 23 -7 45.5t-2 45.5t0.5 45
t-3.5 45q0 2 -3.5 8t-3.5 7t-0.5 5.5t-0.5 7.5zM134 216q0 -4 5 -14.5t12 -22t13 -20.5t9 -9q6 0 11.5 8.5t7.5 10.5q1 2 4.5 8t8 13t8.5 13t6 8v6q0 42 -3 79t-1 80q-2 7 -3.5 17t-2.5 20t-1.5 19t-0.5 14q0 2 2 13t2 13v2q0 2 0.5 4t0.5 4v3q0 12 -7 19t-14.5 11t-13.5 7
t-4 8h-8q-2 0 -3 -2t0 -10l-24 -68v-7q0 -12 4 -24t4 -25q0 -45 -6 -89t-6 -89zM183 820l31 16q10 6 19.5 3t27.5 -19l6 -12q10 -20 -3 -39.5t-35 -39.5q-8 -8 -22.5 -13.5t-23.5 -10.5q-20 0 -35.5 6t-15.5 15q0 2 2 4q4 4 9 4.5t7 2.5q1 0 1 3l-6 17q0 5 5.5 12t0.5 12
q-2 1 2.5 4t10.5 7.5t11 8.5t5 7q0 1 2.5 5.5t0.5 6.5z" />
    <glyph glyph-name="FL00D4h" unicode="&#xd4;" 
d="M134 216q0 45 6 89t6 89q0 13 -4 25t-4 24v7l24 68q-1 8 0 10t3 2h8q-2 -5 4 -8t13.5 -7t14.5 -11t7 -19v-3q0 -2 -0.5 -4t-0.5 -4v-2q0 -2 -2 -13t-2 -13q0 -5 0.5 -14t1.5 -19t2.5 -20t3.5 -17q-2 -43 1 -80t3 -79v-6q-2 -2 -6 -8t-8.5 -13t-8 -13t-4.5 -8
q-2 -2 -7.5 -10.5t-11.5 -8.5q-3 0 -9 9t-13 20.5t-12 22t-5 14.5zM3 412q0 -3 0.5 -7.5t0.5 -5.5t3.5 -7t3.5 -8q4 -23 3.5 -45t-0.5 -45t2 -45.5t7 -45.5q0 -2 2 -9.5t4.5 -16t5 -16.5t3.5 -11q2 -6 6.5 -10t5.5 -10v-6v-10v-12v-6q2 -16 16 -30t22 -28q4 -8 19 -15
t33 -12.5t34.5 -8.5t24.5 -3h15q15 0 31.5 2t16.5 10q0 5 -2.5 8t-2.5 8q0 1 0.5 2l0.5 1q10 13 27.5 33.5t34 43.5t29 46.5t12.5 42.5q0 6 -2 20t-2 18q-2 8 -9 12t-7 12q0 6 6.5 8t9.5 7v4q0 2 0.5 5.5t0.5 5.5v4v4q0 4 -0.5 7t-0.5 5v3q0 4 -2.5 21t-5 36.5t-5 36
t-2.5 21.5v2q0 18 2 35.5t2 34.5q0 12 -1.5 19t-4.5 12t-7.5 10t-10.5 14q-6 8 -8 13t-3.5 9t-3.5 8t-8 12l-19 31q-2 3 -7.5 4.5t-11.5 3t-11 4t-5 7.5q0 9 8.5 14t8.5 15q0 14 -15 14q-14 0 -35.5 -3.5t-44.5 -9.5t-43.5 -14.5t-31.5 -18.5q-2 -2 -6 -12t-5 -12
q-8 -11 -14 -18t-10.5 -14t-9 -15.5t-9.5 -21.5q-1 -4 -4.5 -13t-7 -19.5t-7 -19.5t-4.5 -13q4 -16 -4 -35.5t-8 -36.5zM260 782l-61 59q-7 4 -13 4t-7 -1h-3q-6 0 -13 -4l-31 -16v-2q0 -2 -1.5 -5.5t-1.5 -4.5q0 -3 -4.5 -6.5t-10 -7.5t-10 -7t-4.5 -5v-1q2 -2 2 -4l-8 -20
l6 -17q0 -3 -1 -3q-2 -2 -7 -2.5t-9 -4.5q-2 -2 -2 -4q0 -9 15.5 -15t35.5 -6q4 2 9 9t10 14.5t10 14t10 8.5l14 4q4 -4 10 -11.5l12 -15t12 -14t11 -8.5q20 0 35.5 6t15.5 15q0 6 -3.5 8t-3.5 12q0 6 1 7z" />
    <glyph glyph-name="FL00D5h" unicode="&#xd5;" 
d="M3 412q0 17 8 36.5t4 35.5q1 4 4.5 13t7 19.5t7 19.5t4.5 13q5 13 9.5 21.5t9 15.5t10.5 14t14 18q1 2 5 12t6 12q11 10 31.5 18.5t43.5 14.5t44.5 9.5t35.5 3.5q15 0 15 -14q0 -10 -8.5 -15t-8.5 -14q0 -5 5 -7.5t11 -4t11.5 -3t7.5 -4.5l19 -31q6 -8 8 -12t3.5 -8
t3.5 -9t8 -13q6 -9 10.5 -14t7.5 -10t4.5 -12t1.5 -19q0 -17 -2 -34.5t-2 -35.5v-2q0 -5 2.5 -21.5t5 -36t5 -36.5t2.5 -21v-3q0 -2 0.5 -5t0.5 -7v-8q0 -2 -0.5 -5.5t-0.5 -5.5v-4q-3 -5 -9.5 -7t-6.5 -8q0 -8 7 -12t9 -12q0 -4 2 -18t2 -20q0 -19 -12.5 -42.5t-29 -46.5
t-34 -43.5t-27.5 -33.5l-0.5 -1t-0.5 -2q0 -5 2.5 -8t2.5 -8q0 -8 -16.5 -10t-31.5 -2h-15q-8 0 -24.5 3t-34.5 8.5t-33 12.5t-19 15q-8 14 -22 28t-16 30v34q-1 6 -5.5 10t-6.5 10q-1 3 -3.5 11t-5 16.5t-4.5 16t-2 9.5q-5 23 -7 45.5t-2 45.5t0.5 45t-3.5 45q0 2 -3.5 8
t-3.5 7t-0.5 5.5t-0.5 7.5zM134 216q0 -4 5 -14.5t12 -22t13 -20.5t9 -9q6 0 11.5 8.5t7.5 10.5q1 2 4.5 8t8 13t8.5 13t6 8v6q0 42 -3 79t-1 80q-2 7 -3.5 17t-2.5 20t-1.5 19t-0.5 14q0 2 2 13t2 13v2q0 2 0.5 4t0.5 4v3q0 12 -7 19t-14.5 11t-13.5 7t-4 8h-8q-2 0 -3 -2
t0 -10l-24 -68v-7q0 -12 4 -24t4 -25q0 -45 -6 -89t-6 -89zM212 710h-11q-5 2 -11 8.5t-12 14l-12 15t-10 11.5l-14 -4q-5 -2 -10 -8.5t-10 -14t-10 -14.5t-9 -9q-20 0 -35.5 6t-15.5 15q0 2 2 4q4 4 9 4.5t7 2.5q1 0 1 3l-6 17l8 20q0 2 -2 4v1q0 2 4.5 5t10 7t10 7.5
t4.5 6.5q0 1 1.5 4.5t1.5 5.5v2l31 16q7 4 13 4h3q1 1 7 1h16q5 -2 11 -8.5t12 -14l12 -15t10 -11.5l14 4q5 2 10 8.5t9.5 14.5t9.5 14.5t10 8.5q20 0 35.5 -6t15.5 -15q0 -2 -2 -4q-4 -4 -9 -4.5t-7 -2.5q-1 0 -1 -3l6 -17l-8 -20q0 -2 2 -4v-1q0 -2 -4.5 -5.5t-10 -7
t-10 -7t-4.5 -6.5q0 -1 -1.5 -4.5t-1.5 -5.5v-2l-31 -16q-7 -4 -13 -4h-3q-1 -1 -12 -1z" />
    <glyph glyph-name="FL00D6h" unicode="&#xd6;" 
d="M3 412q0 17 8 36.5t4 35.5q1 4 4.5 13t7 19.5t7 19.5t4.5 13q5 13 9.5 21.5t9 15.5t10.5 14t14 18q1 2 5 12t6 12q11 10 31.5 18.5t43.5 14.5t44.5 9.5t35.5 3.5q15 0 15 -14q0 -10 -8.5 -15t-8.5 -14q0 -5 5 -7.5t11 -4t11.5 -3t7.5 -4.5l19 -31q6 -8 8 -12t3.5 -8
t3.5 -9t8 -13q6 -9 10.5 -14t7.5 -10t4.5 -12t1.5 -19q0 -17 -2 -34.5t-2 -35.5v-2q0 -5 2.5 -21.5t5 -36t5 -36.5t2.5 -21v-3q0 -2 0.5 -5t0.5 -7v-4v-4q0 -2 -0.5 -5.5t-0.5 -5.5v-4q-3 -5 -9.5 -7t-6.5 -8q0 -8 7 -12t9 -12q0 -4 2 -18t2 -20q0 -19 -12.5 -42.5
t-29 -46.5t-34 -43.5t-27.5 -33.5l-0.5 -1t-0.5 -2q0 -5 2.5 -8t2.5 -8q0 -8 -16.5 -10t-31.5 -2h-15q-8 0 -24.5 3t-34.5 8.5t-33 12.5t-19 15q-8 14 -22 28t-16 30v6v12v10v6q-1 6 -5.5 10t-6.5 10q-1 3 -3.5 11t-5 16.5t-4.5 16t-2 9.5q-5 23 -7 45.5t-2 45.5t0.5 45
t-3.5 45q0 2 -3.5 8t-3.5 7t-0.5 5.5t-0.5 7.5zM134 216q0 -4 5 -14.5t12 -22t13 -20.5t9 -9q6 0 11.5 8.5t7.5 10.5q1 2 4.5 8t8 13t8.5 13t6 8v6q0 42 -3 79t-1 80q-2 7 -3.5 17t-2.5 20t-1.5 19t-0.5 14q0 2 2 13t2 13v2q0 2 0.5 4t0.5 4v3q0 12 -7 19t-14.5 11t-13.5 7
t-4 8h-8q-2 0 -3 -2t0 -10l-24 -68v-7q0 -12 4 -24t4 -25q0 -45 -6 -89t-6 -89zM317 776l-9 -46q-2 -9 -14 -10t-34 -1l-17 8q-35 16 -38.5 39t12.5 49q2 6 10 10t13 5l31 2q10 -3 12 -3.5t2 -2.5q0 -1 7.5 -3.5t9.5 -4.5q4 -4 8 -13.5t9 -11.5l-38 -15q3 -4 6 -3.5t10 0.5
q5 0 8 2.5t8 -0.5l1 -0.5t3 -0.5zM159 767q6 -14 -3 -19.5t-13 -11.5q-4 -9 -12.5 -10t-31.5 0l-18 8q-34 13 -34 39q0 9 4 19t10 21q2 6 10 10t13 4l28 2q9 -2 11.5 -2.5t2.5 -2.5t6.5 -4.5t8.5 -4.5q5 -4 9 -12.5t9 -13.5l-8 -11q0 -1 3 -6t5 -5z" />
    <glyph glyph-name="FL00D7h" unicode="&#xd7;" horiz-adv-x="355" 
d="M190 272l-14 14l-75 -75l-6 6q-4 4 -4 5q-2 1 0 6t4.5 10.5t5 10.5t1.5 7l-3 -3l-9 -9l-9 -9q-3 -3 -4 -3q-7 6 -7.5 16.5t3.5 14.5l-2 3q-9 -9 -18.5 -13t-20.5 7q-4 4 -6.5 11.5t-0.5 12.5l19 30q1 1 14.5 15t33.5 36l-70 70l6 6q4 4 6 4q1 1 6 -0.5t10.5 -4.5t10.5 -5
t7 -1l-3.5 4.5t-8 10.5t-8 11t-2.5 6q6 7 15 4t13 -7l3 3q-8 8 -12.5 17.5t6.5 20.5q4 4 11.5 6.5t12.5 0.5l31 -19l44 -45l17 17l73 73q12 -14 12 -22q0 -5 -3 -9l-6 -8t-5 -8t1 -9q8 -8 15.5 -4t11.5 9q5 4 10 -2q8 -8 11.5 -20.5t6.5 -26.5q0 -11 -8.5 -18t-10.5 -18
l-27 -24l-12 -12q4 -2 12 -10q4 -4 8 -6l61 -52q-14 -12 -19.5 -15t-8.5 -2.5t-6 1.5t-11 -3q-8 -8 -4 -15.5t9 -12.5q4 -4 -2 -10q-8 -8 -19.5 -9.5t-25.5 -4.5q-11 0 -18 8.5t-18 10.5z" />
    <glyph glyph-name="FL00D8h" unicode="&#xd8;" horiz-adv-x="351" 
d="M340 279q0 -8 -2.5 -16.5t-4.5 -17t-3.5 -17t0.5 -15.5q-1 -3 -4 -11.5t-7 -18t-7 -18t-4 -11.5q-5 -12 -9.5 -20t-9 -14.5t-9.5 -13t-12 -16.5q-1 -2 -4.5 -11t-5.5 -11q-20 -18 -63 -18q-19 0 -39.5 3.5t-39.5 11.5q-11 5 -20 7.5t-13 10.5l-17 27q-5 7 -7 11t-3.5 8
t-3.5 8.5t-8 12.5t-10 12.5t-7 9.5t-4 11.5t-1 17.5q0 16 2 31.5t2 31.5v2q0 4 -2 19.5t-5 33.5t-5 33.5t-2 19.5v3q0 2 -0.5 4.5t-0.5 6.5v7q0 2 0.5 5t0.5 5v4q3 5 9 6.5t6 6.5q0 8 -6.5 11.5t-8.5 10.5q0 4 -2 17t-2 18q0 18 11.5 39.5t27 42.5t31.5 39.5t26 30.5l0.5 1
t0.5 2q0 19 11.5 22.5t28.5 3.5h13q7 0 23 -3t33 -7.5t31 -11.5t17 -14q8 -13 20.5 -25.5t14.5 -27.5v-21q17 -18 15 -42q4 -10 7 -21.5t3 -13.5q5 -22 7 -42t2 -42q0 -20 -0.5 -40.5t2.5 -42.5q0 -2 3.5 -7t3.5 -6v-12zM152 261q-1 -1 -1 -2l-1 -1q1 -3 1 -11
q0 -2 -2 -11.5t-2 -11.5v-1q0 -2 -0.5 -4t-0.5 -4v-3q0 -11 6 -17.5t13.5 -10t13 -6.5t4.5 -7h7q2 0 3 1.5t0 9.5l22 62v6q0 11 -3.5 22.5t-3.5 22.5v24q0 6 0.5 12t1.5 11zM207 485q-7 12 -14.5 23t-9.5 11q-6 0 -11 -7.5t-7 -9.5q-1 -2 -4.5 -7.5t-7 -11.5t-7.5 -12t-6 -8
v-6q0 -17 0.5 -31.5t1.5 -29.5q24 30 39.5 51.5t25.5 37.5z" />
    <glyph glyph-name="FL00D9h" unicode="&#xd9;" horiz-adv-x="377" 
d="M206 824q-2 -2 0.5 -6.5t2.5 -5.5q0 -3 5 -7.5t11 -8t10 -7t3 -4.5q-5 -5 0.5 -12t5.5 -12l-6 -17q0 -3 1 -3q2 -2 7 -2.5t9 -4.5q2 -2 2 -4q0 -9 -15.5 -15t-35.5 -6q-9 5 -23.5 10.5t-22.5 13.5q-22 20 -35 39.5t-3 39.5l6 12q18 16 27.5 19t19.5 -3zM12 491q1 1 2 12
t2 19v7l8 92q5 5 7 10.5t4.5 11t7.5 11t16 9.5l0.5 -6t1 -12.5t1 -11t2.5 -1.5l14 28l9 -19l2 23q7 -5 11 -8.5t7 -13.5l4 -14l16 28h4q4 -5 9 -11t7 -12q2 -27 3 -48t1 -45q0 -57 -4.5 -111.5t-9.5 -111.5q8 -10 5 -27.5t-3 -29.5v-7l24 -68q1 -6 5.5 -13.5t10.5 -7.5v2
q0 3 -1 3l-4 4l-0.5 0.5t-0.5 1.5q0 4 6 7t13.5 7t14 10.5t6.5 18.5v3q0 2 -0.5 4t-0.5 4v2q0 1 2 6t4 11t4 11t2 6q0 11 -3 26.5t1 29.5q-1 14 -0.5 27t3.5 24l-7 106l13 -7l-4 22q0 1 1 9.5t2.5 20t3 23.5t1.5 20q1 1 1 17v48q0 18 -1 19q3 5 10.5 9t13.5 6q5 1 10.5 -9.5
t7.5 -12.5q6 -2 19.5 1t28 3.5t27.5 -4t19 -22.5q1 -2 0 -4.5t-1 -4.5q-1 -9 -3 -32t-4.5 -48.5t-4.5 -48.5t-3 -32l4 -57l-17 8l20 -39q-8 -64 -18 -119q1 -10 2 -19.5t1 -19.5q0 -12 -1.5 -19t-4 -12t-7 -10t-10.5 -13q-11 -45 -21 -69t-14 -19h-8v-19q0 -2 -4.5 -3.5
t-6.5 -1.5t-4 5t-4 11.5t-4 12.5t-4 7q0 -1 -0.5 -6.5t-1 -11.5t-1 -11.5t-0.5 -6.5q0 -3 -4 -4t-9 0t-11 2t-10 1q-6 0 -6 -5q0 -14 -15 -14q-39 0 -77 23v-10l-3 11q-7 4 -12.5 8.5t-10.5 9.5q-2 2 -6 12t-5 12l-14 17.5t-11 14.5t-9 15.5t-9 21.5q-1 4 -4.5 13t-7 19.5
t-7 19.5t-4.5 13q13 8 15.5 11t-0.5 4.5t-8.5 2.5t-9.5 6q-2 2 -0.5 7t1.5 6l-0.5 10t-0.5 21q0 12 -0.5 21.5t-0.5 10.5q4 23 3.5 45t-0.5 45z" />
    <glyph glyph-name="FL00DAh" unicode="&#xda;" horiz-adv-x="377" 
d="M12 491q1 1 2 12t2 19v7l8 92q5 5 7 10.5t4.5 11t7.5 11t16 9.5l0.5 -6t1 -12.5t1 -11t2.5 -1.5l14 28l9 -19l2 23q7 -5 11 -8.5t7 -13.5l4 -14l16 28h4q4 -5 9 -11t7 -12q2 -27 3 -48t1 -45q0 -57 -4.5 -111.5t-9.5 -111.5q8 -10 5 -27.5t-3 -29.5v-7l24 -68
q1 -6 5.5 -13.5t10.5 -7.5v2q0 3 -1 3l-4 4l-0.5 0.5t-0.5 1.5q0 4 6 7t13.5 7t14 10.5t6.5 18.5v3q0 2 -0.5 4t-0.5 4v2q0 1 2 6t4 11t4 11t2 6q0 11 -3 26.5t1 29.5q-1 14 -0.5 27t3.5 24l-7 106l13 -7l-4 22q0 1 1 9.5t2.5 20t3 23.5t1.5 20q1 1 1 17v48q0 18 -1 19
q3 5 10.5 9t13.5 6q5 1 10.5 -9.5t7.5 -12.5q6 -2 19.5 1t28 3.5t27.5 -4t19 -22.5q1 -2 0 -4.5t-1 -4.5q-1 -9 -3 -32t-4.5 -48.5t-4.5 -48.5t-3 -32l4 -57l-17 8l20 -39q-8 -64 -18 -119q1 -10 2 -19.5t1 -19.5q0 -12 -1.5 -19t-4 -12t-7 -10t-10.5 -13q-11 -45 -21 -69
t-14 -19h-8v-19q0 -2 -4.5 -3.5t-6.5 -1.5t-4 5t-4 11.5t-4 12.5t-4 7q0 -1 -0.5 -6.5t-1 -11.5t-1 -11.5t-0.5 -6.5q0 -3 -4 -4t-9 0t-11 2t-10 1q-6 0 -6 -5q0 -14 -15 -14q-39 0 -77 23v-10l-3 11q-7 4 -12.5 8.5t-10.5 9.5q-2 2 -6 12t-5 12l-14 17.5t-11 14.5t-9 15.5
t-9 21.5q-1 4 -4.5 13t-7 19.5t-7 19.5t-4.5 13q13 8 15.5 11t-0.5 4.5t-8.5 2.5t-9.5 6q-2 2 -0.5 7t1.5 6l-0.5 10t-0.5 21q0 12 -0.5 21.5t-0.5 10.5q4 23 3.5 45t-0.5 45zM176 824l31 16q10 6 19.5 3t27.5 -19l6 -12q10 -20 -3 -39.5t-35 -39.5q-8 -8 -22.5 -13.5
t-23.5 -10.5q-20 0 -35.5 6t-15.5 15q0 2 2 4q4 4 9 4.5t7 2.5q1 0 1 3l-6 17q0 5 5.5 12t0.5 12q-2 1 2.5 4t10.5 7.5t11 8.5t5 7q0 1 2.5 5.5t0.5 6.5z" />
    <glyph glyph-name="FL00DBh" unicode="&#xdb;" horiz-adv-x="377" 
d="M213 841l61 -59l15 -24q-1 -1 -1 -7q0 -10 3.5 -12t3.5 -8q0 -9 -15.5 -15t-35.5 -6q-5 2 -11 8.5t-12 14l-12 15t-10 11.5l-14 -4q-5 -2 -10 -8.5t-10 -14t-10 -14.5t-9 -9q-20 0 -35.5 6t-15.5 15q0 2 2 4q4 4 9 4.5t7 2.5q1 0 1 3l-6 17l8 20q0 2 -2 4v1q0 2 4.5 5
t10 7t10 7.5t4.5 6.5q0 1 1.5 4.5t1.5 5.5v2l31 16q7 4 13 4h3q1 1 7 1t13 -4zM15 409l-3 82q1 1 2 12t2 19v7l8 92q5 5 7 10.5t4.5 11t7.5 11t16 9.5l0.5 -6t1 -12.5t1 -11t2.5 -1.5l14 28l9 -19l2 23q7 -5 11 -8.5t7 -13.5l4 -14l16 28h4q4 -5 9 -11t7 -12q2 -27 3 -48
t1 -45q0 -57 -4.5 -111.5t-9.5 -111.5q8 -10 5 -27.5t-3 -29.5v-7l24 -68q1 -6 5.5 -13.5t10.5 -7.5v2q0 3 -1 3l-4 4l-0.5 0.5t-0.5 1.5q0 4 6 7t13.5 7t14 10.5t6.5 18.5v3q0 2 -0.5 4t-0.5 4v2q0 1 2 6t4 11t4 11t2 6q0 11 -3 26.5t1 29.5q-1 14 -0.5 27t3.5 24l-7 106
l13 -7l-4 22q0 1 1 9.5t2.5 20t3 23.5t1.5 20q1 1 1 17v48q0 18 -1 19q3 5 10.5 9t13.5 6q5 1 10.5 -9.5t7.5 -12.5q6 -2 19.5 1t28 3.5t27.5 -4t19 -22.5q1 -2 0 -4.5t-1 -4.5q-1 -9 -3 -32t-4.5 -48.5t-4.5 -48.5t-3 -32l4 -57l-17 8l20 -39q-8 -64 -18 -119
q1 -10 2 -19.5t1 -19.5q0 -12 -1.5 -19t-4 -12t-7 -10t-10.5 -13q-11 -45 -21 -69t-14 -19h-8v-19q0 -2 -4.5 -3.5t-6.5 -1.5t-4 5t-4 11.5t-4 12.5t-4 7q0 -1 -0.5 -6.5t-1 -11.5t-1 -11.5t-0.5 -6.5q0 -3 -4 -4t-9 0t-11 2t-10 1q-6 0 -6 -5q0 -14 -15 -14q-39 0 -77 23
v-10l-3 11q-7 4 -12.5 8.5t-10.5 9.5q-2 2 -6 12t-5 12l-14 17.5t-11 14.5t-9 15.5t-9 21.5q-1 4 -4.5 13t-7 19.5t-7 19.5t-4.5 13q13 8 15.5 11t-0.5 4.5t-8.5 2.5t-9.5 6q-2 2 -0.5 7t1.5 6l-0.5 10t-0.5 21q0 12 -0.5 21.5t-0.5 10.5q4 23 3.5 45t-0.5 45z" />
    <glyph glyph-name="FL00DCh" unicode="&#xdc;" horiz-adv-x="377" 
d="M12 491q1 1 2 12t2 19v7l8 92q5 5 7 10.5t4.5 11t7.5 11t16 9.5l0.5 -6t1 -12.5t1 -11t2.5 -1.5l14 28l9 -19l2 23q7 -5 11 -8.5t7 -13.5l4 -14l16 28h4q4 -5 9 -11t7 -12q2 -27 3 -48t1 -45q0 -57 -4.5 -111.5t-9.5 -111.5q8 -10 5 -27.5t-3 -29.5v-7l24 -68
q1 -6 5.5 -13.5t10.5 -7.5v2q0 3 -1 3l-4 4l-0.5 0.5t-0.5 1.5q0 4 6 7t13.5 7t14 10.5t6.5 18.5v3q0 2 -0.5 4t-0.5 4v2q0 1 2 6t4 11t4 11t2 6q0 11 -3 26.5t1 29.5q-1 14 -0.5 27t3.5 24l-7 106l13 -7l-4 22q0 1 1 9.5t2.5 20t3 23.5t1.5 20q1 1 1 17v48q0 18 -1 19
q3 5 10.5 9t13.5 6q5 1 10.5 -9.5t7.5 -12.5q6 -2 19.5 1t28 3.5t27.5 -4t19 -22.5q1 -2 0 -4.5t-1 -4.5q-1 -9 -3 -32t-4.5 -48.5t-4.5 -48.5t-3 -32l4 -57l-17 8l20 -39q-8 -64 -18 -119q1 -10 2 -19.5t1 -19.5q0 -12 -1.5 -19t-4 -12t-7 -10t-10.5 -13q-11 -45 -21 -69
t-14 -19h-8v-19q0 -2 -4.5 -3.5t-6.5 -1.5t-4 5t-4 11.5t-4 12.5t-4 7q0 -1 -0.5 -6.5t-1 -11.5t-1 -11.5t-0.5 -6.5q0 -3 -4 -4t-9 0t-11 2t-10 1q-6 0 -6 -5q0 -14 -15 -14q-39 0 -77 23v-10l-3 11q-7 4 -12.5 8.5t-10.5 9.5q-2 2 -6 12t-5 12l-14 17.5t-11 14.5t-9 15.5
t-9 21.5q-1 4 -4.5 13t-7 19.5t-7 19.5t-4.5 13q13 8 15.5 11t-0.5 4.5t-8.5 2.5t-9.5 6q-2 2 -0.5 7t1.5 6l-0.5 10t-0.5 21q0 12 -0.5 21.5t-0.5 10.5q4 23 3.5 45t-0.5 45zM317 776l-9 -46q-2 -9 -14 -10t-34 -1l-17 8q-35 16 -38.5 39t12.5 49q2 6 10 10t13 5l31 2
q10 -3 12 -3.5t2 -2.5q0 -1 7.5 -3.5t9.5 -4.5q4 -4 8 -13.5t9 -11.5l-38 -15q3 -4 6 -3.5t10 0.5q5 0 8 2.5t8 -0.5l1 -0.5t3 -0.5zM159 767q6 -14 -3 -19.5t-13 -11.5q-4 -9 -12.5 -10t-31.5 0l-18 8q-34 13 -34 39q0 9 4 19t10 21q2 6 10 10t13 4l28 2q9 -2 11.5 -2.5
t2.5 -2.5t6.5 -4.5t8.5 -4.5q5 -4 9 -12.5t9 -13.5l-8 -11q0 -1 3 -6t5 -5z" />
    <glyph glyph-name="FL00DDh" unicode="&#xdd;" horiz-adv-x="353" 
d="M253 383v-1q-3 -16 -5.5 -30t-5.5 -28q3 -3 3 -6q5 -63 10.5 -123.5t5.5 -123.5v-17q-2 -1 -4.5 -4t-3.5 -4h-4l-16 8h-4q-1 -1 -7 -7.5t-8 -8.5q-1 0 -8 1.5t-15.5 4t-9.5 3.5q-1 0 -1.5 3t-2.5 5l-1.5 5.5t-2.5 6.5h-2q-3 0 -4.5 -5.5t-4 -12.5t-6.5 -12.5t-13 -5.5
l-4.5 2.5t-9.5 5t-10 4.5t-5 3q0 4 0.5 11.5t0.5 17.5v42q0 10 -0.5 17.5t-0.5 11.5q0 3 -0.5 11t-1.5 17t-1.5 16.5t-0.5 9.5q0 1 2.5 5.5t5 9.5l4.5 9t1 4l-20 10q-3 2 -3.5 14t3.5 16l29 29l-54 40v1q0 12 -9.5 28t-13.5 28q-3 18 -16 40t-17 40q0 4 -0.5 13t-1.5 19.5
t-1.5 20t-0.5 13.5q-1 19 -6 37t-5 38q0 3 0.5 6t4.5 3h3q0 -1 1.5 -2t1.5 -2l12 12h1q9 0 18.5 -3t17.5 -3q12 0 13.5 6.5t1.5 13.5q0 8 2 14.5t15 6.5q6 0 10.5 -6t8 -13.5t5.5 -15.5l3 -12q3 -12 8.5 -32.5t11.5 -40.5t10 -35.5t4 -18.5q1 -2 1.5 -6t2.5 -9l45 158
q3 12 14 12q7 0 18.5 -9.5t17.5 -17.5q2 4 1 12t-1.5 15.5t0 13.5t5.5 6q17 0 26 -6t22 -14h3q6 0 10.5 4.5t9.5 7.5q4 -4 4.5 -6.5t0.5 -7.5q0 -1 -0.5 -3t-0.5 -3q0 -3 -0.5 -12t-1.5 -18.5t-2 -17t-2 -8.5q-11 -51 -35 -104t-45 -97zM154 814l31 16q10 6 19.5 3t27.5 -19
l6 -12q10 -20 -3 -39.5t-35 -39.5q-8 -8 -22.5 -13.5t-23.5 -10.5q-20 0 -35.5 6t-15.5 15q0 2 2 4q4 4 9 4.5t7 2.5q1 0 1 3l-6 17q0 5 5.5 12t0.5 12q-2 1 2.5 4t10.5 7.5t11 8.5t5 7q0 1 2.5 5.5t0.5 6.5z" />
    <glyph glyph-name="FL00DEh" unicode="&#xde;" horiz-adv-x="375" 
d="M169 184l-5 -37l-2 -61q0 -4 -0.5 -14.5t-1.5 -12.5q0 -4 -4 -4l-4 -1q-1 -1 -3 -2t-2 -2l2 -32h-4q-5 0 -6 1l-7 1q-7 0 -14 -1.5t-12 -1.5q-11 0 -11 10q0 1 -0.5 6t-0.5 11v18q-1 1 -1.5 2t-2.5 2h-2q-5 0 -7 -4.5t-3 -10l-2 -11t-3 -7.5h-3l-7 3h-8q-2 -1 -3 -2.5
t-3 -1.5q-1 0 -2 1q-6 9 -11 19.5t-8.5 21t-6 19t-2.5 13.5v25l14 226q0 1 2.5 4.5t6 8t6 8.5t2.5 5v1q0 2 -0.5 6t-1.5 9l-28 34v7q0 5 0.5 9t0.5 7v4l7 34v7v5q0 4 1 8q-12 3 -12 10q0 1 3 8t3 9v1q0 2 -0.5 2.5t-0.5 1.5t2 3l8 8l1 10l-7 7q-2 2 -2 3t0.5 2t0.5 3v1
q2 3 8 5v29q-3 7 -6 13t-3 10q0 2 1 3q4 4 7 4v1q0 1 7 4t15 6.5t14.5 6.5l6.5 3q9 0 13 -5.5t6.5 -12.5t4 -12.5t4.5 -5.5h2q1 1 2.5 6.5l1.5 5.5q2 2 2.5 5t1.5 3q3 2 10.5 3t8.5 1l15 -16h4l16 8h4q1 -1 3.5 -4t4.5 -4v-17q0 -19 -0.5 -37t-1.5 -36l29 -3l25 1h4
q22 -7 38.5 -16t33.5 -23q17 -13 24 -22t9 -29q12 -50 15 -78t5 -50q0 -44 -8 -73t-24 -58q-17 -10 -35.5 -18.5t-41.5 -16.5l-46 -10v2q0 2 1 3l1 1h-1zM177 280v-1q0 -3 0.5 -7t5.5 -5q10 2 15 7t7 17l12 36v9q-1 18 -7.5 37.5t-9.5 37.5q-2 4 -6 6q-5 -2 -13 -3.5
t-15 -3.5q-1 -6 -1.5 -12t-0.5 -12q7 -9 9 -32z" />
    <glyph glyph-name="FL00DFh" unicode="&#xdf;" horiz-adv-x="412" 
d="M26 -92v35q-3 91 -5.5 178.5t-2.5 178.5v7q0 5 0.5 9t0.5 7v4q0 1 1 6t2.5 11t2.5 11t1 6q0 2 0.5 9.5t1.5 16.5t1.5 17t0.5 11q0 4 0.5 11.5t0.5 17.5v42q0 10 -0.5 17.5t-0.5 11.5q9 12 14 26t11.5 28.5t18 28.5t34.5 25q8 11 26 19t38.5 13t39 7t27.5 2l8 -19
q1 -2 6 0.5t11 6t11.5 7t8.5 3.5h4q10 -3 15 -5.5t8.5 -5.5t7.5 -7t13 -11q16 -13 22 -21.5t8 -27.5q11 -49 23.5 -80t14.5 -52q0 -18 -5.5 -31.5t-13 -24t-15.5 -18.5t-14 -17q17 -17 32.5 -49t15.5 -70q-2 -22 -4 -49t-13 -75q-2 -19 -8 -28t-22 -21q-17 -14 -31 -22.5
t-34 -14.5h-4q-4 0 -4.5 11t-0.5 16t-1 4l-39 -33q-4 -4 -13 -4q-7 0 -10 12.5t-3.5 30t0 36t0.5 29.5v14q0 7 7 5t30 4q7 2 8 6q2 18 8 37t7 36v9l-2 42q-1 6 -8 10t-16 6.5t-17.5 4t-12.5 2.5l-8 81l26 6q9 2 19 9.5t12 18.5l17 29v9q-1 17 -7.5 32.5t-9.5 32.5
q-1 1 -7.5 4t-8.5 4q-11 -2 -23 -5.5t-13 -4.5q-5 -1 -6 -2t-1 -6v-3q6 -4 -30 -10v-15q0 -63 -5.5 -123.5t-10.5 -123.5q-1 -12 -6.5 -20.5t-5.5 -19.5q0 -14 4.5 -29t7.5 -27v-93q0 -33 0.5 -72t-4.5 -74q-1 -4 -4 -4.5t-5 -0.5t-3.5 0.5t-3.5 0.5q-6 12 -11.5 16.5
t-16.5 4.5q-2 0 -5.5 -0.5t-4.5 -1.5l-3 -5t-4 -6q-2 -1 -10.5 -1.5t-8.5 -2.5q-3 -1 -10.5 -9t-9.5 -10q-20 5 -31 19zM103 499h-2h2z" />
    <glyph glyph-name="FL00E0h" unicode="&#xe0;" horiz-adv-x="337" 
d="M39 75h-3q0 -1 -1.5 -2.5l-1.5 -1.5v-39q0 -1 -1.5 -1.5t-2.5 -2.5h-2q-5 0 -9 10t-4 13q0 4 -0.5 11.5t-0.5 16.5q0 8 0.5 15.5t0.5 10.5q-4 4 -4 6v7v6q0 15 2.5 53t5 80t5 80t2.5 53q5 23 12.5 46t10.5 46q8 51 16 97t27 95q1 3 6.5 -3t12 -14.5t12.5 -16t8 -7.5
q3 0 4 7.5t1.5 16t1.5 15.5t3 6h77l15 7q2 1 3.5 -2.5t3 -8t2.5 -8.5t3 -4q4 -1 9.5 -0.5t10 -0.5t8 -4t3.5 -10v-96q0 -23 11.5 -44t15.5 -44q0 -12 1.5 -41.5t4 -62.5t4 -62.5t1.5 -41.5v-4q9 -48 13 -95.5t4 -96.5q-11 0 -23 4t-23 4q-3 0 -5 -4t-4 -8.5t-4.5 -8.5
t-6.5 -4t-5 7t-1.5 15.5t-1.5 15.5t-4 7q-1 0 -2.5 -4.5t-3.5 -9.5t-4 -9.5l-2 -4.5q0 -2 -3 -11.5t-5 -11.5q0 -3 -4 -4v-1h-1q-13 0 -18 19.5t-7.5 43t-4.5 43t-9 19.5h-23q-14 0 -17 -9v-48v-48q0 -6 -1.5 -17.5t-2.5 -12.5l-4 -4h-61l-19 19l-8 4q-3 3 -3.5 8.5
t-0.5 11.5t-1.5 10.5t-7.5 4.5zM152 293q0 -2 -0.5 -8t4.5 -7q10 1 22.5 5t12.5 17q0 2 2 4t2 4q-1 5 -2.5 17t-2.5 25.5t-2 25.5t-1 17q0 2 -0.5 8t-1.5 12t-2.5 11t-3.5 5q-7 0 -12 -20t-8.5 -44.5t-5 -46t-1.5 -25.5zM182 825q-2 -2 0.5 -6.5t2.5 -5.5q0 -3 5 -7.5t11 -8
t10 -7t3 -4.5q-5 -5 0.5 -12t5.5 -12l-6 -17q0 -3 1 -3q2 -2 7 -2.5t9 -4.5q2 -2 2 -4q0 -9 -15.5 -15t-35.5 -6q-9 5 -23.5 10.5t-22.5 13.5q-22 20 -35 39.5t-3 39.5l6 12q18 16 27.5 19t19.5 -3z" />
    <glyph glyph-name="FL00E1h" unicode="&#xe1;" horiz-adv-x="337" 
d="M39 75h-3q0 -1 -1.5 -2.5l-1.5 -1.5v-39q0 -1 -1.5 -1.5t-2.5 -2.5h-2q-5 0 -9 10t-4 13q0 4 -0.5 11.5t-0.5 16.5q0 8 0.5 15.5t0.5 10.5q-4 4 -4 6v7v6q0 15 2.5 53t5 80t5 80t2.5 53q5 23 12.5 46t10.5 46q8 51 16 97t27 95q1 3 6.5 -3t12 -14.5t12.5 -16t8 -7.5
q3 0 4 7.5t1.5 16t1.5 15.5t3 6h77l15 7q2 1 3.5 -2.5t3 -8t2.5 -8.5t3 -4q4 -1 9.5 -0.5t10 -0.5t8 -4t3.5 -10v-96q0 -23 11.5 -44t15.5 -44q0 -12 1.5 -41.5t4 -62.5t4 -62.5t1.5 -41.5v-4q9 -48 13 -95.5t4 -96.5q-11 0 -23 4t-23 4q-3 0 -5 -4t-4 -8.5t-4.5 -8.5
t-6.5 -4t-5 7t-1.5 15.5t-1.5 15.5t-4 7q-1 0 -2.5 -4.5t-3.5 -9.5t-4 -9.5l-2 -4.5q0 -2 -3 -11.5t-5 -11.5q0 -3 -4 -4v-1h-1q-13 0 -18 19.5t-7.5 43t-4.5 43t-9 19.5h-23q-14 0 -17 -9v-48v-48q0 -6 -1.5 -17.5t-2.5 -12.5l-4 -4h-61l-19 19l-8 4q-3 3 -3.5 8.5
t-0.5 11.5t-1.5 10.5t-7.5 4.5zM152 293q0 -2 -0.5 -8t4.5 -7q10 1 22.5 5t12.5 17q0 2 2 4t2 4q-1 5 -2.5 17t-2.5 25.5t-2 25.5t-1 17q0 2 -0.5 8t-1.5 12t-2.5 11t-3.5 5q-7 0 -12 -20t-8.5 -44.5t-5 -46t-1.5 -25.5zM163 818l31 16q10 6 19.5 3t27.5 -19l6 -12
q10 -20 -3 -39.5t-35 -39.5q-8 -8 -22.5 -13.5t-23.5 -10.5q-20 0 -35.5 6t-15.5 15q0 2 2 4q4 4 9 4.5t7 2.5q1 0 1 3l-6 17q0 5 5.5 12t0.5 12q-2 1 2.5 4t10.5 7.5t11 8.5t5 7q0 1 2.5 5.5t0.5 6.5z" />
    <glyph glyph-name="FL00E2h" unicode="&#xe2;" horiz-adv-x="335" 
d="M152 293q0 4 1.5 25.5t5 46t8.5 44.5t12 20q2 0 3.5 -5t2.5 -11t1.5 -12t0.5 -8q0 -5 1 -17t2 -25.5t2.5 -25.5t2.5 -17q0 -2 -2 -4t-2 -4q0 -13 -12.5 -17t-22.5 -5q-5 1 -4.5 7t0.5 8zM36 75h3q6 0 7.5 -4.5t1.5 -10.5t0.5 -11.5t3.5 -8.5l8 -4l19 -19h61l4 4
q1 1 2.5 12.5t1.5 17.5v48v48q3 9 17 9h23q7 0 9 -19.5t4.5 -43t7.5 -43t18 -19.5h1v1q4 1 4 4q2 2 5 11.5t3 11.5l2 4.5t4 9.5t3.5 9.5t2.5 4.5q3 0 4 -7t1.5 -15.5t1.5 -15.5t5 -7t6.5 4t4.5 8.5t4 8.5t5 4q11 0 23 -4t23 -4q0 49 -4 96.5t-13 95.5v4q0 12 -1.5 41.5
t-4 62.5t-4 62.5t-1.5 41.5q-4 23 -15.5 44t-11.5 44v96q0 7 -3.5 10t-8 4t-10 0.5t-9.5 0.5q-2 0 -3 4t-2.5 8.5t-3 8t-3.5 2.5l-15 -7h-77q-2 1 -3 -6t-1.5 -15.5t-1.5 -16t-4 -7.5q-2 0 -8 7.5t-12.5 16t-12 14.5t-6.5 3q-19 -49 -27 -95t-16 -97q-3 -23 -10.5 -46
t-12.5 -46q0 -15 -2.5 -53t-5 -80t-5 -80t-2.5 -53v-6v-7q0 -2 4 -6q0 -3 -0.5 -10.5t-0.5 -15.5q0 -9 0.5 -16.5t0.5 -11.5q0 -3 4 -13t9 -10h2q1 2 2.5 2.5t1.5 1.5v39l1.5 1.5t1.5 2.5zM250 781l-61 59q-7 4 -13 4t-7 -1h-3q-6 0 -13 -4l-31 -16v-2q0 -2 -1.5 -5.5
t-1.5 -4.5q0 -3 -4.5 -6.5t-10 -7.5t-10 -7t-4.5 -5v-1q2 -2 2 -4l-8 -20l6 -17q0 -3 -1 -3q-2 -2 -7 -2.5t-9 -4.5q-2 -2 -2 -4q0 -9 15.5 -15t35.5 -6q4 2 9 9t10 14.5t10 14t10 8.5l14 4q4 -4 10 -11.5l12 -15t12 -14t11 -8.5q20 0 35.5 6t15.5 15q0 6 -3.5 8t-3.5 12
q0 6 1 7z" />
    <glyph glyph-name="FL00E3h" unicode="&#xe3;" horiz-adv-x="337" 
d="M39 75h-3q0 -1 -1.5 -2.5l-1.5 -1.5v-39q0 -1 -1.5 -1.5t-2.5 -2.5h-2q-5 0 -9 10t-4 13q0 4 -0.5 11.5t-0.5 16.5q0 8 0.5 15.5t0.5 10.5q-4 4 -4 6v7v6q0 15 2.5 53t5 80t5 80t2.5 53q5 23 12.5 46t10.5 46q8 51 16 97t27 95q1 3 6.5 -3t12 -14.5t12.5 -16t8 -7.5
q3 0 4 7.5t1.5 16t1.5 15.5t3 6h77l15 7q2 1 3.5 -2.5t3 -8t2.5 -8.5t3 -4q4 -1 9.5 -0.5t10 -0.5t8 -4t3.5 -10v-96q0 -23 11.5 -44t15.5 -44q0 -12 1.5 -41.5t4 -62.5t4 -62.5t1.5 -41.5v-4q9 -48 13 -95.5t4 -96.5q-11 0 -23 4t-23 4q-3 0 -5 -4t-4 -8.5t-4.5 -8.5
t-6.5 -4t-5 7t-1.5 15.5t-1.5 15.5t-4 7q-1 0 -2.5 -4.5t-3.5 -9.5t-4 -9.5l-2 -4.5q0 -2 -3 -11.5t-5 -11.5q0 -3 -4 -4v-1h-1q-13 0 -18 19.5t-7.5 43t-4.5 43t-9 19.5h-23q-14 0 -17 -9v-48v-48q0 -6 -1.5 -17.5t-2.5 -12.5l-4 -4h-61l-19 19l-8 4q-3 3 -3.5 8.5
t-0.5 11.5t-1.5 10.5t-7.5 4.5zM152 293q0 -2 -0.5 -8t4.5 -7q10 1 22.5 5t12.5 17q0 2 2 4t2 4q-1 5 -2.5 17t-2.5 25.5t-2 25.5t-1 17q0 2 -0.5 8t-1.5 12t-2.5 11t-3.5 5q-7 0 -12 -20t-8.5 -44.5t-5 -46t-1.5 -25.5zM198 696h-11q-5 2 -11 8.5t-12 14l-12 15t-10 11.5
l-14 -4q-5 -2 -10 -8.5t-10 -14t-10 -14.5t-9 -9q-20 0 -35.5 6t-15.5 15q0 2 2 4q4 4 9 4.5t7 2.5q1 0 1 3l-6 17l8 20q0 2 -2 4v1q0 2 4.5 5t10 7t10 7.5t4.5 6.5q0 1 1.5 4.5t1.5 5.5v2l31 16q7 4 13 4h3q1 1 7 1h16q5 -2 11 -8.5t12 -14l12 -15t10 -11.5l14 4
q5 2 10 8.5t9.5 14.5t9.5 14.5t10 8.5q20 0 35.5 -6t15.5 -15q0 -2 -2 -4q-4 -4 -9 -4.5t-7 -2.5q-1 0 -1 -3l6 -17l-8 -20q0 -2 2 -4v-1q0 -2 -4.5 -5.5t-10 -7t-10 -7t-4.5 -6.5q0 -1 -1.5 -4.5t-1.5 -5.5v-2l-31 -16q-7 -4 -13 -4h-3q-1 -1 -12 -1z" />
    <glyph glyph-name="FL00E4h" unicode="&#xe4;" horiz-adv-x="326" 
d="M39 75h-3q0 -1 -1.5 -2.5l-1.5 -1.5v-39q0 -1 -1.5 -1.5t-2.5 -2.5h-2q-5 0 -9 10t-4 13q0 4 -0.5 11.5t-0.5 16.5q0 8 0.5 15.5t0.5 10.5q-4 4 -4 6v7v6q0 15 2.5 53t5 80t5 80t2.5 53q5 23 12.5 46t10.5 46q8 51 16 97t27 95q1 3 6.5 -3t12 -14.5t12.5 -16t8 -7.5
q3 0 4 7.5t1.5 16t1.5 15.5t3 6h77l15 7q2 1 3.5 -2.5t3 -8t2.5 -8.5t3 -4q4 -1 9.5 -0.5t10 -0.5t8 -4t3.5 -10v-96q0 -23 11.5 -44t15.5 -44q0 -12 1.5 -41.5t4 -62.5t4 -62.5t1.5 -41.5v-4q9 -48 13 -95.5t4 -96.5q-11 0 -23 4t-23 4q-3 0 -5 -4t-4 -8.5t-4.5 -8.5
t-6.5 -4t-5 7t-1.5 15.5t-1.5 15.5t-4 7q-1 0 -2.5 -4.5t-3.5 -9.5t-4 -9.5l-2 -4.5q0 -2 -3 -11.5t-5 -11.5q0 -3 -4 -4v-1h-1q-13 0 -18 19.5t-7.5 43t-4.5 43t-9 19.5h-23q-14 0 -17 -9v-48v-48q0 -6 -1.5 -17.5t-2.5 -12.5l-4 -4h-61l-19 19l-8 4q-3 3 -3.5 8.5
t-0.5 11.5t-1.5 10.5t-7.5 4.5zM152 293q0 -2 -0.5 -8t4.5 -7q10 1 22.5 5t12.5 17q0 2 2 4t2 4q-1 5 -2.5 17t-2.5 25.5t-2 25.5t-1 17q0 2 -0.5 8t-1.5 12t-2.5 11t-3.5 5q-7 0 -12 -20t-8.5 -44.5t-5 -46t-1.5 -25.5zM299 767l-9 -46q-2 -9 -14 -10t-34 -1l-17 8
q-35 16 -38.5 39t12.5 49q2 6 10 10t13 5l31 2q10 -3 12 -3.5t2 -2.5q0 -1 7.5 -3.5t9.5 -4.5q4 -4 8 -13.5t9 -11.5l-38 -15q3 -4 6 -3.5t10 0.5q5 0 8 2.5t8 -0.5l1 -0.5t3 -0.5zM141 758q6 -14 -3 -19.5t-13 -11.5q-4 -9 -12.5 -10t-31.5 0l-18 8q-34 13 -34 39q0 9 4 19
t10 21q2 6 10 10t13 4l28 2q9 -2 11.5 -2.5t2.5 -2.5t6.5 -4.5t8.5 -4.5q5 -4 9 -12.5t9 -13.5l-8 -11q0 -1 3 -6t5 -5z" />
    <glyph glyph-name="FL00E5h" unicode="&#xe5;" horiz-adv-x="326" 
d="M39 75h-3q0 -1 -1.5 -2.5l-1.5 -1.5v-39q0 -1 -1.5 -1.5t-2.5 -2.5h-2q-5 0 -9 10t-4 13q0 4 -0.5 11.5t-0.5 16.5q0 8 0.5 15.5t0.5 10.5q-4 4 -4 6v7v6q0 15 2.5 53t5 80t5 80t2.5 53q5 23 12.5 46t10.5 46q8 51 16 97t27 95q1 3 6.5 -3t12 -14.5t12.5 -16t8 -7.5
q3 0 4 7.5t1.5 16t1.5 15.5t3 6h77l15 7q2 1 3.5 -2.5t3 -8t2.5 -8.5t3 -4q4 -1 9.5 -0.5t10 -0.5t8 -4t3.5 -10v-96q0 -23 11.5 -44t15.5 -44q0 -12 1.5 -41.5t4 -62.5t4 -62.5t1.5 -41.5v-4q9 -48 13 -95.5t4 -96.5q-11 0 -23 4t-23 4q-3 0 -5 -4t-4 -8.5t-4.5 -8.5
t-6.5 -4t-5 7t-1.5 15.5t-1.5 15.5t-4 7q-1 0 -2.5 -4.5t-3.5 -9.5t-4 -9.5l-2 -4.5q0 -2 -3 -11.5t-5 -11.5q0 -3 -4 -4v-1h-1q-13 0 -18 19.5t-7.5 43t-4.5 43t-9 19.5h-23q-14 0 -17 -9v-48v-48q0 -6 -1.5 -17.5t-2.5 -12.5l-4 -4h-61l-19 19l-8 4q-3 3 -3.5 8.5
t-0.5 11.5t-1.5 10.5t-7.5 4.5zM152 293q0 -2 -0.5 -8t4.5 -7q10 1 22.5 5t12.5 17q0 2 2 4t2 4q-1 5 -2.5 17t-2.5 25.5t-2 25.5t-1 17q0 2 -0.5 8t-1.5 12t-2.5 11t-3.5 5q-7 0 -12 -20t-8.5 -44.5t-5 -46t-1.5 -25.5zM220 763q6 -14 -3 -19.5t-13 -11.5q-4 -9 -12.5 -10
t-31.5 0l-18 8q-34 13 -34 39q0 9 4 19t10 21q2 6 10 10t13 4l28 2q9 -2 11.5 -2.5t2.5 -2.5t6.5 -4.5t8.5 -4.5q5 -4 9 -12.5t9 -13.5l-8 -11q0 -1 3 -6t5 -5z" />
    <glyph glyph-name="FL00E6h" unicode="&#xe6;" horiz-adv-x="499" 
d="M43 72h-3q0 -1 -1.5 -2.5l-1.5 -1.5v-39q0 -1 -1.5 -1.5t-2.5 -2.5h-2q-5 0 -9 10t-4 13q0 4 -0.5 11.5t-0.5 16.5q0 8 0.5 15.5t0.5 10.5q-4 4 -4 6v13q0 15 2.5 53t5 80t5 80t2.5 53q5 23 12.5 46t10.5 46q8 51 16 97t27 95q1 3 6.5 -3t12 -14.5t12.5 -16t8 -7.5
q3 0 4 7.5t1.5 16t1.5 15.5t3 6h77l15 7q2 1 3.5 -2.5t3 -8t2.5 -8.5t3 -4q3 -1 13 -1q13 2 26 3t24 1h16q28 0 56 -2.5t56 -2.5q9 0 16.5 2.5t16.5 2.5v-8q0 -7 -1 -8q0 -2 -3.5 -9.5t-3.5 -9.5v-8l-16 -13l16 -13v-8q-1 -11 -9.5 -20t-20 -15t-24 -10t-20.5 -5l-3 -4
q-1 -1 -1 -8v-17q0 -9 -0.5 -18.5t-0.5 -15.5v-4q0 -2 1 -6.5t-2 -6.5l-14 -10l14 -1q3 0 2 -5t-1 -9v-4q1 -4 3 -4h4q16 0 31.5 4t30.5 4q9 0 14 -7t5 -16q0 -6 -6.5 -12t-15 -11.5t-15 -10t-6.5 -7.5q0 -2 6 -3.5t13 -4.5t12.5 -7.5t4.5 -13.5q-2 -17 -10.5 -23.5
t-19.5 -9t-23 -4t-21 -8.5q-2 -2 -3 -12.5t-2 -24t-1.5 -25t-0.5 -14.5v-1q1 -6 2 -14t1.5 -16t1.5 -13.5l1 -5.5h62q10 0 9.5 -8.5t1.5 -14.5q1 -3 5 -5.5t8 -5.5t7.5 -8.5t3.5 -14.5q0 -8 -7.5 -12.5t-16 -8t-16 -7.5t-7.5 -11l4 -5t4 -6v-3q0 -11 -6.5 -13t-17.5 -3
q-25 -2 -42 -6t-35 1l-27 8l-10 -8q-4 -3 -12 -1t-14 2h-9q-3 1 -5 3h-3q-4 0 -6 8q-9 8 -13 22q-2 -5 -3.5 -9l-1.5 -4q0 -2 -3 -11.5t-5 -11.5q0 -3 -4 -4v-1h-1q-13 0 -18 19.5t-7.5 43t-4.5 43t-9 19.5h-23q-14 0 -17 -9v-96q0 -6 -1.5 -17.5t-2.5 -12.5l-4 -4h-61
l-19 19l-8 4q-3 3 -3.5 8.5t-0.5 11.5t-1.5 10.5t-7.5 4.5zM156 290q0 -2 -0.5 -8t4.5 -7q10 1 22.5 5t12.5 17q0 2 2 4t2 4q-1 5 -2.5 17t-2.5 25.5t-2 25.5t-1 17q0 2 -0.5 8t-1.5 12t-2.5 11t-3.5 5q-7 0 -12 -20t-8.5 -44.5t-5 -46t-1.5 -25.5z" />
    <glyph glyph-name="FL00E7h" unicode="&#xe7;" horiz-adv-x="369" 
d="M145 275l8 -50l27 -48q-2 -5 -4.5 -8.5t-1.5 -4.5q6 -6 16.5 -8t12.5 0q11 8 13.5 12.5t2 7t-2 4.5t1.5 5l16 40q11 7 12.5 14t1.5 13t3.5 11.5t18.5 10.5l67 -2q7 0 10 -7t5 -15q1 -3 2.5 -16t1.5 -18q0 -17 -10.5 -39t-25 -44t-30 -41t-25.5 -30l-1 -2q-17 8 -30.5 9.5
t-20.5 1.5q-9 0 -9.5 -4.5t1.5 -10t3 -10t-5 -4.5q-5 0 -13.5 -0.5t-19.5 -0.5q-10 0 -21.5 1t-21.5 5q-23 10 -36 24.5t-20 31t-9.5 33.5t-4.5 31l-1.5 2l-4.5 6q-1 3 -5 10t-8.5 14.5t-8 14t-3.5 8.5q-5 20 -7 40.5t-2 40.5t1.5 40.5t-1.5 41.5q0 1 2.5 4t6 6t6.5 6l3 3
l-4 2t-9.5 4.5t-10 5t-4.5 3.5q0 8 4 16.5l8 17t7 16.5t1 15q1 4 4.5 12.5t7 17.5t7 17.5t4.5 11.5q8 23 16 33.5t23 27.5q1 2 5 11t6 11q21 17 37 20.5t42 3.5q7 0 18 4.5t11 -1.5q0 -5 7 -8.5t15 -6.5t13.5 -5.5t1.5 -4.5q-7 -3 -9.5 -13.5t-2.5 -12.5q0 -3 4.5 -0.5
t11.5 4.5t16 1.5t19 -10.5l12 -13q5 -7 6.5 -11t3 -7.5t4 -7.5t8.5 -11q12 -16 19 -29t3 -21q-6 -12 -7 -20t-0.5 -15t2.5 -13t2 -14v-2q0 -3 -10 -10.5t-26.5 -10.5t-37 1.5t-41.5 25.5l-9 35v2q0 2 0.5 3.5t0.5 3.5v2q0 22 -1.5 31.5t-1.5 16.5q0 1 -1 0.5t-9 -8.5
l-53 -30l-14 -48q-1 -2 -3 -5.5t-2 -5.5q0 -9 5.5 -12t5.5 -13q0 -28 -2 -65t-4 -64q4 -6 7 -9.5t4 2.5zM250 -81l-82 -11l-64 2v7q0 5 1 6q0 1 4 3t8.5 3.5t9 3.5t5.5 4h-5h-10h-11q-4 0 -4 1q-1 8 5.5 10t11.5 2v4q-10 0 -18 3t-8 16q0 12 7 13l30 7q1 0 4.5 -0.5
t28.5 0.5l4 91h7q5 0 6 -1q1 0 3 -4t3.5 -9t3 -9t3.5 -5l0.5 5t1.5 11t2 11t2 5q8 1 11.5 -6.5t3.5 -12.5h4q0 11 1 18.5t14 7.5q9 0 14 -8l10 -21l-4 -63z" />
    <glyph glyph-name="FL00E8h" unicode="&#xe8;" horiz-adv-x="288" 
d="M30 124q0 24 5 48t5 48q0 48 -4.5 94t-4.5 94q0 26 5 55t5 54v4v11v3q-2 5 -10 7t-13 0l-19 19q-1 1 -1 4l3 6.5t7 14.5t7 14.5t3 8.5q0 1 10.5 3l10.5 2q-1 1 -9.5 7t-15.5 6l-0.5 1t-0.5 2q0 10 9 16.5t22.5 10t28.5 4.5t27 1h16q28 0 56 -2.5t56 -2.5q9 0 16.5 2.5
t16.5 2.5v-8q0 -7 -1 -8q0 -2 -3.5 -9.5t-3.5 -9.5v-8l-16 -13l16 -13v-8q-1 -11 -9.5 -20t-20 -15t-24 -10t-20.5 -5l-3 -4q-1 -1 -1 -8v-17q0 -9 -0.5 -18.5t-0.5 -15.5v-4q0 -2 1 -6.5t-2 -6.5l-14 -10l14 -1q3 0 2 -5t-1 -9v-4q1 -4 3 -4h4q16 0 31.5 4t30.5 4
q9 0 14 -7t5 -16q0 -6 -6.5 -12t-15 -11.5t-15 -10t-6.5 -7.5q0 -2 6 -3.5t13 -4.5t12.5 -7.5t4.5 -13.5q-2 -17 -10.5 -23.5t-19.5 -9t-23 -4t-21 -8.5q-2 -2 -3 -12.5t-2 -24t-1.5 -25t-0.5 -14.5v-1q1 -6 2 -14t1.5 -16t1.5 -13.5l1 -5.5h62q10 0 9.5 -8.5t1.5 -14.5
q1 -3 5 -5.5t8 -5.5t7.5 -8.5t3.5 -14.5q0 -8 -7.5 -12.5t-16 -8t-16 -7.5t-7.5 -11l4 -5t4 -6v-3q0 -11 -6.5 -13t-17.5 -3q-25 -2 -42 -6t-35 1l-27 8l-10 -8q-4 -3 -12 -1t-14 2h-9q-23 16 -29 39t-6 49zM150 824q-2 -2 0.5 -6.5t2.5 -5.5q0 -3 5 -7.5t11 -8t10 -7
t3 -4.5q-5 -5 0.5 -12t5.5 -12l-6 -17q0 -3 1 -3q2 -2 7 -2.5t9 -4.5q2 -2 2 -4q0 -9 -15.5 -15t-35.5 -6q-9 5 -23.5 10.5t-22.5 13.5q-22 20 -35 39.5t-3 39.5l6 12q18 16 27.5 19t19.5 -3z" />
    <glyph glyph-name="FL00E9h" unicode="&#xe9;" horiz-adv-x="288" 
d="M30 124q0 24 5 48t5 48q0 48 -4.5 94t-4.5 94q0 26 5 55t5 54v4v11v3q-2 5 -10 7t-13 0l-19 19q-1 1 -1 4l3 6.5t7 14.5t7 14.5t3 8.5q0 1 10.5 3l10.5 2q-1 1 -9.5 7t-15.5 6l-0.5 1t-0.5 2q0 10 9 16.5t22.5 10t28.5 4.5t27 1h16q28 0 56 -2.5t56 -2.5q9 0 16.5 2.5
t16.5 2.5v-8q0 -7 -1 -8q0 -2 -3.5 -9.5t-3.5 -9.5v-8l-16 -13l16 -13v-8q-1 -11 -9.5 -20t-20 -15t-24 -10t-20.5 -5l-3 -4q-1 -1 -1 -8v-17q0 -9 -0.5 -18.5t-0.5 -15.5v-4q0 -2 1 -6.5t-2 -6.5l-14 -10l14 -1q3 0 2 -5t-1 -9v-4q1 -4 3 -4h4q16 0 31.5 4t30.5 4
q9 0 14 -7t5 -16q0 -6 -6.5 -12t-15 -11.5t-15 -10t-6.5 -7.5q0 -2 6 -3.5t13 -4.5t12.5 -7.5t4.5 -13.5q-2 -17 -10.5 -23.5t-19.5 -9t-23 -4t-21 -8.5q-2 -2 -3 -12.5t-2 -24t-1.5 -25t-0.5 -14.5v-1q1 -6 2 -14t1.5 -16t1.5 -13.5l1 -5.5h62q10 0 9.5 -8.5t1.5 -14.5
q1 -3 5 -5.5t8 -5.5t7.5 -8.5t3.5 -14.5q0 -8 -7.5 -12.5t-16 -8t-16 -7.5t-7.5 -11l4 -5t4 -6v-3q0 -11 -6.5 -13t-17.5 -3q-25 -2 -42 -6t-35 1l-27 8l-10 -8q-4 -3 -12 -1t-14 2h-9q-23 16 -29 39t-6 49zM127 814l31 16q10 6 19.5 3t27.5 -19l6 -12q10 -20 -3 -39.5
t-35 -39.5q-8 -8 -22.5 -13.5t-23.5 -10.5q-20 0 -35.5 6t-15.5 15q0 2 2 4q4 4 9 4.5t7 2.5q1 0 1 3l-6 17q0 5 5.5 12t0.5 12q-2 1 2.5 4t10.5 7.5t11 8.5t5 7q0 1 2.5 5.5t0.5 6.5z" />
    <glyph glyph-name="FL00EAh" unicode="&#xea;" horiz-adv-x="288" 
d="M30 124q0 -26 6 -49t29 -39h9q6 0 14 -2t12 1l10 8l27 -8q18 -5 35 -1t42 6q11 1 17.5 3t6.5 13v3q0 1 -4 6l-4 5q0 7 7.5 11t16 7.5t16 8t7.5 12.5q0 9 -3.5 14.5t-7.5 8.5t-8 5.5t-5 5.5q-2 6 -1.5 14.5t-9.5 8.5h-62l-1 5.5t-1.5 13.5t-1.5 16t-2 14v1q0 3 0.5 14.5
t1.5 25t2 24t3 12.5q9 7 21 8.5t23 4t19.5 9t10.5 23.5q1 9 -4.5 13.5t-12.5 7.5t-13 4.5t-6 3.5q0 3 6.5 7.5t15 10t15 11.5t6.5 12q0 9 -5 16t-14 7q-15 0 -30.5 -4t-31.5 -4h-4q-2 0 -3 4v4q0 4 1 9t-2 5l-14 1l14 10q3 2 2 6.5t-1 6.5v4q0 6 0.5 15.5t0.5 18.5v17
q0 7 1 8l3 4q8 1 20.5 5t24 10t20 15t9.5 20v8l-16 13l16 13v8q0 2 3.5 9.5t3.5 9.5q1 1 1 8v8q-9 0 -16.5 -2.5t-16.5 -2.5q-28 0 -56 2.5t-56 2.5h-16q-12 0 -27 -1t-28.5 -4.5t-22.5 -10t-9 -16.5q0 -1 0.5 -2l0.5 -1q7 0 15.5 -6t9.5 -7l-10.5 -2t-10.5 -3q0 -2 -3 -8.5
t-7 -14.5t-7 -14.5l-3 -6.5q0 -3 1 -4l19 -19q5 2 13 0t10 -7v-3v-11v-4q0 -25 -5 -54t-5 -55q0 -48 4.5 -94t4.5 -94q0 -24 -5 -48t-5 -48zM220 781l-61 59q-7 4 -13 4t-7 -1h-3q-6 0 -13 -4l-31 -16v-2q0 -2 -1.5 -5.5t-1.5 -4.5q0 -3 -4.5 -6.5t-10 -7.5t-10 -7t-4.5 -5
v-1q2 -2 2 -4l-8 -20l6 -17q0 -3 -1 -3q-2 -2 -7 -2.5t-9 -4.5q-2 -2 -2 -4q0 -9 15.5 -15t35.5 -6q4 2 9 9t10 14.5t10 14t10 8.5l14 4q4 -4 10 -11.5l12 -15t12 -14t11 -8.5q20 0 35.5 6t15.5 15q0 6 -3.5 8t-3.5 12q0 6 1 7z" />
    <glyph glyph-name="FL00EBh" unicode="&#xeb;" horiz-adv-x="288" 
d="M30 124q0 24 5 48t5 48q0 48 -4.5 94t-4.5 94q0 26 5 55t5 54v4v11v3q-2 5 -10 7t-13 0l-19 19q-1 1 -1 4l3 6.5t7 14.5t7 14.5t3 8.5q0 1 10.5 3l10.5 2q-1 1 -9.5 7t-15.5 6l-0.5 1t-0.5 2q0 10 9 16.5t22.5 10t28.5 4.5t27 1h16q28 0 56 -2.5t56 -2.5q9 0 16.5 2.5
t16.5 2.5v-8q0 -7 -1 -8q0 -2 -3.5 -9.5t-3.5 -9.5v-8l-16 -13l16 -13v-8q-1 -11 -9.5 -20t-20 -15t-24 -10t-20.5 -5l-3 -4q-1 -1 -1 -8v-17q0 -9 -0.5 -18.5t-0.5 -15.5v-4q0 -2 1 -6.5t-2 -6.5l-14 -10l14 -1q3 0 2 -5t-1 -9v-4q1 -4 3 -4h4q16 0 31.5 4t30.5 4
q9 0 14 -7t5 -16q0 -6 -6.5 -12t-15 -11.5t-15 -10t-6.5 -7.5q0 -2 6 -3.5t13 -4.5t12.5 -7.5t4.5 -13.5q-2 -17 -10.5 -23.5t-19.5 -9t-23 -4t-21 -8.5q-2 -2 -3 -12.5t-2 -24t-1.5 -25t-0.5 -14.5v-1q1 -6 2 -14t1.5 -16t1.5 -13.5l1 -5.5h62q10 0 9.5 -8.5t1.5 -14.5
q1 -3 5 -5.5t8 -5.5t7.5 -8.5t3.5 -14.5q0 -8 -7.5 -12.5t-16 -8t-16 -7.5t-7.5 -11l4 -5t4 -6v-3q0 -11 -6.5 -13t-17.5 -3q-25 -2 -42 -6t-35 1l-27 8l-10 -8q-4 -3 -12 -1t-14 2h-9q-23 16 -29 39t-6 49zM261 766l-9 -46q-2 -9 -14 -10t-34 -1l-17 8q-35 16 -38.5 39
t12.5 49q2 6 10 10t13 5l31 2q10 -3 12 -3.5t2 -2.5q0 -1 7.5 -3.5t9.5 -4.5q4 -4 8 -13.5t9 -11.5l-38 -15q3 -4 6 -3.5t10 0.5q5 0 8 2.5t8 -0.5l1 -0.5t3 -0.5zM103 757q6 -14 -3 -19.5t-13 -11.5q-4 -9 -12.5 -10t-31.5 0l-18 8q-34 13 -34 39q0 9 4 19t10 21q2 6 10 10
t13 4l28 2q9 -2 11.5 -2.5t2.5 -2.5t6.5 -4.5t8.5 -4.5q5 -4 9 -12.5t9 -13.5l-8 -11q0 -1 3 -6t5 -5z" />
    <glyph glyph-name="FL00ECh" unicode="&#xec;" horiz-adv-x="190" 
d="M28 41v35q-3 91 -5.5 178.5t-2.5 178.5v7q0 5 0.5 9t0.5 7v4q0 1 1 6t2.5 11t2.5 11t1 6q0 2 0.5 9.5t1.5 16.5t1.5 17t0.5 11q0 4 0.5 11.5t0.5 17.5v21v21q0 10 -0.5 17.5t-0.5 11.5q0 1 7 4t15 6.5t14.5 6.5l6.5 3q9 0 13 -5.5t6.5 -12.5t4 -12.5t4.5 -5.5h2
q1 1 2.5 6.5l1.5 5.5q2 2 2.5 5t1.5 3q3 2 10.5 3t8.5 1q2 -2 8 -8.5t7 -7.5h3h1l16 8h2h2q1 -1 3.5 -4t4.5 -4v-17q0 -63 -5.5 -123.5t-10.5 -123.5q-1 -12 -6.5 -20.5t-5.5 -19.5q0 -14 4.5 -29t7.5 -27v-20v-55v-18q0 -33 0.5 -72t-4.5 -74q-1 -4 -4 -4.5t-5 -0.5
t-3.5 0.5t-3.5 0.5q-6 12 -11.5 16.5t-16.5 4.5q-2 0 -5.5 -0.5t-4.5 -1.5l-3 -5t-4 -6q-2 -1 -10.5 -1.5t-8.5 -2.5q-3 -1 -10.5 -9t-9.5 -10q-20 5 -31 19zM110 810q-2 -2 0.5 -6.5t2.5 -5.5q0 -3 5 -7.5t11 -8t10 -7t3 -4.5q-5 -5 0.5 -12t5.5 -12l-6 -17q0 -3 1 -3
q2 -2 7 -2.5t9 -4.5q2 -2 2 -4q0 -9 -15.5 -15t-35.5 -6q-9 5 -23.5 10.5t-22.5 13.5q-22 20 -35 39.5t-3 39.5l6 12q18 16 27.5 19t19.5 -3z" />
    <glyph glyph-name="FL00EDh" unicode="&#xed;" horiz-adv-x="190" 
d="M28 41v35q-3 91 -5.5 178.5t-2.5 178.5v7q0 5 0.5 9t0.5 7v4q0 1 1 6t2.5 11t2.5 11t1 6q0 2 0.5 9.5t1.5 16.5t1.5 17t0.5 11q0 4 0.5 11.5t0.5 17.5v21v21q0 10 -0.5 17.5t-0.5 11.5q0 1 7 4t15 6.5t14.5 6.5l6.5 3q9 0 13 -5.5t6.5 -12.5t4 -12.5t4.5 -5.5h2
q1 1 2.5 6.5l1.5 5.5q2 2 2.5 5t1.5 3q3 2 10.5 3t8.5 1q2 -2 8 -8.5t7 -7.5h3h1l16 8h2h2q1 -1 3.5 -4t4.5 -4v-17q0 -63 -5.5 -123.5t-10.5 -123.5q-1 -12 -6.5 -20.5t-5.5 -19.5q0 -14 4.5 -29t7.5 -27v-20v-55v-18q0 -33 0.5 -72t-4.5 -74q-1 -4 -4 -4.5t-5 -0.5
t-3.5 0.5t-3.5 0.5q-6 12 -11.5 16.5t-16.5 4.5q-2 0 -5.5 -0.5t-4.5 -1.5l-3 -5t-4 -6q-2 -1 -10.5 -1.5t-8.5 -2.5q-3 -1 -10.5 -9t-9.5 -10q-20 5 -31 19zM79 811l31 16q10 6 19.5 3t27.5 -19l6 -12q10 -20 -3 -39.5t-35 -39.5q-8 -8 -22.5 -13.5t-23.5 -10.5
q-20 0 -35.5 6t-15.5 15q0 2 2 4q4 4 9 4.5t7 2.5q1 0 1 3l-6 17q0 5 5.5 12t0.5 12q-2 1 2.5 4t10.5 7.5t11 8.5t5 7q0 1 2.5 5.5t0.5 6.5z" />
    <glyph glyph-name="FL00EEh" unicode="&#xee;" horiz-adv-x="190" 
d="M28 76v-35q11 -14 31 -19q2 2 9.5 10t10.5 9q0 2 8.5 2.5t10.5 1.5q1 1 4 6l3 5q1 1 4.5 1.5t5.5 0.5q11 0 16.5 -4.5t11.5 -16.5q2 0 3.5 -0.5t3.5 -0.5t5 0.5t4 4.5q5 35 4.5 74t-0.5 72v18v55v20q-3 12 -7.5 27t-4.5 29q0 11 5.5 19.5t6.5 20.5q5 63 10.5 123.5
t5.5 123.5v17q-2 1 -4.5 4t-3.5 4h-2h-2l-16 -8h-1h-3q-1 1 -7 7.5t-8 8.5q-1 0 -8.5 -1t-10.5 -3q-1 0 -1.5 -3t-2.5 -5l-1.5 -5.5t-2.5 -6.5h-2q-3 0 -4.5 5.5t-4 12.5t-6.5 12.5t-13 5.5l-6.5 -3t-14.5 -6.5t-15 -6.5t-7 -4q0 -4 0.5 -11.5t0.5 -17.5v-21v-21
q0 -10 -0.5 -17.5t-0.5 -11.5q0 -3 -0.5 -11t-1.5 -17t-1.5 -16.5t-0.5 -9.5q0 -1 -1 -6t-2.5 -11t-2.5 -11t-1 -6v-4q0 -3 -0.5 -7t-0.5 -9v-7q0 -91 2.5 -178.5t5.5 -178.5zM181 780l-61 59q-7 4 -13 4t-7 -1h-3q-6 0 -13 -4l-31 -16v-2q0 -2 -1.5 -5.5t-1.5 -4.5
q0 -3 -4.5 -6.5t-10 -7.5t-10 -7t-4.5 -5v-1q2 -2 2 -4l-8 -20l6 -17q0 -3 -1 -3q-2 -2 -7 -2.5t-9 -4.5q-2 -2 -2 -4q0 -9 15.5 -15t35.5 -6q4 2 9 9t10 14.5t10 14t10 8.5l14 4q4 -4 10 -11.5l12 -15t12 -14t11 -8.5q20 0 35.5 6t15.5 15q0 6 -3.5 8t-3.5 12q0 6 1 7z" />
    <glyph glyph-name="FL00EFh" unicode="&#xef;" horiz-adv-x="190" 
d="M28 41v35q-3 91 -5.5 178.5t-2.5 178.5v7q0 5 0.5 9t0.5 7v4q0 1 1 6t2.5 11t2.5 11t1 6q0 2 0.5 9.5t1.5 16.5t1.5 17t0.5 11q0 4 0.5 11.5t0.5 17.5v21v21q0 10 -0.5 17.5t-0.5 11.5q0 1 7 4t15 6.5t14.5 6.5l6.5 3q9 0 13 -5.5t6.5 -12.5t4 -12.5t4.5 -5.5h2
q1 1 2.5 6.5l1.5 5.5q2 2 2.5 5t1.5 3q3 2 10.5 3t8.5 1q2 -2 8 -8.5t7 -7.5h3h1l16 8h2h2q1 -1 3.5 -4t4.5 -4v-17q0 -63 -5.5 -123.5t-10.5 -123.5q-1 -12 -6.5 -20.5t-5.5 -19.5q0 -14 4.5 -29t7.5 -27v-20v-55v-18q0 -33 0.5 -72t-4.5 -74q-1 -4 -4 -4.5t-5 -0.5
t-3.5 0.5t-3.5 0.5q-6 12 -11.5 16.5t-16.5 4.5q-2 0 -5.5 -0.5t-4.5 -1.5l-3 -5t-4 -6q-2 -1 -10.5 -1.5t-8.5 -2.5q-3 -1 -10.5 -9t-9.5 -10q-20 5 -31 19zM236 760l-9 -46q-2 -9 -14 -10t-34 -1l-17 8q-35 16 -38.5 39t12.5 49q2 6 10 10t13 5l31 2q10 -3 12 -3.5t2 -2.5
q0 -1 7.5 -3.5t9.5 -4.5q4 -4 8 -13.5t9 -11.5l-38 -15q3 -4 6 -3.5t10 0.5q5 0 8 2.5t8 -0.5l1 -0.5t3 -0.5zM78 751q6 -14 -3 -19.5t-13 -11.5q-4 -9 -12.5 -10t-31.5 0l-18 8q-34 13 -34 39q0 9 4 19t10 21q2 6 10 10t13 4l28 2q9 -2 11.5 -2.5t2.5 -2.5t6.5 -4.5
t8.5 -4.5q5 -4 9 -12.5t9 -13.5l-8 -11q0 -1 3 -6t5 -5z" />
    <glyph glyph-name="FL00F0h" unicode="&#xf0;" horiz-adv-x="374" 
d="M240 410v-11q0 -4 0.5 -8t0.5 -9q0 -9 -1 -11q-8 9 -24 15t-32.5 10t-30 5.5t-16.5 1.5q-12 0 -25 -3.5t-26 -13t-25 -27t-21 -45.5q-2 -6 -12 -15t-10 -20q0 -3 -1 -9t-1 -12q0 -5 2 -9.5t8 -5.5q1 -6 2.5 -12t1.5 -13q0 -6 -1.5 -14t-6.5 -19q-4 -8 7.5 -22.5
t23.5 -31.5q5 -8 5.5 -12.5t0.5 -8.5t0.5 -8t5.5 -11l9 -24q8 -10 23 -19t23 -11q3 0 10.5 4.5t17 9.5t19.5 9.5t16 4.5q9 0 10.5 -9t1.5 -16q0 -4 1 -4q13 0 18.5 0.5t9 3.5t7.5 8t14 14q2 2 8 6t6 7q14 18 33.5 34t27.5 40q1 4 4 12.5t7 18.5t7 18.5t4 12.5q-4 14 1 33
t5 35q0 2 -5 8t-5 7q1 1 7.5 9.5t6.5 10.5q-3 22 -1 37.5t2 36.5q0 20 -3.5 41.5t-5.5 42.5q-1 15 -6.5 44t-16.5 58.5t-29.5 53t-45.5 26.5q-10 4 -21 5.5t-21 1.5t-18.5 -0.5t-12.5 -0.5q-8 0 -11 -1.5t-6.5 -3t-9.5 -3t-21 -1.5l-20 -8q-25 -10 -38.5 -26t-19.5 -36.5
t-7 -45t-1 -51.5q2 -8 5.5 -15.5t10.5 -7.5l61 -14q14 5 16.5 8.5t2 8t0 9.5t10.5 13l13 25q3 3 1.5 5t-2 5t2 7.5t13.5 12.5q2 2 5 2q1 0 6 -1.5t11.5 -4t7.5 -4.5l6.5 -6.5t3.5 -10.5l22 -41l-6 -58q1 6 4 2.5t7 -9.5zM181 269l4 8t6.5 5.5t13.5 0t25 -7.5v-13q0 -2 -2 -6
l-3 -6v-51l-51 -31q-8 -8 -9 -8.5t-1 0.5q0 7 -5 17t-5 33v17q0 6 -0.5 12.5t-0.5 12.5v6z" />
    <glyph glyph-name="FL00F1h" unicode="&#xf1;" horiz-adv-x="388" 
d="M106 77l-19 -25q-8 0 -13 -8.5t-13 -8.5q-7 0 -10 9.5t-3 14.5v4l4 38v4v4l-8 77l5 302q-14 24 -26 54.5t-12 59.5q0 1 5 8.5t12 15t13 13t8 3.5l30 -33q6 0 7 8t1 18t2 18t9 8h5q2 0 11.5 -1.5t11.5 -1.5q28 -40 53 -81.5t47 -84.5l-2 -19l9 19q0 1 1 10t2.5 20.5l3 23
t1.5 19.5q1 1 1 11t5 13l32 18l-29 8q-5 2 -7 12.5t-2 18.5v8q2 4 11 10.5t12 6.5q1 0 1 -1v-1q-1 -1 -1 -5v-4q0 -8 3.5 -10.5t5.5 -4.5q6 -2 23 -2.5t35 -2.5t32 -6.5t14 -13.5q0 -2 -0.5 -4.5t-0.5 -4.5q-1 -9 -3 -32t-4.5 -48.5t-4.5 -48.5t-3 -32l7 -88v-316l-2.5 -3
t-4.5 -4q-3 -2 -10.5 -5t-9.5 -3q-5 0 -11 6.5t-11.5 15t-10 16t-6.5 9.5l-15 -16v-19q0 -2 -4.5 -3.5t-6.5 -1.5q-16 0 -28 14.5t-15 29.5l-23 141l-22 66h-3q0 -39 -1 -79t-1 -79v-17q0 -12 -1 -23t-3 -28q-1 -1 -2 -2.5t-2 -1.5h-2h-2q-1 0 -4 2l-3 2q-5 0 -6 -5.5
t-2 -12.5t-3 -12.5t-7 -5.5q-1 0 -1.5 0.5l-0.5 0.5q-2 7 -6 13.5t-10 9.5q-6 -2 -7 -8t-1 -13t-1 -12.5t-9 -5.5q-7 0 -8 9t0.5 20.5t3 22t0.5 13.5zM223 707h-11q-5 2 -11 8.5t-12 14l-12 15t-10 11.5l-14 -4q-5 -2 -10 -8.5t-10 -14t-10 -14.5t-9 -9q-20 0 -35.5 6
t-15.5 15q0 2 2 4q4 4 9 4.5t7 2.5q1 0 1 3l-6 17l8 20q0 2 -2 4v1q0 2 4.5 5t10 7t10 7.5t4.5 6.5q0 1 1.5 4.5t1.5 5.5v2l31 16q7 4 13 4h3q1 1 7 1h16q5 -2 11 -8.5t12 -14l12 -15t10 -11.5l14 4q5 2 10 8.5t9.5 14.5t9.5 14.5t10 8.5q20 0 35.5 -6t15.5 -15q0 -2 -2 -4
q-4 -4 -9 -4.5t-7 -2.5q-1 0 -1 -3l6 -17l-8 -20q0 -2 2 -4v-1q0 -2 -4.5 -5.5t-10 -7t-10 -7t-4.5 -6.5q0 -1 -1.5 -4.5t-1.5 -5.5v-2l-31 -16q-7 -4 -13 -4h-3q-1 -1 -12 -1z" />
    <glyph glyph-name="FL00F2h" unicode="&#xf2;" 
d="M3 412q0 17 8 36.5t4 35.5q1 4 4.5 13t7 19.5t7 19.5t4.5 13q5 13 9.5 21.5t9 15.5t10.5 14t14 18q1 2 5 12t6 12q11 10 31.5 18.5t43.5 14.5t44.5 9.5t35.5 3.5q15 0 15 -14q0 -10 -8.5 -15t-8.5 -14q0 -5 5 -7.5t11 -4t11.5 -3t7.5 -4.5l19 -31q6 -8 8 -12t3.5 -8
t3.5 -9t8 -13q6 -9 10.5 -14t7.5 -10t4.5 -12t1.5 -19q0 -17 -2 -34.5t-2 -35.5v-2q0 -5 2.5 -21.5t5 -36t5 -36.5t2.5 -21v-3q0 -2 0.5 -5t0.5 -7v-4v-4q0 -2 -0.5 -5.5t-0.5 -5.5v-4q-3 -5 -9.5 -7t-6.5 -8q0 -8 7 -12t9 -12q0 -4 2 -18t2 -20q0 -19 -12.5 -42.5
t-29 -46.5t-34 -43.5t-27.5 -33.5l-0.5 -1t-0.5 -2q0 -5 2.5 -8t2.5 -8q0 -8 -16.5 -10t-31.5 -2h-15q-8 0 -24.5 3t-34.5 8.5t-33 12.5t-19 15q-8 14 -22 28t-16 30v6v12v10v6q-1 6 -5.5 10t-6.5 10q-1 3 -3.5 11t-5 16.5t-4.5 16t-2 9.5q-5 23 -7 45.5t-2 45.5t0.5 45
t-3.5 45q0 2 -3.5 8t-3.5 7t-0.5 5.5t-0.5 7.5zM134 216q0 -4 5 -14.5t12 -22t13 -20.5t9 -9q6 0 11.5 8.5t7.5 10.5q1 2 4.5 8t8 13t8.5 13t6 8v6q0 42 -3 79t-1 80q-2 7 -3.5 17t-2.5 20t-1.5 19t-0.5 14q0 2 2 13t2 13v2q0 2 0.5 4t0.5 4v3q0 12 -7 19t-14.5 11t-13.5 7
t-4 8h-8q-2 0 -3 -2t0 -10l-24 -68v-7q0 -12 4 -24t4 -25q0 -45 -6 -89t-6 -89zM206 824q-2 -2 0.5 -6.5t2.5 -5.5q0 -3 5 -7.5t11 -8t10 -7t3 -4.5q-5 -5 0.5 -12t5.5 -12l-6 -17q0 -3 1 -3q2 -2 7 -2.5t9 -4.5q2 -2 2 -4q0 -9 -15.5 -15t-35.5 -6q-9 5 -23.5 10.5
t-22.5 13.5q-22 20 -35 39.5t-3 39.5l6 12q18 16 27.5 19t19.5 -3z" />
    <glyph glyph-name="FL00F3h" unicode="&#xf3;" 
d="M3 412q0 17 8 36.5t4 35.5q1 4 4.5 13t7 19.5t7 19.5t4.5 13q5 13 9.5 21.5t9 15.5t10.5 14t14 18q1 2 5 12t6 12q11 10 31.5 18.5t43.5 14.5t44.5 9.5t35.5 3.5q15 0 15 -14q0 -10 -8.5 -15t-8.5 -14q0 -5 5 -7.5t11 -4t11.5 -3t7.5 -4.5l19 -31q6 -8 8 -12t3.5 -8
t3.5 -9t8 -13q6 -9 10.5 -14t7.5 -10t4.5 -12t1.5 -19q0 -17 -2 -34.5t-2 -35.5v-2q0 -5 2.5 -21.5t5 -36t5 -36.5t2.5 -21v-3q0 -2 0.5 -5t0.5 -7v-4v-4q0 -2 -0.5 -5.5t-0.5 -5.5v-4q-3 -5 -9.5 -7t-6.5 -8q0 -8 7 -12t9 -12q0 -4 2 -18t2 -20q0 -19 -12.5 -42.5
t-29 -46.5t-34 -43.5t-27.5 -33.5l-0.5 -1t-0.5 -2q0 -5 2.5 -8t2.5 -8q0 -8 -16.5 -10t-31.5 -2h-15q-8 0 -24.5 3t-34.5 8.5t-33 12.5t-19 15q-8 14 -22 28t-16 30v6v12v10v6q-1 6 -5.5 10t-6.5 10q-1 3 -3.5 11t-5 16.5t-4.5 16t-2 9.5q-5 23 -7 45.5t-2 45.5t0.5 45
t-3.5 45q0 2 -3.5 8t-3.5 7t-0.5 5.5t-0.5 7.5zM134 216q0 -4 5 -14.5t12 -22t13 -20.5t9 -9q6 0 11.5 8.5t7.5 10.5q1 2 4.5 8t8 13t8.5 13t6 8v6q0 42 -3 79t-1 80q-2 7 -3.5 17t-2.5 20t-1.5 19t-0.5 14q0 2 2 13t2 13v2q0 2 0.5 4t0.5 4v3q0 12 -7 19t-14.5 11t-13.5 7
t-4 8h-8q-2 0 -3 -2t0 -10l-24 -68v-7q0 -12 4 -24t4 -25q0 -45 -6 -89t-6 -89zM183 820l31 16q10 6 19.5 3t27.5 -19l6 -12q10 -20 -3 -39.5t-35 -39.5q-8 -8 -22.5 -13.5t-23.5 -10.5q-20 0 -35.5 6t-15.5 15q0 2 2 4q4 4 9 4.5t7 2.5q1 0 1 3l-6 17q0 5 5.5 12t0.5 12
q-2 1 2.5 4t10.5 7.5t11 8.5t5 7q0 1 2.5 5.5t0.5 6.5z" />
    <glyph glyph-name="FL00F4h" unicode="&#xf4;" 
d="M134 216q0 45 6 89t6 89q0 13 -4 25t-4 24v7l24 68q-1 8 0 10t3 2h8q-2 -5 4 -8t13.5 -7t14.5 -11t7 -19v-3q0 -2 -0.5 -4t-0.5 -4v-2q0 -2 -2 -13t-2 -13q0 -5 0.5 -14t1.5 -19t2.5 -20t3.5 -17q-2 -43 1 -80t3 -79v-6q-2 -2 -6 -8t-8.5 -13t-8 -13t-4.5 -8
q-2 -2 -7.5 -10.5t-11.5 -8.5q-3 0 -9 9t-13 20.5t-12 22t-5 14.5zM3 412q0 -3 0.5 -7.5t0.5 -5.5t3.5 -7t3.5 -8q4 -23 3.5 -45t-0.5 -45t2 -45.5t7 -45.5q0 -2 2 -9.5t4.5 -16t5 -16.5t3.5 -11q2 -6 6.5 -10t5.5 -10v-6v-10v-12v-6q2 -16 16 -30t22 -28q4 -8 19 -15
t33 -12.5t34.5 -8.5t24.5 -3h15q15 0 31.5 2t16.5 10q0 5 -2.5 8t-2.5 8q0 1 0.5 2l0.5 1q10 13 27.5 33.5t34 43.5t29 46.5t12.5 42.5q0 6 -2 20t-2 18q-2 8 -9 12t-7 12q0 6 6.5 8t9.5 7v4q0 2 0.5 5.5t0.5 5.5v4v4q0 4 -0.5 7t-0.5 5v3q0 4 -2.5 21t-5 36.5t-5 36
t-2.5 21.5v2q0 18 2 35.5t2 34.5q0 12 -1.5 19t-4.5 12t-7.5 10t-10.5 14q-6 8 -8 13t-3.5 9t-3.5 8t-8 12l-19 31q-2 3 -7.5 4.5t-11.5 3t-11 4t-5 7.5q0 9 8.5 14t8.5 15q0 14 -15 14q-14 0 -35.5 -3.5t-44.5 -9.5t-43.5 -14.5t-31.5 -18.5q-2 -2 -6 -12t-5 -12
q-8 -11 -14 -18t-10.5 -14t-9 -15.5t-9.5 -21.5q-1 -4 -4.5 -13t-7 -19.5t-7 -19.5t-4.5 -13q4 -16 -4 -35.5t-8 -36.5zM260 782l-61 59q-7 4 -13 4t-7 -1h-3q-6 0 -13 -4l-31 -16v-2q0 -2 -1.5 -5.5t-1.5 -4.5q0 -3 -4.5 -6.5t-10 -7.5t-10 -7t-4.5 -5v-1q2 -2 2 -4l-8 -20
l6 -17q0 -3 -1 -3q-2 -2 -7 -2.5t-9 -4.5q-2 -2 -2 -4q0 -9 15.5 -15t35.5 -6q4 2 9 9t10 14.5t10 14t10 8.5l14 4q4 -4 10 -11.5l12 -15t12 -14t11 -8.5q20 0 35.5 6t15.5 15q0 6 -3.5 8t-3.5 12q0 6 1 7z" />
    <glyph glyph-name="FL00F5h" unicode="&#xf5;" 
d="M3 412q0 17 8 36.5t4 35.5q1 4 4.5 13t7 19.5t7 19.5t4.5 13q5 13 9.5 21.5t9 15.5t10.5 14t14 18q1 2 5 12t6 12q11 10 31.5 18.5t43.5 14.5t44.5 9.5t35.5 3.5q15 0 15 -14q0 -10 -8.5 -15t-8.5 -14q0 -5 5 -7.5t11 -4t11.5 -3t7.5 -4.5l19 -31q6 -8 8 -12t3.5 -8
t3.5 -9t8 -13q6 -9 10.5 -14t7.5 -10t4.5 -12t1.5 -19q0 -17 -2 -34.5t-2 -35.5v-2q0 -5 2.5 -21.5t5 -36t5 -36.5t2.5 -21v-3q0 -2 0.5 -5t0.5 -7v-8q0 -2 -0.5 -5.5t-0.5 -5.5v-4q-3 -5 -9.5 -7t-6.5 -8q0 -8 7 -12t9 -12q0 -4 2 -18t2 -20q0 -19 -12.5 -42.5t-29 -46.5
t-34 -43.5t-27.5 -33.5l-0.5 -1t-0.5 -2q0 -5 2.5 -8t2.5 -8q0 -8 -16.5 -10t-31.5 -2h-15q-8 0 -24.5 3t-34.5 8.5t-33 12.5t-19 15q-8 14 -22 28t-16 30v34q-1 6 -5.5 10t-6.5 10q-1 3 -3.5 11t-5 16.5t-4.5 16t-2 9.5q-5 23 -7 45.5t-2 45.5t0.5 45t-3.5 45q0 2 -3.5 8
t-3.5 7t-0.5 5.5t-0.5 7.5zM134 216q0 -4 5 -14.5t12 -22t13 -20.5t9 -9q6 0 11.5 8.5t7.5 10.5q1 2 4.5 8t8 13t8.5 13t6 8v6q0 42 -3 79t-1 80q-2 7 -3.5 17t-2.5 20t-1.5 19t-0.5 14q0 2 2 13t2 13v2q0 2 0.5 4t0.5 4v3q0 12 -7 19t-14.5 11t-13.5 7t-4 8h-8q-2 0 -3 -2
t0 -10l-24 -68v-7q0 -12 4 -24t4 -25q0 -45 -6 -89t-6 -89zM212 710h-11q-5 2 -11 8.5t-12 14l-12 15t-10 11.5l-14 -4q-5 -2 -10 -8.5t-10 -14t-10 -14.5t-9 -9q-20 0 -35.5 6t-15.5 15q0 2 2 4q4 4 9 4.5t7 2.5q1 0 1 3l-6 17l8 20q0 2 -2 4v1q0 2 4.5 5t10 7t10 7.5
t4.5 6.5q0 1 1.5 4.5t1.5 5.5v2l31 16q7 4 13 4h3q1 1 7 1h16q5 -2 11 -8.5t12 -14l12 -15t10 -11.5l14 4q5 2 10 8.5t9.5 14.5t9.5 14.5t10 8.5q20 0 35.5 -6t15.5 -15q0 -2 -2 -4q-4 -4 -9 -4.5t-7 -2.5q-1 0 -1 -3l6 -17l-8 -20q0 -2 2 -4v-1q0 -2 -4.5 -5.5t-10 -7
t-10 -7t-4.5 -6.5q0 -1 -1.5 -4.5t-1.5 -5.5v-2l-31 -16q-7 -4 -13 -4h-3q-1 -1 -12 -1z" />
    <glyph glyph-name="FL00F6h" unicode="&#xf6;" 
d="M3 412q0 17 8 36.5t4 35.5q1 4 4.5 13t7 19.5t7 19.5t4.5 13q5 13 9.5 21.5t9 15.5t10.5 14t14 18q1 2 5 12t6 12q11 10 31.5 18.5t43.5 14.5t44.5 9.5t35.5 3.5q15 0 15 -14q0 -10 -8.5 -15t-8.5 -14q0 -5 5 -7.5t11 -4t11.5 -3t7.5 -4.5l19 -31q6 -8 8 -12t3.5 -8
t3.5 -9t8 -13q6 -9 10.5 -14t7.5 -10t4.5 -12t1.5 -19q0 -17 -2 -34.5t-2 -35.5v-2q0 -5 2.5 -21.5t5 -36t5 -36.5t2.5 -21v-3q0 -2 0.5 -5t0.5 -7v-4v-4q0 -2 -0.5 -5.5t-0.5 -5.5v-4q-3 -5 -9.5 -7t-6.5 -8q0 -8 7 -12t9 -12q0 -4 2 -18t2 -20q0 -19 -12.5 -42.5
t-29 -46.5t-34 -43.5t-27.5 -33.5l-0.5 -1t-0.5 -2q0 -5 2.5 -8t2.5 -8q0 -8 -16.5 -10t-31.5 -2h-15q-8 0 -24.5 3t-34.5 8.5t-33 12.5t-19 15q-8 14 -22 28t-16 30v6v12v10v6q-1 6 -5.5 10t-6.5 10q-1 3 -3.5 11t-5 16.5t-4.5 16t-2 9.5q-5 23 -7 45.5t-2 45.5t0.5 45
t-3.5 45q0 2 -3.5 8t-3.5 7t-0.5 5.5t-0.5 7.5zM134 216q0 -4 5 -14.5t12 -22t13 -20.5t9 -9q6 0 11.5 8.5t7.5 10.5q1 2 4.5 8t8 13t8.5 13t6 8v6q0 42 -3 79t-1 80q-2 7 -3.5 17t-2.5 20t-1.5 19t-0.5 14q0 2 2 13t2 13v2q0 2 0.5 4t0.5 4v3q0 12 -7 19t-14.5 11t-13.5 7
t-4 8h-8q-2 0 -3 -2t0 -10l-24 -68v-7q0 -12 4 -24t4 -25q0 -45 -6 -89t-6 -89zM317 776l-9 -46q-2 -9 -14 -10t-34 -1l-17 8q-35 16 -38.5 39t12.5 49q2 6 10 10t13 5l31 2q10 -3 12 -3.5t2 -2.5q0 -1 7.5 -3.5t9.5 -4.5q4 -4 8 -13.5t9 -11.5l-38 -15q3 -4 6 -3.5t10 0.5
q5 0 8 2.5t8 -0.5l1 -0.5t3 -0.5zM159 767q6 -14 -3 -19.5t-13 -11.5q-4 -9 -12.5 -10t-31.5 0l-18 8q-34 13 -34 39q0 9 4 19t10 21q2 6 10 10t13 4l28 2q9 -2 11.5 -2.5t2.5 -2.5t6.5 -4.5t8.5 -4.5q5 -4 9 -12.5t9 -13.5l-8 -11q0 -1 3 -6t5 -5z" />
    <glyph glyph-name="FL00F7h" unicode="&#xf7;" horiz-adv-x="391" 
d="M267 268l-235 1v8q0 6 1 7q0 2 4.5 4t10.5 4t11 4t6 4h-5h-12h-13q-5 0 -5 1q-1 9 4.5 10.5t10.5 1.5v4q-12 0 -21.5 4t-9.5 19q0 5 3.5 12.5t8.5 9.5l35 8q1 0 28.5 1t63 1.5t69 1.5t46.5 1h103q-1 -18 -6.5 -23.5t-12 -6l-13 -1t-9.5 -8.5q0 -11 8.5 -13.5t14.5 -2.5
t6 -8q0 -12 -4.5 -17t-12.5 -17q-3 -4 -8 -5t-10.5 -1.5t-11 -1.5t-9.5 -4zM247 189l-9 -46q-2 -9 -14 -10t-34 -1l-17 8q-35 16 -38.5 39t12.5 49q2 6 10 10t13 5l31 2q10 -3 12 -3.5t2 -2.5q0 -1 7.5 -3.5t9.5 -4.5q4 -4 8 -13.5t9 -11.5l-20 -16q1 -3 -3 -3
q-1 0 -1.5 0.5t2.5 0.5q5 0 8 2.5t8 -0.5l1 -0.5t3 -0.5zM247 447q6 -14 -3 -19.5t-13 -11.5q-4 -9 -12.5 -10t-31.5 0l-18 8q-34 13 -34 39q0 9 4 19t10 21q2 6 10 10t13 4l28 2q9 -2 11.5 -2.5t2.5 -2.5t6.5 -4.5t8.5 -4.5q5 -4 9 -12.5t9 -13.5l-8 -11q0 -1 3 -6t5 -5z
" />
    <glyph glyph-name="FL00F8h" unicode="&#xf8;" 
d="M3 412q0 17 8 36.5t4 35.5q1 4 4.5 13t7 19.5t7 19.5t4.5 13q5 13 9.5 21.5t9 15.5t10.5 14t14 18q1 2 5 12t6 12q11 10 31.5 18.5t43.5 14.5t44.5 9.5t35.5 3.5q15 0 15 -14q0 -10 -8.5 -15t-8.5 -14q0 -5 5 -7.5t11 -4t11.5 -3t7.5 -4.5l19 -31q6 -8 8 -12t3.5 -8
t3.5 -9t8 -13q6 -9 10.5 -14t7.5 -10t4.5 -12t1.5 -19q0 -17 -2 -34.5t-2 -35.5v-2q0 -5 2.5 -21.5t5 -36t5 -36.5t2.5 -21v-3q0 -2 0.5 -5t0.5 -7v-8q0 -2 -0.5 -5.5t-0.5 -5.5v-4q-3 -5 -9.5 -7t-6.5 -8q0 -8 7 -12t9 -12q0 -4 2 -18t2 -20q0 -19 -12.5 -42.5t-29 -46.5
t-34 -43.5t-27.5 -33.5l-0.5 -1t-0.5 -2q0 -5 2.5 -8t2.5 -8q0 -8 -16.5 -10t-31.5 -2h-15q-8 0 -24.5 3t-34.5 8.5t-33 12.5t-19 15q-8 14 -22 28t-16 30v34q-1 6 -5.5 10t-6.5 10q-1 3 -3.5 11t-5 16.5t-4.5 16t-2 9.5q-5 23 -7 45.5t-2 45.5t0.5 45t-3.5 45q0 2 -3.5 8
t-3.5 7t-0.5 5.5t-0.5 7.5zM146 369q20 26 35 45t26 35q1 5 2.5 13t1.5 10v2q0 2 0.5 4t0.5 4v3q0 12 -7 19t-14.5 11t-13.5 7t-4 8h-8q-2 0 -3 -2t0 -10l-24 -68v-7q0 -12 4 -24t4 -25v-14q0 -8 -1 -13q1 0 1 2zM168 249l-5 -13q-1 -3 -7 -15t-14 -27q8 -15 17.5 -29.5
t13.5 -14.5q6 0 11.5 8.5t7.5 10.5q1 2 4.5 8t8 13t8.5 13t6 8v6q0 26 -1.5 49.5t-2.5 47.5z" />
    </font>
</defs>
</svg>
