<?xml version="1.0" standalone="no"?>
<!DOCTYPE svg PUBLIC "-//W3C//DTD SVG 1.1//EN" "http://www.w3.org/Graphics/SVG/1.1/DTD/svg11.dtd" >
<svg xmlns="http://www.w3.org/2000/svg" xmlns:xlink="http://www.w3.org/1999/xlink" version="1.1">
<metadata>
Created by FontForge 20161116 at Sat Sep 28 16:17:45 2013
 By Jimmy Wärting
Copyright (c)  Imagex 2013
</metadata>
<defs>
<font id="ComixLoud" horiz-adv-x="1991" >
  <font-face 
    font-family="Comix Loud"
    font-weight="400"
    font-stretch="normal"
    units-per-em="2048"
    panose-1="3 0 6 0 0 0 0 0 0 0"
    ascent="1638"
    descent="-410"
    cap-height="2448"
    bbox="47.1144 -1117.72 4283 2916.7"
    underline-thickness="150"
    underline-position="-142"
    unicode-range="U+0020-20AC"
  />
<missing-glyph horiz-adv-x="2987" 
 />
    <glyph glyph-name=".notdef" horiz-adv-x="2987" 
 />
    <glyph glyph-name="space" unicode=" " horiz-adv-x="819" 
 />
    <glyph glyph-name="space" unicode="&#xa0;" horiz-adv-x="819" 
 />
    <glyph glyph-name="exclam" unicode="!" horiz-adv-x="1267" 
d="M1217 2458c-76.667 -999.333 -136.667 -1708.33 -180 -2127c-238.667 -43.333 -499.334 -57 -782.001 -41c0 4.66699 -2.33301 7.66699 -7 9c-11.333 451.333 -6 1153 16 2105c350.667 64 668.334 82 953.001 54zM793 47c90 -14.667 165.667 -37.668 227 -69.001
c92.667 -59.333 141 -122.666 145 -189.999c3.33301 -64.667 -12 -116 -46 -154c-50.667 -58.667 -138.667 -113 -264 -163c-208.667 -65.333 -376.667 -79 -504 -41c-142.667 53.333 -233.334 144 -272.001 272c-19.333 150.667 66.334 254.667 257.001 312
c164.667 44.667 317 55.667 457 33z" />
    <glyph glyph-name="quotedbl" unicode="&#x22;" horiz-adv-x="2349" 
d="M720 2911c154.667 -20 256 -112.334 304 -277.001c109.333 -532.667 -88 -867 -592 -1003c-168.667 -12 -223 38.667 -163 152c170.667 80.667 206.667 207.334 108 380.001c-210.667 20.667 -319.667 120 -327 298c4.66699 86 19 147.667 43 185
c106.667 206.667 315.667 295 627 265zM1831 2911c154.667 -20 256 -112.334 304 -277.001c109.333 -532.667 -88 -867 -592 -1003c-168.667 -12 -223 38.667 -163 152c170.667 80.667 206.667 207.334 108 380.001c-210.667 20.667 -319.667 120 -327 298
c4.66699 86 19 147.667 43 185c106.667 206.667 315.667 295 627 265z" />
    <glyph glyph-name="numbersign" unicode="#" horiz-adv-x="2637" 
d="M2548 88c-1120 26 -1915.33 47.334 -2386 64.001c-52.667 151.333 -72.667 316.666 -60 495.999c5.33301 0.666992 8.66602 2.66699 9.99902 6c506 17.333 1292 30.333 2358 39c78 -222 104 -423.667 78 -605zM2515 908.001c-1120 26.667 -1915.33 47.999 -2386 63.999
c-52.667 151.333 -72.667 317 -60 497c5.33301 0.666992 8.66602 2.33398 9.99902 5.00098c506 18 1292 31.333 2358 40c78 -222 104 -424 78 -606zM524.002 -356c91.333 1116.67 158.667 1909.33 202 2378c154 44 320.667 54 500 30c0 -4.66699 1.33301 -7.66699 4 -9
c-11.333 -505.333 -44 -1290.67 -98 -2356c-225.333 -65.333 -428 -79.666 -608 -42.999zM1345 -371.003c91.333 1116.67 158.999 1909.33 202.999 2378c154 44.667 320.333 55 499 31c0.666992 -4.66699 2.33398 -7.66699 5.00098 -9
c-11.333 -506.667 -44 -1292.33 -98 -2357c-226 -64.667 -429 -79 -609 -43z" />
    <glyph glyph-name="dollar" unicode="$" horiz-adv-x="2276" 
d="M2189 2362c-3.33301 -158 -48.001 -391.331 -134.001 -699.998c-168.667 38 -354.667 57 -558 57c-236 -4.66699 -409.333 -45 -520 -121c-142.667 -100 -207 -204.333 -193 -313c43.333 -108.667 136.666 -127.334 279.999 -56.001c144 48.667 244.667 73 302 73
c46 10.667 109.667 13.334 191 8.00098c113.333 -2.66699 212.333 -22.334 297 -59.001c80.667 -30.667 149.667 -87 207 -169c45.333 -58 80.333 -137 105 -237c40 -208.667 24.667 -425.667 -46 -651c-297.333 -689.333 -940.666 -943 -1930 -761l-25 788
c96.667 -26 226.334 -54.333 389.001 -85c551.333 -10.667 832 102.666 842 339.999c-12.667 151.333 -107 195 -283 131c-164 -64.667 -275.667 -102.667 -335 -114c-123.333 -11.333 -220 -7.5 -290 11.5s-150 66.833 -240 143.5c-24 18 -49 51 -75 99
c-43.333 61.333 -73.333 143 -90 245c-22 604 231.667 1034.33 761 1291c396.667 172.667 845 199 1345 79zM1624 1745c-214.667 6.66699 -428.333 16.667 -641 30c-9.33301 367.333 -21 710 -35 1028l675 52c-6 -377.333 -5.66699 -747.333 1 -1110zM1684 -887.998
c-204 6 -407 15.667 -609 29c-8.66699 348 -19.667 673.333 -33 976l641 49c-6 -358.667 -5.66699 -710 1 -1054z" />
    <glyph glyph-name="percent" unicode="%" horiz-adv-x="2827" 
d="M997 2411c79.333 -79.333 137.002 -171.999 173.002 -277.999c18.667 -64 27 -128 25 -192c-54.667 -390.667 -302.334 -570.334 -743.001 -539.001c-126 20 -226 79 -300 177c-49.333 72.667 -78.666 152 -87.999 238c-9.33301 92.667 2.66699 187 36 283
c32 78 63.333 137.667 94 179c7.33301 15.333 34.666 45.666 81.999 91c259.333 212 499.666 225.667 720.999 41zM449.002 1857c22 -66.667 71 -100.665 147 -101.998c67.333 -4.66699 121.333 15.666 162 60.999c44 57.333 54.333 114.666 31 171.999
c-33.333 73.333 -82.333 109.333 -147 108c-82 -6 -141.667 -48.333 -179 -127c-17.333 -40 -22 -77.333 -14 -112zM2576 452.003c79.333 -79.333 137 -171.998 173 -277.998c18.667 -64 27 -128 25 -192c-54.667 -390.667 -302.334 -570.334 -743 -539.001
c-126 20 -226 79 -300 177c-49.333 72.667 -78.666 152 -87.999 238c-9.33301 92.667 2.66699 187 36 283c32 78 63.333 137.667 94 179c7.33301 15.333 34.666 45.666 81.999 90.999c259.333 212 499.666 225.667 721 41zM2028 -101.995
c22 -66.667 71 -100.665 147 -101.998c67.333 -4.66699 121.333 15.666 162 60.999c44 57.333 54.333 114.666 31 171.999c-33.333 73.333 -82.333 109.333 -147 108c-82 -6 -141.667 -48.333 -179 -127c-17.333 -40 -22 -77.333 -14 -112zM2352 2335.01l-1123 -2998
c-221.333 18 -448 85.333 -680 202c2 6.66699 1.33301 11.667 -2 15c196.667 653.333 521.667 1660.33 975 3021c326 -24.667 602.667 -104.667 830 -240z" />
    <glyph glyph-name="ampersand" unicode="&#x26;" horiz-adv-x="2612" 
d="M1266 2255c168.667 -14 313.664 -89.335 434.997 -226.002c103.333 -132 160 -252.667 170 -362c35.333 -302.667 -94 -530 -388 -682c31.333 -23.333 102.333 -56.333 213 -99c20 42 54.333 101.667 103 179c140.667 -43.333 273.667 -97.666 399.001 -162.999
l-106 -269c136.667 -100 293.334 -227.333 470.001 -382c-52 -40 -131 -108 -237 -204l-228 -171l-18 2l-195 262c2.66699 -33.333 -106.666 -145.666 -327.999 -336.999c-270.667 -187.333 -517 -278.666 -739 -273.999c-328.667 31.333 -559.667 207.666 -693 528.999
l-15 68v9c-39.333 228 30.667 458 210 690c142 148.667 237.667 232.667 287 252l-1 9c-100 157.333 -154.667 291 -164 401c-26 300.667 79.333 524.667 316 672c194 91.333 363.667 123.333 509 96zM976.997 1478l75.001 -155
c297.333 130.667 351.666 249.667 162.999 357c-128 17.333 -205.667 -29.667 -233 -141zM744.998 274.998c7.33301 -38.667 31.667 -60.333 73 -65l36 -3c144 -14 332 76 564 270c-139.333 66.667 -262.333 130.667 -369 192c-216.667 -104.667 -318 -236 -304 -394z" />
    <glyph glyph-name="quotesingle" unicode="'" horiz-adv-x="1238" 
d="M720 2911c154.667 -20 256 -112.334 304 -277.001c109.333 -532.667 -88 -867 -592 -1003c-168.667 -12 -223 38.667 -163 152c170.667 80.667 206.667 207.334 108 380.001c-210.667 20.667 -319.667 120 -327 298c4.66699 86 19 147.667 43 185
c106.667 206.667 315.667 295 627 265z" />
    <glyph glyph-name="parenleft" unicode="(" 
d="M1892 2752l-4.00098 -505.001c-667.333 -342 -975 -919.667 -923 -1733c121.333 -546.667 430.666 -853 927.999 -919l48 -347c-109.333 -72.667 -234.666 -107.667 -375.999 -105c-200 -21.333 -398.333 16.334 -595 113.001c-232 128.667 -437 327.667 -615 597
c-56 90.667 -104 188 -144 292c-57.333 170 -92.666 321 -105.999 453c-36.667 385.333 17.333 757 162 1115c68 164 168.667 322.667 302 476c173.333 194 373 346 599 456c188 84 354.333 124.333 499 121c178 3.33301 253 -1.33398 225 -14z" />
    <glyph glyph-name="parenright" unicode=")" 
d="M99 -848l4.00098 504.999c667.333 342 975 919.667 923 1733c-121.333 546.667 -430.666 853 -927.999 919l-48 347c109.333 72.667 234.666 107.667 375.999 105c200 21.333 398.333 -16.667 595 -114c232 -128 437 -326.667 615 -596c56 -90.667 104 -188 144 -292
c57.333 -170 92.666 -321 105.999 -453c36.667 -385.333 -17.333 -757 -162 -1115c-68 -164 -168.667 -322.667 -302 -476c-173.333 -194 -373 -346 -599 -456c-188 -84 -354.333 -124.333 -499 -121c-178 -3.33301 -253 1.33398 -225 14.001z" />
    <glyph glyph-name="asterisk" unicode="*" horiz-adv-x="4410" 
d="M2538 2559l11.998 -2.00586h25l13 2c1.33301 0 2 -0.666992 2 -2l14 2l14 -2l9 2l13 -2c13.333 1.33301 24.666 2 34 2h7c2 0 3 -0.666992 3 -2l4 2c11.333 0 19.666 -0.666992 25 -2l21 2c149.333 -9.33301 259 -21 329 -35c146.667 -29.333 264 -62.666 352 -99.999
l218 -94c84 -47.333 177.333 -107.333 280 -180l77 -106c56.667 -55.333 88.334 -98.333 95 -129c4 -3.33301 19.334 -35.333 46 -96c50.666 -106.667 87.666 -209.667 111 -309c3.33398 -11.333 5 -18.333 5 -21h-3l9 -61h-2c3.33398 -7.33301 6.33398 -17.333 9 -30h-2
c4.66602 -14 10.666 -49.333 18 -106l-2 -4c2.66602 -15.333 4 -24 4 -26c0 -1.33301 -0.666016 -2 -2 -2l5 -29l-3 -4l5 -26c-1.33398 -3.33301 -2 -5.66602 -2 -6.99902c1.33398 -8 2 -15.667 2 -23h-2l2 -5v-19c0 -8 -1.66602 -12 -5 -12l3 -4
c-2 -30 -3.66602 -45.667 -5 -47c1.33398 -3.33301 2 -5.66602 2 -6.99902c0 -8.66699 -1.33398 -27.334 -4 -56.001c1.33398 -13.333 2 -24.333 2 -33c-1.33398 -19.333 -2 -29.666 -2 -30.999c0 -0.666992 0.666016 -3.66699 2 -9c-6 -46.667 -13.666 -85 -23 -115
c-1.33398 -9.33301 -2 -20 -2 -32v-3c-26 -83.333 -45.666 -128.666 -59 -135.999c-32 -52.667 -48 -82.334 -48 -89.001c-37.334 -41.333 -71.334 -75.666 -102 -102.999c-34.667 -40 -80 -78 -136 -114c-114 -75.333 -215.667 -131 -305 -167
c-72.667 -47.333 -169.334 -91.666 -290.001 -132.999c-168.667 -54.667 -368.667 -104 -600 -148l-5 3c-16.667 -4.66699 -56.667 -11 -120 -19c-1.33301 0 -2 0.666992 -2 2l-62 -7v3c-10.667 -5.33301 -38.667 -9.33301 -84 -12l-20 2l-9 -2c-2 0 -4.33301 0.666992 -7 2
c-10.667 -1.33301 -19 -2 -25 -2h-14c-3.33301 0 -6.33301 0.666992 -9 2c-2.66699 -1.33301 -5.66699 -2 -9 -2c-4 0 -10 0.666992 -18 2l-11 -2l-12 2c-24 -3.33301 -37.667 -5 -41 -5l-4 3l-5 -3c-26.667 2.66699 -41 4.33398 -43 5.00098c-6 -3.33301 -10.667 -5 -14 -5
c-2.66699 2 -4.66699 3 -6 3c-2 0 -3 -1 -3 -3l-11 3h-27c-3.33301 0 -6.33301 0.666992 -9 2c-1.33301 -1.33301 -17.333 -3 -48 -5c-220.667 14.667 -372.334 32 -455.001 52c-136.667 22 -272 47 -406 75c-118.667 24 -193.667 48.333 -225 73
c-67.333 34 -115 51 -143 51c-38.667 0 -101.667 -10 -189 -30c-251.333 -92.667 -431.666 -139 -540.999 -139h-2c-24.667 0 -39 9.66699 -43 29c0 84.667 69.667 172.667 209 264c51.333 28.667 95.333 66.334 132 113.001c19.333 29.333 45 54.333 77 75
c6 6 12 16.667 18 32v21c0 13.333 -1.33301 23.666 -4 30.999l2 5c-7.33301 33.333 -30.666 70.666 -69.999 111.999c-34.667 69.333 -60.667 146.666 -78 231.999c0 4 -2.33301 17.333 -7 40h3c-4.66699 10.667 -8.66699 43.334 -12 98.001c0 1.33301 1 2 3 2l-3 12v14
c0 1.33301 1 2 3 2c-2 3.33301 -3 5.66602 -3 6.99902c0 8 1 20 3 36l-3 11l3 10c-3.33301 10.667 -5.66602 26.334 -6.99902 47.001c0 54 14.333 143.667 43 269c20 76 38.333 127.333 55 154c10.667 28 32.334 66.333 65.001 115c22 55.333 62.333 124 121 206
c42 50 87.333 96 136 138c0 4.66699 19 21.334 57 50.001l100 68c23.333 21.333 47.666 37.666 72.999 49c2 3.33301 31.333 21.333 88 54c23.333 9.33301 69 31 137 65c391.333 117.333 604 176 638 176c152.667 22 255.667 37.667 309.001 47h14c1.33301 0 2 -1 2 -3l4 3
h19c3.33301 0 6.33301 0.666992 9 2c2.66699 -1.33301 5.66699 -2 9 -2c4.66699 1.33301 7 2.66602 7 4l11 -2l14 2c1.33301 0 2 -0.666992 2 -2l57 7c1.33301 0 2 -0.666992 2 -2l61 4l9 -2c20 3.33301 39.667 5 59 5h28l13 2c2.66699 -1.33301 5.66699 -2 9 -2
c8.66699 1.33301 15 2 19 2v-2c8.66699 1.33301 13 2.66602 13 4zM2584 2423.99c-2 0 -2.99805 0.665039 -2.99805 1.99805c-137.333 -8 -220.666 -13.333 -250 -16v2l-4 -2c-16.667 0 -34 -1.66699 -52 -5c-2 0 -3 0.666992 -3 2
c-50.667 -4.66699 -114.334 -11.667 -191.001 -21v2c-92 -12.667 -176.667 -29.667 -254 -51c-194.667 -44 -354.334 -92.333 -479.001 -145l-96 -45c-80.667 -38 -126.667 -61.333 -138 -70c-3.33301 0 -13.333 -7 -30 -21c-36 -20 -77.667 -50.333 -125 -91
c-15.333 -6.66699 -34.333 -22.334 -57 -47.001c-6.66699 0 -28.667 -24.333 -66 -73c-130.667 -160.667 -197 -254.334 -199 -281.001c-48.667 -148 -87.334 -280.667 -116.001 -398c2.66699 -12 4 -19 4 -21s-0.666992 -3 -2 -3l2 -11v-31
c0 -1.33301 -1.33301 -9.66602 -4 -24.999l2 -17c-2 -4.66699 -4.33301 -15.667 -7 -33c6 -17.333 13 -41.333 21 -72h-3l9 -33c0 -1.33301 -0.666992 -2 -2 -2l11 -64h-2c26 -87.333 53.333 -158.333 82 -213c18.667 -39.333 53.667 -104 105 -194
c2.66699 -6 4 -14.667 4 -26c0 -16 -22 -33 -66 -51c-82 -52 -156 -106.667 -222 -164l-46 -61v-7c30 0 110.333 30.333 241 91c68 32.667 118.667 49 152 49c40 0 133.333 -33.333 280 -100c73.333 -32 185.333 -64 336 -96c10.667 -0.666992 19.667 -3 27 -7l5 2
c157.333 -12.667 256.333 -24.334 297 -35.001h3c2 1.33301 5 2 9 2c2 0 8 -1.66699 18 -5l11 3c18.667 -6.66699 70.334 -12.334 155.001 -17.001c121.333 -9.33301 185.666 -14.666 193 -15.999l13 2c38 -2.66699 57.667 -4 59 -4c6 0 13 0.666992 21 2
c8 -1.33301 17 -2 27 -2h14l7 4h2c80 4 120 8.66699 120 14c11.333 0 38 3.33301 80 10v-3l154 26v-2c173.333 31.333 306.666 61 400 89v-3c160.667 48 293.334 100.333 398 157c12 12 83 48.667 213 110c77.333 45.333 159.333 104 246 176c44 36.667 66 59.334 66 68.001
c4.66699 0 12 15.667 22 47c2.66699 0 5.66699 9.33301 9 28c17.333 28.667 30.333 61.334 39 98.001c0 10.667 5.33301 32 16 64c3.33301 26 8.66602 49.333 16 70l2 37c-1.33301 2.66699 -2 6 -2 10c2.66699 0 4 1.33301 4 4v21c6 15.333 9 24 9 26
c0 2.66699 -1.33301 9.66699 -4 21l4 3l-2 4c0 10 1.66699 29.667 5 59c-3.33301 4.66699 -6.33301 14.667 -9 30h2l-7 33l2 5c-1.33301 8 -2 15 -2 21v2c0 2 0.666992 3 2 3l-4 28l2 4c-1.33301 20.667 -4.33301 41 -9 61h2l-25 103h3c-8 22.667 -15 47 -21 73h2
c-33.333 122.667 -54.333 197.667 -63 225v2h2c-38 88.667 -90.333 175.334 -157 260.001c-42.667 50.667 -78.334 83.334 -107 98.001c-55.333 44 -123.333 89.333 -204 136c-6 7.33301 -47 27 -123 59c-105.333 48 -216.666 85.333 -334 112
c-51.333 9.33301 -139.666 18.666 -265 28l-5 -2c-26.667 2 -41 3.66699 -43 5c-8 -2 -12 -3.66699 -12 -5c-16 3.33301 -41.667 5 -77 5h-9c-1.33301 0 -2 0.666992 -2 2c-6 -4.66699 -15 -7.66699 -27 -9zM3722 2024.99c3.33301 0 18.333 -238 45 -714
c4.66699 -88 7 -141.667 7 -161c-110 -36 -197.667 -54 -263 -54c-4 0 -18.667 98.333 -44 295l-66 566c120.667 45.333 227.667 68 321 68zM3363 1971.99c2.66699 -10 18.6631 -281.669 47.9961 -815.002l25 -378c-92 -59.333 -168.667 -99.666 -230 -120.999l-4 -3
c-9.33301 62 -26 226 -50 492c-2.66699 0 -43 -15.667 -121 -47c6 -76 13.667 -204.667 23 -386c-79.333 -34.667 -165.666 -66 -259 -94c-1.33301 0 -2 1 -2 3c0 5.33301 -1 24.666 -3 57.999h-2c-48.667 -25.333 -115.334 -44 -200 -56c-56 172 -84 261 -84 267h-16
c-37.333 0 -78.333 -7 -123 -21c-13.333 -148 -20.666 -239.333 -21.999 -274c-37.333 -20.667 -82 -31 -134 -31c-40.667 0 -87.667 8.66699 -141 26v5c0 8 0.666992 19.667 2 35c-194 -50 -392.333 -104 -595 -162c-3.33301 4.66699 -14.666 91.334 -33.999 260.001
c-70 439.333 -110.333 687 -121 743h-2c0 -74 -50.667 -367 -152 -879l-52 -234c-70.667 21.333 -129 44 -175 68c-68 36 -106 58.667 -114 68c0 5.33301 26.667 188 80 548c-82 38.667 -183.667 95 -305 169c76 156.667 115.333 235.334 118 236.001
c136.667 -82.667 211.667 -124 225 -124c18.667 98.667 35.334 212 50.001 340l5 2c133.333 -48.667 237 -94.667 311 -138v2c-12 72.667 -18 114 -18 124c7.33301 4.66699 83 19.667 227 45c176 36 315.333 65.667 418 89c8.66699 -22.667 16.334 -67.334 23.001 -134.001
c4.66699 -58 7 -119.667 7 -185c-5.33301 -2.66699 -53.333 -12 -144 -28c-73.333 -17.333 -151.333 -38.333 -234 -63c4.66699 -52 8.66699 -86.333 12 -103c109.333 26.667 176.666 40 201.999 40h2c4.66699 0 12.334 -58 23.001 -174c1.33301 0 4.33301 -22.333 9 -67
l-188 -54c10 -81.333 16.667 -122 20 -122c15.333 0 84.333 19.333 207 58c52.667 14.667 101.667 25.667 147 33c20 -58.667 39 -149 57 -271h2l71 627c24 253.333 37.667 385.333 41 396c50 42.667 104.333 70.667 163 84c50.667 14 94 21 130 21
c4.66699 -11.333 100.667 -340.666 288 -987.999h3v5c-28.667 385.333 -61.334 721.666 -98 1009c64.667 23.333 161 49 289 77c1.33301 -2.66699 2 -5 2 -7c0 -134 12 -325 36 -573h2l123 49c-9.33301 98.667 -22 253.334 -38 464.001c76 34 166 63.667 270 89z
M2381 1345.99l-2 -10.999c0 -58 -3.66699 -141.667 -11 -251c10 3.33301 41 8.66602 93 15.999c-22.667 80.667 -48.334 162.667 -77 246h-3zM3690 1024.99c80.667 0 132.334 -27.332 155 -81.999c2.66699 -11.333 4 -22 4 -32c0 -58 -53 -108 -159 -150
c-29.333 -9.33301 -53.666 -14 -73 -14c-56.667 0 -101.334 32.667 -134 98c-4.66699 11.333 -7 24.666 -7 39.999c0 67.333 60.667 113.333 182 138z" />
    <glyph glyph-name="plus" unicode="+" horiz-adv-x="1966" 
d="M1916 1239c-0.666992 -232.667 -7.00098 -464.333 -19.001 -695c-617.333 -29.333 -1192.67 -60 -1726 -92l-121 728c634.667 13.333 1256.67 33 1866 59zM1377 -86.999c-232.667 0.666992 -464.333 7 -695 19c-29.333 617.333 -60 1192.33 -92 1725l728 122
c13.333 -635.333 33 -1257.33 59 -1866z" />
    <glyph glyph-name="comma" unicode="," horiz-adv-x="1238" 
d="M720 717c154.667 -20 256 -112.334 304 -277.001c109.333 -532.667 -88 -867 -592 -1003c-168.667 -12 -223 38.667 -163 152c170.667 80.667 206.667 207.334 108 380.001c-210.667 20.667 -319.667 120 -327 298c4.66699 86 19 147.667 43 185
c106.667 206.667 315.667 295 627 265z" />
    <glyph glyph-name="hyphen" unicode="-" horiz-adv-x="1640" 
d="M1590 1512c-0.666992 -232.667 -6 -464.333 -16 -695c-509.333 -29.333 -984 -60 -1424 -92l-100 728c524 13.333 1037.33 33 1540 59z" />
    <glyph glyph-name="period" unicode="." horiz-adv-x="1220" 
d="M793 40c90 -14.667 165.667 -37.668 227 -69.001c92.667 -59.333 141 -122.666 145 -189.999c3.33301 -64.667 -12 -116 -46 -154c-50.667 -58.667 -138.667 -113 -264 -163c-208.667 -65.333 -376.667 -79 -504 -41c-142.667 53.333 -233.334 144 -272.001 272
c-19.333 150.667 66.334 254.667 257.001 312c164.667 44.667 317 55.667 457 33z" />
    <glyph glyph-name="slash" unicode="/" horiz-adv-x="1905" 
d="M1855 2289l-1123 -3033c-221.333 18 -448 86 -680 204c2 6.66699 1.33301 12 -2 16c196.667 660 521.667 1678.33 975 3055c326 -24.667 602.667 -105.334 830 -242z" />
    <glyph glyph-name="zero" unicode="0" horiz-adv-x="2384" 
d="M1934 2086c158 -209.333 272.669 -454.001 344.002 -734.001c37.333 -170 54 -339.333 50 -508c-109.333 -1032.67 -602.333 -1508 -1479 -1426c-250.667 53.333 -449.334 209.333 -596.001 468c-98.667 193.333 -157.334 403.333 -176.001 630c-18 244 6 493.333 72 748
c63.333 206.667 126 364.334 188 473.001c14.667 42 69 122.333 163 241c514.667 562 992.667 598 1434 108zM794.002 530.999c52 -270.667 167.666 -408.667 346.999 -414c158 -16.667 284.667 66 380 248c104.667 232 128.667 465 72 699
c-77.333 297.333 -192.666 443.333 -345.999 438c-194 -27.333 -335 -199 -423 -515c-40.667 -162 -50.667 -314 -30 -456z" />
    <glyph glyph-name="one" unicode="1" horiz-adv-x="1976" 
d="M1926 2367c-67.333 -946.667 -90.666 -1902.67 -69.999 -2868c-476.667 -92 -847.334 -89 -1112 9c120.667 659.333 194.667 1248.67 222 1768c-48.667 -46.667 -91 -92.667 -127 -138c-288.667 14 -551.667 73.667 -789 179c309.333 342.667 605 699.667 887 1071
c327.333 14.667 657 7.66699 989 -21z" />
    <glyph glyph-name="two" unicode="2" horiz-adv-x="2527" 
d="M1340 2421c172 14.667 363.331 -20.999 573.998 -106.999c308 -196.667 461.667 -456 461 -778c5.33301 -363.333 -263.667 -766 -807 -1208c288 13.333 591 12 909 -4c-3.33301 -341.333 -35 -633.333 -95 -876c-297.333 76.667 -972.333 65 -2025 -35
c-98 275.333 -144 543.333 -138 804c659.333 414 1036 741 1130 981c33.333 65.333 49.666 123.666 48.999 174.999l-1 13c-3.33301 161.333 -91.333 231.333 -264 210c-173.333 -55.333 -237.666 -214.333 -192.999 -477c-105.333 9.33301 -375.333 39.333 -810 90
c-53.333 136 -36.666 311.333 50.001 526c226.667 440 613.334 668.667 1160 686z" />
    <glyph glyph-name="three" unicode="3" horiz-adv-x="2279" 
d="M1447 2429c492.667 -90.667 710.666 -360.667 654 -810c-40 -193.333 -145.667 -369.333 -317 -528c123.333 -128.667 217 -279.667 281 -453c109.333 -464 17.333 -808.667 -276 -1034c-236 -194 -536.333 -273 -901 -237c-462.667 85.333 -742 225 -838 419
c35.333 248.667 145.333 429.667 330 543c90.667 -98.667 184 -171.334 280 -218.001c401.333 -146.667 608.666 -59.334 621.999 261.999c-39.333 210.667 -236.666 317.334 -591.999 320.001c-20.667 202 -14.667 377 18 525c125.333 -4 244.333 42.333 357 139
c92.667 126.667 74 233.334 -56 320.001c-156.667 32 -329.334 -28 -518.001 -180c-167.333 220.667 -259.666 446 -276.999 676c294 214 705 299.333 1233 256z" />
    <glyph glyph-name="four" unicode="4" horiz-adv-x="2275" 
d="M1226 2438c338.667 -88 629.666 -269.001 872.999 -543.001c-334 -429.333 -614.667 -744.666 -842 -945.999c454.667 0 777.334 14.667 968.001 44c-6 -288 -32 -571.333 -78 -850c-191.333 26 -344 30.333 -458 13c-10 -237.333 0.666992 -475.333 32 -714
c-370 -78 -663.667 -87 -881 -27c2 381.333 12.333 623.333 31 726c-294 0.666992 -532.667 3.33398 -716 8.00098c-70 256 -85 537.667 -45 845c415.333 379.333 787.333 860.666 1116 1444z" />
    <glyph glyph-name="five" unicode="5" horiz-adv-x="2284" 
d="M2102 2431c20.667 -232.667 28.666 -480.333 23.999 -743c-392 18.667 -821 23.667 -1287 15l-4 -144c94 13.333 212.333 7.66602 355 -17.001c336.667 -67.333 611.334 -230.333 824.001 -489c146.667 -178 206 -402 178 -672
c-102 -403.333 -284.333 -687.666 -547 -852.999c-284 -144 -547 -191.667 -789 -143c-356 78.667 -624.667 203 -806 373c33.333 197.333 119.333 417.333 258 660c614 -212.667 950 -211.667 1008 3c18.667 296 -226.333 454.667 -735 476
c-158 -10 -311.667 -20.333 -461 -31c-10 636.667 -2 1149.67 24 1539c783.333 -20 1436 -11.333 1958 26z" />
    <glyph glyph-name="six" unicode="6" horiz-adv-x="2649" 
d="M2369 2211c36 -265.333 14.334 -519 -64.999 -761c-374 156 -670.333 181.667 -889 77c-164 -118.667 -234.333 -303.667 -211 -555c153.333 73.333 328.666 109 525.999 107c352 -34 585 -221.667 699 -563c114 -406.667 35 -718.334 -237 -935.001
c-410.667 -281.333 -867.667 -290.666 -1371 -27.999c-228 169.333 -387 360.333 -477 573c-198 600 -169 1143.67 87 1631c139.333 226 259.333 380.333 360 463c437.333 338.667 963.333 335.667 1578 -9zM1309 222c-3.33301 -108.667 40.999 -183 132.999 -223
c148 -23.333 260.333 21.667 337 135c70 167.333 22.667 284.333 -142 351c-223.333 8.66699 -332.666 -79 -327.999 -263z" />
    <glyph glyph-name="seven" unicode="7" horiz-adv-x="2545" 
d="M2475 2424c13.333 -268.667 8 -554.668 -16 -858.001c-653.333 -808.667 -1064 -1552.67 -1232 -2232c-316.667 -6.66699 -666.667 22 -1050 86c100 300 196.333 558.333 289 775c217.333 440.667 479 860.334 785 1259c-410 -41.333 -804.333 -46 -1183 -14
c-12 288.667 12.333 599 73 931c726.667 -18 1504.67 -0.333008 2334 53z" />
    <glyph glyph-name="eight" unicode="8" horiz-adv-x="2819" 
d="M1727 2515c491.333 -118.667 756.331 -400.334 794.998 -845c18 -298 -117.333 -528 -406 -690c275.333 -76 449 -297.667 521 -665c27.333 -304 -121.334 -572.333 -446 -805c-390 -211.333 -785.333 -264 -1186 -158c-267.333 58 -471.666 182.333 -612.999 373
c-307.333 432.667 -248.666 833 176.001 1201c-194 155.333 -292.667 381.333 -296 678c-3.33301 232 126 455.667 388 671c316 214 671.667 294 1067 240zM1217 1276c200.667 -80 357.999 -46 471.999 102c60.667 179.333 11.334 299.333 -147.999 360
c-184.667 45.333 -322 -12.334 -412 -173.001c-15.333 -153.333 14 -249.666 88 -288.999zM1194 0c228 -104.667 418.667 -74.334 572 90.999c94.667 204 51 346 -131 426c-212.667 63.333 -382.667 4.33301 -510 -177c-37.333 -177.333 -14.333 -290.666 69 -339.999z" />
    <glyph glyph-name="nine" unicode="9" horiz-adv-x="2671" 
d="M107 -361c4 225.333 81 455.001 231 689.001c367.333 -267.333 670 -360.666 908 -279.999c193.333 92 279.333 330.667 258 716c-160 -80.667 -339.667 -126.667 -539 -138c-354 11.333 -610.333 169.666 -769 474.999c-78 383.333 23.667 746.666 305 1090
c437.333 348.667 944 373.334 1520 74.001c221.333 -144.667 369 -353 443 -625c137.333 -570 89.666 -1099.33 -143 -1588c-450.667 -802.667 -1188.67 -940.334 -2214 -413.001zM1518 1498c28.667 159.333 -39.666 261 -204.999 305
c-176.667 -9.33301 -303.334 -86 -380.001 -230c-76 -232.667 -32 -359 132 -379c263.333 0.666992 414.333 102 453 304z" />
    <glyph glyph-name="colon" unicode=":" horiz-adv-x="1242" 
d="M793 40c90 -14.667 165.667 -37.668 227 -69.001c92.667 -59.333 141 -122.666 145 -189.999c3.33301 -64.667 -12 -116 -46 -154c-50.667 -58.667 -138.667 -113 -264 -163c-208.667 -65.333 -376.667 -79 -504 -41c-142.667 53.333 -233.334 144 -272.001 272
c-19.333 150.667 66.334 254.667 257.001 312c164.667 44.667 317 55.667 457 33zM449 452.999c-90 15.333 -165.999 38.333 -227.999 69c-92 60 -140 123.333 -144 190c-3.33301 64.667 12 116.334 46 155.001c50.667 58.667 138.667 112.667 264 162
c208 65.333 375.667 79 503 41c143.333 -52.667 234.333 -143.334 273 -272.001c19.333 -150 -66.334 -253.667 -257.001 -311c-164.667 -44.667 -317 -56 -457 -34z" />
    <glyph glyph-name="semicolon" unicode=";" horiz-adv-x="1258" 
d="M427 367c-90 16.667 -165.999 42.6699 -227.999 78.0029c-92 67.333 -140 139.333 -144 216c-3.33301 73.333 12 131.666 46 174.999c50.667 66.667 138.667 128 264 184c208 74.667 375.667 90.667 503 48c143.333 -60.667 234.333 -164 273 -310
c19.333 -170.667 -66.334 -288.334 -257.001 -353.001c-164.667 -50.667 -317 -63.334 -457 -38.001zM740.001 164.003c154.667 -20 256 -112.334 304 -277.001c109.333 -532.667 -88 -867 -592 -1003c-168.667 -12 -223 38.667 -163 152
c170.667 80.667 206.667 207.334 108 380.001c-210.667 20.667 -319.667 120 -327 298c4.66699 86 19 147.667 43 185c106.667 206.667 315.667 295 627 265z" />
    <glyph glyph-name="less" unicode="&#x3c;" horiz-adv-x="2614" 
d="M2564 1268c-322.667 -54 -593.335 -109.001 -812.002 -165.001c-92.667 -20.667 -197 -48.667 -313 -84l-211 -77c476 -146 890 -253 1242 -321l38 -774l-624 202c-222 74 -446.333 141.333 -673 202c-222 74.667 -434.667 137.667 -638 189l-240 69l-67 175l-216 523
c176.667 98 366.334 189 569.001 273c22.667 17.333 214.334 87 575.001 209c106 46.667 464 141.334 1074 284.001c43.333 -61.333 92.666 -166 148 -314c59.333 -124 108.666 -254.333 148 -391z" />
    <glyph glyph-name="equal" unicode="=" horiz-adv-x="1959" 
d="M1864 612c-0.666992 -232.667 10.3311 -461.999 32.998 -687.999c-617.333 -29.333 -1192.67 -60 -1726 -92l-121 728c634.667 13.333 1239.33 30.666 1814 51.999zM108.998 784.001c0.666992 232.667 -14.999 461.999 -46.999 687.999
c617.333 29.333 1192.67 60 1726 92l121 -728c-634.667 -13.333 -1234.67 -30.666 -1800 -51.999z" />
    <glyph glyph-name="greater" unicode="&#x3e;" horiz-adv-x="2614" 
d="M50 552c322.667 54 593.333 109.001 812 165.001c92.667 20.667 197 48.667 313 84l211 77c-476 146 -890 253 -1242 321l-38 774l624 -202c222 -74 446.333 -141.333 673 -202c222 -74.667 434.667 -137.667 638 -189l240 -69l67 -175l216 -523
c-176.667 -98 -366.334 -189 -569.001 -273c-22.667 -17.333 -214.334 -87 -575.001 -209c-106 -46.667 -464 -141.334 -1074 -284.001c-43.333 61.333 -92.666 166 -147.999 314c-59.333 124 -108.666 254.333 -147.999 391z" />
    <glyph glyph-name="question" unicode="?" horiz-adv-x="2142" 
d="M1716 2353c250.667 -180 364.666 -460.001 342 -840.001c-32 -350.667 -291 -580.667 -777 -690c-6.66699 -280 -7.66699 -472.333 -3 -577c-210.667 -52.667 -430 -85 -658 -97c-12 210 4.66699 575 50 1095c185.333 2.66699 342.333 33 471 91
c206 93.333 243 220.333 111 381c-250.667 196.667 -488.667 119.334 -714 -231.999c-157.333 119.333 -320 256.333 -488 411c560 630.667 1115.33 783.334 1666 458zM1364 -110.001c33.333 -22.667 57.668 -72.998 73.001 -150.998
c5.33301 -106.667 -71.334 -203.334 -230.001 -290.001c-77.333 -44.667 -171 -75.334 -281 -92.001c-80 -8 -148.667 -5.33301 -206 8c-122 22.667 -208 70.667 -258 144c-26 33.333 -41.333 75 -46 125c-7.33301 100.667 60 193.667 202 279c166 84.667 329 112 489 82
c143.333 -34 229 -69 257 -105z" />
    <glyph glyph-name="A" unicode="A" horiz-adv-x="2324" 
d="M1734 2437l43.998 -250.998l496 -2616c-127.333 -69.333 -361 -108 -701 -116c-70.667 326 -109.667 504 -117 534l-29 141c-75.333 16.667 -212.333 16.667 -411 0l-173 -664c-247.333 -61.333 -511.666 -32.333 -792.999 87
c198.667 677.333 315.834 1068.17 351.501 1172.5s113.834 379.166 234.501 824.499l203 723c217.333 133.333 515.666 188.333 894.999 165zM1241 1292c-54 -279.333 -100.332 -498.333 -138.999 -657c83.333 3.33301 176.666 5 279.999 5
c-43.333 256 -90.333 473.333 -141 652z" />
    <glyph glyph-name="B" unicode="B" horiz-adv-x="2315" 
d="M2043 1809c148 -407.333 53.666 -697.333 -283.001 -870c156 -63.333 277.667 -143.333 365 -240c88 -135.333 126 -291.833 114 -469.5s-81.667 -325.834 -209 -444.501c-62.667 -69.333 -132.334 -124 -209.001 -164c-173.333 -98 -321.333 -155 -444 -171
c-88 -46 -282.333 -72.333 -583 -79c-119.333 -0.666992 -270.666 18 -453.999 56s-274.666 59.333 -273.999 64c-10.667 976.667 6.33301 1897.33 51 2762c166.667 84 422.334 139.667 767.001 167c599.333 17.333 985.666 -186.334 1159 -611zM874.999 1130
c384 -29.333 564.666 68.667 541.999 294c-9.33301 87.333 -53.666 145 -132.999 173c-146.667 36.667 -288 25 -424 -35c-1.33301 -149.333 3.66699 -293.333 15 -432zM903.998 73c462 -55.333 688.333 50 679 316c-19.333 100 -84 163.333 -194 190
c-153.333 38.667 -318.333 23 -495 -47c-3.33301 -174 0 -327 10 -459z" />
    <glyph glyph-name="C" unicode="C" 
d="M1892 2429l-37.999 -1192c-425.333 104 -698.833 15.333 -820.5 -266s-106.834 -510.666 44.499 -687.999c30 -20.667 69 -44 117 -70c142 -57.333 306.333 -36 493 64c65.333 47.333 117.666 80.666 156.999 99.999l96 -910c-109.333 -61.333 -234.666 -91 -375.999 -89
c-812 -44.667 -1301 311 -1467 1067c-57.333 316 -1 684.667 169 1106c68 138.667 168.667 272.667 302 402c173.333 164 373 292.667 599 386c188 70.667 354.333 104.667 499 102c178 2.66699 253 -1.33301 225 -12z" />
    <glyph glyph-name="D" unicode="D" horiz-adv-x="2257" 
d="M1946 2006c111.333 -163.333 181 -324.999 209 -484.999c25.333 -149.333 36.666 -245.666 34 -288.999c12 -544.667 -92.333 -950.334 -313 -1217s-571.667 -432.334 -1053 -497.001c-278.667 -63.333 -520.667 -76 -726 -38l11 550c0.666992 334 -1.33301 666 -6 996
l-52 1285c164.667 73.333 447 123.333 847 150s749.667 -125 1049 -455zM801 296.001c466.667 21.333 706.333 270.335 719 747.002c5.33301 202.667 -60 372 -196 508c-196 79.333 -376.333 87.666 -541 24.999c26 -522.667 32 -949.334 18 -1280z" />
    <glyph glyph-name="E" unicode="E" horiz-adv-x="2068" 
d="M1983 2476c23.333 -191.333 9.66699 -450.669 -41 -778.002c-421.333 -9.33301 -796.333 -40.333 -1125 -93c-8 -103.333 -11 -187.666 -9 -252.999c378 28.667 584.667 38 620 28l-9 -593l-563 -59l-8 -9c5.33301 -150.667 9 -250 11 -298l15 -5
c95.333 2.66699 214.333 16.334 357 41.001c138 25.333 370.667 48 698 68c49.333 -241.333 69 -533.666 59 -876.999c-201.333 -12.667 -816 -77.334 -1844 -194.001c2.66699 58.667 4 231.667 4 519s-16 755.333 -48 1404c-2 44.667 -4.66699 156.667 -8 336
c-28 376.667 -38.333 597.334 -31 662c710 27.333 1350.67 61 1922 101z" />
    <glyph glyph-name="F" unicode="F" horiz-adv-x="1969" 
d="M1887 2544c21.333 -484 21.667 -775.667 1 -875c-340.667 12 -671.334 -5.66699 -992.001 -53c-6.66699 -132 -6.33398 -254.333 0.999023 -367c236.667 18.667 422.334 29.667 557.001 33c7.33301 -146 -3 -371.667 -31 -677c-172 -10 -348.333 -21.667 -529 -35
c-5.33301 -62 1 -269.333 19 -622l33 -495c-294 -42 -573.667 -59 -839 -51c-10.667 62 -29 985.333 -55 2770c-1.33301 149.333 -0.666016 238 2.00098 266z" />
    <glyph glyph-name="G" unicode="G" horiz-adv-x="2411" 
d="M2293 2431c-116 -340.667 -169.002 -613.334 -159.002 -818.001c-338 60 -602.333 47 -793 -39c-203.333 -103.333 -349 -258 -437 -464c-152 -532.667 -99 -835.334 159 -908.001c217.333 -27.333 374.333 92.334 471 359.001
c-51.333 10.667 -210.666 2.66699 -477.999 -24v544c0 19.333 156.5 33.5 469.5 42.5s547.167 19.833 702.5 32.5c4.66699 -816 -240.333 -1357.33 -735 -1624c-592 -181.333 -1037 -16.666 -1335 494.001c-186 458.667 -138 1004 144 1636
c50.667 108 112.334 205 185.001 291c434.667 466 1036.67 625.333 1806 478z" />
    <glyph glyph-name="H" unicode="H" horiz-adv-x="2255" 
d="M1050 2526c-59.333 -419.333 -95 -892.667 -107 -1420c120 30 183 45 189 45c44.667 5.33301 109.334 19.333 194.001 42c11.333 242 32.333 619.667 63 1133c224.667 52.667 496.667 92.667 816 120c-116 -1336 -196.667 -2301 -242 -2895
c-268 -108 -508.667 -182 -722 -222c3.33301 230 19.333 632 48 1206l-376 -75c-4 -90 -30.333 -403.667 -79 -941l-412 -86l-372 -60c88.667 1199.33 133.667 2220.33 135 3063c253.333 41.333 541.666 71.333 864.999 90z" />
    <glyph glyph-name="I" unicode="I" horiz-adv-x="1365" 
d="M812 2448c390 -206.667 441.333 -464.999 154 -774.999c-189.333 -86.667 -375 -118.334 -557 -95.001c-101.333 16.667 -197.333 79 -288 187c-47.333 61.333 -66.333 148.333 -57 261c26 218 141.333 351.333 346 400c114 27.333 248 34.666 402 22zM1090 1393
c-63.333 -694.667 -126.001 -1341 -188.001 -1939c-185.333 -44 -349.833 -66.167 -493.5 -66.5s-219.167 0.5 -226.5 2.5c-47.333 430 -75.666 1086.67 -84.999 1970c190 58 521 69 993 33z" />
    <glyph glyph-name="J" unicode="J" horiz-adv-x="2464" 
d="M2316 1705c15.333 -60 40.999 -298.667 76.999 -716c14 -646 -180 -1113.67 -582 -1403c-201.333 -144.667 -427.666 -226.667 -678.999 -246c-205.333 -12.667 -383.666 6 -534.999 56c-146 60 -251.667 133.667 -317 221c-86.667 112.667 -149.334 248 -188.001 406
c-28 166 -26 357 6 573c62 294 170.333 504 325 630l7 -1c210.667 -62 406.334 -179.333 587.001 -352c-82 -106 -131.333 -221 -148 -345c-30.667 -209.333 34.666 -318 195.999 -326c123.333 8 224 54 302 138c128.667 130.667 153 557 73 1279
c307.333 51.333 599.333 80 876 86zM2065 2529c150 0 255.332 -63.667 315.999 -191l8 -37v-58c-5.33301 -66 -39.666 -144.667 -103 -236c-35.333 -36 -88.666 -73.333 -159.999 -112c-104 -65.333 -237.333 -104 -400 -116c-250 0 -380 88 -390 264
c10 124.667 71.333 233 184 325c152 110.667 333.667 164.334 545 161z" />
    <glyph glyph-name="K" unicode="K" horiz-adv-x="2254" 
d="M903 1610c220.667 133.333 452.001 333.667 694.001 601l557 -490c-384 -383.333 -686.667 -655.333 -908 -816l958 -955c-218.667 -288.667 -424.334 -470 -617.001 -544c-200 202 -425.667 447.333 -677 736c0 -260 22.667 -501.333 68 -724
c-384 -20.667 -692.667 4 -926 74c-1.33301 1202 5.33398 1971.5 20.001 2308.5s23.667 547.5 27 631.5c307.333 62 577.666 83 810.999 63c16 -134.667 13.667 -429.667 -7 -885z" />
    <glyph glyph-name="L" unicode="L" horiz-adv-x="1818" 
d="M989 2543l-108.999 -2290c296.667 56 583.667 88.333 861 97c18 -294.667 5 -559.334 -39 -794.001c-418.667 -78.667 -969.334 -137.667 -1652 -177l20 1017c31.333 935.333 42 1601.67 32 1999c317.333 81.333 613 130.666 887 148z" />
    <glyph glyph-name="M" unicode="M" horiz-adv-x="3118" 
d="M2914 2418c102.667 -1508.67 150.334 -2489.33 143 -2942l-754 -123c-1.33301 164.667 -27 607.667 -77 1329c-6.66699 192.667 -13.334 309.334 -20.001 350.001c5.33301 -1.33301 8 1 8 7l-8 2c-147.333 -362.667 -359.666 -843 -636.999 -1441l-498 1535
c1.33301 45.333 -31 -129.334 -97 -524.001s-114 -759.334 -144 -1094c-265.333 -12 -525.333 22 -780 102c37.333 350 104 751.667 200 1205c89.333 410 181 957 275 1641c281.333 20 577 38.333 887 55c60 -399.333 144 -756.666 252 -1072l403 975
c234.667 16 517 14.333 847 -5z" />
    <glyph glyph-name="N" unicode="N" horiz-adv-x="2658" 
d="M2608 2516c-14 -124 -33.668 -287.332 -59.001 -489.999l-272 -2547c-163.333 -72 -365 -129.333 -605 -172c-165.333 450.667 -411.333 1006.67 -738 1668l-28 -488l-66 -927c-245.333 -68.667 -508.666 -112.334 -789.999 -131.001
c61.333 581.333 100.333 1020 117 1316c14 277.333 52.333 818.333 115 1623l728 66c135.333 -307.333 260.5 -568.833 375.5 -784.5l251.5 -461.5c41.333 294.667 86 689 134 1183c338.667 62.667 617.667 111 837 145z" />
    <glyph glyph-name="O" unicode="O" horiz-adv-x="2384" 
d="M1934 2086c158 -209.333 272.669 -454.001 344.002 -734.001c37.333 -170 54 -339.333 50 -508c-109.333 -1032.67 -602.333 -1508 -1479 -1426c-250.667 53.333 -449.334 209.333 -596.001 468c-98.667 193.333 -157.334 403.333 -176.001 630c-18 244 6 493.333 72 748
c63.333 206.667 126 364.334 188 473.001c14.667 42 69 122.333 163 241c514.667 562 992.667 598 1434 108zM794.002 530.999c52 -270.667 167.666 -408.667 346.999 -414c158 -16.667 284.667 66 380 248c104.667 232 128.667 465 72 699
c-77.333 297.333 -192.666 443.333 -345.999 438c-194 -27.333 -335 -199 -423 -515c-40.667 -162 -50.667 -314 -30 -456z" />
    <glyph glyph-name="P" unicode="P" horiz-adv-x="2096" 
d="M2042 1609c2.66699 -584 -263.333 -942 -798 -1074c-190 -40 -318.333 -65 -385 -75c-7.33301 -278.667 1.66699 -614 27 -1006c-282 -94.667 -560.667 -156 -836 -184c13.333 966.667 30.333 1757 51 2371c2 344 6.33301 541.333 13 592
c288 144.667 707.333 202 1258 172c396.667 -84.667 620 -350 670 -796zM849 1053c356.667 58 547.334 179.666 572.001 364.999c2 132 -38.333 224.333 -121 277c-152.667 76.667 -301.334 82 -446.001 16c-12 -221.333 -13.667 -440.666 -5 -657.999z" />
    <glyph glyph-name="Q" unicode="Q" horiz-adv-x="2444" 
d="M2186 1809c53.333 -112.667 89.666 -205.332 108.999 -277.999c23.333 -48.667 48.333 -166 75 -352c16 -554.667 -106 -952 -366 -1192c127.333 -192 201 -301 221 -327c-80.667 -117.333 -258.334 -239.666 -533.001 -366.999
c-37.333 85.333 -86.666 213.333 -147.999 384c-170 -98.667 -351.333 -127.667 -544 -87c-194 42 -411.333 207.667 -652 497c-170.667 262.667 -261.667 517 -273 763c-16.667 219.333 23 448.666 119 687.999l43 97c26.667 65.333 108 183.666 244 354.999
c192 207.333 371.667 332 539 374c482.667 81.333 871.334 -103.667 1166 -555zM796 772.002c33.333 -219.333 138.333 -352.667 315 -400c216 -49.333 375.667 18.667 479 204c58 131.333 75.333 311.666 52 540.999c-50.667 210 -137 340.667 -259 392
c-263.333 65.333 -445.333 -43 -546 -325c-41.333 -145.333 -55 -282.666 -41 -411.999z" />
    <glyph glyph-name="R" unicode="R" horiz-adv-x="2220" 
d="M1161 2435c194 -3.33301 371.334 -51.668 532.001 -145.001c167.333 -98 275.666 -214 324.999 -348c101.333 -406.667 -101 -800 -607 -1180c278 -350 529 -626.667 753 -830l-654 -619l-621 989c-2 -354.667 -7.66699 -683 -17 -985
c-334 62.667 -608 145.334 -822 248.001c24.667 346.667 55 1188.67 91 2526c307.333 216.667 647.333 331.334 1020 344zM873.001 1528c-4.66699 -106.667 -3.33105 -255.668 4.00195 -447.001l90 48c207.333 134.667 310.666 256.667 309.999 366
c-2 90.667 -45 135.334 -129 134.001c-56.667 4 -148.334 -29.667 -275.001 -101z" />
    <glyph glyph-name="S" unicode="S" horiz-adv-x="2276" 
d="M2189 2362c-3.33301 -158 -48.001 -391.331 -134.001 -699.998c-168.667 38 -354.667 57 -558 57c-236 -4.66699 -409.333 -45 -520 -121c-142.667 -100 -207 -204.333 -193 -313c43.333 -108.667 136.666 -127.334 279.999 -56.001c144 48.667 244.667 73 302 73
c46 10.667 109.667 13.334 191 8.00098c113.333 -2.66699 212.333 -22.334 297 -59.001c80.667 -30.667 149.667 -87 207 -169c45.333 -58 80.333 -137 105 -237c40 -208.667 24.667 -425.667 -46 -651c-297.333 -689.333 -940.666 -943 -1930 -761l-25 788
c96.667 -26 226.334 -54.333 389.001 -85c551.333 -10.667 832 102.666 842 339.999c-12.667 151.333 -107 195 -283 131c-164 -64.667 -275.667 -102.667 -335 -114c-123.333 -11.333 -220 -7.5 -290 11.5s-150 66.833 -240 143.5c-24 18 -49 51 -75 99
c-43.333 61.333 -73.333 143 -90 245c-22 604 231.667 1034.33 761 1291c396.667 172.667 845 199 1345 79z" />
    <glyph glyph-name="T" unicode="T" horiz-adv-x="2280" 
d="M2216 2415c9.33301 -268.667 -9.33398 -523.666 -56 -764.999c-242.667 -1.33301 -465 -14.333 -667 -39c-24.667 -496 -33 -1212.67 -25 -2150c-247.333 -35.333 -491.666 -56 -732.999 -62l54 2185c-208 -8 -440 -31.333 -696 -70
c-28.667 171.333 -34.334 446.666 -17.001 825.999c710 3.33301 1423.33 28.333 2140 75z" />
    <glyph glyph-name="U" unicode="U" horiz-adv-x="2342" 
d="M1031 2400c-25.333 -122.667 -65.5029 -400.498 -120.503 -833.498s-54.5 -735.5 1.5 -907.5c40 -94 97.667 -137.667 173 -131c116.667 19.333 197.334 92 242.001 218c72.667 351.333 91.667 849.333 57 1494c65.333 64.667 261.333 150.667 588 258
c62 16.667 111 25 147 25c115.333 -618 157.333 -1140 126 -1566c-5.33301 -272.667 -103 -586.334 -293 -941.001c-42 -73.333 -99.333 -151 -172 -233c-117.333 -132.667 -231.666 -226.334 -342.999 -281.001c-186 -98.667 -371 -136 -555 -112
c-97.333 15.333 -192.666 57.333 -285.999 126c-90.667 61.333 -177.667 168 -261 320c-81.333 142.667 -149.333 339.334 -204 590.001c-39.333 158 -61 338 -65 540c-10.667 100 3 317 41 651c53.333 319.333 107.333 531.666 162 636.999c234 62.667 488 111.334 762 146
z" />
    <glyph glyph-name="V" unicode="V" horiz-adv-x="2550" 
d="M903 2405c-15.333 -108.667 -0.999023 -441.997 43.001 -999.997c10 -130.667 26.667 -278.667 50 -444l58 -309c238.667 567.333 443.667 1111 615 1631l831 -240l-324 -739c-339.333 -798.667 -553.333 -1321.33 -642 -1568l-115 -286l-209 -19
c-268 -28.667 -482.333 -33.334 -643 -14.001c-80.667 230.667 -154.334 495 -221.001 793c-16.667 37.333 -69 317.666 -157 840.999c-36.667 158 -83 573.333 -139 1246c178 51.333 462.333 87.333 853 108z" />
    <glyph glyph-name="W" unicode="W" horiz-adv-x="3088" 
d="M3038 2433c-280 -1158.67 -547.002 -2151.33 -801.002 -2978c-209.333 -48.667 -426.666 -82.667 -651.999 -102c-93.333 438 -181.666 888.667 -264.999 1352c-70.667 -290 -165.667 -705.333 -285 -1246c-192.667 -54.667 -437.667 -94 -735 -118
c-72.667 931.333 -156 1910 -250 2936c154.667 58.667 386.667 109 696 151c6 -241.333 30 -637.333 72 -1188c88.667 208.667 170.667 427 246 655c280 78.667 517.667 129 713 151l187 -992l8 -2c118 552 219 992.667 303 1322c228.667 45.333 483 65 763 59z" />
    <glyph glyph-name="X" unicode="X" horiz-adv-x="2673" 
d="M799 2457l575.998 -890.001c197.333 260.667 423 530.667 677 810.001c236 -214 426.333 -412.667 571 -596c-350 -397.333 -620.333 -685.333 -811 -864c232 -347.333 442 -644 630 -890c-201.333 -236.667 -413 -448.334 -635 -635.001
c-223.333 372.667 -401.333 659.334 -534 860.001c-259.333 -322.667 -473.666 -606 -642.999 -850c-177.333 150.667 -370.666 354.667 -579.999 612c240 332 499.333 651 778 957c-210 320 -432.667 629.333 -668 928c171.333 240 384.333 426 639 558z" />
    <glyph glyph-name="Y" unicode="Y" horiz-adv-x="2688" 
d="M698 2411c231.333 -290 457.667 -534.668 679 -734.001c161.333 202.667 347.666 462.334 558.999 779.001c290.667 -191.333 524.667 -381.666 702 -570.999c-365.333 -556.667 -1025 -1416 -1979 -2578c-211.333 122 -414.333 292 -609 510
c312 438 454.333 635 427 591s127.334 171.667 464.001 647c-164.667 137.333 -443.667 417.666 -837 840.999z" />
    <glyph glyph-name="Z" unicode="Z" horiz-adv-x="2705" 
d="M2651 2372c2.66699 -333.333 -6.33496 -592.999 -27.002 -778.999c-484.667 -584.667 -840 -967.667 -1066 -1149c408 25.333 772.667 28.666 1094 9.99902c-15.333 -378 -57 -692.667 -125 -944c-762.667 24 -1583.67 1.66699 -2463 -67
c-9.33301 273.333 -9.66602 601.333 -0.999023 984c480.667 352 908.334 710.333 1283 1075c-622.667 -26 -1050.67 -32 -1284 -18c1.33301 306 20.333 594.333 57 865c848.667 22 1692.67 29.667 2532 23z" />
    <glyph glyph-name="backslash" unicode="\" horiz-adv-x="1905" 
d="M880 2553c453.333 -1385.33 778.333 -2410.67 975 -3076c-3.33301 -3.33301 -4 -8.66602 -2 -15.999c-232 -118.667 -458.667 -187 -680 -205l-1123 3053c227.333 138 504 219.333 830 244z" />
    <glyph glyph-name="underscore" unicode="_" horiz-adv-x="2449" 
d="M2362 -420c-1050.67 29.333 -1796.67 53.334 -2238 72.001c-49.333 169.333 -68 354.666 -56 555.999c4.66699 0.666992 7.66699 2.66699 9 6c474.667 20 1212 34.667 2212 44c73.333 -248 97.666 -474 73 -678z" />
    <glyph glyph-name="degree" unicode="&#xb0;" horiz-adv-x="1248" 
d="M997 2584c79.333 -79.333 137.002 -171.999 173.002 -277.999c18.667 -64 27 -128 25 -192c-54.667 -390.667 -302.334 -570.334 -743.001 -539.001c-126 20 -226 79 -300 177c-49.333 72.667 -78.666 152 -87.999 238c-9.33301 92.667 2.66699 187 36 283
c32 78 63.333 137.667 94 179c7.33301 15.333 34.666 45.666 81.999 91c259.333 212 499.666 225.667 720.999 41zM449.002 2030c22 -66.667 71 -100.665 147 -101.998c67.333 -4.66699 121.333 15.666 162 60.999c44 57.333 54.333 114.666 31 171.999
c-33.333 73.333 -82.333 109.333 -147 108c-82 -6 -141.667 -48.333 -179 -127c-17.333 -40 -22 -77.333 -14 -112z" />
    <glyph glyph-name="Euro" unicode="&#x20ac;" horiz-adv-x="2776" 
d="M2655 2346l-4 -461c-893.333 60.667 -1358.33 -298 -1395 -1076c112 -749.333 588.333 -1049 1429 -899l41 -377c-104.667 -92.667 -252 -156 -442 -190c-323.333 -69.333 -671.666 -41.333 -1045 84c-492.667 269.333 -781 679.333 -865 1230
c-36.667 351.333 17.333 690.333 162 1017c68 150 168.667 294.667 302 434c173.333 176.667 373 306.667 599 390c429.333 130 835.333 79.333 1218 -152zM2498 1456c-79.333 -166 -126.666 -336 -142 -510c-758 -22 -1464.67 -45 -2120 -69l-149 548zM2461 817
c-79.333 -175.333 -126.666 -349.667 -142 -523c-758 -22 -1464.67 -45.333 -2120 -70l-149 549c780 10 1583.67 24.667 2411 44z" />
    <glyph glyph-name="NULL" horiz-adv-x="0" 
 />
    <glyph glyph-name="nonmarkingreturn" horiz-adv-x="550" 
 />
    </font>
</defs>
</svg>
